Are you the publisher? Claim or contact us about this channel


Embed this content in your HTML

Search

Report adult content:

click to rate:

Account: (login)

More Channels


Channel Catalog


Channel Description:

Asia Torrents RSS Feed

older | 1 | .... | 1120 | 1121 | (Page 1122) | 1123 | 1124 | .... | 1405 | newer

    0 0

    Original Post: Aibou 09E01.E02 (Eng hardsub)



       Title: Partners (Aibou)
       AKA: Aibou - Tokumei Gakari
       Japanese:  相棒シーズン
       Director: Seiji Izumi
       Network: TV Asahi
       Episodes: S09E01,S09E02
       Release Date: October 20, 2010, October 27, 2010  
       Country: Japan
       Language: Japanese
       Subtitles: English (Hard)

    Plot

    Tokumei Gakari (Special Mission Task Team) – is not considered as important as it might sound. It is positioned in the lowest section of the Metropolitan Police Department and so-called as the “oversized garbage dealer”. Ukyo Sugishita is the head of this Tokumei Gakari. In these episodes, he and his partner Takeru Kanbe solve the case ot three
    murders involving violence, secrecies and greed.

    Cast

    Yutaka Mizutani as Ukyo Sugishita
    Mitsuhiro Oikawa as Takeru Kanbe
    Saya Takagi as Tamaki Miyabe
    Kazuhisa Kawahara as Kenichi Itami
    Ryosuke Otani as Shinsuke Miura
    Takashi Yamanaka as Keiji Serizawa
    Seiji Rokkaku as Mamoru Yonezawa
    Atsushi Yamanishi as Rokuro Kakuta
    Ryo Ono as Teruo Nakazono
    Ryuji Katagiri as Kanji Uchimura

    Episodes

    1 The no-face man - pt 1
    2 The no-face man - pt 2

    Format                                   : AVI
    Format/Info                              : Audio Video Interleave
    File size                                : 741 MiB
    Duration                                 : 44mn 14s
    Overall bit rate                         : 2 342 Kbps
    Writing application                      : MEncoder SVN-r33883(20110719-gcc4.5.2)
    Writing library                          : MPlayer

    Video
    ID                                       : 0
    Format                                   : MPEG-4 Visual
    Format profile                           : Advanced Simple@L5
    Format settings, BVOP                    : 2
    Format settings, QPel                    : No
    Format settings, GMC                     : No warppoints
    Format settings, Matrix                  : Default (H.263)
    Codec ID                                 : XVID
    Codec ID/Hint                            : XviD
    Duration                                 : 44mn 14s
    Bit rate                                 : 2 201 Kbps
    Width                                    : 720 pixels
    Height                                   : 480 pixels
    Display aspect ratio                     : 16:9
    Frame rate                               : 29.970 fps
    Standard                                 : NTSC
    Color space                              : YUV
    Chroma subsampling                       : 4:2:0
    Bit depth                                : 8 bits
    Scan type                                : Progressive
    Compression mode                         : Lossy
    Bits/(Pixel*Frame)                       : 0.212
    Stream size                              : 696 MiB (94%)
    Writing library                          : XviD 1.2.1 (UTC 2008-12-04)

    Audio
    ID                                       : 1
    Format                                   : MPEG Audio
    Format version                           : Version 1
    Format profile                           : Layer 3
    Mode                                     : Joint stereo
    Mode extension                           : MS Stereo
    Codec ID                                 : 55
    Codec ID/Hint                            : MP3
    Duration                                 : 44mn 14s
    Bit rate mode                            : Constant
    Bit rate                                 : 128 Kbps
    Channel(s)                               : 2 channels
    Sampling rate                            : 44.1 KHz
    Compression mode                         : Lossy
    Delay relative to video                  : 33ms
    Stream size                              : 40.5 MiB (5%)
    Alignment                                : Aligned on interleaves
    Interleave, duration                     : 26 ms (0.78 video frame)
    Interleave, preload duration             : 522 ms
    Writing library                          : LAME3.98.4

    Source...............: Internet (Thanks to XrayMind - d-addicts)





    0 0

    Original Post: It's Okay It's Love E15 450p LIMO


    Details

    Title: 괜찮아, 사랑이야 / Gwaenchanhah, Sarangiya
    Also known as: It's Okay, That's Love / It's Alright, It's Love
    Genre: Romance
    Episodes: 16
    Broadcast network: SBS
    Broadcast period: 2014-Jul-23 to 2014-???-??
    Air time: Wednesday & Thursday 21:55
    Original Soundtrack: It's Okay, It's Love OST

    Synopsis

    Jang Jae Yul (Jo In Sung) is a mystery writer and radio DJ. He suffers from a obsession. He then meets a psychiatrist named Ji Hae Soo. Ji Hae Soo (Gong Hyo Jin) is going through her first year fellowship in psychiatry at a University Hospital. She chose psychiatry because she doesn't want to perform surgeries. After she meets Jang Jae Yul, her life goes through big changes. They end up becoming home-mates and things turn romantic.

    Main Cast - Home-mates
    Jo In Sung as Jang Jae Yul
    Gong Hyo Jin as Ji Hae Soo
    Sung Dong Il as Jo Dong Min
    Lee Kwang Soo as Park Soo Kwang





    Code
    Video
    ID                                       : 0
    Format                                   : AVC
    Format/Info                              : Advanced Video Codec
    Format profile                           : High@L5.1
    Format settings, CABAC                   : Yes
    Format settings, ReFrames                : 4 frames
    Codec ID                                 : H264
    Bit rate                                 : 1 500 Kbps
    Width                                    : 800 pixels
    Height                                   : 450 pixels
    Display aspect ratio                     : 16:9
    Frame rate mode                          : Variable
    Frame rate                               : 29.970 fps
    Color space                              : YUV
    Chroma subsampling                       : 4:2:0
    Bit depth                                : 8 bits
    Scan type                                : Progressive
    Bits/(Pixel*Frame)                       : 0.139
    Stream size                              : 686 MiB (88%)
    Writing library                          : x264 core 112

    Audio
    ID                                       : 1
    Format                                   : MPEG Audio
    Format version                           : Version 1
    Format profile                           : Layer 3
    Mode                                     : Joint stereo
    Mode extension                           : MS Stereo
    Codec ID                                 : 55
    Codec ID/Hint                            : MP3
    Bit rate mode                            : Constant
    Bit rate                                 : 192 Kbps
    Channel(s)                               : 2 channels
    Sampling rate                            : 48.0 KHz
    Compression mode                         : Lossy
    Stream size                              : 88.3 MiB (11%)
    Alignment                                : Aligned on interleaves
    Interleave, duration                     : 24 ms (0.72 video frame)
    Writing library                          : LAME3.98.2
    Language                                 : Korean



    0 0
  • 09/10/14--08:06: Blade Man E01 720p LIMO
  • Original Post: Blade Man E01 720p LIMO


    Details

    Title: 아이언맨 / Aieonmaen
    Also known as: Iron Man
    Genre: Romance, fantasy, melodrama
    Episodes: 20
    Broadcast network: KBS2
    Broadcast period: 2014-Sep-10 to 2014-Nov-??
    Air time: Wednesday & Thursday 22:00
    Original Soundtrack: Blade Man OST
    Subtitles by DramaFever will be added later

    Synopsis

    Joo Hong Bin, the CEO of a game company, has got everything. He is capable, rich and even good-looking! However, this perfect guy lacks in one thing. He is so ill-tempered! The worst guy on the planet! One day, this supercilious guy turns into a monster. When it rains, he becomes furious and some blades are coming out from his body. Moreover, Se Dong, a woman with a bright personality and Chang, his first love's son appear making him confused...
    This drama is about a love story between a man whose anger and pain become swords that shoot out from his body and a warm hearted woman who overly cares about others. She slowly heals his painful heart and turns him into a real grown man.
    Source: KBS World

    Main Cast
    Lee Dong Wook as Joo Hong Bin (36)
    Shin Se Kyung as Son Se Dong (29)
    Kim Gab Soo as Joo Jang Won (60s)
    Han Eun Jung as Kim Tae Hee (38)





    Code
    Video
    ID                               : 0
    Format                           : AVC
    Format/Info                      : Advanced Video Codec
    Format profile                   : High@L5.1
    Format settings, CABAC           : Yes
    Format settings, ReFrames        : 4 frames
    Codec ID                         : H264
    Duration                         : 1h 4mn
    Bit rate                         : 3 000 Kbps
    Width                            : 1 280 pixels
    Height                           : 720 pixels
    Display aspect ratio             : 16:9
    Frame rate mode                  : Variable
    Frame rate                       : 29.970 fps
    Color space                      : YUV
    Chroma subsampling               : 4:2:0
    Bit depth                        : 8 bits
    Scan type                        : Progressive
    Bits/(Pixel*Frame)               : 0.109
    Stream size                      : 1.35 GiB (94%)
    Writing library                  : x264 core 112
    Encoding settings                : cabac=1 / ref=3 / deblock=1:-1:-1 / analyse=0x3:0x113 / me=hex / subme=6 / psy=1 / psy_rd=1.00:1.00 / mixed_ref=1 / me_range=16 / chroma_me=1 / trellis=1 / 8x8dct=1 / cqm=0 / deadzone=21,11 / fast_pskip=0 / chroma_qp_offset=-4 / threads=12 / sliced_threads=0 / nr=0 / decimate=1 / interlaced=0 / constrained_intra=0 / bframes=3 / b_pyramid=2 / b_adapt=1 / b_bias=1 / direct=3 / weightb=1 / open_gop=0 / weightp=2 / keyint=299 / keyint_min=25 / scenecut=1 / intra_refresh=0 / rc_lookahead=40 / rc=abr / mbtree=1 / bitrate=3000 / ratetol=1.0 / qcomp=0.60 / qpmin=10 / qpmax=51 / qpstep=4 / ip_ratio=1.40 / aq=1:1.00

    Audio
    ID                               : 1
    Format                           : MPEG Audio
    Format version                   : Version 1
    Format profile                   : Layer 3
    Mode                             : Joint stereo
    Mode extension                   : MS Stereo
    Codec ID                         : 55
    Codec ID/Hint                    : MP3
    Duration                         : 1h 4mn
    Bit rate mode                    : Constant
    Bit rate                         : 192 Kbps
    Channel(s)                       : 2 channels
    Sampling rate                    : 48.0 KHz
    Stream size                      : 88.0 MiB (6%)
    Alignment                        : Split accross interleaves
    Interleave, duration             : 33 ms (1.00 video frame)
    Interleave, preload duration     : 500 ms
    Writing library                  : LAME3.98.2



    0 0

    Original Post: The Terrorists by Thunska Pansittivorakul (2011)




    Directed: Thunska Pansittivorakul
    Genre: independent film
    Runtime: 104 min
    Country: Thailand
    Language: Thai
    Subtitles: English softsub


    Plot / Synopsis:
    By inhabiting the lives of laymen from different parts of Thailand, the movie brings us through blurry trails, distorted memories and recently constructed histories. We unearth missing pieces of the puzzle in our attempt to understand why Thai democracy is still considered backwards and frozen. Are we deceiving ourselves that we are in a democratic society when we are not? The movie begins on a fishing boat, as we observe two boys conversing in an indecipherable tongue. It moves on to contemplate the light penetrating the sea and observe small lives swimming under the surface overlapped with a human body victimized by an unseen person. Beneath the darkness of a rubber farm, only faint light from the lamps illuminates the way. The truth from our present is superimposed with the blood-thirst from the past. The past is erased from the page of Thai history, and what is left is only the accusation that they are the terrorists.
    This is an angry protest in the form of a diary, where sexual resistance and erotic fantasies are juxtaposed with thoughtful rummaging through the director’s family album, creating a confusing pamphlet. As a young boy in the 1970s, Thunska was already forced to flee Bangkok for the south with his mother. The film poses questions without knowing the answers, providing an unusual insight into an extremely traumatized society.







    Technical Specs:
    Source: Internet
    Video Format: Matroska
    Video Bitrate: 2096 Kbps
    Frame Rate: 25.000 fps
    Resolution: 720 x 576
    Bits/(Pixel*Frame): 0.183
    Audio Format: AC-3
    Sampling rate: 48.0 Hz




    0 0
  • 09/10/14--08:17: My Spring Days E01 720p LIMO
  • Original Post: My Spring Days E01 720p LIMO


    Details

    Title: 내 생애 봄날 / Nae Saengae Bomnal
    Also known as: Springtime of My Life / My Spring Days
    Genre: Melodrama, romance, human, family
    Episodes: 16
    Broadcast network: MBC
    Broadcast period: 2014-Sep-10 to 2014-Oct-30
    Air time: Wednesday & Thursday 22:00
    Original Soundtrack: The Spring Day of My Life OST
    Subtitles will be added later

    Synopsis

    After Lee Bom Yi undergoes a live-saving heart transplant, she decides to live her life to the fullest in honor of the person whose heart she received. Kang Dong Ha is a lonely cattle farmer, having lost his life in a horrible accident. With two children to raise on his own, he misses his wife everyday. When Bom Yi and Dong Ha's paths happen to cross, what will they discover about themselves?

    Main Cast
    Kam Woo Sung as Kang Dong Ha (45)
    Choi Soo Young as Lee Bom Yi (27)
    Lee Joon Hyuk as Kang Dong Wook (35)
    Jang Shin Young as Bae Ji Won (32)




    Code
    Video
    ID                               : 0
    Format                           : AVC
    Format/Info                      : Advanced Video Codec
    Format profile                   : High@L5.1
    Format settings, CABAC           : Yes
    Format settings, ReFrames        : 4 frames
    Codec ID                         : H264
    Duration                         : 1h 4mn
    Bit rate                         : 3 000 Kbps
    Width                            : 1 280 pixels
    Height                           : 720 pixels
    Display aspect ratio             : 16:9
    Frame rate mode                  : Variable
    Frame rate                       : 29.970 fps
    Color space                      : YUV
    Chroma subsampling               : 4:2:0
    Bit depth                        : 8 bits
    Scan type                        : Progressive
    Bits/(Pixel*Frame)               : 0.109
    Stream size                      : 1.35 GiB (94%)
    Writing library                  : x264 core 112
    Encoding settings                : cabac=1 / ref=3 / deblock=1:-1:-1 / analyse=0x3:0x113 / me=hex / subme=6 / psy=1 / psy_rd=1.00:1.00 / mixed_ref=1 / me_range=16 / chroma_me=1 / trellis=1 / 8x8dct=1 / cqm=0 / deadzone=21,11 / fast_pskip=0 / chroma_qp_offset=-4 / threads=12 / sliced_threads=0 / nr=0 / decimate=1 / interlaced=0 / constrained_intra=0 / bframes=3 / b_pyramid=2 / b_adapt=1 / b_bias=1 / direct=3 / weightb=1 / open_gop=0 / weightp=2 / keyint=299 / keyint_min=25 / scenecut=1 / intra_refresh=0 / rc_lookahead=40 / rc=abr / mbtree=1 / bitrate=3000 / ratetol=1.0 / qcomp=0.60 / qpmin=10 / qpmax=51 / qpstep=4 / ip_ratio=1.40 / aq=1:1.00

    Audio
    ID                               : 1
    Format                           : MPEG Audio
    Format version                   : Version 1
    Format profile                   : Layer 3
    Mode                             : Joint stereo
    Mode extension                   : MS Stereo
    Codec ID                         : 55
    Codec ID/Hint                    : MP3
    Duration                         : 1h 4mn
    Bit rate mode                    : Constant
    Bit rate                         : 192 Kbps
    Channel(s)                       : 2 channels
    Sampling rate                    : 48.0 KHz
    Stream size                      : 88.0 MiB (6%)
    Alignment                        : Split accross interleaves
    Interleave, duration             : 33 ms (1.00 video frame)
    Interleave, preload duration     : 500 ms
    Writing library                  : LAME3.98.2



    0 0

    Original Post: It's Okay It's Love E15 720p LIMO


    Details

    Title: 괜찮아, 사랑이야 / Gwaenchanhah, Sarangiya
    Also known as: It's Okay, That's Love / It's Alright, It's Love
    Genre: Romance
    Episodes: 16
    Broadcast network: SBS
    Broadcast period: 2014-Jul-23 to 2014-???-??
    Air time: Wednesday & Thursday 21:55
    Original Soundtrack: It's Okay, It's Love OST

    Synopsis

    Jang Jae Yul (Jo In Sung) is a mystery writer and radio DJ. He suffers from a obsession. He then meets a psychiatrist named Ji Hae Soo. Ji Hae Soo (Gong Hyo Jin) is going through her first year fellowship in psychiatry at a University Hospital. She chose psychiatry because she doesn't want to perform surgeries. After she meets Jang Jae Yul, her life goes through big changes. They end up becoming home-mates and things turn romantic.

    Main Cast - Home-mates
    Jo In Sung as Jang Jae Yul
    Gong Hyo Jin as Ji Hae Soo
    Sung Dong Il as Jo Dong Min
    Lee Kwang Soo as Park Soo Kwang





    Code
    Video
    ID                               : 0
    Format                           : AVC
    Format/Info                      : Advanced Video Codec
    Format profile                   : High@L5.1
    Format settings, CABAC           : Yes
    Format settings, ReFrames        : 4 frames
    Codec ID                         : H264
    Duration                         : 1h 4mn
    Bit rate                         : 3 000 Kbps
    Width                            : 1 280 pixels
    Height                           : 720 pixels
    Display aspect ratio             : 16:9
    Frame rate mode                  : Variable
    Frame rate                       : 29.970 fps
    Color space                      : YUV
    Chroma subsampling               : 4:2:0
    Bit depth                        : 8 bits
    Scan type                        : Progressive
    Bits/(Pixel*Frame)               : 0.109
    Stream size                      : 1.35 GiB (94%)
    Writing library                  : x264 core 112
    Encoding settings                : cabac=1 / ref=3 / deblock=1:-1:-1 / analyse=0x3:0x113 / me=hex / subme=6 / psy=1 / psy_rd=1.00:1.00 / mixed_ref=1 / me_range=16 / chroma_me=1 / trellis=1 / 8x8dct=1 / cqm=0 / deadzone=21,11 / fast_pskip=0 / chroma_qp_offset=-4 / threads=12 / sliced_threads=0 / nr=0 / decimate=1 / interlaced=0 / constrained_intra=0 / bframes=3 / b_pyramid=2 / b_adapt=1 / b_bias=1 / direct=3 / weightb=1 / open_gop=0 / weightp=2 / keyint=299 / keyint_min=25 / scenecut=1 / intra_refresh=0 / rc_lookahead=40 / rc=abr / mbtree=1 / bitrate=3000 / ratetol=1.0 / qcomp=0.60 / qpmin=10 / qpmax=51 / qpstep=4 / ip_ratio=1.40 / aq=1:1.00

    Audio
    ID                               : 1
    Format                           : MPEG Audio
    Format version                   : Version 1
    Format profile                   : Layer 3
    Mode                             : Joint stereo
    Mode extension                   : MS Stereo
    Codec ID                         : 55
    Codec ID/Hint                    : MP3
    Duration                         : 1h 4mn
    Bit rate mode                    : Constant
    Bit rate                         : 192 Kbps
    Channel(s)                       : 2 channels
    Sampling rate                    : 48.0 KHz
    Stream size                      : 88.0 MiB (6%)
    Alignment                        : Split accross interleaves
    Interleave, duration             : 33 ms (1.00 video frame)
    Interleave, preload duration     : 500 ms
    Writing library                  : LAME3.98.2



    0 0

    Original Post: Aibou.The.Movie.2008.DVDrip.XviD.AC3-Zoom


    Aibou The Movie
    Directed by Seiji Izumi
    Distributed by Toei Company
    Release dates May 1, 2008
    Running time 117 minutes
    Language Japanese
    Subtitles Chinese/English (idx/sub)

    Cast
    Yutaka Mizutani
    Yasufumi Terawaki
    Sawa Suzuki
    Saya Takagi
    Kazuhisa Kawahara
    Ryōsuke Ōtani
    Takashi Yamanaka
    Atsushi Yamanishi
    Seiji Rokkaku
    Ryūji Katagiri
    Ryō Ono
    Satoshi Jinbo
    Ittoku Kishibe
    Yuika Motokariya
    Yoshino Kimura
    Masahiko Nishimura
    Masahiko Tsugawa
    Toshiyuki Nishida

    Synopsis / Plot
    A movie based on a hit Japanese tv series, which is currently dominating the japanese box office.
    Aibo is about a gifted, former elite detective who was disliked by the upper levels of the police organization (he is too smart) and given a position with no active work to do. He is teamed by a friendly and athletic but a little clumsy detective, and together they solve all kinds of difficult crimes. Aibo gekijo-ban was made with the same cast and staff of the TV version, and with some big name guest stars







    Code
    Video
    ID                             : 0
    Format                         : MPEG-4 Visual
    Format profile                 : Advanced Simple@L5
    Format settings, BVOP          : Yes
    Format settings, QPel          : No
    Format settings, GMC           : No warppoints
    Format settings, Matrix        : Default (H.263)
    Codec ID                       : XVID
    Codec ID/Hint                  : XviD
    Duration                       : 1h 57mn
    Bit rate                       : 1 274 Kbps
    Width                          : 800 pixels
    Height                         : 432 pixels
    Display aspect ratio           : 1.85:1
    Frame rate                     : 23.976 fps
    Color space                    : YUV
    Chroma subsampling             : 4:2:0
    Bit depth                      : 8 bits
    Scan type                      : Progressive
    Compression mode               : Lossy
    Bits/(Pixel*Frame)             : 0.154
    Stream size                    : 1.05 GiB (76%)
    Writing library                : XviD 1.1.2 (UTC 2006-11-01)

    Audio
    ID                             : 1
    Format                         : AC-3
    Format/Info                    : Audio Coding 3
    Mode extension                 : CM (complete main)
    Format settings, Endianness    : Big
    Codec ID                       : 2000
    Duration                       : 1h 57mn
    Bit rate mode                  : Constant
    Bit rate                       : 384 Kbps
    Channel(s)                     : 6 channels
    Channel positions              : Front: L C R, Side: L R, LFE
    Sampling rate                  : 48.0 KHz
    Bit depth                      : 16 bits
    Compression mode               : Lossy
    Stream size                    : 323 MiB (23%)
    Alignment                      : Split accross interleaves
    Interleave, duration           : 42 ms (1.00 video frame)
    Interleave, preload duration   : 500 ms




    0 0

    Original Post: Tokumei Tantei 2 (2014) 480p Complete Series



    http://wiki.d-addicts.com/Tokumei_Tantei#Season_2
    http://asianwiki.com/Tokumei_Tantei_2

    Title: 匿名探偵2
    Title (romaji): Tokumei Tantei 2
    Genre: Detective, Drama
    Broadcast network: TV Asahi
    Episodes: 9
    Viewership ratings: TBD
    Broadcast period: 2014-Jul-04 start
    Air Time: Fridays 23:15 to 24:15
    Theme song: Can't Stop by Edge of Life
    Subtitles: English here: nyababan
    RAWs credit to VampireXxX

    Cast
       Takahashi Katsunori as Private Detective
       Katase Nana as Saejima Kyoko
       Shiba Toshio as Barber shop owner
       Hara Mikie as Jou Kaori (Massager)
       Yamaguchi Daichi (山口大地) as Aoshima Itpei
       Tayama Ryosei as Koichi Anan
       Ishino Mako as Muraki Misato

    Synopsis
    An unnamed detective has his base in an old multi-tenant building with strip clubs at a corner of one of the streets along the Chuo train line. He is a troubleshooter who through the beautiful lawyer Saejima Kyoko receives jobs from a succession of beautiful women for the sake of money. This bourbon and jazz loving, unsentimental and tough investigator uses foul language, hates being tied down more than anything, and leads a life free of mobile phones, emails and the internet. Even though he gets cheated, covered in cuts and bruises and stomped on by authority, he never gives up and solely seeks the truth for his clients. He is extremely kind to females and because of that, he frequently gets into unnecessary trouble with women who do not pay.

    General
    Complete name                  : Tokumei Tantei Season 2 ep03 (848x480 x264).mp4
    Format                         : MPEG-4
    Format profile                 : Base Media / Version 2
    Codec ID                       : mp42
    File size                      : 376 MiB
    Duration                       : 48mn 47s
    Overall bit rate mode          : Variable
    Overall bit rate               : 1 079 Kbps

    Video
    ID                             : 1
    Format                         : AVC
    Format/Info                    : Advanced Video Codec
    Format profile                 : Main@L4.0
    Format settings, CABAC         : Yes
    Format settings, ReFrames      : 4 frames
    Codec ID                       : avc1
    Codec ID/Info                  : Advanced Video Coding
    Duration                       : 48mn 47s
    Bit rate                       : 914 Kbps
    Width                          : 848 pixels
    Height                         : 480 pixels
    Display aspect ratio           : 16:9
    Frame rate mode                : Variable
    Frame rate                     : 29.970 fps
    Minimum frame rate             : 9.990 fps
    Maximum frame rate             : 29.970 fps
    Color space                    : YUV
    Chroma subsampling             : 4:2:0
    Bit depth                      : 8 bits
    Scan type                      : Progressive
    Bits/(Pixel*Frame)             : 0.075
    Stream size                    : 319 MiB (85%)

    Audio
    ID                             : 2
    Format                         : AAC
    Format/Info                    : Advanced Audio Codec
    Format profile                 : LC
    Codec ID                       : 40
    Duration                       : 48mn 47s
    Bit rate mode                  : Variable
    Bit rate                       : 160 Kbps
    Maximum bit rate               : 300 Kbps
    Channel(s)                     : 2 channels
    Channel positions              : Front: L R
    Sampling rate                  : 48.0 KHz
    Compression mode               : Lossy





    0 0

    Original Post: Toppuu! Minipato tai - Aikyacchi Jankushon

    WARNING: Contains some nudity



    Eyecatch Junction is a 1991 original video release directed by Takashi Miike. It was the second film Miike directed after Red Hunter: Prelude to Murder, but the first to be released.

    Plot
    Four female police officers take on a dangerous yakuza gang in order to prove themselves to their male superiors.

    Availability:
    Eyecatch Junction is yet to receive a release on DVD, not even in Japan. It can sometimes be found on VHS if you dig around on Yahoo! Auctions Japan, but, needless to say, the video does not have subtitles.

    Original title    突風! ミニパト隊 アイキャッチ・ジャンクション
    Transliterated title    Toppū! Minipato tai - Aikyatchi Jankushon
    Release date    October 25, 1991
    Directed by    Takashi Miike
    Written by
       Akio Takemoto (screenplay)
       Hiro Masaki (screenplay)
    Distributed by
       Japan Home Video (JHV)

    Thanks to Winterheat @ CG for this rarity.





    Media Info
    Spoiler:show
    General
    Unique ID                                : 237543645150903750006064854272477491095 (0xB2B53DEF17839B25876393A23D47EF97)
    Complete name                            : 1991 - Eyecatch Junction (VHS Rip)Eyecatch Junction -CG.mkv
    Format                                   : Matroska
    Format version                           : Version 4 / Version 2
    File size                                : 737 MiB
    Duration                                 : 1h 32mn
    Overall bit rate                         : 1 111 Kbps
    Encoded date                             : UTC 2010-02-22 21:41:31
    Writing application                      : mkvmerge v5.9.0 ('On The Loose') built on Dec  9 2012 15:37:01
    Writing library                          : libebml v1.3.0 + libmatroska v1.4.0

    Video
    ID                                       : 1
    Format                                   : AVC
    Format/Info                              : Advanced Video Codec
    Format profile                           : High@L3.0
    Format settings, CABAC                   : Yes
    Format settings, ReFrames                : 5 frames
    Muxing mode                              : Header stripping
    Codec ID                                 : V_MPEG4/ISO/AVC
    Duration                                 : 1h 32mn
    Bit rate                                 : 705 Kbps
    Width                                    : 640 pixels
    Height                                   : 480 pixels
    Display aspect ratio                     : 4:3
    Frame rate mode                          : Constant
    Frame rate                               : 23.976 fps
    Color space                              : YUV
    Chroma subsampling                       : 4:2:0
    Bit depth                                : 8 bits
    Scan type                                : Progressive
    Bits/(Pixel*Frame)                       : 0.096
    Stream size                              : 467 MiB (63%)
    Writing library                          : x264 core 125 r2200bm 999b753
    Encoding settings                        : cabac=1 / ref=5 / deblock=1:0:0 / analyse=0x3:0x113 / me=umh / subme=8 / psy=1 / psy_rd=1.00:0.00 / mixed_ref=1 / me_range=16 / chroma_me=1 / trellis=1 / 8x8dct=1 / cqm=0 / deadzone=21,11 / fast_pskip=1 / chroma_qp_offset=-2 / threads=6 / lookahead_threads=1 / sliced_threads=0 / nr=0 / decimate=1 / interlaced=0 / bluray_compat=0 / constrained_intra=0 / bframes=3 / b_pyramid=2 / b_adapt=2 / b_bias=0 / direct=3 / weightb=1 / open_gop=0 / weightp=2 / keyint=250 / keyint_min=23 / scenecut=40 / intra_refresh=0 / rc_lookahead=50 / rc=crf / mbtree=1 / crf=20.0 / qcomp=0.60 / qpmin=0 / qpmax=69 / qpstep=4 / ip_ratio=1.40 / aq=1:1.00
    Default                                  : Yes
    Forced                                   : No

    Audio
    ID                                       : 2
    Format                                   : AC-3
    Format/Info                              : Audio Coding 3
    Mode extension                           : CM (complete main)
    Format settings, Endianness              : Big
    Muxing mode                              : Header stripping
    Codec ID                                 : A_AC3
    Duration                                 : 1h 32mn
    Bit rate mode                            : Constant
    Bit rate                                 : 384 Kbps
    Channel(s)                               : 2 channels
    Channel positions                        : Front: L R
    Sampling rate                            : 48.0 KHz
    Bit depth                                : 16 bits
    Compression mode                         : Lossy
    Stream size                              : 255 MiB (35%)
    Default                                  : Yes
    Forced                                   : No


    NO SUBS


    0 0

    Original Post: Some.2004.DVDRip.x264.AC3-tocia



    Some

    a.k.a. 썸

    Genre: Action / Crime / Thriller
    Distributor: Cinema Service
    Year: 2004
    Country: South Korea
    Runtime: 1h58min
    Director: Chang Yoon-Hyun
    Language: Korean
    Subtitles:English (OCRed srt embedded), Korean (idx/sub)

    Source: R3K DVD9 Retail (wooj@ADC)

    Audio 1: AC3 DD 5.1 Korean
    Audio 2: AAC DD 2.0 Korean (Commentary track 1)
    Audio 3: AAC DD 2.0 Korean (Commentary track 2)


    Cast:
    Go Soo as Kang Seong-ju
    Song Ji-hyo as Seo Yu-jin
    Lee Dong-kyu as Min Jae-il
    Kang Shin-il as Chief Oh
    Kang Seong-jin as Officer Lee
    Jo Kyeong-hun as Officer Chu
    Jeong Myeong-jun as Chief Kim
    Park Cheol-Ho as Kwon Cheol-woo
    Kwon Min as Jong Chan
    Jo Mun-hong as Black King

    Plot:

    Code
    Get ready for some big surprises in Chang Yoon Hyun's latest action offering. After terrifying viewers with his last blockbuster Tell Me Something, Chang's latest film, starring Ko Su (My Fair Lady) and Song Ji Hyo (Wishing Stairs), is an action thriller featuring a dramatic race against time and death. After 10 billion won worth of drugs mysteriously disappear, police officer Kang Sung Joo (Ko Su) is faced with the unenviable task of tracking down the perpetrators of the clever coup. During his risky mission for justice, he stumbles into news reporter Seo Yoo Jin (Song Ji-hyo) who has the gift to foresee the future. To his shock, Kang learns that he will be murdered within 24 hours.



     


    MediaInfo
    Spoiler:show

    Code
    General
    Unique ID                                : 145598344780606843735022019758071164830 (0x6D8938A0FF3949EF89094B8420DB2F9E)
    Complete name                            : /Some.2004.DVDRip.x264.AC3-tocia.mkv
    Format                                   : Matroska
    Format version                           : Version 4 / Version 2
    File size                                : 1.92 GiB
    Duration                                 : 1h 58mn
    Overall bit rate                         : 2 312 Kbps
    Encoded date                             : UTC 2014-09-10 17:42:04
    Writing application                      : mkvmerge v6.2.0 ('Promised Land') built on Apr 28 2013 18:50:30
    Writing library                          : libebml v1.3.0 + libmatroska v1.4.0

    Video
    ID                                       : 1
    Format                                   : AVC
    Format/Info                              : Advanced Video Codec
    Format profile                           : High@L3.1
    Format settings, CABAC                   : Yes
    Format settings, ReFrames                : 16 frames
    Codec ID                                 : V_MPEG4/ISO/AVC
    Duration                                 : 1h 58mn
    Width                                    : 716 pixels
    Height                                   : 370 pixels
    Display aspect ratio                     : 2.25:1
    Original display aspect ratio            : 2.25:1
    Frame rate mode                          : Constant
    Frame rate                               : 23.976 fps
    Color space                              : YUV
    Chroma subsampling                       : 4:2:0
    Bit depth                                : 8 bits
    Scan type                                : Progressive
    Title                                    : 썸 (2004) encoded by tocia
    Writing library                          : x264 core 130 r2273 b3065e6
    Encoding settings                        : cabac=1 / ref=16 / deblock=1:-3:-3 / analyse=0x3:0x133 / me=umh / subme=10 / psy=1 / psy_rd=1.00:0.35 / mixed_ref=1 / me_range=32 / chroma_me=1 / trellis=2 / 8x8dct=1 / cqm=0 / deadzone=21,11 / fast_pskip=0 / chroma_qp_offset=-4 / threads=6 / lookahead_threads=1 / sliced_threads=0 / nr=0 / decimate=1 / interlaced=0 / bluray_compat=0 / constrained_intra=0 / bframes=9 / b_pyramid=2 / b_adapt=2 / b_bias=0 / direct=3 / weightb=1 / open_gop=0 / weightp=2 / keyint=240 / keyint_min=24 / scenecut=40 / intra_refresh=0 / rc_lookahead=60 / rc=crf / mbtree=1 / crf=17.5 / qcomp=0.60 / qpmin=0 / qpmax=69 / qpstep=4 / ip_ratio=1.40 / aq=1:1.00
    Language                                 : English
    Default                                  : Yes
    Forced                                   : No
    Color primaries                          : BT.601 NTSC
    Transfer characteristics                 : BT.709
    Matrix coefficients                      : BT.601

    Audio #1
    ID                                       : 2
    Format                                   : AC-3
    Format/Info                              : Audio Coding 3
    Mode extension                           : CM (complete main)
    Format settings, Endianness              : Big
    Codec ID                                 : A_AC3
    Duration                                 : 1h 58mn
    Bit rate mode                            : Constant
    Bit rate                                 : 448 Kbps
    Channel(s)                               : 6 channels
    Channel positions                        : Front: L C R, Side: L R, LFE
    Sampling rate                            : 48.0 KHz
    Bit depth                                : 16 bits
    Compression mode                         : Lossy
    Stream size                              : 380 MiB (19%)
    Language                                 : Korean
    Default                                  : Yes
    Forced                                   : No

    Audio #2
    ID                                       : 3
    Format                                   : AAC
    Format/Info                              : Advanced Audio Codec
    Format profile                           : LC
    Codec ID                                 : A_AAC
    Duration                                 : 1h 58mn
    Channel(s)                               : 2 channels
    Channel positions                        : Front: L R
    Sampling rate                            : 48.0 KHz
    Compression mode                         : Lossy
    Language                                 : Korean
    Default                                  : No
    Forced                                   : No

    Audio #3
    ID                                       : 4
    Format                                   : AAC
    Format/Info                              : Advanced Audio Codec
    Format profile                           : LC
    Codec ID                                 : A_AAC
    Duration                                 : 1h 58mn
    Channel(s)                               : 2 channels
    Channel positions                        : Front: L R
    Sampling rate                            : 48.0 KHz
    Compression mode                         : Lossy
    Language                                 : Korean
    Default                                  : No
    Forced                                   : No

    Text #1
    ID                                       : 5
    Format                                   : UTF-8
    Codec ID                                 : S_TEXT/UTF8
    Codec ID/Info                            : UTF-8 Plain Text
    Language                                 : English
    Default                                  : Yes
    Forced                                   : No

    Text #2
    ID                                       : 6
    Format                                   : VobSub
    Muxing mode                              : zlib
    Codec ID                                 : S_VOBSUB
    Codec ID/Info                            : The same subtitle format used on DVDs
    Language                                 : Korean
    Default                                  : No
    Forced                                   : No

    Menu
    00:00:00.000                             : en:Chapter 1
    00:05:12.854                             : en:Chapter 2
    00:11:09.085                             : en:Chapter 3
    00:18:38.575                             : en:Chapter 4
    00:25:36.076                             : en:Chapter 5
    00:31:58.875                             : en:Chapter 6
    00:38:25.469                             : en:Chapter 7
    00:42:03.479                             : en:Chapter 8
    00:46:40.005                             : en:Chapter 9
    00:59:16.928                             : en:Chapter 10
    01:08:48.415                             : en:Chapter 11
    01:14:22.416                             : en:Chapter 12
    01:21:22.168                             : en:Chapter 13
    01:29:54.013                             : en:Chapter 14
    01:38:34.199                             : en:Chapter 15
    01:45:24.651                             : en:Chapter 16
    01:51:38.566                             : en:Chapter 17
    01:55:26.336                             : en:Chapter 18


    Video bitrate: 1675.46 kbps

    Screenshots:











    0 0

    Original Post: Redi hantaa: Koroshi no pureryuudo (1991)



    Red Hunter: Prelude to Murder is a 1991 original video release directed by Takashi Miike. It was the first film Miike directed, but the second released after Eyecatch Junction.

    Plot
    24-year-old Saeko is a former U.S. military commando who must utilize all her skills to take down a ruthless mercenary force.

    Original title    レディハンター 殺しのプレュード  
    Transliterated title    Redi Hantaa: Koroshi no Pureryuudo
    Release date    December 21, 1991
    Directed by    Takashi Miike
    Written by
       Tatsuo Eguchi (screenplay)
       Shinjiro Ishihama (original story)
    Distributed by
       Shochiku

    Thanks to Winterheat @ CG for this rarity.





    Spoiler:show
    General
    Unique ID                                : 200738220668790818085522550932209376177 (0x9704C66781FF3AC9927E961508D79BB1)
    Complete name                            : D:Under Construction1991 - Red Hunter - Prelude To Murder (VHS Rip)Lady Hunter - Prelude to Murder -CG.mkv
    Format                                   : Matroska
    Format version                           : Version 4 / Version 2
    File size                                : 727 MiB
    Duration                                 : 1h 19mn
    Overall bit rate                         : 1 284 Kbps
    Encoded date                             : UTC 2010-02-22 21:41:31
    Writing application                      : mkvmerge v5.9.0 ('On The Loose') built on Dec  9 2012 15:37:01
    Writing library                          : libebml v1.3.0 + libmatroska v1.4.0

    Video
    ID                                       : 1
    Format                                   : AVC
    Format/Info                              : Advanced Video Codec
    Format profile                           : High@L3.0
    Format settings, CABAC                   : Yes
    Format settings, ReFrames                : 4 frames
    Muxing mode                              : Header stripping
    Codec ID                                 : V_MPEG4/ISO/AVC
    Duration                                 : 1h 19mn
    Bit rate                                 : 875 Kbps
    Width                                    : 624 pixels
    Height                                   : 464 pixels
    Display aspect ratio                     : 4:3
    Frame rate mode                          : Constant
    Frame rate                               : 23.976 fps
    Color space                              : YUV
    Chroma subsampling                       : 4:2:0
    Bit depth                                : 8 bits
    Scan type                                : Progressive
    Bits/(Pixel*Frame)                       : 0.126
    Stream size                              : 495 MiB (68%)
    Writing library                          : x264 core 125 r2200bm 999b753
    Encoding settings                        : cabac=1 / ref=2 / deblock=1:0:0 / analyse=0x3:0x113 / me=hex / subme=6 / psy=1 / psy_rd=1.00:0.00 / mixed_ref=1 / me_range=16 / chroma_me=1 / trellis=1 / 8x8dct=1 / cqm=0 / deadzone=21,11 / fast_pskip=1 / chroma_qp_offset=-2 / threads=6 / lookahead_threads=1 / sliced_threads=0 / nr=0 / decimate=1 / interlaced=0 / bluray_compat=0 / constrained_intra=0 / bframes=3 / b_pyramid=2 / b_adapt=1 / b_bias=0 / direct=1 / weightb=1 / open_gop=0 / weightp=1 / keyint=250 / keyint_min=23 / scenecut=40 / intra_refresh=0 / rc_lookahead=30 / rc=crf / mbtree=1 / crf=20.0 / qcomp=0.60 / qpmin=0 / qpmax=69 / qpstep=4 / ip_ratio=1.40 / aq=1:1.00
    Default                                  : Yes
    Forced                                   : No

    Audio
    ID                                       : 2
    Format                                   : AC-3
    Format/Info                              : Audio Coding 3
    Mode extension                           : CM (complete main)
    Format settings, Endianness              : Big
    Muxing mode                              : Header stripping
    Codec ID                                 : A_AC3
    Duration                                 : 1h 19mn
    Bit rate mode                            : Constant
    Bit rate                                 : 384 Kbps
    Channel(s)                               : 2 channels
    Channel positions                        : Front: L R
    Sampling rate                            : 48.0 KHz
    Bit depth                                : 16 bits
    Compression mode                         : Lossy
    Stream size                              : 217 MiB (30%)
    Default                                  : Yes
    Forced                                   : No


    NO SUBS


    0 0

    Original Post: Boris - Noise (2014) + Bonus Tracks

    BORIS - "NOISE" (2014)
    + INTERNATIONAL PRE-ORDER BONUS TRACKS & JAPAN RELEASE BONUS TRACKS



    Boris
    Vocals/Bass/Guitar: Takeshi
    Drums/Vocals: Atsuo
    Guitar/Vocals/Keyboard: Wata


    Released: 18 June 2014
    Recorded: 2013
    Label: Tearbridge Records, Sargent House, Daymare Recordings
    Country: Japan


    "Angel" - Live in 2012:
    http://youtu.be/3bTHFAqDLbE
    "Vanilla" Official Music Video:
    http://youtu.be/M6KQRopdyls


    Sargent House:

    "BORIS has always demolished expectations of what a band can do musically and aesthetically. In keeping with that tradition, they again flip the script for the band’s first official release in three years by serving up their most all-encompassing effort to date. Noise is an amplification of BORIS’ endless pursuit of musical extremes while moving aggressive, intense rock into new territories.

    In writing Noise, BORIS was intent upon condensing all that the band had explored over the years, in order to create something more bold, streamlined and powerful. And, upon completion, the band considers Noise its most defining effort, stating, “If we had to suggest just one album for those unfamiliar with BORIS’ music, we will pick this for sure.” That’s a bold statement from a band having released over 20 albums covering a vast array of sounds. Yet somehow throughout the album’s 8 song, 58 minute duration, the band masterfully intermingles sludge-rock, blistering crust punk, shimmering shoegaze, epic thunderous doom, psychedelic melodies and just about everything else they’ve ever done.

    Over the course of BORIS’ three previous Sargent House albums (Heavy Rocks, Attention Please and New Album) the band sought to expand its musical vision ever further. And, the results helped redefine the band’s already iconoclastic sound. However, in early 2013 they decided to return to their classic trio lineup moving forward: drummer/vocalist Atsuo, guitarist/vocalist Wata and bassist/guitarist/vocalist Takeshi. Having been able to explore many new ideas as a quartet in recent years, the band was concerned about logistics, until their very successful residency shows and tour in the U.S. convinced them that BORIS could return to the simpler, solid trio without sacrificing artistic growth. Now, having rebuilt the classic trio’s “equilateral triangle” they’re heavier, louder, more confident and incisive than ever before.

    Noise is also lyrically the band’s darkest album to date. Bleak lines like, “throbbing pain this world repeats upon us/ Throb, throb / Throbbing pain, this world makes us suffer,” guide the record’s most musically upbeat track, “Taiyo No Baka.” Everywhere else, dark imagery permeates the songs, adding further weight to the proceedings. Kicking off with the fittingly titled “Melody”, the album begins with the uniquely BORIS sound that combines multiple elements into one ferocious metallic-punk-melodic whole. Things take a jagged turn with second track “Vanilla” exhibiting a more experimental edge, while still driven by vocal melody and arpeggiated guitar notes until the song juts into frenzied psychedelic metal riffing. Elsewhere, with Wata on lead vocals, “Heavy Rain” merges the band’s early colossal doom with the latter day shoegaze of Attention Please for a song that’s both brutally heavy and ethereal. “Quicksilver” is a wailing speedcore track reminiscent of classic Japanese hardcore, with screaming voices, screaming guitars and screaming drums that refuses to relent over the song’s first 7 minutes. “Angel” is the album’s nearly 19-minute epic centerpiece that builds from entrancing chiming guitar notes and softly pulsing toms, ultimately breaking into a massive wall of drop-tuned sludge and a howling guitar lead reminiscent of BORIS tracks “Feedbacker” and “Flood.” The song continues to shift gears several times as it builds in tension and emotion toward a very satisfying resolution, taking the entire track full circle to where it began. Throughout, Noise is an exploration of the free-spirited experimentation that made the band an International cult legend."
    - http://sargenthouse.com/boris_noise_assets.html


    From me, a huge fan that just finished my 6th commute show:

    Noise is the 19th studio album. Self-proclaimed as the sum of Boris: first time listeners should listen to this to get a sense of the band. I don't entirely agree with this. With such a vast frontier of genres that make up their almost 23 year career, I suggest that the best song (or three) taken from each album would better summarize Boris for the first time listener. But I also know that no band I've ever loved was able to last even 20 years without putting out unsavory albums. Boris is different because they have successfully kept it interesting over the years by being anomalous and genre-bending, but doing it their way. This album is supposed to be a chronicle, but it really dives into the recent branch of poppy themes blended with the familiar black wall of sound.

    The standout tracks are Angel, Heavy Rain, and Ghost of Romance. Although Vanilla and Quicksilver are among the most marketed singles.

    Score: 8/10

    The following audio was obtained through the American limited edition vinyl pre-order. It came with the digital copy of the CD with bonus pre-order-only live tracks from 2011. This is the official release, ID3 complete.


    Format : MPEG Audio
    File size : 34.9 MiB
    Duration : 18mn 41s
    Overall bit rate mode : Variable
    Overall bit rate : 260 Kbps
    Album : Noise
    Album/Performer : BORIS
    Track name : Angel
    Track name/Position : 6
    Performer : BORIS
    Recorded date : 2014
    Writing library : LAME3.99r
    ISRC : JPB621400145
    Cover : Yes
    Cover description : cover
    Cover type : Cover (front)
    Cover MIME : image/jpeg
    Comment : Visit http://boris.bandcamp.com

    Audio
    Format : MPEG Audio
    Format version : Version 1
    Format profile : Layer 3
    Mode : Joint stereo
    Duration : 18mn 41s
    Bit rate mode : Variable
    Bit rate : 260 Kbps
    Minimum bit rate : 32.0 Kbps
    Channel(s) : 2 channels
    Sampling rate : 44.1 KHz
    Compression mode : Lossy
    Stream size : 34.8 MiB (100%)
    Writing library : LAME3.99r
    Encoding settings : -m j -V 0 -q 0 -lowpass 22.1 --vbr-mt -b 32



    Track List:

    CD1


    1. "Melody"(黒猫メロディ) 6:40
    2. "Vanilla"             4:15
    3. "Ghost of Romance"(あの人たち) 5:50
    4. "Heavy Rain"(雨)         6:13
    5. "Taiyo no Baka"(太陽のバカ) 3:36
    6. "Angel"           18:43
    7. "Quicksilver"   9:50
    8. "Siesta"(シエスタ)   2:52

    Total length: 57:59

    CD2* (Japan Only)

    1. "Bit" 9:35
    2. "Kimi no Yukue" (君の行方) 4:51
    3. "Yuushikai Revue" (有視界 Revue) 3:32
    4. "Discharge" (ディスチャージ) 5:32

    Total length: 23:26

    *Tracks Ripped from YouTube @196 bitrate. Only Bit and Kimi no Yukue were available single, so they are included along with a single-track that includes all 4.

    International Preorder Bonus Tracks:

    Riot Sugar (Karlsruhe, Germany 2011-07-01)
    8 (Madrid, Spain 2011-06-24)
    Spoon (Karlsruhe, Germany 2011-07-01)
    Flare (Montreal, Canada 2011-10-24)
    Window Shopping (Montreal, Canada 2011-10-24)
    Statement (Vienna, Austria 2011-07-07)


    0 0

    Original Post: [Mini Album] T-ARA – And&End [9th Mini Album]



    [EP] 티아라 (T-ara) – Sugar Free [Mini Album Vol. 9]
    Release Date: 2014.09.11
    Genre: Pop Dance
    Language: Korean
    Bit Rate: MP3-320kbps
    credit to k2nblog

    Following Ji Yeon and Hyo Min’s solo efforts, T-ara returns as a group for the mini-album Sugar Free! This comeback will feature the music of the big room EDM genre and, of course, a catchy new dance.

    Track List:

    01. Sugar Free (BigRoom Ver.)
    02. Sugar Free
    03. 남주긴 아까워
    04. ORGR
    05. 지난 달력
    06. 그녀를 보면
    07. Sugar Free (BigRoom Ver.) (Inst.)



    0 0

    Original Post: Orange Caramel – It's Okay, That's Love OST Part.8



    오렌지캬라멜 – 괜찮아 사랑이야 (SBS 수목드라마) OST – Part.8
    Release Date: 2014.09.11
    Genre: OST
    Language: Korean
    Bit Rate: MP3-320kbps

    Track List:

    01. Tonight
    02. Tonight (Inst.)



    0 0

    Original Post: Yukiguni / Snow Country (Shirô Toyoda, 1957)

     
     

    Director: Shirô Toyoda.
    Screenplay: Yasunari Kawabata (novel), Toshio Yasumi。
    Cast: Ryô Ikebe, Keiko Kishi, Kaoru Yachigusa...
    Year: 1957.
    Runtime: 133'.
    Subs: English/Japanese (hard-coded).
    (Credits for the upload go to poenir)

    :
    "It's a man's world. Shimamura, an artist, comes to this snowbound town to rejuvenate himself. He connects with Komako, a geisha he met on a previous trip, and it seems like love. She's the foster daughter of a local family, almost engaged to the family's son Yukio, now dying of consumption. He's tended by his sister Yuko who's angry at Komako for abandoning her brother. Shimamura returns to Tokyo but promises he will be back soon. In anticipation of his return, Komako breaks with her patron and her family loses their home. Complications arise when Shimamura doesn't come back as promised. Then Komako discovers that he and Yuko knew each other in Tokyo. Can Komako escape destiny?"

     

     


    :

      General
         Format : Matroska
         File size : 1.50 GiB
         Duration : 2h 13mn
         Overall bit rate : 1 609 Kbps
         Writing library : libebml v1.2.2 + libmatroska v1.3.0
      Video #1
         Format : AVC
         Format/Info : Advanced Video Codec
         Codec ID : V_MPEG4/ISO/AVC
         Duration : 2h 13mn
         Bit rate : 1 385 Kbps
         Nominal bit rate : 1 412 Kbps
         Width : 720 pixels
         Height : 478 pixels
         Display aspect ratio : 4:3
         Frame rate mode : Variable
         Frame rate : 23.976 fps
         Resolution : 24 bits
         Colorimetry : 4:2:0
         Scan type : Progressive
         Bits/(Pixel*Frame) : 0.168
         Stream size : 1.29 GiB (86%)
      Audio #2
         Format : AC-3
         Format/Info : Audio Coding 3
         Codec ID : A_AC3
         Duration : 2h 13mn
         Bit rate mode : Constant
         Bit rate : 192 Kbps
         Channel(s) : 1 channel
         Sampling rate : 48.0 KHz
         Stream size : 183 MiB (12%)
         Language : Japanese



    0 0

    Original Post: Surplus Princess E06 XVID iPOP


    Details

    Title: 잉여공주 / Ingyeo Gongjoo
    Also known as: The Mermaid
    Genre: Fantasy, romantic, comedy
    Episodes: TBA
    Broadcast network: tvN
    Broadcast period: 2014-Aug-07 to 2014-TBA
    Air time: Thursday 23:00
    Subtitles will be added later

    Synopsis

    Ha Ni was born a mermaid. In order to pursue the man she loves, she agrees to become a human. Once human, she moves into the Ingyeo house, home to a motley crew of tenants preparing for their first jobs - portrayed by the cast of SNL Korea. She has 100 days to make the man of her dreams love her back - will she succeed?

    Main Cast
    Jo Bo Ah as Kim Ha Ni
    Ohn Joo Wan as Lee Hyun Myung
    Song Jae Rim as Kwon Shi Kyung
    Park Ji Soo as Yoon Jin Ah




    Code
    Video
    ID                                       : 0
    Format                                   : MPEG-4 Visual
    Format profile                           : Advanced Simple@L5
    Format settings, BVOP                    : No
    Format settings, QPel                    : No
    Format settings, GMC                     : No warppoints
    Format settings, Matrix                  : Default (MPEG)
    Codec ID                                 : XVID
    Codec ID/Hint                            : XviD
    Bit rate                                 : 1 391 Kbps
    Width                                    : 624 pixels
    Height                                   : 352 pixels
    Display aspect ratio                     : 16:9
    Frame rate                               : 29.970 fps
    Color space                              : YUV
    Chroma subsampling                       : 4:2:0
    Bit depth                                : 8 bits
    Scan type                                : Progressive
    Compression mode                         : Lossy
    Bits/(Pixel*Frame)                       : 0.211
    Stream size                              : 660 MiB (87%)
    Writing library                          : XviD 1.2.1 (UTC 2008-12-04)

    Audio
    ID                                       : 1
    Format                                   : MPEG Audio
    Format version                           : Version 1
    Format profile                           : Layer 3
    Mode                                     : Joint stereo
    Mode extension                           : MS Stereo
    Codec ID                                 : 55
    Codec ID/Hint                            : MP3
    Bit rate mode                            : Constant
    Bit rate                                 : 128 Kbps
    Channel(s)                               : 2 channels
    Sampling rate                            : 48.0 KHz
    Compression mode                         : Lossy
    Stream size                              : 60.8 MiB (8%)
    Alignment                                : Aligned on interleaves
    Writing library                          : LAME3.98.2



    0 0

    Original Post: Surplus Princess E06 720p iPOP


    Details

    Title: 잉여공주 / Ingyeo Gongjoo
    Also known as: The Mermaid
    Genre: Fantasy, romantic, comedy
    Episodes: TBA
    Broadcast network: tvN
    Broadcast period: 2014-Aug-07 to 2014-TBA
    Air time: Thursday 23:00
    Subtitles will be added later

    Synopsis

    Ha Ni was born a mermaid. In order to pursue the man she loves, she agrees to become a human. Once human, she moves into the Ingyeo house, home to a motley crew of tenants preparing for their first jobs - portrayed by the cast of SNL Korea. She has 100 days to make the man of her dreams love her back - will she succeed?

    Main Cast
    Jo Bo Ah as Kim Ha Ni
    Ohn Joo Wan as Lee Hyun Myung
    Song Jae Rim as Kwon Shi Kyung
    Park Ji Soo as Yoon Jin Ah




    Code
    Video
    ID                                       : 0
    Format                                   : AVC
    Format/Info                              : Advanced Video Codec
    Format profile                           : Baseline@L3.1
    Format settings, CABAC                   : No
    Format settings, ReFrames                : 1 frame
    Codec ID                                 : H264
    Bit rate                                 : 3 017 Kbps
    Width                                    : 1 280 pixels
    Height                                   : 720 pixels
    Display aspect ratio                     : 16:9
    Frame rate mode                          : Variable
    Frame rate                               : 29.970 fps
    Color space                              : YUV
    Chroma subsampling                       : 4:2:0
    Bit depth                                : 8 bits
    Scan type                                : Progressive
    Bits/(Pixel*Frame)                       : 0.109

    Audio
    ID                                       : 1
    Format                                   : MPEG Audio
    Format version                           : Version 1
    Format profile                           : Layer 3
    Mode                                     : Joint stereo
    Mode extension                           : MS Stereo
    Codec ID                                 : 55
    Codec ID/Hint                            : MP3
    Bit rate mode                            : Constant
    Bit rate                                 : 128 Kbps
    Channel(s)                               : 2 channels
    Sampling rate                            : 44.1 KHz
    Compression mode                         : Lossy
    Stream size                              : 62.1 MiB (4%)
    Alignment                                : Aligned on interleaves
    Interleave, duration                     : 26 ms (0.78 video frame)
    Writing library                          : LAME3.98.2



    0 0

    Original Post: A Record Of Sweet Murder 2014 720p HDRip X264-KTH





    Detail:
    Title: A Record Of Sweet Murder
    AKA: Aru yasashiki satsujinsha no kiroku / ある優しき殺人者の記録
    Genre: Horror
    Release Date: September 6, 2014 (Japan) / Summer, 2014 (South Korea)
    Runtime: 86 min
    Director: Koji Shiraishi
    Country: Japan / South Korea
    Language: Japanese / Korean
    Subtitles:No Subtitles

    Kim Kkobbi - Journalist Kim So-Yeon
    Yeon Je-Wook - Park Sang-Joon
    Ryotaro Yonemura
    Tsukasa Aoi

    Park Sang-Joon (Yeon Je-Wook) was held in a psychiatric facility and charged for a string of bizarre serial murders. Park Sang-Joon then runs away from the facility. He then contacts childhood friend and now journalist Kim So-Yeon (Kim Kkobbi). Park Sang-Joon promises to give her an exclusive if she meets him at an abandoned apartment with a Japanese cameraman. She is in for a horrific shock.








    click SHOW to open Spoiler
    MediaInfo:
    Spoiler:show


    Code

    Video
    ID                                       : 201
    Format                                   : AVC
    Format/Info                              : Advanced Video Codec
    Format profile                           : High@L4.1
    Format settings, CABAC                   : Yes
    Format settings, ReFrames                : 2 frames
    Format settings, GOP                     : M=3, N=15
    Codec ID                                 : avc1
    Codec ID/Info                            : Advanced Video Coding
    Duration                                 : 1h 26mn
    Bit rate                                 : 3 000 Kbps
    Width                                    : 1 280 pixels
    Height                                   : 720 pixels
    Display aspect ratio                     : 16:9
    Frame rate mode                          : Constant
    Frame rate                               : 29.970 fps
    Color space                              : YUV
    Chroma subsampling                       : 4:2:0
    Bit depth                                : 8 bits
    Scan type                                : Progressive
    Bits/(Pixel*Frame)                       : 0.109
    Stream size                              : 1.88 GiB (90%)
    Writing library                          : x264 core 120
    Encoding settings                        : cabac=1 / ref=2 / deblock=1:0:0 / analyse=0x3:0x113 / me=hex / subme=6 / psy=1 / psy_rd=1.0:0.0 / mixed_ref=1 / me_range=16 / chroma_me=1 / trellis=0 / 8x8dct=1 / cqm=0 / deadzone=21,11 / fast_pskip=0 / chroma_qp_offset=-2 / threads=8 / sliced_threads=0 / nr=0 / decimate=1 / mbaff=0 / constrained_intra=0 / bframes=2 / b_pyramid=0 / b_adapt=0 / b_bias=0 / direct=3 / wpredb=0 / wpredp=2 / keyint=15 / keyint_min=8 / scenecut=0 / intra_refresh=0 / rc_lookahead=15 / rc=abr / mbtree=1 / bitrate=3000 / ratetol=1.0 / qcomp=0.60 / qpmin=0 / qpmax=10 / qpstep=4 / ip_ratio=1.41 / aq=1:1.00
    Tagged date                              : UTC 2014-09-01 05:32:47

    Audio
    ID                                       : 101
    Format                                   : AAC
    Format/Info                              : Advanced Audio Codec
    Format profile                           : LC
    Codec ID                                 : 40
    Duration                                 : 1h 26mn
    Bit rate mode                            : Variable
    Bit rate                                 : 192 Kbps
    Channel(s)                               : 2 channels
    Channel positions                        : Front: L R
    Sampling rate                            : 48.0 KHz
    Compression mode                         : Lossy
    Stream size                              : 118 MiB (6%)
    Tagged date                              : UTC 2014-09-01 05:32:47






    EnjoyAndDontFORGETtoSEED!



    0 0

    Original Post: Not Found Net Jou Kara Sakujo Sareta Kindan Douga [2011] Not Found ネット上から削除された禁断動画 -SiraddA


    Not Found Net Jou Kara Sakujo Sareta Kindan Douga
    Not Found ネット上から削除された禁断


    Year:2011
    Genre:Horror, Mockumentary
    Runtime:66 min
    Country:Japan
    Language:Japanese
    Subtitles:No Subtitles!



    Synopsis:
    インターネット上に公開されたものの、あまりの過激さや恐ろしさ、個人のプライバシー問題により削除された禁断動画の数々を集めた映像集。無邪気に遊ぶ幼い我が子を撮影する主婦。最悪の事態は彼女が撮影中に起こった…。


    title: Not Found: The Videos too Taboo for the Internet (lit. Forbidden videos removed from the internet)
    synopsis: A collection of forbidden videos, removed from the internet due to privacy issues and their radical nature.

    A young housewife records her child playing innocently, but what she captures on film is anything BUT innocent...



    Source:DVD5
    Encoder:SiraddA
    Fileformat:MKV
    VideoFormat:AVC
    VideoCoded:H264
    VideoBitrate:1876kbps
    Framerate:29.970fps
    Resolution:720x480
    Aspectratio:16:9
    Audioformat:AC3
    AudioBitrate:192kbps





    0 0
  • 09/11/14--10:13: Time Spiral ep01 480p
  • Original Post: Time Spiral ep01 480p



    http://wiki.d-addicts.com/Time_Spiral
    http://asianwiki.com/Time_Spiral

    Title: タイムスパイラル
    Title (romaji): Time Spiral
    Format: Renzoku
    Genre: Science fiction, love, mystery
    Episodes: 8
    Viewership ratings: TBD
    Broadcast network: NHK BS Premium
    Broadcast period: 2014-Sept-02
    Air time: Tuesday 23:15-23:44
    Language: Japanese
    Country: Japan
    Subtitles: English here: Eric Paroissien
    RAW credit to furransu

    Cast
       Kuroki Meisa as Aizawa Natsuki
       Gackt as Tatsumi Shuya, professor
       Hiraoka Yuta as Yuki Kentaro, Natsuki's friend
       Akimoto Naomi
       Kishimoto Kayoko
       Taketomi Kiyoka (竹富聖花)

    Synopsis
    A swirling spiral of space and time connecting the past and the future. When Aizawa Natsuki was a child, she was kidnapped which left her severely & emotionally traumatized. Natsuki grew up relying on her friend Yuki Kentaro. She now studies physics at a university. One day, she meets newly appointed professor Tatsumi Shuya. From then on, mysterious events occur continuously around Natsuki. Shuya is a time traveller who travels between the future and the past. What could be the fate of this hero and heroine?

    General
    Complete name                  : Time Spiral ep01 (848x480 x264).mp4
    Format                         : MPEG-4
    Format profile                 : Base Media
    Codec ID                       : isom
    File size                      : 194 MiB
    Duration                       : 29mn 0s
    Overall bit rate mode          : Variable
    Overall bit rate               : 937 Kbps

    Video
    ID                             : 1
    Format                         : AVC
    Format/Info                    : Advanced Video Codec
    Format profile                 : High@L4.1
    Format settings, CABAC         : Yes
    Format settings, ReFrames      : 4 frames
    Codec ID                       : avc1
    Codec ID/Info                  : Advanced Video Coding
    Duration                       : 29mn 0s
    Bit rate                       : 805 Kbps
    Maximum bit rate               : 4 019 Kbps
    Width                          : 848 pixels
    Height                         : 480 pixels
    Display aspect ratio           : 16:9
    Frame rate mode                : Constant
    Frame rate                     : 29.970 fps
    Color space                    : YUV
    Chroma subsampling             : 4:2:0
    Bit depth                      : 8 bits
    Scan type                      : Progressive
    Bits/(Pixel*Frame)             : 0.066
    Stream size                    : 167 MiB (86%)

    Audio
    ID                             : 2
    Format                         : AAC
    Format/Info                    : Advanced Audio Codec
    Format profile                 : LC
    Codec ID                       : 40
    Duration                       : 29mn 0s
    Bit rate mode                  : Variable
    Bit rate                       : 128 Kbps
    Maximum bit rate               : 137 Kbps
    Channel count                  : 2 channels
    Channel positions              : Front: L R
    Sampling rate                  : 48.0 KHz
    Compression mode               : Lossy



older | 1 | .... | 1120 | 1121 | (Page 1122) | 1123 | 1124 | .... | 1405 | newer