Are you the publisher? Claim or contact us about this channel


Embed this content in your HTML

Search

Report adult content:

click to rate:

Account: (login)

More Channels


Showcase


Channel Catalog


Channel Description:

Asia Torrents RSS Feed

older | 1 | .... | 1322 | 1323 | (Page 1324) | 1325 | 1326 | .... | 1405 | newer

    0 0

    Original Post: Yami no Bansosha EP02 720p HDTV x264 AAC-DoA



    http://asianwiki.com/Yami_no_Bansosha
    http://thetvdb.com/?tab=series&id=294725&lid=7


    Drama: Partner in Darkness
    Romaji: Yami no Bansosha
    Japanese: 闇の伴走者
    Director: Takahiro Miki
    Writer: Takashi Nagasaki (novel), Dai Sato, Kumiko Aso
    Network: WOWOW
    Episodes: 5
    Release Date: April 11 - May 9, 2015
    Runtime: Saturdays 22:00
    Language: Japanese
    Country: Japan
    Subtitles: None - [url=][/url]
    RAW credit to DoA


    Nao Matsushita as Yuki Mizuno
    Arata Furuta as Shinji Daigo
    Bengal as Fumiya Ajima
    Kyoko Maya as Yoshiko Ajima
    Jun Kaname as Yukihide Ozawa
    Tomoya Maeno as Kosuke Takeuchi  
    Tetsushi Tanaka as Kaoru Kazumine
    Kenjiro Ishimaru as Hidemasa Mochizuki
    Mitsuru Hirata as cartoonist
    Tetsuhiro Ikeda as Kazunari Tomura
    Leo Morimoto as Tomoyuki Yajima  
    Yumiko Fujita as Kazue Mizuno
    Toru Nomaguchi as Mikio Terada
    Morooka Moro as Kensuke Eto
    Yoichi Nukumizu as master
    Mina Fujii as Shoko Murotani


    Plot

    A year after manga master Fumiya Ajima's death, 50 unpublished sketches are discovered. The sketches appear to be the work of Fumiya Ajima, but the sketches shows details from several missing women cases that occurred 35 years earlier. Fumiya Ajima’s wife (Kyoko Maya) asks the Department Head of Yukihide Ozawa (Jun Kaname) to find out if the sketches are the work of her late husband. Ex-police officer Yuki Mizuno (Nao Matsushita) receives a request to investigate the origins of the 50 sketches. Yuki Mizuno then enlists the help of Shinji Daigo (Arata Furuta), an expert of the manga world.


    Mediainfo
    Spoiler:show

    Code
    Format                                   : Matroska
    Format version                           : Version 4 / Version 2
    File size                                : 790 MiB
    Duration                                 : 50mn 0s
    Overall bit rate                         : 2 210 Kbps
    Movie name                               : 連続ドラマW 闇の伴走者 Episode 2 720p HDTV x264 AAC-DoA
    Encoded date                             : UTC 2015-04-20 02:07:53
    Writing application                      : mkvmerge v7.8.0 ('River Man') 64bit built on Mar 27 2015 16:31:37
    Writing library                          : libebml v1.3.1 + libmatroska v1.4.2
    DURATION                                 : 00:50:00.000000000
    NUMBER_OF_FRAMES                         : 140625
    NUMBER_OF_BYTES                          : 70734375
    _STATISTICS_WRITING_APP                  : mkvmerge v7.8.0 ('River Man') 64bit built on Mar 27 2015 16:31:37
    _STATISTICS_WRITING_DATE_UTC             : 2015-04-20 02:07:53
    _STATISTICS_TAGS                         : BPS DURATION NUMBER_OF_FRAMES NUMBER_OF_BYTES

    Video
    ID                                       : 1
    Format                                   : AVC
    Format/Info                              : Advanced Video Codec
    Format profile                           : High@L4.1
    Format settings, CABAC                   : Yes
    Format settings, ReFrames                : 9 frames
    Codec ID                                 : V_MPEG4/ISO/AVC
    Duration                                 : 50mn 0s
    Width                                    : 1 280 pixels
    Height                                   : 720 pixels
    Display aspect ratio                     : 16:9
    Frame rate mode                          : Constant
    Frame rate                               : 23.976 fps
    Original frame rate                      : 29.970 fps
    Color space                              : YUV
    Chroma subsampling                       : 4:2:0
    Bit depth                                : 8 bits
    Scan type                                : Progressive
    Title                                    : Encode by TTG-DoA
    Writing library                          : x264 core 146 r2538 121396c
    Encoding settings                        : cabac=1 / ref=9 / deblock=1:-3:-3 / analyse=0x3:0x133 / me=umh / subme=10 / psy=1 / psy_rd=1.00:0.15 / mixed_ref=1 / me_range=48 / chroma_me=1 / trellis=2 / 8x8dct=1 / cqm=0 / deadzone=21,11 / fast_pskip=0 / chroma_qp_offset=-3 / threads=12 / lookahead_threads=2 / sliced_threads=0 / nr=0 / decimate=1 / interlaced=0 / bluray_compat=0 / constrained_intra=0 / bframes=8 / b_pyramid=2 / b_adapt=2 / b_bias=0 / direct=3 / weightb=1 / open_gop=0 / weightp=2 / keyint=300 / keyint_min=29 / scenecut=40 / intra_refresh=0 / rc_lookahead=60 / rc=crf / mbtree=1 / crf=17.0 / qcomp=0.60 / qpmin=0 / qpmax=69 / qpstep=4 / ip_ratio=1.40 / aq=1:1.00
    Language                                 : Japanese
    Default                                  : Yes
    Forced                                   : No
    DURATION                                 : 00:50:00.000000000
    NUMBER_OF_FRAMES                         : 74016
    NUMBER_OF_BYTES                          : 756266762
    _STATISTICS_WRITING_APP                  : mkvmerge v7.8.0 ('River Man') 64bit built on Mar 27 2015 16:31:37
    _STATISTICS_WRITING_DATE_UTC             : 2015-04-20 02:07:53
    _STATISTICS_TAGS                         : BPS DURATION NUMBER_OF_FRAMES NUMBER_OF_BYTES

    Audio
    ID                                       : 2
    Format                                   : AAC
    Format/Info                              : Advanced Audio Codec
    Format profile                           : LC
    Codec ID                                 : A_AAC
    Duration                                 : 50mn 0s
    Channel(s)                               : 2 channels
    Channel positions                        : Front: L R
    Sampling rate                            : 48.0 KHz
    Compression mode                         : Lossy
    Language                                 : Japanese
    Default                                  : Yes
    Forced                                   : No





    0 0

    Original Post: TVB Romantic Repertoire E18 720p-OmeletteduFromage


    Details:
    Title:  水髪胭脂  / Sui Fat Yin Chi
    English title: Romantic Repertoire
    Genre: Modern, Comedy
    Episodes: 20
    Production Company: TVB
    Producer: Lee Yim Fong
    Broadcast Date:  March 30, 2015 - April 24, 2015
    Subtitles English (.srt embedded)

    Synopsis
    Interior designer Moses Chan and wealthy heir Evergreen Mak open a design company together. Looking to start a family with his girlfriend Oceane Zhu, Moses has already bought a home and is just waiting for her to finish her education abroad. However, his sister Angelina Lo rents out the property to Joyce Koi, a well-known opera performer, without his permission. Unable to cancel the rental agreement, Moses looks for ways to drive Joyce away, but her manager, Louise Lee, stands firm. The two sides are at war with each other until Evergreen suddenly decides to pursue Joyce. In order to help Evergreen win her heart, Moses must get to know her better. In the process, they become friends and even develop a subtle bond. Soon after, Joyce is involved in a car accident and reunites with her biological mother, Evergreen cancels the wedding, and Oceane is discovered to have returned to Hong Kong already but with another boyfriend... Plan usually cannot catch up to changes. Is life like a play or does a play reflect reality?








    Code
    Video
    ID                             : 1
    Format                         : AVC
    Format/Info                    : Advanced Video Codec
    Format profile                 : Main@L4.0
    Format settings, CABAC         : Yes
    Format settings, ReFrames      : 4 frames
    Codec ID                       : V_MPEG4/ISO/AVC
    Nominal bit rate               : 4 300 Kbps
    Width                          : 1 280 pixels
    Height                         : 720 pixels
    Display aspect ratio           : 16:9
    Frame rate mode                : Variable
    Color space                    : YUV
    Chroma subsampling             : 4:2:0
    Bit depth                      : 8 bits
    Scan type                      : Progressive
    Writing library                : x264 core 130 r2273 b3065e6
    Encoding settings              : cabac=1 / ref=1 / deblock=1:0:0 / analyse=0x1:0x111 / me=hex / subme=2 / psy=1 / psy_rd=1.00:0.00 / mixed_ref=0 / me_range=16 / chroma_me=1 / trellis=0 / 8x8dct=0 / cqm=0 / deadzone=21,11 / fast_pskip=1 / chroma_qp_offset=0 / threads=1 / lookahead_threads=1 / sliced_threads=0 / nr=0 / decimate=1 / interlaced=0 / bluray_compat=0 / constrained_intra=0 / bframes=3 / b_pyramid=2 / b_adapt=1 / b_bias=0 / direct=1 / weightb=1 / open_gop=0 / weightp=1 / keyint=250 / keyint_min=25 / scenecut=40 / intra_refresh=0 / rc_lookahead=10 / rc=abr / mbtree=1 / bitrate=3500 / ratetol=1.0 / qcomp=0.60 / qpmin=0 / qpmax=69 / qpstep=4 / vbv_maxrate=20000 / vbv_bufsize=25000 / nal_hrd=none / ip_ratio=1.40 / aq=1:1.00
    Language                       : Chinese
    Default                        : Yes
    Forced                         : No
    Color primaries                : BT.709
    Transfer characteristics       : BT.709
    Matrix coefficients            : BT.709

    Audio
    ID                             : 2
    Format                         : AAC
    Format/Info                    : Advanced Audio Codec
    Format profile                 : LC
    Codec ID                       : A_AAC
    Duration                       : 44mn 19s
    Channel(s)                     : 2 channels
    Channel positions              : Front: L R
    Sampling rate                  : 48.0 KHz
    Compression mode               : Lossy
    Title                          : Cantonese
    Language                       : Chinese
    Default                        : Yes
    Forced                         : No

    Text
    ID                             : 3
    Format                         : UTF-8
    Codec ID                       : S_TEXT/UTF8
    Codec ID/Info                  : UTF-8 Plain Text
    Default                        : Yes
    Forced                         : No



    0 0

    Original Post: TVB Romantic Repertoire E19 720p-OmeletteduFromage


    Details:
    Title:  水髪胭脂  / Sui Fat Yin Chi
    English title: Romantic Repertoire
    Genre: Modern, Comedy
    Episodes: 20
    Production Company: TVB
    Producer: Lee Yim Fong
    Broadcast Date:  March 30, 2015 - April 24, 2015
    Subtitles English (.srt embedded)

    Synopsis
    Interior designer Moses Chan and wealthy heir Evergreen Mak open a design company together. Looking to start a family with his girlfriend Oceane Zhu, Moses has already bought a home and is just waiting for her to finish her education abroad. However, his sister Angelina Lo rents out the property to Joyce Koi, a well-known opera performer, without his permission. Unable to cancel the rental agreement, Moses looks for ways to drive Joyce away, but her manager, Louise Lee, stands firm. The two sides are at war with each other until Evergreen suddenly decides to pursue Joyce. In order to help Evergreen win her heart, Moses must get to know her better. In the process, they become friends and even develop a subtle bond. Soon after, Joyce is involved in a car accident and reunites with her biological mother, Evergreen cancels the wedding, and Oceane is discovered to have returned to Hong Kong already but with another boyfriend... Plan usually cannot catch up to changes. Is life like a play or does a play reflect reality?







    Code
    Video
    ID                             : 1
    Format                         : AVC
    Format/Info                    : Advanced Video Codec
    Format profile                 : Main@L4.0
    Format settings, CABAC         : Yes
    Format settings, ReFrames      : 4 frames
    Codec ID                       : V_MPEG4/ISO/AVC
    Nominal bit rate               : 4 300 Kbps
    Width                          : 1 280 pixels
    Height                         : 720 pixels
    Display aspect ratio           : 16:9
    Frame rate mode                : Variable
    Color space                    : YUV
    Chroma subsampling             : 4:2:0
    Bit depth                      : 8 bits
    Scan type                      : Progressive
    Writing library                : x264 core 130 r2273 b3065e6
    Encoding settings              : cabac=1 / ref=1 / deblock=1:0:0 / analyse=0x1:0x111 / me=hex / subme=2 / psy=1 / psy_rd=1.00:0.00 / mixed_ref=0 / me_range=16 / chroma_me=1 / trellis=0 / 8x8dct=0 / cqm=0 / deadzone=21,11 / fast_pskip=1 / chroma_qp_offset=0 / threads=1 / lookahead_threads=1 / sliced_threads=0 / nr=0 / decimate=1 / interlaced=0 / bluray_compat=0 / constrained_intra=0 / bframes=3 / b_pyramid=2 / b_adapt=1 / b_bias=0 / direct=1 / weightb=1 / open_gop=0 / weightp=1 / keyint=250 / keyint_min=25 / scenecut=40 / intra_refresh=0 / rc_lookahead=10 / rc=abr / mbtree=1 / bitrate=3500 / ratetol=1.0 / qcomp=0.60 / qpmin=0 / qpmax=69 / qpstep=4 / vbv_maxrate=20000 / vbv_bufsize=25000 / nal_hrd=none / ip_ratio=1.40 / aq=1:1.00
    Language                       : Chinese
    Default                        : Yes
    Forced                         : No
    Color primaries                : BT.709
    Transfer characteristics       : BT.709
    Matrix coefficients            : BT.709

    Audio
    ID                             : 2
    Format                         : AAC
    Format/Info                    : Advanced Audio Codec
    Format profile                 : LC
    Codec ID                       : A_AAC
    Duration                       : 44mn 19s
    Channel(s)                     : 2 channels
    Channel positions              : Front: L R
    Sampling rate                  : 48.0 KHz
    Compression mode               : Lossy
    Title                          : Cantonese
    Language                       : Chinese
    Default                        : Yes
    Forced                         : No

    Text
    ID                             : 3
    Format                         : UTF-8
    Codec ID                       : S_TEXT/UTF8
    Codec ID/Info                  : UTF-8 Plain Text
    Default                        : Yes
    Forced                         : No



    0 0
  • 04/23/15--19:24: Scandal - Hello World
  • Original Post: Scandal - Hello World



    1. "Image"   04:26
    2. "Your Song"   03:43
    3. "Love in Action"   03:22
    4. "Departure"   04:40
    5. "Graduation"   04:23
    6. "Yoake no Ryuuseigun" (夜明けの流星群; A Meteor Shower at Dawn) 04:41
    7. "Onegai Navigation"   03:00
    8. "Runners High"   03:55
    9. "Hon o Yomu" (本を読む; Read a Book) 03:34
    10. "Kan Beer" (缶ビール; Canned Beer) 04:01
    11. "Winter Story"   03:41
    12. "Oyasumi" (おやすみ; Goodnight) 04:38
    13. "Place of Life (feat. Tetsuya Komuro)"   05:14


    0 0

    Original Post: Jing Bi Rok 징비록 (2015) E06 HDTV H264 720p WITH



    Title: Jing Bi Rok 징비록 / The Jingbirok: A Memoir of Imjin War 징비록 (懲毖錄): 임진왜란 피로 쓴 교훈
    Revised romanization: Jingbirok: Imjinwaeran Piro Sseun Gyohoon
    Runtime: around 55 min/ep
    Broadcast period: 2015-Feb-14 to 2015-???-??
    Genre: Daeha drama, historical, political, action
    Language: Korean
    Country: South Korea
    Episodes: 50
    Broadcast network: KBS1
    Subtitle: English  softsub by DarkSmurfSub

    Synopsis
    Based on the memoir "Jibirok," written in 1604 by scholar Ryu Seong-Ryong. The memoir covers Ryu Seong-Ryong's experiences from 1592-1598 during the Japanese invasion of Joseon era South Korea, the story of what happened at Jojeong between the Japanese Invasion and the Battle of Noryang where General Lee Soon-sin was killed

    Cast   
    Kim Sang Joong as Seo Ae Ryu Sung Ryong
    Kim Tae Woo as King Seon Jo
    Im Dong Jin as Oh Eum Yoon Doo Soo
    Sun Dong Hyuk (선동혁) as Song Kang Jung Chul
    Choi Chul Ho as Baek Sa Lee Hang Bok
    Park Ji Il as Goo Bong Song Ik Pil
    Kim Hyo Won (김효원) as Woo Gye Sung Hon
    Kim Jong Soo (김종수) as Woo Song Dang Hwang Yoon Gil
    Kang In Ki (강인기) as Joong Bong Jo Hun

    Director: Kim Sang Hwi, Kim Young Jo (김영조)
    Sceenwriter: Jung Hyung Soo, Jung Ji Yun (정지연)

    Video: MPEG4 Video (H264) 1280x720 29.97fps 2200kbps [V: h264 constrained baseline L3.1, yuv420p, 1280x720, 2200 kb/s]
    Audio: AAC 48000Hz stereo 256kbps [A: aac lc, 48000 Hz, stereo, 256 kb/s]

    Media Info
    Spoiler:show

    Code
    General
    Complete name                  : Jing Bi Rok 징비록.E06.150301.HDTV.H264.720p-WITH.mp4
    Format                         : MPEG-4
    Format profile                 : Base Media
    Codec ID                       : isom
    File size                      : 956 MiB
    Duration                       : 54mn 20s
    Overall bit rate mode          : Variable
    Overall bit rate               : 2 459 Kbps
    Encoded date                   : UTC 2015-03-01 13:40:52
    Tagged date                    : UTC 2015-03-01 13:40:52

    Video
    ID                             : 1
    Format                         : AVC
    Format/Info                    : Advanced Video Codec
    Format profile                 : Baseline@L3.1
    Format settings, CABAC         : No
    Format settings, ReFrames      : 3 frames
    Codec ID                       : avc1
    Codec ID/Info                  : Advanced Video Coding
    Duration                       : 54mn 20s
    Bit rate                       : 2 200 Kbps
    Maximum bit rate               : 9 932 Kbps
    Width                          : 1 280 pixels
    Height                         : 720 pixels
    Display aspect ratio           : 16:9
    Frame rate mode                : Constant
    Frame rate                     : 29.970 fps
    Color space                    : YUV
    Chroma subsampling             : 4:2:0
    Bit depth                      : 8 bits
    Scan type                      : Progressive
    Bits/(Pixel*Frame)             : 0.080
    Stream size                    : 855 MiB (89%)
    Writing library                : x264 core 128 r2216 198a7ea
    Encoding settings              : cabac=0 / ref=3 / deblock=1:0:0 / analyse=0x1:0x111 / me=hex / subme=7 / psy=1 / psy_rd=1.00:0.00 / mixed_ref=1 / me_range=16 / chroma_me=1 / trellis=1 / 8x8dct=0 / cqm=0 / deadzone=21,11 / fast_pskip=1 / chroma_qp_offset=-2 / threads=12 / lookahead_threads=2 / sliced_threads=0 / nr=0 / decimate=1 / interlaced=0 / bluray_compat=0 / constrained_intra=0 / bframes=0 / weightp=0 / keyint=250 / keyint_min=25 / scenecut=40 / intra_refresh=0 / rc_lookahead=40 / rc=abr / mbtree=1 / bitrate=2200 / ratetol=1.0 / qcomp=0.60 / qpmin=0 / qpmax=69 / qpstep=4 / vbv_maxrate=50000 / vbv_bufsize=50000 / nal_hrd=none / ip_ratio=1.40 / aq=1:1.00
    Encoded date                   : UTC 2015-03-01 13:09:41
    Tagged date                    : UTC 2015-03-01 13:40:54

    Audio
    ID                             : 2
    Format                         : AAC
    Format/Info                    : Advanced Audio Codec
    Format profile                 : LC
    Codec ID                       : 40
    Duration                       : 54mn 20s
    Bit rate mode                  : Variable
    Bit rate                       : 256 Kbps
    Maximum bit rate               : 262 Kbps
    Channel(s)                     : 2 channels
    Channel positions              : Front: L R
    Sampling rate                  : 48.0 KHz
    Compression mode               : Lossy
    Stream size                    : 99.5 MiB (10%)
    Encoded date                   : UTC 2015-03-01 13:40:53
    Tagged date                    : UTC 2015-03-01 13:40:54





    0 0

    Original Post: Jing Bi Rok 징비록 (2015) E06 HDTV XviD WITH

    [img][/img]


    Title: Jing Bi Rok 징비록 / The Jingbirok: A Memoir of Imjin War 징비록 (懲毖錄): 임진왜란 피로 쓴 교훈
    Revised romanization: Jingbirok: Imjinwaeran Piro Sseun Gyohoon
    Runtime: around 55 min/ep
    Broadcast period: 2015-Feb-14 to 2015-???-??
    Genre: Daeha drama, historical, political, action
    Language: Korean
    Country: South Korea
    Episodes: 50
    Broadcast network: KBS1
    Subtitle: English  softsub by DarkSmurfSub

    Synopsis
    Based on the memoir "Jibirok," written in 1604 by scholar Ryu Seong-Ryong. The memoir covers Ryu Seong-Ryong's experiences from 1592-1598 during the Japanese invasion of Joseon era South Korea, the story of what happened at Jojeong between the Japanese Invasion and the Battle of Noryang where General Lee Soon-sin was killed

    Cast   
    Kim Sang Joong as Seo Ae Ryu Sung Ryong
    Kim Tae Woo as King Seon Jo
    Im Dong Jin as Oh Eum Yoon Doo Soo
    Sun Dong Hyuk (선동혁) as Song Kang Jung Chul
    Choi Chul Ho as Baek Sa Lee Hang Bok
    Park Ji Il as Goo Bong Song Ik Pil
    Kim Hyo Won (김효원) as Woo Gye Sung Hon
    Kim Jong Soo (김종수) as Woo Song Dang Hwang Yoon Gil
    Kang In Ki (강인기) as Joong Bong Jo Hun

    Director: Kim Sang Hwi, Kim Young Jo (김영조)
    Sceenwriter: Jung Hyung Soo, Jung Ji Yun (정지연)

    Video: Xvid 640x352 29.97fps 1238kbps [V: mpeg4 advanced simple profile, yuv420p, 640x352, 1238 kb/s]
    Audio: MP3 48000Hz stereo 128kbps [A: mp3, 48000 Hz, stereo, 128 kb/s]

    Media Info
    Spoiler:show

    Code
    General
    Complete name                  : E:Jing Bi Rok 징비록XviDJing Bi Rok 징비록.E06.150301.HDTV.XviD-WITH.avi
    Format                         : AVI
    Format/Info                    : Audio Video Interleave
    File size                      : 536 MiB
    Duration                       : 54mn 20s
    Overall bit rate               : 1 378 Kbps
    Writing application            : VirtualDubMod 1.5.10.2 (build 2540/release)
    Writing library                : VirtualDubMod build 2540/release

    Video
    ID                             : 0
    Format                         : MPEG-4 Visual
    Format profile                 : Advanced Simple@L5
    Format settings, BVOP          : 2
    Format settings, QPel          : No
    Format settings, GMC           : No warppoints
    Format settings, Matrix        : Default (H.263)
    Muxing mode                    : Packed bitstream
    Codec ID                       : XVID
    Codec ID/Hint                  : XviD
    Duration                       : 54mn 20s
    Bit rate                       : 1 238 Kbps
    Width                          : 640 pixels
    Height                         : 352 pixels
    Display aspect ratio           : 16:9
    Frame rate                     : 29.970 fps
    Color space                    : YUV
    Chroma subsampling             : 4:2:0
    Bit depth                      : 8 bits
    Scan type                      : Progressive
    Compression mode               : Lossy
    Bits/(Pixel*Frame)             : 0.183
    Stream size                    : 481 MiB (90%)
    Writing library                : XviD 58

    Audio
    ID                             : 1
    Format                         : MPEG Audio
    Format version                 : Version 1
    Format profile                 : Layer 3
    Mode                           : Joint stereo
    Mode extension                 : MS Stereo
    Codec ID                       : 55
    Codec ID/Hint                  : MP3
    Duration                       : 54mn 20s
    Bit rate mode                  : Constant
    Bit rate                       : 128 Kbps
    Channel(s)                     : 2 channels
    Sampling rate                  : 48.0 KHz
    Compression mode               : Lossy
    Stream size                    : 49.8 MiB (9%)
    Alignment                      : Aligned on interleaves
    Interleave, duration           : 33 ms (1.00 video frame)
    Interleave, preload duration   : 504 ms





    0 0

    Original Post: LIQUID - Oni no Sake, Kiseki no Kura - EP01 480p x264 AAC




    Title: LIQUID - Oni no Sake, Kiseki no Kura
    Revised Romanization: LIQUID - Ogre’s Sake, Miraculous Kura
    Release Date: April 12, 2015
    Runtime: 50 minutes
    Genre: Drama / Sake / Brewery / Village / People
    Language: Japanese
    Country: Japan
    Subtitles: English (by subie06)
    RAW Provider: furransu
    IMDB URL: http://www.imdb.com/title/tt4578906


    Episodes: 3
    TV Network: NHK BS Premium
    Airtime: Sunday's 22:00


    Cast:
    Ito Hideaki - Sagara Shuichi
    Tsugawa Mahiko - Whio Yusaku
    Emoto Tuku - Sagara Naoki
    Watanabe Ikkei - Todoroki Katsuhisa
    Ishibhi Renji - Kunishige Goro
    Matsubara Chieko - Sagara Yoshie
    Hoshi Yuriko - Whio Tae
    Komoto Mahiro - Suzuhara Yoji
    Seki Megumi - Shimizu Maika
    Fukami Motoki - Tajima Naotaro
    Nakamura Yuko - Sagara Machiko
    Otaka Hiro - Tanida Kanji


    Synopsis:
    Sagara Shuichi (Ito Hideaki), the only son of a long standing sake brewery, “Sagara Brewery” in Kanazawa which is deep in the red, is an elite banker working in Tokyo. However, he ends up being pressed for a divorce by his wife and relegated for assignment at his workplace as a result of defeat in a power struggle. Amidst all this, his mother, who was running the sake brewery after his father’s death, falls ill, and subsequently Shuichi quits his job at the bank and decides to dedicate his life to making sake. In quest of his ideal sake, Shuichi persuades Washio Yusaku (Tsugawa Masahiko), the legendary master brewer feared as an ogre, to work with him. But the brewery workers he was able to gather are all inexperienced in sake making and they had all lost their place in society due to their respective circumstances. Will the day come when the drops of the ultimate “liquid” they pursued will flow?























    Code
    General
    Complete name                            : LIQUID.Oni.no.Sake.Kiseki.no.Kura.EP01.480p.x264.AAC.mp4
    Format                                   : MPEG-4
    Format profile                           : Base Media
    Codec ID                                 : isom
    File size                                : 210 MiB
    Duration                                 : 48mn 59s


    Video
    ID                                       : 1
    Format                                   : AVC
    Format/Info                              : Advanced Video Codec
    Format profile                           : High@L4.1
    Maximum bit rate                         : 2250 Kbps
    Width                                    : 848 pixels
    Height                                   : 480 pixels


    Audio
    ID                                       : 2
    Format                                   : AAC
    Format/Info                              : Advanced Audio Codec
    Bit rate                                 : 128 Kbps



    0 0

    Original Post: LIQUID - Oni no Sake, Kiseki no Kura - EP02 480p x264 AAC




    Title: LIQUID - Oni no Sake, Kiseki no Kura
    Revised Romanization: LIQUID - Ogre’s Sake, Miraculous Kura
    Release Date: April 12, 2015
    Runtime: 50 minutes
    Genre: Drama / Sake / Brewery / Village / People
    Language: Japanese
    Country: Japan
    Subtitles: NONE
    RAW Provider: furransu
    IMDB URL: http://www.imdb.com/title/tt4578906


    Episodes: 3
    TV Network: NHK BS Premium
    Airtime: Sunday's 22:00


    Cast:
    Ito Hideaki - Sagara Shuichi
    Tsugawa Mahiko - Whio Yusaku
    Emoto Tuku - Sagara Naoki
    Watanabe Ikkei - Todoroki Katsuhisa
    Ishibhi Renji - Kunishige Goro
    Matsubara Chieko - Sagara Yoshie
    Hoshi Yuriko - Whio Tae
    Komoto Mahiro - Suzuhara Yoji
    Seki Megumi - Shimizu Maika
    Fukami Motoki - Tajima Naotaro
    Nakamura Yuko - Sagara Machiko
    Otaka Hiro - Tanida Kanji


    Synopsis:
    Sagara Shuichi (Ito Hideaki), the only son of a long standing sake brewery, “Sagara Brewery” in Kanazawa which is deep in the red, is an elite banker working in Tokyo. However, he ends up being pressed for a divorce by his wife and relegated for assignment at his workplace as a result of defeat in a power struggle. Amidst all this, his mother, who was running the sake brewery after his father’s death, falls ill, and subsequently Shuichi quits his job at the bank and decides to dedicate his life to making sake. In quest of his ideal sake, Shuichi persuades Washio Yusaku (Tsugawa Masahiko), the legendary master brewer feared as an ogre, to work with him. But the brewery workers he was able to gather are all inexperienced in sake making and they had all lost their place in society due to their respective circumstances. Will the day come when the drops of the ultimate “liquid” they pursued will flow?


















    Code
    General
    Complete name                            : LIQUID.Oni.no.Sake.Kiseki.no.Kura.EP02.480p.x264.AAC.mp4
    Format                                   : MPEG-4
    Format profile                           : Base Media
    Codec ID                                 : isom
    File size                                : 257 MiB
    Duration                                 : 48mn 59s


    Video
    ID                                       : 1
    Format                                   : AVC
    Format/Info                              : Advanced Video Codec
    Format profile                           : High@L4.1
    Maximum bit rate                         : 3024 Kbps
    Width                                    : 848 pixels
    Height                                   : 480 pixels


    Audio
    ID                                       : 2
    Format                                   : AAC
    Format/Info                              : Advanced Audio Codec
    Bit rate                                 : 128 Kbps



    0 0

    Original Post: DoS Deka EP02 720p HDTV x264 AAC-DoA



    http://wiki.d-addicts.com/DoS_Deka
    http://asianwiki.com/DoS_Deka

    Title (romaji): DoS Deka
    Also known as: Ms. Sadistic Detective
    Format: Renzoku
    Genre: Detective comedy
    Episodes: TBD
    Broadcast network: NTV
    Broadcast period: 2015-Apr-11 start
    Air time: Saturday 21:00
    Theme song: Tsuyoku Tsuyoku Tsuyoku by Kanjani8
    Subtitles: English(synced to the RAW uploaded at plotboxes) - hikaruisyum
    RAW credit to DoA


    Cast

       Tabe Mikako as Kuroi Maya
       Okura Tadayoshi as Daikanyama Shusuke
       Yoshida Yo as Shirokane Fujiko
       Yaotome Hikaru as Hamda Soichiro
       Nakamura Yasuhi as Nakane Masanobu
       Katsumura Masanobu as Arisugawa Tsuneo
       Ishii Masanori as Yura Fumio
       Mitz Mangrove (ミッツ・マングローブ) as Inui Kenzaburo
       Seto Saori (瀬戸さおり) as Daikanyama Kaori
       Suga Yusuke (菅裕輔) as Ken-chan
       Ibu Masato as Kondo Tokuji
       Kishimoto Kayoko as Daikanyama Keiko


    Synopsis

    An uber-sadistic female detective and her nice-guy cop—an unbeatable partnership?! A delightful police comedy is born!

    She has no loyalty to her organization and doesn't follow any rules. She's a detective who enjoys seeing people's troubled faces. Her name is Kuroi Maya. She chose to become a detective because she thought she could torment bad people all she wants. With her sharp intuition, she finds the suspects quicker than anybody else. Beautiful but also a pain in the neck, she unleashes her sadistic ways to round up the bad people from society. This is a story about a never-before-seen uber-sadistic detective.

    Her unlucky partner? Daikanyama Shusuke, an officer who works in a police box. Caught in between a strong-willed mother and younger sister, he is constantly being pushed around at home. Shusuke and Maya have their chance encounter at a crime scene and the two end up as buddies. -- NTV


    Mediainfo
    Spoiler:show

    Code
    Format                                   : Matroska
    Format version                           : Version 4 / Version 2
    File size                                : 1.20 GiB
    Duration                                 : 46mn 4s
    Overall bit rate                         : 3 728 Kbps
    Movie name                               : ドS刑事 第2話 720p HDTV x264 AAC-DoA
    Encoded date                             : UTC 2015-04-22 03:01:20
    Writing application                      : mkvmerge v7.8.0 ('River Man') 64bit built on Mar 27 2015 16:31:37
    Writing library                          : libebml v1.3.1 + libmatroska v1.4.2
    DURATION                                 : 00:46:04.821000000
    NUMBER_OF_FRAMES                         : 129601
    NUMBER_OF_BYTES                          : 65189303
    _STATISTICS_WRITING_APP                  : mkvmerge v7.8.0 ('River Man') 64bit built on Mar 27 2015 16:31:37
    _STATISTICS_WRITING_DATE_UTC             : 2015-04-22 03:01:20
    _STATISTICS_TAGS                         : BPS DURATION NUMBER_OF_FRAMES NUMBER_OF_BYTES

    Video
    ID                                       : 1
    Format                                   : AVC
    Format/Info                              : Advanced Video Codec
    Format profile                           : High@L4.1
    Format settings, CABAC                   : Yes
    Format settings, ReFrames                : 9 frames
    Codec ID                                 : V_MPEG4/ISO/AVC
    Duration                                 : 46mn 4s
    Width                                    : 1 280 pixels
    Height                                   : 720 pixels
    Display aspect ratio                     : 16:9
    Frame rate mode                          : Constant
    Frame rate                               : 29.970 fps
    Color space                              : YUV
    Chroma subsampling                       : 4:2:0
    Bit depth                                : 8 bits
    Scan type                                : Progressive
    Title                                    : Encode by TTG-DoA
    Writing library                          : x264 core 146 r2538 121396c
    Encoding settings                        : cabac=1 / ref=9 / deblock=1:-2:-2 / analyse=0x3:0x133 / me=umh / subme=10 / psy=1 / psy_rd=1.00:0.15 / mixed_ref=1 / me_range=48 / chroma_me=1 / trellis=2 / 8x8dct=1 / cqm=0 / deadzone=21,11 / fast_pskip=0 / chroma_qp_offset=-3 / threads=12 / lookahead_threads=2 / sliced_threads=0 / nr=0 / decimate=1 / interlaced=0 / bluray_compat=0 / constrained_intra=0 / bframes=8 / b_pyramid=2 / b_adapt=2 / b_bias=0 / direct=3 / weightb=1 / open_gop=0 / weightp=2 / keyint=300 / keyint_min=29 / scenecut=40 / intra_refresh=0 / rc_lookahead=60 / rc=crf / mbtree=1 / crf=17.0 / qcomp=0.60 / qpmin=0 / qpmax=69 / qpstep=4 / ip_ratio=1.40 / aq=1:1.00
    Language                                 : Japanese
    Default                                  : Yes
    Forced                                   : No
    _STATISTICS_WRITING_APP                  : mkvmerge v7.8.0 ('River Man') 64bit built on Mar 27 2015 16:31:37
    _STATISTICS_WRITING_DATE_UTC             : 2015-04-22 03:01:20
    _STATISTICS_TAGS                         : BPS DURATION NUMBER_OF_FRAMES NUMBER_OF_BYTES
    DURATION                                 : 00:46:04.795000000
    NUMBER_OF_FRAMES                         : 82861
    NUMBER_OF_BYTES                          : 1222478485

    Audio
    ID                                       : 2
    Format                                   : AAC
    Format/Info                              : Advanced Audio Codec
    Format profile                           : LC
    Codec ID                                 : A_AAC
    Duration                                 : 46mn 4s
    Channel(s)                               : 2 channels
    Channel positions                        : Front: L R
    Sampling rate                            : 48.0 KHz
    Compression mode                         : Lossy
    Language                                 : Japanese
    Default                                  : Yes
    Forced                                   : No

    Menu
    00:00:00.000                             : ja:Chapter 01
    00:17:57.976                             : ja:Chapter 02
    00:23:09.921                             : ja:Chapter 03
    00:33:23.868                             : ja:Chapter 04





    my upload speed drops to a combined of 1MB/s only between 6pm to 12midnight, so please be patient in the evening.


    0 0

    Original Post: TVB The Greed of Man E01 720p OdF


    Title: 大時代 / 大时代
    Cantonese/Mandarin title: Dai Shi Dui / Da Shi Dai
    English title: The Greed of Man
    Also known as: Greed of Man
    Genre: Contemporary drama
    Episodes: 40
    Broadcast network: TVB
    Broadcast period: 1992-Oct-05 to 1992-Nov-27
    Air time: Monday to Friday 19:35-20:35
    HD Re-broadcast period: 2014-Apr-21 to ???

    Synopsis
    The Greed of Man is a Hong Kong television series first broadcast on TVB Jade in 1992. The story, spanning three decades from the 1970s to the 1990s in Hong Kong and Taiwan, addresses various social and financial phenomena of the times, from triad violence to corruption in the Hong Kong stock exchange. It featured a top roster cast, including veteran TVB actors Adam Cheng and Damian Lau and award-winning actor Sean Lau Ching Wan.

    Cast
    Adam Cheng as Ting Hai
    Sean Lau
    Yammie Nam
    Loretta Lee
    David Siu
    Leila Tong
    Michael Tao
    Bowie Lam
    Damian Lau
    Amy Kwok
    Vivian Chow as Yuen Mui
    Kenneth Tsang
    Derek Kwok
    Carol Yeung as Fong Mun
    Law Lok Lam as Yip Tin
    Wilson Tsui







    Code
    Video
    ID                             : 1
    Format                         : AVC
    Format/Info                    : Advanced Video Codec
    Format profile                 : Main@L4.0
    Format settings, CABAC         : Yes
    Format settings, ReFrames      : 4 frames
    Codec ID                       : V_MPEG4/ISO/AVC
    Nominal bit rate               : 4 300 Kbps
    Width                          : 1 280 pixels
    Height                         : 720 pixels
    Display aspect ratio           : 16:9
    Frame rate mode                : Variable
    Color space                    : YUV
    Chroma subsampling             : 4:2:0
    Bit depth                      : 8 bits
    Scan type                      : Progressive
    Writing library                : x264 core 130 r2273 b3065e6
    Encoding settings              : cabac=1 / ref=1 / deblock=1:0:0 / analyse=0x1:0x111 / me=hex / subme=2 / psy=1 / psy_rd=1.00:0.00 / mixed_ref=0 / me_range=16 / chroma_me=1 / trellis=0 / 8x8dct=0 / cqm=0 / deadzone=21,11 / fast_pskip=1 / chroma_qp_offset=0 / threads=1 / lookahead_threads=1 / sliced_threads=0 / nr=0 / decimate=1 / interlaced=0 / bluray_compat=0 / constrained_intra=0 / bframes=3 / b_pyramid=2 / b_adapt=1 / b_bias=0 / direct=1 / weightb=1 / open_gop=0 / weightp=1 / keyint=250 / keyint_min=25 / scenecut=40 / intra_refresh=0 / rc_lookahead=10 / rc=abr / mbtree=1 / bitrate=3500 / ratetol=1.0 / qcomp=0.60 / qpmin=0 / qpmax=69 / qpstep=4 / vbv_maxrate=20000 / vbv_bufsize=25000 / nal_hrd=none / ip_ratio=1.40 / aq=1:1.00
    Language                       : Chinese
    Default                        : Yes
    Forced                         : No
    Color primaries                : BT.709
    Transfer characteristics       : BT.709
    Matrix coefficients            : BT.709

    Audio
    ID                             : 2
    Format                         : AAC
    Format/Info                    : Advanced Audio Codec
    Format profile                 : LC
    Codec ID                       : A_AAC
    Duration                       : 44mn 19s
    Channel(s)                     : 2 channels
    Channel positions              : Front: L R
    Sampling rate                  : 48.0 KHz
    Compression mode               : Lossy
    Title                          : Cantonese
    Language                       : Chinese
    Default                        : Yes
    Forced                         : No

    Text
    ID                             : 3
    Format                         : UTF-8
    Codec ID                       : S_TEXT/UTF8
    Codec ID/Info                  : UTF-8 Plain Text
    Default                        : Yes
    Forced                         : No



    Uploaders note: this is a re-broadcast of a 1992 drama.  It was originally recorded in full screen 4:3


    0 0

    Original Post: [Mini Album] MR.MR – Out [2nd Mini Album]



    http://en.wikipedia.org/wiki/Mr._Mr_%28band%29

    미스터미스터 – Out
    Release Date: 2015.04.24
    Genre: Dance
    Language: Korean
    Bit Rate: MP3-320kbps
    credit to hulkpop

    Now featuring the six member lineup of Jin, Do Yeon, Chang Jae, Tey and new additions Sang Hyun and Jae Min, MR.MR makes a fresh start with the new mini-album Out. The group’s second mini-album comes with ten tracks including the R&B dance pop title song, last year’s digital singles Big Man and It’s You, and Tey’s solo single Dangerous.

    Track List:

    01. Out
    02. Goodbye
    03. She Is So Beautiful
    04. Finale
    05. You
    06. Big Man
    07. It’s You
    08. Do You Feel Me
    09. Dangerous
    10. Out (Inst.)



    0 0

    Original Post: [Mini Album] UNIQ – The 1st Mini Album 'EOEO'



    http://en.wikipedia.org/wiki/Uniq_%28band%29

    유니크 – The 1st Mini Album ‘EOEO’
    Release Date: 2015.04.24
    Genre: Rap / Hip-Hop
    Language: Korean
    Bit Rate: MP3-320kbps
    credit to hulkpop

    Produced by Yuehwa Entertainment and trained by YG Entertainment, rookie group Uniq – formed by Chinese members Zhou Yixuan, Lee Wenhan and Wang Yibo and Korean members Kim Sung Joo and Cho Seung Youn – made a strong debut in both Korea and China last year. The Chinese-Korean boy band has worked with Shin Hyuk and Joombas Music for their first mini-album EOEO. Besides the powerful title song, the album includes the dubstep-based pop song Listen To Me, as well as the group’s debut single Falling Love and Born To Fight, the Korean theme song for the 2014 Teenage Mutant Ninja Turtles movie.

    Track List:

    01. EOEO
    02. Luv Again
    03. Listen To Me
    04. Falling In Love
    05. Born To Fight



    0 0

    Original Post: [Mini Album] HOTSHOT – Am I Hotshot [1st Mini Album]



    [EP] 핫샷 (HOTSHOT) – Am I Hotshot?
    Release Date: 2015.04.24
    Genre: Rap / Hip-Hop
    Language: Korean
    Bit Rate: MP3-320kbps
    credit to hulkpop

    Following their hot debut last year, rookie boy band Hotshot now drops their first mini-album. Am I Hotshot? features the title song Watch Out from producer Shin Hyuk, who composed EXO’s “Growl” and Hotshot’s debut single Take a Shot which is included on this mini-album. The group’s catchy uptempo single, released digitally last month, also makes the tracklist.

    Track List:

    01. Midnight sun
    02. Watch out
    03. Rain on me
    04. Take a shot
    05. Watch out (Inst.)



    0 0
  • 04/24/15--05:33: I'm Home ep02 480p
  • Original Post: I'm Home ep02 480p



    http://wiki.d-addicts.com/I%27m_Home_%28TV_Asahi%29
    http://asianwiki.com/I%27m_Home

    Title: アイムホーム
    Title (English): I'm home
    Format: Renzoku
    Genre: Family mystery
    Broadcast network: TV Asahi
    Episodes: TBD
    Broadcast period: 2015-Apr-16 start
    Air time: Thursday 21:00
    Language: Japanese
    Country: Japan
    Subtitles: will be added when available
    RAW credit to furransu

    Cast
       Kimura Takuya as Ieji Hisashi
       Ueto Aya as Ieji Megumi
       Mizuno Miki as Nozawa Kaoru
       Tanaka Kei as Honjo Tsuyoshi
       Suzuki Kosuke as Watanuki Shinji
       Yoshimoto Miyu as Takanashi Yua
       Ino Manabu (猪野学) as Hifumi Tsutomu
       Anami Atsuko as Isami Yoko
       Nomaguchi Toru as Iwashita Noboru
       Yano Masato as Tokura Shingo
       Takahashi Rai (高橋來) as Ieji Yoshio
       Yamaguchi Mayu (山口まゆ) as Nozawa Subaru
       Arai Hirofumi as Kuroki Jin
       Mitsuishi Ken as Todoroki Haruki
       Watanabe Ikkei as Teshigawara Yosuke
       Oikawa Mitsuhiro as Tsukuba Yoshiaki
       Nishida Toshiyuki as Kozukue Yukio

    Synopsis
    Ieji Hisashi, a salaryman who works for a securities company, has a fuzzy memory of the recent five years because of an accident at his job posting. His wife of five years, Megumi and their 4-year-old son seem to wear masks. He can neither tell their facial expressions nor their emotions. He also struggles about his love for them. On the other hand, Ieji feels an attachment to his ex-wife, whom he divorced five years ago, and their daughter. What sort of days did he have in those five years which are a blank to him? Ieji sets out on a journey to find his past self with a mysterious bunch of 10 keys that he has. He becomes aware that he was a cold, career-minded man before the accident, and the persona that is gradually revealed is beyond the imagination of his present kindhearted self.

    General
    Complete name                  : I'm Home ep02 (848x480 x264).mp4
    Format                         : MPEG-4
    Format profile                 : Base Media
    Codec ID                       : isom
    File size                      : 300 MiB
    Duration                       : 46mn 56s
    Overall bit rate mode          : Variable
    Overall bit rate               : 893 Kbps

    Video
    ID                             : 1
    Format                         : AVC
    Format/Info                    : Advanced Video Codec
    Format profile                 : High@L4.1
    Format settings, CABAC         : Yes
    Format settings, ReFrames      : 4 frames
    Codec ID                       : avc1
    Codec ID/Info                  : Advanced Video Coding
    Duration                       : 46mn 56s
    Bit rate                       : 760 Kbps
    Maximum bit rate               : 3 581 Kbps
    Width                          : 848 pixels
    Height                         : 480 pixels
    Display aspect ratio           : 16:9
    Frame rate mode                : Constant
    Frame rate                     : 29.970 fps
    Color space                    : YUV
    Chroma subsampling             : 4:2:0
    Bit depth                      : 8 bits
    Scan type                      : Progressive
    Bits/(Pixel*Frame)             : 0.062
    Stream size                    : 255 MiB (85%)

    Audio
    ID                             : 2
    Format                         : AAC
    Format/Info                    : Advanced Audio Codec
    Format profile                 : LC
    Codec ID                       : 40
    Duration                       : 46mn 56s
    Bit rate mode                  : Variable
    Bit rate                       : 128 Kbps
    Maximum bit rate               : 135 Kbps
    Channel count                  : 2 channels
    Channel positions              : Front: L R
    Sampling rate                  : 48.0 KHz
    Compression mode               : Lossy



    0 0

    Original Post: [Mini Album] Raspberry Field – 꿈,틀



    Raspberry Field - 꿈,틀
    Release Date: 2015.04.24
    Language: Korean
    Genre: Folk, Ballad
    Bit Rate: 320kbps

    01. 스물셋, 봄
    02. 청춘열차
    03. What A Feeling
    04. 시간여행자
    05. 스물셋, 봄 (Radio Edit)
    06. 스물셋, 봄 (Inst.)
    07. 청춘열차 (Inst.)

    You can also download Raspberry Field's discography here @ AsiaTorrents


    0 0

    Original Post: TVB The Greed of Man E02 720p OdF


    Title: 大時代 / 大时代
    Cantonese/Mandarin title: Dai Shi Dui / Da Shi Dai
    English title: The Greed of Man
    Also known as: Greed of Man
    Genre: Contemporary drama
    Episodes: 40
    Broadcast network: TVB
    Broadcast period: 1992-Oct-05 to 1992-Nov-27
    Air time: Monday to Friday 19:35-20:35
    HD Re-broadcast period: 2014-Apr-21 to ???

    Synopsis
    The Greed of Man is a Hong Kong television series first broadcast on TVB Jade in 1992. The story, spanning three decades from the 1970s to the 1990s in Hong Kong and Taiwan, addresses various social and financial phenomena of the times, from triad violence to corruption in the Hong Kong stock exchange. It featured a top roster cast, including veteran TVB actors Adam Cheng and Damian Lau and award-winning actor Sean Lau Ching Wan.

    Cast
    Adam Cheng as Ting Hai
    Sean Lau
    Yammie Nam
    Loretta Lee
    David Siu
    Leila Tong
    Michael Tao
    Bowie Lam
    Damian Lau
    Amy Kwok
    Vivian Chow as Yuen Mui
    Kenneth Tsang
    Derek Kwok
    Carol Yeung as Fong Mun
    Law Lok Lam as Yip Tin
    Wilson Tsui







    Code
    Video
    ID                             : 1
    Format                         : AVC
    Format/Info                    : Advanced Video Codec
    Format profile                 : Main@L4.0
    Format settings, CABAC         : Yes
    Format settings, ReFrames      : 4 frames
    Codec ID                       : V_MPEG4/ISO/AVC
    Nominal bit rate               : 4 300 Kbps
    Width                          : 1 280 pixels
    Height                         : 720 pixels
    Display aspect ratio           : 16:9
    Frame rate mode                : Variable
    Color space                    : YUV
    Chroma subsampling             : 4:2:0
    Bit depth                      : 8 bits
    Scan type                      : Progressive
    Writing library                : x264 core 130 r2273 b3065e6
    Encoding settings              : cabac=1 / ref=1 / deblock=1:0:0 / analyse=0x1:0x111 / me=hex / subme=2 / psy=1 / psy_rd=1.00:0.00 / mixed_ref=0 / me_range=16 / chroma_me=1 / trellis=0 / 8x8dct=0 / cqm=0 / deadzone=21,11 / fast_pskip=1 / chroma_qp_offset=0 / threads=1 / lookahead_threads=1 / sliced_threads=0 / nr=0 / decimate=1 / interlaced=0 / bluray_compat=0 / constrained_intra=0 / bframes=3 / b_pyramid=2 / b_adapt=1 / b_bias=0 / direct=1 / weightb=1 / open_gop=0 / weightp=1 / keyint=250 / keyint_min=25 / scenecut=40 / intra_refresh=0 / rc_lookahead=10 / rc=abr / mbtree=1 / bitrate=3500 / ratetol=1.0 / qcomp=0.60 / qpmin=0 / qpmax=69 / qpstep=4 / vbv_maxrate=20000 / vbv_bufsize=25000 / nal_hrd=none / ip_ratio=1.40 / aq=1:1.00
    Language                       : Chinese
    Default                        : Yes
    Forced                         : No
    Color primaries                : BT.709
    Transfer characteristics       : BT.709
    Matrix coefficients            : BT.709

    Audio
    ID                             : 2
    Format                         : AAC
    Format/Info                    : Advanced Audio Codec
    Format profile                 : LC
    Codec ID                       : A_AAC
    Duration                       : 44mn 19s
    Channel(s)                     : 2 channels
    Channel positions              : Front: L R
    Sampling rate                  : 48.0 KHz
    Compression mode               : Lossy
    Title                          : Cantonese
    Language                       : Chinese
    Default                        : Yes
    Forced                         : No

    Text
    ID                             : 3
    Format                         : UTF-8
    Codec ID                       : S_TEXT/UTF8
    Codec ID/Info                  : UTF-8 Plain Text
    Default                        : Yes
    Forced                         : No



    Uploaders note: this is a re-broadcast of a 1992 drama.  It was originally recorded in full screen 4:3


    0 0

    Original Post: Mother Game EP02 720p HDTV x264 AAC-DoA



    http://wiki.d-addicts.com/Mother_Game
    http://asianwiki.com/Mother_Game
    http://thetvdb.com/?tab=series&id=293381&lid=7

    Title (English): Mother Game
    Also known as: The Mother Class
    Tagline: 彼女たちの階級 / Kanojotachi no Kaikyuu
    Format: Renzoku
    Genre: Family
    Episodes: TBD
    Broadcast network: TBS
    Broadcast period: 2015-Apr-14 start
    Air time: Tuesday 22:00
    Theme song: Beautiful by Superfly
    Subtitles: None
    RAW credit to DoA


    Cast

    Kanbara Family

       Kimura Fumino as Kanbara Kiko
       Ryu Raita as Kanbara Tetsuji
       Yamamoto Ayumu (横山歩) as Kanbara Haruto

    Odadera Family

       Dan Rei as Odadera Marie
       Igarashi Hinata (五十嵐陽向) as Odadera Makoto

    Yano Family

       Hasegawa Kyoko as Yano Satoko
       Hasegawa Kiyo (長谷川稀世) as Yano Shizuko
       Sakurai Hijiri as Yano Masaki
       Kanon as Yano Reina
       Watanabe Reika (渡邊れいら) as Yano Erina
       Oe Yusei (大江優成) as Yano Yuuki

    Kamiya Family

       Kanjiya Shihori as Kamiya Yuki
       Shinoda Mitsuyoshi as Kamiya Kyoji
       Goto Yuira (後藤由依良) as Kamiya Sakurako

    Goto Family

       Adachi Yumi as Goto Midori
       Maruyama Tomomi as Goto Rika
       Yazaki Yusa (矢崎由紗) as Goto Shuhei

    Others

       Muroi Shigeru as Naraoka Fumi
       Seto Koji as Naraoka Shinnosuke
       Okada Yoshinori as Kashiyama Hidenori
       Emi Kurara as Yamakawa Mamiko
       Tominaga Saori (富永沙織) as Tsunoda Kayo
       Kamiji Yusuke as Isoyama Takumi
       Tanaka Naoki as Member of staff
       Toyohara Kosuke as Mysterious Man
       Shibukawa Kiyohiko (渋川清彦) as Kashiwagi Kunpei


    Synopsis

    Kanbara Kiko is a poor single mother whose 5-year-old son, Haruto, gets admitted to a prestigious kindergarten in an unexpected turn of events. One Haruto's first day of school, high-end cars are backed up in front of the kindergarten’s front gate. Mothers swagger on high heels within the compound and carry luxury brand bags. Although Kiko is shocked by the reality of this kindergarten where she is out of her element, she expresses her feelings directly to the mothers who regard her as an enemy. With her vivacity and compassion, she starts to change the thinking and establish new bonds with these rigid women living in a completely different world and generation. -- Jdrama Weblog


    Mediainfo
    Spoiler:show

    Code
    Format                                   : Matroska
    Format version                           : Version 4 / Version 2
    File size                                : 1.11 GiB
    Duration                                 : 46mn 29s
    Overall bit rate                         : 3 418 Kbps
    Movie name                               : マザー・ゲーム~彼女たちの階級~ #02 720p HDTV x264 AAC-DoA
    Encoded date                             : UTC 2015-04-22 10:16:39
    Writing application                      : mkvmerge v7.8.0 ('River Man') 64bit built on Mar 27 2015 16:31:37
    Writing library                          : libebml v1.3.1 + libmatroska v1.4.2
    DURATION                                 : 00:46:29.717000000
    NUMBER_OF_FRAMES                         : 130768
    NUMBER_OF_BYTES                          : 65776292
    _STATISTICS_WRITING_APP                  : mkvmerge v7.8.0 ('River Man') 64bit built on Mar 27 2015 16:31:37
    _STATISTICS_WRITING_DATE_UTC             : 2015-04-22 10:16:39
    _STATISTICS_TAGS                         : BPS DURATION NUMBER_OF_FRAMES NUMBER_OF_BYTES

    Video
    ID                                       : 1
    Format                                   : AVC
    Format/Info                              : Advanced Video Codec
    Format profile                           : High@L4.1
    Format settings, CABAC                   : Yes
    Format settings, ReFrames                : 9 frames
    Codec ID                                 : V_MPEG4/ISO/AVC
    Duration                                 : 46mn 29s
    Width                                    : 1 280 pixels
    Height                                   : 720 pixels
    Display aspect ratio                     : 16:9
    Frame rate mode                          : Constant
    Frame rate                               : 29.970 fps
    Color space                              : YUV
    Chroma subsampling                       : 4:2:0
    Bit depth                                : 8 bits
    Scan type                                : Progressive
    Title                                    : Encode by DoA
    Writing library                          : x264 core 130 r2273 b3065e6
    Encoding settings                        : cabac=1 / ref=9 / deblock=1:-2:-2 / analyse=0x3:0x133 / me=umh / subme=10 / psy=1 / psy_rd=1.00:0.15 / mixed_ref=1 / me_range=48 / chroma_me=1 / trellis=2 / 8x8dct=1 / cqm=0 / deadzone=21,11 / fast_pskip=0 / chroma_qp_offset=-3 / threads=12 / lookahead_threads=2 / sliced_threads=0 / nr=0 / decimate=1 / interlaced=0 / bluray_compat=0 / constrained_intra=0 / bframes=8 / b_pyramid=2 / b_adapt=2 / b_bias=0 / direct=3 / weightb=1 / open_gop=0 / weightp=2 / keyint=300 / keyint_min=29 / scenecut=40 / intra_refresh=0 / rc_lookahead=60 / rc=crf / mbtree=1 / crf=17.5 / qcomp=0.60 / qpmin=0 / qpmax=69 / qpstep=4 / ip_ratio=1.40 / aq=1:1.00
    Language                                 : Japanese
    Default                                  : Yes
    Forced                                   : No
    DURATION                                 : 00:46:29.920000000
    NUMBER_OF_FRAMES                         : 83614
    NUMBER_OF_BYTES                          : 1125159394
    _STATISTICS_WRITING_APP                  : mkvmerge v7.8.0 ('River Man') 64bit built on Mar 27 2015 16:31:37
    _STATISTICS_WRITING_DATE_UTC             : 2015-04-22 10:16:39
    _STATISTICS_TAGS                         : BPS DURATION NUMBER_OF_FRAMES NUMBER_OF_BYTES

    Audio
    ID                                       : 2
    Format                                   : AAC
    Format/Info                              : Advanced Audio Codec
    Format profile                           : LC
    Codec ID                                 : A_AAC
    Duration                                 : 46mn 29s
    Channel(s)                               : 2 channels
    Channel positions                        : Front: L R
    Sampling rate                            : 48.0 KHz
    Compression mode                         : Lossy
    Delay relative to video                  : 3ms
    Language                                 : Japanese
    Default                                  : Yes
    Forced                                   : No

    Menu
    00:00:00.000                             : ja:マザー・ゲーム~彼女たちの階級~ #02 Part 1
    00:03:32.812                             : ja:オープニング
    00:03:40.787                             : ja:マザー・ゲーム~彼女たちの階級~ #02 Part 2
    00:16:02.962                             : ja:マザー・ゲーム~彼女たちの階級~ #02 Part 3
    00:22:55.974                             : ja:マザー・ゲーム~彼女たちの階級~ #02 Part 4
    00:28:52.964                             : ja:マザー・ゲーム~彼女たちの階級~ #02 Part 5
    00:46:14.972                             : ja:次回予告





    0 0

    Original Post: Dining with the Chef ~ Authentic Japanese Cooking ~ Cutting : Ushio-jiru (Soup made from tai fish stock) 704x400 x264 LB



    Title: Dining with the Chef

    Broadcast Date: April 14, 2014
    Run Time: 28 minutes
    Genre: Cooking show
    Language: English
    Country: Japan
    Subtitles: None

    "Dining with the Chef" introduces the worldview and attraction of Japanese cuisine that cares about the overall harmony of a variety of ingredients.

    This episode:

    Authentic Japanese Cooking

    Cutting : Ushio-jiru (Soup made from tai fish stock)

    We take a look at ushio-jiru soup using an in-season fish, sea bream. We'll show you how to fillet a sea bream and create a delicious soup with a fantastic aroma. It's garnished with iris-shaped udo and rapini to add a lovely touch of spring.

    The second dish is rice with sea bream, which uses dashi and leftover fish from the ushio-jiru soup, bringing out the umami of the sea bream.



    Media Info

    Code

    General
    Format                                   : Matroska
    Format version                           : Version 2
    File size                                : 219 MiB
    Duration                                 : 28mn 0s
    Overall bit rate mode                    : Variable
    Overall bit rate                         : 1 091 Kbps
    Writing application                      : HandBrake rev20121007
    Writing library                          : libmkv 0.6.5.1

    Video
    ID                                       : 1
    Format                                   : AVC
    Format/Info                              : Advanced Video Codec
    Format profile                           : High@L3.0
    Format settings, CABAC                   : Yes
    Format settings, ReFrames                : 4 frames
    Codec ID                                 : V_MPEG4/ISO/AVC
    Duration                                 : 28mn 0s
    Width                                    : 704 pixels
    Height                                   : 384 pixels
    Display aspect ratio                     : 1.85:1
    Frame rate mode                          : Variable
    Frame rate                               : 29.970 fps
    Color space                              : YUV
    Chroma subsampling                       : 4:2:0
    Bit depth                                : 8 bits
    Scan type                                : Progressive
    Writing library                          : x264 core 132
    Encoding settings                        : cabac=1 / ref=3 / deblock=1:0:0 / analyse=0x3:0x113 / me=hex / subme=7 / psy=1 / psy_rd=1.00:0.00 / mixed_ref=1 / me_range=16 / chroma_me=1 / trellis=1 / 8x8dct=1 / cqm=0 / deadzone=21,11 / fast_pskip=1 / chroma_qp_offset=-2 / threads=6 / lookahead_threads=1 / sliced_threads=0 / nr=0 / decimate=1 / interlaced=0 / bluray_compat=0 / constrained_intra=0 / bframes=3 / b_pyramid=2 / b_adapt=1 / b_bias=0 / direct=1 / weightb=1 / open_gop=0 / weightp=2 / keyint=300 / keyint_min=30 / scenecut=40 / intra_refresh=0 / rc_lookahead=40 / rc=crf / mbtree=1 / crf=20.0 / qcomp=0.60 / qpmin=3 / qpmax=69 / qpstep=4 / ip_ratio=1.40 / aq=1:1.00
    Language                                 : English
    Default                                  : Yes
    Forced                                   : No
    Color primaries                          : BT.601-6 525, BT.1358 525, BT.1700 NTSC, SMPTE 170M
    Transfer characteristics                 : BT.709-5, BT.1361
    Matrix coefficients                      : BT.601-6 525, BT.1358 525, BT.1700 NTSC, SMPTE 170M

    Audio
    ID                                       : 2
    Format                                   : MPEG Audio
    Format version                           : Version 1
    Format profile                           : Layer 3
    Codec ID                                 : A_MPEG/L3
    Codec ID/Hint                            : MP3
    Duration                                 : 28mn 0s
    Bit rate mode                            : Variable
    Channel(s)                               : 2 channels
    Sampling rate                            : 48.0 KHz
    Compression mode                         : Lossy
    Default                                  : Yes
    Forced                                   : No




    0 0
  • 04/24/15--14:24: The Lover E03 XVID WITH
  • Original Post: The Lover E03 XVID WITH

    Warning: this show is rated 19+ and contains mature content


    Title: The Lover 더 러버
    Genre: Historical, Melodrama, Romance, Suspense
    Episodes: 12
    Broadcast network: MNET
    Broadcast period (Korea): 2015-APRIL -02 to
    Air time: Thursday 23:00

    It’s an omnibus series about four different couples living together in one apartment complex. Oh Do Si and Ryu Du Ri play the main couple in their 30s, who’ve been living together for two years. Oh Do Si is a voice actor, and Ryu Du Ri is a reviewer who runs a blog. They’re an average 30-something couple and they simply chose to live together instead of getting married. Choi Jin Nye and Jung Young Joon are couple that’s twelve years apart in age. She’s a penny-pincher who basically supports her younger boyfriend, and he’s a musician who carries a guitar but doesn’t know how to play it. They’ve been living together for a year, and though they fight like cats and dogs, they’re always quick to make up. Ha Seoul Eun and Park Hwan Jong are a 20-something couple that just moved in together. She’s the type of woman who doesn’t want her boyfriend to know that she isn’t the perfect embodiment of femininity, and works tirelessly to keep up the illusion. Lee Joon Jae is a loner who prefers to stay at home, but is forced to get a roommate for financial reasons. He doesn’t even want to exchange unnecessary small talk with the guy, and thus seeks out a foreigner who can’t speak Korean very well. Takuya is the new roommate, a young man from Japan who’s on a trip around the world. Takyua thinks it a shame that Lee Jae-joon is wasting his youth as a homebody, and begins to draw him out into the world.

    - Cast
    Oh Jung Se as Oh Do Si
    Ryu Hyun Kyung as Ryoo Doo Ri
    Choi Yeo Jin as Choi Jin Nyeo
    Jung Joon Young as Jeong Yeong Joon
    Ha Eun Sul as Ha Seol Eun
    Park Jong Hwan as Park Hwan Jong
    Lee Jae Joon as Lee Joon Jae
    Terada Takuya as Takuya




    Code
    Video
    ID                                       : 0
    Format                                   : MPEG-4 Visual
    Format profile                           : Advanced Simple@L5
    Format settings, BVOP                    : No
    Format settings, QPel                    : No
    Format settings, GMC                     : No warppoints
    Format settings, Matrix                  : Default (MPEG)
    Codec ID                                 : XVID
    Codec ID/Hint                            : XviD
    Bit rate                                 : 1 391 Kbps
    Width                                    : 624 pixels
    Height                                   : 352 pixels
    Display aspect ratio                     : 16:9
    Frame rate                               : 29.970 fps
    Color space                              : YUV
    Chroma subsampling                       : 4:2:0
    Bit depth                                : 8 bits
    Scan type                                : Progressive
    Compression mode                         : Lossy
    Bits/(Pixel*Frame)                       : 0.211
    Stream size                              : 660 MiB (87%)
    Writing library                          : XviD 1.2.1 (UTC 2008-12-04)

    Audio
    ID                                       : 1
    Format                                   : MPEG Audio
    Format version                           : Version 1
    Format profile                           : Layer 3
    Mode                                     : Joint stereo
    Mode extension                           : MS Stereo
    Codec ID                                 : 55
    Codec ID/Hint                            : MP3
    Bit rate mode                            : Constant
    Bit rate                                 : 128 Kbps
    Channel(s)                               : 2 channels
    Sampling rate                            : 48.0 KHz
    Compression mode                         : Lossy
    Stream size                              : 60.8 MiB (8%)
    Alignment                                : Aligned on interleaves
    Writing library                          : LAME3.98.2



    0 0
  • 04/24/15--14:24: The Lover E03 720p WITH
  • Original Post: The Lover E03 720p WITH

    Warning: this show is rated 19+ and contains mature content

    Title: The Lover 더 러버
    Genre: Historical, Melodrama, Romance, Suspense
    Episodes: 12
    Broadcast network: MNET
    Broadcast period (Korea): 2015-APRIL -02 to
    Air time: Thursday 23:00

    It’s an omnibus series about four different couples living together in one apartment complex. Oh Do Si and Ryu Du Ri play the main couple in their 30s, who’ve been living together for two years. Oh Do Si is a voice actor, and Ryu Du Ri is a reviewer who runs a blog. They’re an average 30-something couple and they simply chose to live together instead of getting married. Choi Jin Nye and Jung Young Joon are couple that’s twelve years apart in age. She’s a penny-pincher who basically supports her younger boyfriend, and he’s a musician who carries a guitar but doesn’t know how to play it. They’ve been living together for a year, and though they fight like cats and dogs, they’re always quick to make up. Ha Seoul Eun and Park Hwan Jong are a 20-something couple that just moved in together. She’s the type of woman who doesn’t want her boyfriend to know that she isn’t the perfect embodiment of femininity, and works tirelessly to keep up the illusion. Lee Joon Jae is a loner who prefers to stay at home, but is forced to get a roommate for financial reasons. He doesn’t even want to exchange unnecessary small talk with the guy, and thus seeks out a foreigner who can’t speak Korean very well. Takuya is the new roommate, a young man from Japan who’s on a trip around the world. Takyua thinks it a shame that Lee Jae-joon is wasting his youth as a homebody, and begins to draw him out into the world.

    - Cast
    Oh Jung Se as Oh Do Si
    Ryu Hyun Kyung as Ryoo Doo Ri
    Choi Yeo Jin as Choi Jin Nyeo
    Jung Joon Young as Jeong Yeong Joon
    Ha Eun Sul as Ha Seol Eun
    Park Jong Hwan as Park Hwan Jong
    Lee Jae Joon as Lee Joon Jae
    Terada Takuya as Takuya




    Code

    Video
    ID                                       : 0
    Format                                   : AVC
    Format/Info                              : Advanced Video Codec
    Format profile                           : Baseline@L3.1
    Format settings, CABAC                   : No
    Format settings, ReFrames                : 1 frame
    Codec ID                                 : H264
    Bit rate                                 : 3 017 Kbps
    Width                                    : 1 280 pixels
    Height                                   : 720 pixels
    Display aspect ratio                     : 16:9
    Frame rate mode                          : Variable
    Frame rate                               : 29.970 fps
    Color space                              : YUV
    Chroma subsampling                       : 4:2:0
    Bit depth                                : 8 bits
    Scan type                                : Progressive
    Bits/(Pixel*Frame)                       : 0.109

    Audio
    ID                                       : 1
    Format                                   : MPEG Audio
    Format version                           : Version 1
    Format profile                           : Layer 3
    Mode                                     : Joint stereo
    Mode extension                           : MS Stereo
    Codec ID                                 : 55
    Codec ID/Hint                            : MP3
    Bit rate mode                            : Constant
    Bit rate                                 : 128 Kbps
    Channel(s)                               : 2 channels
    Sampling rate                            : 44.1 KHz
    Compression mode                         : Lossy
    Stream size                              : 62.1 MiB (4%)
    Alignment                                : Aligned on interleaves
    Interleave, duration                     : 26 ms (0.78 video frame)
    Writing library                          : LAME3.98.2



older | 1 | .... | 1322 | 1323 | (Page 1324) | 1325 | 1326 | .... | 1405 | newer