Are you the publisher? Claim or contact us about this channel


Embed this content in your HTML

Search

Report adult content:

click to rate:

Account: (login)

More Channels


Showcase


Channel Catalog


Channel Description:

Asia Torrents RSS Feed

older | 1 | .... | 1325 | 1326 | (Page 1327) | 1328 | 1329 | .... | 1405 | newer

    0 0

    Original Post: DumBeast.2009.720p.WEB-DL.x264


    DumBeast (2009)
    Romaji: Donju
    Japanese: 鈍獣
    Director: Hideaki Hosono
    Release Date: May 16, 2009
    Genre: Comedy / Drama
    Country: Japan
    Language: Japanese
    Subtitles: English
    IMDb link: http://www.imdb.com/title/tt1267381/

    Cast:
    Tadanobu Asano - Dekoyan
    Yoko Maki - Shizuka
    Kazuki Kitamura - Edacchi
    Yusuke Santamaria - Okamoto
    Yoko Minamino - Junko
    Aimi Satsukawa - Nora
    Jero - Akira
    Hirotaro Honda - editor-in-chief

    Plot:
    An editor arrives at a Sumo village to find the missing award-nominated writer Deko just in time to bring him to an award ceremony. There, the editor learns that Deko's weird friends have been desperately trying to kill him because of the book Deko wrote about their embarrassing memories. Despite their countless attempts at murder, Deko's dumbness keeps him from even noticing his friends' intentions.

    Media Info:
    Spoiler:show

    General
    Complete name               : DumBeast.2009.720p.WEB-DL.x264.mkv
    Format                      : Matroska
    Format version              : Version 4 / Version 2
    File size                   : 2.30 GiB
    Duration                    : 1h 46mn
    Overall bit rate            : 3 099 Kbps
    Encoded date                : UTC 2015-04-19 04:39:05
    Writing application         : mkvmerge v7.8.0 ('River Man') 64bit built on Mar 27 2015 16:31:37
    Writing library             : libebml v1.3.1 + libmatroska v1.4.2
    DURATION                    : 01:44:31.688000000
    NUMBER_OF_FRAMES            : 1288
    NUMBER_OF_BYTES             : 32233
    _STATISTICS_WRITING_APP     : mkvmerge v7.8.0 ('River Man') 64bit built on Mar 27 2015 16:31:37
    _STATISTICS_WRITING_DATE_UT : 2015-04-19 04:39:05
    _STATISTICS_TAGS            : BPS DURATION NUMBER_OF_FRAMES NUMBER_OF_BYTES

    Video
    ID                          : 1
    Format                      : AVC
    Format/Info                 : Advanced Video Codec
    Format profile              : High@L3.1
    Format settings, CABAC      : Yes
    Format settings, ReFrames   : 5 frames
    Codec ID                    : V_MPEG4/ISO/AVC
    Width                       : 1 280 pixels
    Height                      : 720 pixels
    Display aspect ratio        : 16:9
    Frame rate mode             : Variable
    Color space                 : YUV
    Chroma subsampling          : 4:2:0
    Bit depth                   : 8 bits
    Scan type                   : Progressive
    Default                     : Yes
    Forced                      : No

    Audio
    ID                          : 2
    Format                      : AAC
    Format/Info                 : Advanced Audio Codec
    Format profile              : LC
    Codec ID                    : A_AAC
    Duration                    : 1h 46mn
    Channel(s)                  : 2 channels
    Channel positions           : Front: L R
    Sampling rate               : 48.0 KHz
    Compression mode            : Lossy
    Delay relative to video     : -104ms
    Title                       : Japanese 2.0
    Language                    : Japanese
    Default                     : Yes
    Forced                      : No

    Text
    ID                          : 3
    Format                      : UTF-8
    Codec ID                    : S_TEXT/UTF8
    Codec ID/Info               : UTF-8 Plain Text
    Title                       : English
    Language                    : English
    Default                     : Yes
    Forced                      : No

    "English Subtitles by Kennedy Taylor and Aya Futami. Subtitle timing, editing and additions for this version by famitsu1. Invaluable translation assistance from chochoc and harryumotust. Special thanks to ikeda69."
    I delayed the subs by 16.559 seconds to sync with this version.













    0 0

    Original Post: Minamoto Yoshitsune (1991) [EngSoftSub] DVDrip


    Minamoto Yoshitsune (1991)





    INFO:

    Year:            1991
    Color:           Color
    Directed:        YAMASHITA Kosaku
    Genre:           Jidaigeki
    Runtime:         243 min
    Country:         Japan
    Language:        Japanese
    Subtitles:       English SoftCoded Subs


    CAST:

    SATOMI Kotaro, NOMUJRA Hironobu, YASUDA Narumi, ENOKI Takaaki,TAMURA  Ryo, TOAKE Yukiyo, TANBA Tetsuro, KATSUNO Hiroshi, TAKAHASHI Hideki


    PLOT:

    During the late Heian era in Japan a famous duel took place between the warrior monk Musashibo Benkei and a slender young man of high rank named Shanao. This was the battle at Gojo Bridge, and while Benkei had taken 999 sword from his vanquished opponents, he was soundly defeated by the young flute-playing samurai.

    Swearing allegiance to the superior swordsman, Benkei became his loyal vassal and accompanied the young man who went on to fame as Minamoto Yoshitsune, the general who defeated the Taira clan at the Battle of Dan no Ura thus leading the Genji over the Heike as the most powerful clan in the nation. With superb performances by some of Japan's greatest stars, including Satomi Kotaro and Tanba Tetsuro, history comes to life in this action-packed production.


    SPECS:Click to Show

    Spoiler:show
    ===================== General =====================
    Complete name               : Minamoto Yoshitsune (1991)  Part-1 [EngSoftSub] DVDrip.mkv
    Format                      : Matroska
    File size                   : 1.56 GB
    Duration (ms)               : 2h 23mn
    Total bitrate               : 1 562 Kbps
    Encoded application         : HandBrake 0.10.0 2014112200
    Encoded library             : Lavf55.12.0

    ===================== Video =====================
    Id                          : 1
    Format                      : AVC
    Format info                 : Advanced Video Codec
    Format profile              : Main@L4.0
    Use of CABAC                : Yes
    RefFrames                   : 16 frames
    Muxing mode                 : Container profile=Unknown@4.0
    Codec Id                    : V_MPEG4/ISO/AVC
    Duration (ms)               : 2h 23mn
    Width                       : 708 pixels
    Height                      : 480 pixels
    Aspect ratio                : 4:3
    DisplayAspectRatio_Original : 4:3
    Framerate mode              : Variable
    Framerate                   : 29.970 fps
    Colorimetry                 : YUV
    Colos space                 : 4:2:0
    Bit depth                   : 8 bits
    Scan type                   : Progressive
    Encoded library             : x264 core 142 r2479 dd79a61
    Encoded library settings    : cabac=1 / ref=16 / deblock=1:0:0 / analyse=0x1:0x131 / me=umh / subme=10 / psy=1 / psy_rd=1.00:0.00 / mixed_ref=1 / me_range=24 / chroma_me=1 / trellis=2 / 8x8dct=0 / cqm=0 / deadzone=21,11 / fast_pskip=1 / chroma_qp_offset=-2 / threads=9 / lookahead_threads=1 / sliced_threads=0 / nr=0 / decimate=1 / interlaced=0 / bluray_compat=0 / constrained_intra=0 / bframes=8 / b_pyramid=2 / b_adapt=2 / b_bias=0 / direct=3 / weightb=1 / open_gop=0 / weightp=2 / keyint=300 / keyint_min=30 / scenecut=40 / intra_refresh=0 / rc_lookahead=60 / rc=crf / mbtree=1 / crf=20.0 / qcomp=0.60 / qpmin=0 / qpmax=69 / qpstep=4 / vbv_maxrate=20000 / vbv_bufsize=25000 / crf_max=0.0 / nal_hrd=none / filler=0 / ip_ratio=1.40 / aq=1:1.00
    Language                    : English
    Color primaries             : BT.601-6 525, BT.1358 525, BT.1700 NTSC, SMPTE 170M
    Transfer characteristics    : BT.709-5, BT.1361
    Matrix coefficients         : BT.601-6 525, BT.1358 525, BT.1700 NTSC, SMPTE 170M

    ===================== Audio =====================
    Id                          : 2
    Format                      : AAC
    Format info                 : Advanced Audio Codec
    Format version              : Version 4
    Format profile              : LC
    Format settings - SBR       : No
    Codec Id                    : A_AAC
    Duration (ms)               : 2h 23mn
    Channel(s)                  : 2 channels
    ChannelPositions            : Front: L R
    Sampling rate               : 48.0 KHz
    Video_Delay/String          : 1mn 5s
    Title                       : Stereo
    Language                    : English / English

    ===================== Text =====================
    Id                          : 3
    Format                      : VobSub
    Codec Id                    : S_VOBSUB
    Codec info                  : The same subtitle format used on DVDs
    Language                    : English / English

    .......
    PART 2:


    ===================== General =====================
    Complete name               : Minamoto Yoshitsune (1991)  Part-2 [EngSoftSub] DVDrip.mkv
    Format                      : Matroska
    File size                   : 1.04 GB
    Duration (ms)               : 1h 39mn
    Total bitrate               : 1 496 Kbps
    Encoded application         : HandBrake 0.10.0 2014112200
    Encoded library             : Lavf55.12.0

    ===================== Video =====================
    Id                          : 1
    Format                      : AVC
    Format info                 : Advanced Video Codec
    Format profile              : Main@L4.0
    Use of CABAC                : Yes
    RefFrames                   : 16 frames
    Format settings - GOP       : M=6, N=14
    Muxing mode                 : Container profile=Unknown@4.0
    Codec Id                    : V_MPEG4/ISO/AVC
    Duration (ms)               : 1h 39mn
    Width                       : 702 pixels
    Height                      : 480 pixels
    Aspect ratio                : 1.300
    Framerate mode              : Variable
    Framerate                   : 29.970 fps
    Colorimetry                 : YUV
    Colos space                 : 4:2:0
    Bit depth                   : 8 bits
    Scan type                   : Progressive
    Encoded library             : x264 core 142 r2479 dd79a61
    Encoded library settings    : cabac=1 / ref=16 / deblock=1:0:0 / analyse=0x1:0x131 / me=umh / subme=10 / psy=1 / psy_rd=1.00:0.00 / mixed_ref=1 / me_range=24 / chroma_me=1 / trellis=2 / 8x8dct=0 / cqm=0 / deadzone=21,11 / fast_pskip=1 / chroma_qp_offset=-2 / threads=9 / lookahead_threads=1 / sliced_threads=0 / nr=0 / decimate=1 / interlaced=0 / bluray_compat=0 / constrained_intra=0 / bframes=8 / b_pyramid=2 / b_adapt=2 / b_bias=0 / direct=3 / weightb=1 / open_gop=0 / weightp=2 / keyint=300 / keyint_min=30 / scenecut=40 / intra_refresh=0 / rc_lookahead=60 / rc=crf / mbtree=1 / crf=20.0 / qcomp=0.60 / qpmin=0 / qpmax=69 / qpstep=4 / vbv_maxrate=20000 / vbv_bufsize=25000 / crf_max=0.0 / nal_hrd=none / filler=0 / ip_ratio=1.40 / aq=1:1.00
    Language                    : English
    Color primaries             : BT.601-6 525, BT.1358 525, BT.1700 NTSC, SMPTE 170M
    Transfer characteristics    : BT.709-5, BT.1361
    Matrix coefficients         : BT.601-6 525, BT.1358 525, BT.1700 NTSC, SMPTE 170M

    ===================== Audio =====================
    Id                          : 2
    Format                      : AAC
    Format info                 : Advanced Audio Codec
    Format version              : Version 4
    Format profile              : LC
    Format settings - SBR       : No
    Codec Id                    : A_AAC
    Duration (ms)               : 1h 39mn
    Channel(s)                  : 2 channels
    ChannelPositions            : Front: L R
    Sampling rate               : 48.0 KHz
    Video_Delay/String          : 1mn 5s
    Title                       : Stereo
    Language                    : English / Japanese

    ===================== Text =====================
    Id                          : 3
    Format                      : VobSub
    Codec Id                    : S_VOBSUB
    Codec info                  : The same subtitle format used on DVDs
    Language                    : English / English
     

                     
    PICS:Click to Enlarge




    Check my profile for lots of jidaigeki uploads !




    0 0
  • 04/26/15--14:08: Let's Eat S02 E06 XVID WITH
  • Original Post: Let's Eat S02 E06 XVID WITH


    Title: 식샤를 합시다 2 / Siksyareul Habsida 2
    Episodes: TBA
    Broadcast period: 2015-Apr-06 to 2015-???-??
    Air time: Monday & Tuesday 23:00
    Original soundtrack: Let's Eat 2 OST


    Synopsis
    Goo Dae young’s rivals have appeared! Food blogger Goo Dae young, the fourth year freelancer, Bae Soo ji on one meal per day diet, who regards him as an enemy, and the vegetarian government worker, Lee Sang Woo. This drama depicts the spicy and tasteful lives of the single dwellers in Sejong Villa, who has each one’s own unique taste

    Cast
    Yoon Doo Joon as Goo Dae Young
    Seo Hyun Jin as Baek Soo Ji
    Kwon Yool as Lee Sang Woo
    Kim Hee Won as Im Taek Soo
    Hwang Seung Eon as Hwang Hye Rim
    Jo Eun Ji as Hong In Ah
    Hwang Suk Jung as Kim Mo Ran
    Lee Joo Seung as mysterious man




    Code
    Video
    ID                                       : 0
    Format                                   : MPEG-4 Visual
    Format profile                           : Advanced Simple@L5
    Format settings, BVOP                    : No
    Format settings, QPel                    : No
    Format settings, GMC                     : No warppoints
    Format settings, Matrix                  : Default (MPEG)
    Codec ID                                 : XVID
    Codec ID/Hint                            : XviD
    Bit rate                                 : 1 391 Kbps
    Width                                    : 624 pixels
    Height                                   : 352 pixels
    Display aspect ratio                     : 16:9
    Frame rate                               : 29.970 fps
    Color space                              : YUV
    Chroma subsampling                       : 4:2:0
    Bit depth                                : 8 bits
    Scan type                                : Progressive
    Compression mode                         : Lossy
    Bits/(Pixel*Frame)                       : 0.211
    Stream size                              : 660 MiB (87%)
    Writing library                          : XviD 1.2.1 (UTC 2008-12-04)

    Audio
    ID                                       : 1
    Format                                   : MPEG Audio
    Format version                           : Version 1
    Format profile                           : Layer 3
    Mode                                     : Joint stereo
    Mode extension                           : MS Stereo
    Codec ID                                 : 55
    Codec ID/Hint                            : MP3
    Bit rate mode                            : Constant
    Bit rate                                 : 128 Kbps
    Channel(s)                               : 2 channels
    Sampling rate                            : 48.0 KHz
    Compression mode                         : Lossy
    Stream size                              : 60.8 MiB (8%)
    Alignment                                : Aligned on interleaves
    Writing library                          : LAME3.98.2



    0 0
  • 04/26/15--14:08: Let's Eat S02 E06 720p WITH
  • Original Post: Let's Eat S02 E06 720p WITH


    Title: 식샤를 합시다 2 / Siksyareul Habsida 2
    Episodes: TBA
    Broadcast period: 2015-Apr-06 to 2015-???-??
    Air time: Monday & Tuesday 23:00
    Original soundtrack: Let's Eat 2 OST


    Synopsis
    Goo Dae young’s rivals have appeared! Food blogger Goo Dae young, the fourth year freelancer, Bae Soo ji on one meal per day diet, who regards him as an enemy, and the vegetarian government worker, Lee Sang Woo. This drama depicts the spicy and tasteful lives of the single dwellers in Sejong Villa, who has each one’s own unique taste

    Cast
    Yoon Doo Joon as Goo Dae Young
    Seo Hyun Jin as Baek Soo Ji
    Kwon Yool as Lee Sang Woo
    Kim Hee Won as Im Taek Soo
    Hwang Seung Eon as Hwang Hye Rim
    Jo Eun Ji as Hong In Ah
    Hwang Suk Jung as Kim Mo Ran
    Lee Joo Seung as mysterious man




    Code
    Video
    ID                                       : 0
    Format                                   : AVC
    Format/Info                              : Advanced Video Codec
    Format profile                           : Baseline@L3.1
    Format settings, CABAC                   : No
    Format settings, ReFrames                : 1 frame
    Codec ID                                 : H264
    Bit rate                                 : 3 017 Kbps
    Width                                    : 1 280 pixels
    Height                                   : 720 pixels
    Display aspect ratio                     : 16:9
    Frame rate mode                          : Variable
    Frame rate                               : 29.970 fps
    Color space                              : YUV
    Chroma subsampling                       : 4:2:0
    Bit depth                                : 8 bits
    Scan type                                : Progressive
    Bits/(Pixel*Frame)                       : 0.109

    Audio
    ID                                       : 1
    Format                                   : MPEG Audio
    Format version                           : Version 1
    Format profile                           : Layer 3
    Mode                                     : Joint stereo
    Mode extension                           : MS Stereo
    Codec ID                                 : 55
    Codec ID/Hint                            : MP3
    Bit rate mode                            : Constant
    Bit rate                                 : 128 Kbps
    Channel(s)                               : 2 channels
    Sampling rate                            : 44.1 KHz
    Compression mode                         : Lossy
    Stream size                              : 62.1 MiB (4%)
    Alignment                                : Aligned on interleaves
    Interleave, duration                     : 26 ms (0.78 video frame)
    Writing library                          : LAME3.98.2



    0 0

    Original Post: Heard it Through the Grapevine E19 450p LIMO


    Details
    Title: 풍문으로 들었소 / Poongmooneuro Deuleoss-so
    Also known as: Heard It as a Rumor / I Heard a Rumor
    Previously known as: War of Brilliant Minds
    Genre: Family, drama, romance, black comedy
    Episodes: 32
    Broadcast network: SBS
    Broadcast period: 2015-Feb-23 to 2015-???-??
    Air time: Monday & Tuesday 22:00
    Original Soundtrack: Heard It Through the Grapevine OST
    Synopsis
    This is a black-comedy drama depicting a prestigious family whose lives are suddenly shaken because of a rumor about their teenage son impregnating his schoolmate.

    Choi Yun Hee and Han Jung Ho are a wealthy couple from a prestigious family. Their reputation suddenly turned upside down because of their son's relationship with an ordinary girl. The girl, Seo Bom, determined to endure the humiliation and isolation from the family for the sake of her child's future while the son, Han In Sang, struggles between his love for Seo Bom and his family's high expectation.

    Cast
    Han Jung Ho's family
    Yoo Joon Sang as Han Jung Ho (47)
    Yoo Ho Jung as Choi Yun Hee (45)
    Lee Joon as Han In Sang (18)
    Park So Young as Han Yi Ji (16)




    Code
    Video
    ID                                       : 0
    Format                                   : AVC
    Format/Info                              : Advanced Video Codec
    Format profile                           : High@L5.1
    Format settings, CABAC                   : Yes
    Format settings, ReFrames                : 4 frames
    Codec ID                                 : H264
    Bit rate                                 : 1 500 Kbps
    Width                                    : 800 pixels
    Height                                   : 450 pixels
    Display aspect ratio                     : 16:9
    Frame rate mode                          : Variable
    Frame rate                               : 29.970 fps
    Color space                              : YUV
    Chroma subsampling                       : 4:2:0
    Bit depth                                : 8 bits
    Scan type                                : Progressive
    Bits/(Pixel*Frame)                       : 0.139
    Stream size                              : 686 MiB (88%)
    Writing library                          : x264 core 112

    Audio
    ID                                       : 1
    Format                                   : MPEG Audio
    Format version                           : Version 1
    Format profile                           : Layer 3
    Mode                                     : Joint stereo
    Mode extension                           : MS Stereo
    Codec ID                                 : 55
    Codec ID/Hint                            : MP3
    Bit rate mode                            : Constant
    Bit rate                                 : 192 Kbps
    Channel(s)                               : 2 channels
    Sampling rate                            : 48.0 KHz
    Compression mode                         : Lossy
    Stream size                              : 88.3 MiB (11%)
    Alignment                                : Aligned on interleaves
    Interleave, duration                     : 24 ms (0.72 video frame)
    Writing library                          : LAME3.98.2
    Language                                 : Korean



    0 0

    Original Post: Heard it Through the Grapevine E19 720p LIMO


    Details
    Title: 풍문으로 들었소 / Poongmooneuro Deuleoss-so
    Also known as: Heard It as a Rumor / I Heard a Rumor
    Previously known as: War of Brilliant Minds
    Genre: Family, drama, romance, black comedy
    Episodes: 32
    Broadcast network: SBS
    Broadcast period: 2015-Feb-23 to 2015-???-??
    Air time: Monday & Tuesday 22:00
    Original Soundtrack: Heard It Through the Grapevine OST
    Synopsis
    This is a black-comedy drama depicting a prestigious family whose lives are suddenly shaken because of a rumor about their teenage son impregnating his schoolmate.

    Choi Yun Hee and Han Jung Ho are a wealthy couple from a prestigious family. Their reputation suddenly turned upside down because of their son's relationship with an ordinary girl. The girl, Seo Bom, determined to endure the humiliation and isolation from the family for the sake of her child's future while the son, Han In Sang, struggles between his love for Seo Bom and his family's high expectation.

    Cast
    Han Jung Ho's family
    Yoo Joon Sang as Han Jung Ho (47)
    Yoo Ho Jung as Choi Yun Hee (45)
    Lee Joon as Han In Sang (18)
    Park So Young as Han Yi Ji (16)




    Code
    Video
    ID                             : 0
    Format                         : AVC
    Format/Info                    : Advanced Video Codec
    Format profile                 : High@L5.1
    Format settings, CABAC         : Yes
    Format settings, ReFrames      : 4 frames
    Codec ID                       : H264
    Duration                       : 1h 14mn
    Bit rate                       : 3 000 Kbps
    Width                          : 1 280 pixels
    Height                         : 720 pixels
    Display aspect ratio           : 16:9
    Frame rate mode                : Variable
    Frame rate                     : 29.970 fps
    Color space                    : YUV
    Chroma subsampling             : 4:2:0
    Bit depth                      : 8 bits
    Scan type                      : Progressive
    Bits/(Pixel*Frame)             : 0.109
    Stream size                    : 1.57 GiB (94%)
    Writing library                : x264 core 112
    Encoding settings              : cabac=1 / ref=3 / deblock=1:-1:-1 / analyse=0x3:0x113 / me=hex / subme=6 / psy=1 / psy_rd=1.00:1.00 / mixed_ref=1 / me_range=16 / chroma_me=1 / trellis=1 / 8x8dct=1 / cqm=0 / deadzone=21,11 / fast_pskip=0 / chroma_qp_offset=-4 / threads=12 / sliced_threads=0 / nr=0 / decimate=1 / interlaced=0 / constrained_intra=0 / bframes=3 / b_pyramid=2 / b_adapt=1 / b_bias=1 / direct=3 / weightb=1 / open_gop=0 / weightp=2 / keyint=299 / keyint_min=25 / scenecut=1 / intra_refresh=0 / rc_lookahead=40 / rc=abr / mbtree=1 / bitrate=3000 / ratetol=1.0 / qcomp=0.60 / qpmin=10 / qpmax=51 / qpstep=4 / ip_ratio=1.40 / aq=1:1.00

    Audio
    ID                             : 1
    Format                         : MPEG Audio
    Format version                 : Version 1
    Format profile                 : Layer 3
    Mode                           : Joint stereo
    Mode extension                 : MS Stereo
    Codec ID                       : 55
    Codec ID/Hint                  : MP3
    Duration                       : 1h 14mn
    Bit rate mode                  : Constant
    Bit rate                       : 192 Kbps
    Channel(s)                     : 2 channels
    Sampling rate                  : 48.0 KHz
    Compression mode               : Lossy
    Stream size                    : 102 MiB (6%)
    Alignment                      : Split accross interleaves
    Interleave, duration           : 33 ms (1.00 video frame)
    Interleave, preload duration   : 500 ms
    Writing library                : LAME3.98



    0 0

    Original Post: Who Are You - School 2015 E01 720p LIMO


    Details

    Title: 후아유 - 학교 2015 / Hooayoo - Hakgyo 2015
    Also known as: 학교 6 (School 6)
    Genre: School, youth, drama, mystery
    Episodes: 16
    Broadcast network: KBS2
    Broadcast period: 2015-Apr-27 to 2015-???-??
    Air time: Monday & Tuesday 22:00
    Original Soundtrack: Who Are You - School 2015 OST
    Related TV Shows: School 1 (KBS2, 1999), School 2 (KBS2, 1999), School 3 (KBS2, 2000), School 4 (KBS2, 2001), School 2013 (KBS2, 2013)
    Synopsis

    This drama is a latest installment to the famed School Series. It will focus on portraying realistic issues, struggles, and dilemmas of today’s youths.

    Segang High School is a top school located in Gangnam District, Seoul. One of the students, Lee Eun Bi, wake up one day without knowing who she was. After find out that she used to be bullied, she changes herself and becomes popular. She then tries to recover her lost memories, and in the process, discovers the hidden truths behind her famous school.

    Cast
    Main Cast
    Kim So Hyun as Lee Eun Bi / Go Eun Byul
    Nam Joo Hyuk as Han Yi Ahn
    Yook Sung Jae as Gong Tae Kwang
    Extended Cast
    Lee Pil Mo as Teacher Kim Joon Suk
    Lee David as Park Min Joon
    Kim Hee Jung as Cha Song Joo
    Lee Cho Hee as Lee Shi Jin
    Jo Soo Hyang as Kang So Young
    Segang High School's teachers
    Lee Hee Do as Vice Principal
    Shin Jung Geun as Students' Supervisor
    The parents
    Jun Mi Sun as Song Mi Kyung (Eun Byul's mother)
    Lee Dae Yeon as Han Ki Choon (Yi Ahn's father)
    Jun Noh Min as Gong Jae Ho (Tae Kwang's father)
    Kim Jung Nan as Shin Jung Min (Min Joon's mother)
    Jung In Ki as Park Joon Hyung (Min Joon's father)
    Kim Se Ah as Shi Jin's mother
    Class 2-3 students
    Park Doo Shik as Kwon Ki Tae
    Yoo Young as Jo Hae Na
    Jang In Sub as Sung Yoon Jae
    Kim Bo Ra as Seo Young Eun




    Code
    Video
    ID                             : 0
    Format                         : AVC
    Format/Info                    : Advanced Video Codec
    Format profile                 : High@L5.1
    Format settings, CABAC         : Yes
    Format settings, ReFrames      : 4 frames
    Codec ID                       : H264
    Duration                       : 1h 14mn
    Bit rate                       : 3 000 Kbps
    Width                          : 1 280 pixels
    Height                         : 720 pixels
    Display aspect ratio           : 16:9
    Frame rate mode                : Variable
    Frame rate                     : 29.970 fps
    Color space                    : YUV
    Chroma subsampling             : 4:2:0
    Bit depth                      : 8 bits
    Scan type                      : Progressive
    Bits/(Pixel*Frame)             : 0.109
    Stream size                    : 1.57 GiB (94%)
    Writing library                : x264 core 112
    Encoding settings              : cabac=1 / ref=3 / deblock=1:-1:-1 / analyse=0x3:0x113 / me=hex / subme=6 / psy=1 / psy_rd=1.00:1.00 / mixed_ref=1 / me_range=16 / chroma_me=1 / trellis=1 / 8x8dct=1 / cqm=0 / deadzone=21,11 / fast_pskip=0 / chroma_qp_offset=-4 / threads=12 / sliced_threads=0 / nr=0 / decimate=1 / interlaced=0 / constrained_intra=0 / bframes=3 / b_pyramid=2 / b_adapt=1 / b_bias=1 / direct=3 / weightb=1 / open_gop=0 / weightp=2 / keyint=299 / keyint_min=25 / scenecut=1 / intra_refresh=0 / rc_lookahead=40 / rc=abr / mbtree=1 / bitrate=3000 / ratetol=1.0 / qcomp=0.60 / qpmin=10 / qpmax=51 / qpstep=4 / ip_ratio=1.40 / aq=1:1.00

    Audio
    ID                             : 1
    Format                         : MPEG Audio
    Format version                 : Version 1
    Format profile                 : Layer 3
    Mode                           : Joint stereo
    Mode extension                 : MS Stereo
    Codec ID                       : 55
    Codec ID/Hint                  : MP3
    Duration                       : 1h 14mn
    Bit rate mode                  : Constant
    Bit rate                       : 192 Kbps
    Channel(s)                     : 2 channels
    Sampling rate                  : 48.0 KHz
    Compression mode               : Lossy
    Stream size                    : 102 MiB (6%)
    Alignment                      : Split accross interleaves
    Interleave, duration           : 33 ms (1.00 video frame)
    Interleave, preload duration   : 500 ms
    Writing library                : LAME3.98



    0 0
  • 04/27/15--03:58: Hwajung E05 720p LIMO
  • Original Post: Hwajung E05 720p LIMO


    Details
    Title: 화정 / Hwajung
    Also known as: Splendid Politics
    Previously known as: Princess Jungmyung
    Genre: Historical, political, romance
    Episodes: 50
    Broadcast network: MBC
    Broadcast period: 2015-Apr-13 to 2015-Oct-??
    Air time: Monday & Tuesday 22:00
    Subtitles by Dramafever will be added later

    Synopsis
    Fair Princess Jungmyung (Lee Yeon Hee) lives a life of the highest privilege, until her half-brother Prince Gwanghae (Cha Seung Won) executes the rightful crown prince and usurps the throne. Exiled from court, Jungmyung goes under disguise as a man and learns to adapt to life as a commoner — never forgetting Gwanghae's wrongdoing. But amidst rampant corruption throughout the kingdom, can Jyungmyung exact her vengeance, restore order and take back her rightful place in the palace?

    Cast

    Main Cast
    Cha Seung Won as Prince Gwanghae
    Lee Tae Hwan as teen Gwanghae
    Lee Yun Hee as Princess Jungmyung
    Jung Chan Bi as teen Jungmyung
    Seo Jung Eun as child Jungmyung
    Kim Jae Won as King Injo
    Seo Kang Joon as Hong Ju Won
    Yoon Chan Young as teen Ju Won
    Choi Kwon Ju as child Ju Won
    Han Joo Wan as Kang In Woo
    Ahn Do Gyu as teen In Woo




    Code
    Video
    ID                             : 0
    Format                         : AVC
    Format/Info                    : Advanced Video Codec
    Format profile                 : High@L5.1
    Format settings, CABAC         : Yes
    Format settings, ReFrames      : 4 frames
    Codec ID                       : H264
    Duration                       : 1h 14mn
    Bit rate                       : 3 000 Kbps
    Width                          : 1 280 pixels
    Height                         : 720 pixels
    Display aspect ratio           : 16:9
    Frame rate mode                : Variable
    Frame rate                     : 29.970 fps
    Color space                    : YUV
    Chroma subsampling             : 4:2:0
    Bit depth                      : 8 bits
    Scan type                      : Progressive
    Bits/(Pixel*Frame)             : 0.109
    Stream size                    : 1.57 GiB (94%)
    Writing library                : x264 core 112
    Encoding settings              : cabac=1 / ref=3 / deblock=1:-1:-1 / analyse=0x3:0x113 / me=hex / subme=6 / psy=1 / psy_rd=1.00:1.00 / mixed_ref=1 / me_range=16 / chroma_me=1 / trellis=1 / 8x8dct=1 / cqm=0 / deadzone=21,11 / fast_pskip=0 / chroma_qp_offset=-4 / threads=12 / sliced_threads=0 / nr=0 / decimate=1 / interlaced=0 / constrained_intra=0 / bframes=3 / b_pyramid=2 / b_adapt=1 / b_bias=1 / direct=3 / weightb=1 / open_gop=0 / weightp=2 / keyint=299 / keyint_min=25 / scenecut=1 / intra_refresh=0 / rc_lookahead=40 / rc=abr / mbtree=1 / bitrate=3000 / ratetol=1.0 / qcomp=0.60 / qpmin=10 / qpmax=51 / qpstep=4 / ip_ratio=1.40 / aq=1:1.00

    Audio
    ID                             : 1
    Format                         : MPEG Audio
    Format version                 : Version 1
    Format profile                 : Layer 3
    Mode                           : Joint stereo
    Mode extension                 : MS Stereo
    Codec ID                       : 55
    Codec ID/Hint                  : MP3
    Duration                       : 1h 14mn
    Bit rate mode                  : Constant
    Bit rate                       : 192 Kbps
    Channel(s)                     : 2 channels
    Sampling rate                  : 48.0 KHz
    Compression mode               : Lossy
    Stream size                    : 102 MiB (6%)
    Alignment                      : Split accross interleaves
    Interleave, duration           : 33 ms (1.00 video frame)
    Interleave, preload duration   : 500 ms
    Writing library                : LAME3.98



    0 0

    Original Post: [Mini Album] Lim Kim (TOGEWORL) – Simple Mind



    http://en.wikipedia.org/wiki/Lim_Kim

    김예림 (투개월) – Simple Mind
    Release Date: 2015.04.27
    Genre: Dance, Folk
    Language: Korean
    Bit Rate: MP3-320kbps
    credit to k2nblog

    Track List:

    01. Awoo
    02. 알면 다쳐 (Love Game)
    03. 바람아 (Feat. 빈지노)
    04. 먼저 말해
    05. No More
    06. Upgrader
    07. 종이새



    0 0

    Original Post: Tiger JK – Who Are You – School 2015 OST Part.1



    Tiger J.K후아유-학교 2015 (KBS2 월화드라마) OST – Part.1
    Release Date: 2015.04.27
    Genre: OST
    Language: Korean
    Bit Rate: MP3-320kbps
    credit to k2nblog

    Track List:

    01. Reset (Feat. 진실 Of Mad Soul Child)
    02. Reset (Inst.)



    0 0

    Original Post: Yeon Kyoo Seong – My Unfortunate Boyfriend OST Part.3



    연규성 (Yeon Kyoo Seong) – 나의 유감스러운 남자친구 OST Part 3 (My Unfortunate Boyfriend OST Part 3)
    Release Date: 2015.04.24
    Genre: OST
    Bit rate: MP3-320K
    credit to hulkpop

    Track List:

    01. 난 널 사랑해
    02. 난 널 사랑해 (Inst.)



    0 0

    Original Post: Chamsom – Divorce Lawyer in Love OST Part.2



    참깨와 솜사탕 (Chamsom) – 이혼변호사는 연애중 OST Part 2 (Divorce Lawyer in Love OST Part 2)
    Release Date: 2015.04.24
    Genre: OST
    Bit rate: MP3-320K
    credit to hulkpop

    Track List:

    01. 톰과제리
    02. 톰과제리 (Inst.)



    0 0

    Original Post: TVB Limelight Years E01 HDTV 720p-TVBDO



    If you like my upload, please press the "Thank You" buttoncool2.gif

    English Title: Limelight Years
    Chinese Title:華麗轉身
    Network: TVB
    Release Date: April 27, 2015
    Episodes: 20
    Country: Hong Kong
    Audio: Cantonese (AC-3 6 Channels)
    Subtitles: English (.srt embedded)
    Genre: Modern
    Cast: Liza Wang, Damion Lau, Alex Fong, Linda Chung, Eliza Sum, Jonathan Wong, Jacqueline Wong, Michelle Yim (Guest Star)

    Synopsis: There is darkness behind the limelight. After recovering from a long-term sickness, retiring singer Wah Fong Ying (Liza Wang) has come to realize that she has failed to live a fulfilling life. With two failed marriages and strained relationships with her three children, Fong Ying is much lonelier than she admits. Summoning up all her courage, Fong Ying flies to Taiwan to mend her broken relationship with her oldest daughter. During this time, she comes across Hong Kong photographer Law Ben (Damian Lau), who is in Taiwan to fulfill his late wife’s (Michelle Yim) wish of returning to her ancestral home. Sparks fly when the extraordinary meets the ordinary. Both Fong Ying and Ben find their strength as they quietly support each other.

    Encouraged by Ben, Fong Ying decides to perform one last time in a goodbye concert for her close friends and family, but her youngest daughter Tong Yan (Eliza Sam) reacts coldly to the invitation. Nonetheless, Fong Ying remains committed to her last concert and hires a new assistant Szeto Dik Dik (Linda Chung) and a new creative director, Song Sheung Hang (Alex Fong). Dik Dik and Sheung Han initially struggle to get along due to past misunderstandings, but they eventually cultivate a deep relationship. Just as Fong Ying starts to find the light again, she is once again attacked by darkness. While Sheung Hang was preparing a special issue to promote Fong Ying’s concert, he discovers an ugly secret that Fong Ying has been keeping for many years. Dik Dik finds out that Fong Ying and her uncle were involved in the past. Ben is also starting to have hallucinations…






    If you like my upload, please press the "Thank You" buttoncool2.gif


    Code
    Video
    ID                                       : 2
    Format                                   : AVC
    Format/Info                              : Advanced Video Codec
    Format profile                           : High@L3.1
    Format settings, CABAC                   : Yes
    Format settings, ReFrames                : 4 frames
    Codec ID                                 : V_MPEG4/ISO/AVC
    Duration                                 : 43mn 14s
    Bit rate                                 : 5 000 Kbps
    Width                                    : 1 280 pixels
    Height                                   : 720 pixels
    Display aspect ratio                     : 16:9
    Frame rate mode                          : Constant
    Frame rate                               : 25.000 fps
    Color space                              : YUV
    Chroma subsampling                       : 4:2:0
    Bit depth                                : 8 bits
    Scan type                                : Progressive
    Bits/(Pixel*Frame)                       : 0.217
    Stream size                              : 1.48 GiB (91%)
    Writing library                          : x264 core 146 r2538 121396c
    Encoding settings                        : cabac=1 / ref=3 / deblock=1:0:0 / analyse=0x3:0x113 / me=hex / subme=6 / psy=1 / psy_rd=1.00:0.00 / mixed_ref=1 / me_range=16 / chroma_me=1 / trellis=1 / 8x8dct=1 / cqm=0 / deadzone=21,11 / fast_pskip=1 / chroma_qp_offset=-2 / threads=12 / lookahead_threads=2 / sliced_threads=0 / nr=0 / decimate=1 / interlaced=0 / bluray_compat=0 / constrained_intra=0 / bframes=3 / b_pyramid=2 / b_adapt=1 / b_bias=0 / direct=1 / weightb=1 / open_gop=0 / weightp=2 / keyint=250 / keyint_min=25 / scenecut=40 / intra_refresh=0 / rc_lookahead=40 / rc=abr / mbtree=1 / bitrate=5000 / ratetol=1.0 / qcomp=0.60 / qpmin=10 / qpmax=51 / qpstep=4 / ip_ratio=1.41 / aq=1:1.00
    Default                                  : Yes
    Forced                                   : No
    DURATION                                 : 00:43:14.386000000
    NUMBER_OF_FRAMES                         : 81075
    NUMBER_OF_BYTES                          : 124531200
    _STATISTICS_WRITING_APP                  : mkvmerge v7.5.0 ('Glass Culture') 32bit built on Jan  4 2015 16:37:25
    _STATISTICS_WRITING_DATE_UTC             : 2015-04-27 17:26:01
    _STATISTICS_TAGS                         : BPS DURATION NUMBER_OF_FRAMES NUMBER_OF_BYTES

    Audio
    ID                                       : 3
    Format                                   : AC-3
    Format/Info                              : Audio Coding 3
    Mode extension                           : CM (complete main)
    Format settings, Endianness              : Big
    Codec ID                                 : A_AC3
    Duration                                 : 43mn 14s
    Bit rate mode                            : Constant
    Bit rate                                 : 384 Kbps
    Channel(s)                               : 6 channels
    Channel positions                        : Front: L C R, Side: L R, LFE
    Sampling rate                            : 48.0 KHz
    Bit depth                                : 16 bits
    Compression mode                         : Lossy
    Stream size                              : 119 MiB (7%)
    Default                                  : Yes
    Forced                                   : No

    Text
    ID                                       : 1
    Format                                   : UTF-8
    Codec ID                                 : S_TEXT/UTF8
    Codec ID/Info                            : UTF-8 Plain Text
    Writing library                          : Lavc56.35.101 libx264
    Language                                 : English
    Default                                  : Yes
    Forced                                   : Yes
    DURATION                                 : 00:43:14.560000000
    NUMBER_OF_FRAMES                         : 64862
    NUMBER_OF_BYTES                          : 1626762446
    _STATISTICS_WRITING_APP                  : mkvmerge v7.5.0 ('Glass Culture') 32bit built on Jan  4 2015 16:37:25
    _STATISTICS_WRITING_DATE_UTC             : 2015-04-27 17:26:01
    _STATISTICS_TAGS                         : BPS DURATION NUMBER_OF_FRAMES NUMBER_OF_BYTES





    0 0

    Original Post: 111229 Run The World (G.Na, Sunhwa, Ga-In, Hyorin, HyunA, Jiyun & Fei) (SBS 2011 Gayo Daejun)

    Credit to 4sashi.
    Hey guys! I meant to put this in the HyunA performance collection, but it seems I forgot. Well, here it is! The special performance from the 2011 SBS Gayo Daejun. Enjoy!


    Technical Information:
    Spoiler:show

    Code
    Format                                   : MPEG-TS
    File size                                : 419 MiB
    Duration                                 : 3mn 1s
    Start time                               : UTC 2011-12-29 12:37:49
    End time                                 : UTC 2011-12-29 12:40:49
    Overall bit rate mode                    : Constant
    Overall bit rate                         : 19.4 Mbps

    Video
    ID                                       : 17 (0x11)
    Menu ID                                  : 1 (0x1)
    Format                                   : MPEG Video
    Format version                           : Version 2
    Format profile                           : Main@High
    Format settings, BVOP                    : Yes
    Format settings, Matrix                  : Custom
    Format settings, GOP                     : M=3, N=15
    Codec ID                                 : 2
    Duration                                 : 3mn 0s
    Bit rate                                 : 17.9 Mbps
    Maximum bit rate                         : 17.0 Mbps
    Width                                    : 1 920 pixels
    Height                                   : 1 080 pixels
    Display aspect ratio                     : 16:9
    Frame rate                               : 29.970 fps
    Standard                                 : Component
    Color space                              : YUV
    Chroma subsampling                       : 4:2:0
    Bit depth                                : 8 bits
    Scan type                                : Interlaced
    Scan order                               : Top Field First
    Compression mode                         : Lossy
    Bits/(Pixel*Frame)                       : 0.287
    Time code of first frame                 : 00:21:11;28
    Time code source                         : Group of pictures header
    Stream size                              : 385 MiB (92%)
    Language                                 : Korean
    Name                                     : ko:Video

    Audio #1
    ID                                       : 20 (0x14)
    Menu ID                                  : 1 (0x1)
    Format                                   : AC-3
    Format/Info                              : Audio Coding 3
    Mode extension                           : CM (complete main)
    Format settings, Endianness              : Big
    Codec ID                                 : 129
    Duration                                 : 3mn 1s
    Bit rate mode                            : Constant
    Bit rate                                 : 384 Kbps
    Channel(s)                               : 2 channels
    Channel positions                        : Front: L R
    Sampling rate                            : 48.0 KHz
    Bit depth                                : 16 bits
    Compression mode                         : Lossy
    Delay relative to video                  : -353ms
    Stream size                              : 8.29 MiB (2%)
    Language                                 : Korean
    Name                                     : ko:Audio

    Audio #2
    ID                                       : 21 (0x15)
    Menu ID                                  : 1 (0x1)
    Format                                   : AC-3
    Format/Info                              : Audio Coding 3
    Mode extension                           : CM (complete main)
    Format settings, Endianness              : Big
    Codec ID                                 : 129
    Duration                                 : 3mn 1s
    Bit rate mode                            : Constant
    Bit rate                                 : 192 Kbps
    Channel(s)                               : 2 channels
    Channel positions                        : Front: L R
    Sampling rate                            : 48.0 KHz
    Bit depth                                : 16 bits
    Compression mode                         : Lossy
    Delay relative to video                  : -418ms
    Stream size                              : 4.15 MiB (1%)
    Language                                 : English
    Name                                     : en:Audio

    Text
    ID                                       : 17 (0x11)-1
    Menu ID                                  : 1 (0x1)
    Format                                   : EIA-708
    Muxing mode                              : A/53 / DTVCC Transport
    Muxing mode, more info                   : Muxed in Video #1
    Duration                                 : 3mn 0s
    Bit rate mode                            : Constant
    Stream size                              : 0.00 Byte (0%)

    Menu
    ID                                       : 16 (0x10)
    Menu ID                                  : 1 (0x1)
    Duration                                 : 3mn 1s
    List                                     : 17 (0x11) (MPEG Video, Korean) / 768 (0x300) () / 1025 (0x401) () / 20 (0x14) (AC-3, Korean) / 21 (0x15) (AC-3, English)
    Language                                 : Korean /  /  / Korean / English
    Service name                             : TBC HDTV
    Service channel number                   : 6-1
    Service type                             : Digital television




    0 0

    Original Post: Stray Cat Rock: Machine Animal 1970 BDRip 720p x264 AC3 Yasuharu Hasebe



    Stray Cat Rock:
    Machine Animal

    AKA:野良猫ロック マシン・アニマル
    IMDb:http://www.imdb.com/title/tt0223782
    Link:Midnight Eye feature on the series

    Director: Yasuharu Hasebe
    Writer: Hideichi Nagahara
    Genre: Exploitation / Action
    Release Date: 22 November 1970
    Runtime: 82 min
    Country: Japan
    Language: Japanese
    Subtitles: English
    Source: Arrow Video UK Stray Cat Rock Collection (My own disc for once)

    Synopsis: Two Japanese men help a Vietnam war deserter escape from Japan to Sweden. They plan to fund the escape by selling LSD pills. After word of the drug deal gets spread around, they find themselves fending off rival gangs. One lead by Meiko Kaji and the other lead by Eiji Go.

    Uploader's Comments: The last entry in the series directed by Hasebe and also the last entry in which Kaji has one of the leading roles. Although not as exciting as the previous one with its slightly relaxed atmosphere, this is still an enjoyable ride that would've been a more fitting conclusion to the series than the (to me) out of place Beat '71.

    1. Delinquent Girl Boss
    2. Wild Jumbo
    3. Sex Hunter
    4. Machine Animal
    5. Beat '71

    MediaInfo
    Spoiler:show
    General
    Unique ID : 239798746279809566665011707533568856655 (0xB4678F00FA7CF195A49C5725BD15524F)
    Complete name : Stray.Cat.Rock.Machine.Animal.1970.BDRip.720p.x264.AC3-Jongl0.mkv
    Format : Matroska
    Format version : Version 4 / Version 2
    File size : 5.54 GiB
    Duration : 1h 22mn
    Overall bit rate : 9 636 Kbps
    Encoded date : UTC 2015-04-13 14:34:20
    Writing application : mkvmerge v7.6.0 ('Garden of Dreams') 64bit built on Feb 8 2015 13:04:34
    Writing library : libebml v1.3.1 + libmatroska v1.4.2
    DURATION : 01:22:13.637000000
    NUMBER_OF_FRAMES : 1030
    NUMBER_OF_BYTES : 2786603
    _STATISTICS_WRITING_APP : mkvmerge v7.6.0 ('Garden of Dreams') 64bit built on Feb 8 2015 13:04:34
    _STATISTICS_WRITING_DATE_UTC : 2015-04-13 14:34:20
    _STATISTICS_TAGS : BPS DURATION NUMBER_OF_FRAMES NUMBER_OF_BYTES

    Video
    ID : 1
    Format : AVC
    Format/Info : Advanced Video Codec
    Format profile : High@L4.1
    Format settings, CABAC : Yes
    Format settings, ReFrames : 12 frames
    Codec ID : V_MPEG4/ISO/AVC
    Duration : 1h 22mn
    Bit rate : 8 997 Kbps
    Width : 1 280 pixels
    Height : 512 pixels
    Display aspect ratio : 2.500
    Frame rate mode : Constant
    Frame rate : 23.976 fps
    Color space : YUV
    Chroma subsampling : 4:2:0
    Bit depth : 8 bits
    Scan type : Progressive
    Bits/(Pixel*Frame) : 0.573
    Stream size : 5.17 GiB (93%)
    Writing library : x264 core 142 r2431 ac76440
    Encoding settings : cabac=1 / ref=12 / deblock=1:-3:-3 / analyse=0x3:0x133 / me=umh / subme=10 / psy=1 / psy_rd=1.10:0.00 / mixed_ref=1 / me_range=32 / chroma_me=1 / trellis=2 / 8x8dct=1 / cqm=0 / deadzone=21,11 / fast_pskip=0 / chroma_qp_offset=-2 / threads=12 / lookahead_threads=3 / sliced_threads=0 / nr=0 / decimate=0 / interlaced=0 / bluray_compat=0 / constrained_intra=0 / bframes=14 / b_pyramid=2 / b_adapt=2 / b_bias=0 / direct=3 / weightb=1 / open_gop=0 / weightp=2 / keyint=240 / keyint_min=23 / scenecut=40 / intra_refresh=0 / rc_lookahead=50 / rc=crf / mbtree=0 / crf=17.5 / qcomp=0.65 / qpmin=0 / qpmax=69 / qpstep=4 / vbv_maxrate=62500 / vbv_bufsize=78125 / crf_max=0.0 / nal_hrd=none / filler=0 / ip_ratio=1.40 / pb_ratio=1.30 / aq=1:0.80
    Default : Yes
    Forced : No
    DURATION : 01:22:20.269000000
    NUMBER_OF_FRAMES : 118448
    NUMBER_OF_BYTES : 5670087302
    _STATISTICS_WRITING_APP : mkvmerge v7.6.0 ('Garden of Dreams') 64bit built on Feb 8 2015 13:04:34
    _STATISTICS_WRITING_DATE_UTC : 2015-04-13 14:34:20
    _STATISTICS_TAGS : BPS DURATION NUMBER_OF_FRAMES NUMBER_OF_BYTES

    Audio
    ID : 2
    Format : AC-3
    Format/Info : Audio Coding 3
    Mode extension : CM (complete main)
    Format settings, Endianness : Big
    Codec ID : A_AC3
    Duration : 1h 22mn
    Bit rate mode : Constant
    Bit rate : 448 Kbps
    Channel(s) : 1 channel
    Channel positions : Front: C
    Sampling rate : 48.0 KHz
    Bit depth : 16 bits
    Compression mode : Lossy
    Stream size : 264 MiB (5%)
    Language : Japanese
    Default : Yes
    Forced : No

    Text #1
    ID : 3
    Format : UTF-8
    Codec ID : S_TEXT/UTF8
    Codec ID/Info : UTF-8 Plain Text
    Language : English
    Default : Yes
    Forced : No

    Text #2
    ID : 4
    Format : PGS
    Muxing mode : zlib
    Codec ID : S_HDMV/PGS
    Codec ID/Info : The same subtitle format used on BDs/HD-DVDs
    Language : English
    Default : No
    Forced : No

    Menu
    00:00:00.000 : en:Chapter 1
    00:07:41.836 : en:Chapter 2
    00:13:50.496 : en:Chapter 3
    00:19:49.897 : en:Chapter 4
    00:27:02.663 : en:Chapter 5
    00:34:02.207 : en:Chapter 6
    00:40:26.924 : en:Chapter 7
    00:47:09.577 : en:Chapter 8
    00:56:02.526 : en:Chapter 9
    01:01:54.336 : en:Chapter 10
    01:07:38.721 : en:Chapter 11
    01:14:20.331 : en:Chapter 12


    :
    The Stray Cat Rock series stars Meiko Kaji (Lady Snowblood, Blind Woman's Curse), who with these five films began her reign as the bad ass action queen of the era. In these five tales of rebellious youth, she stars alongside the gorgeous Bunjaku Han (Love Letter) and Tatsuya Fuji (In the Realm of the Senses).

    Directed by genre veterans Yasuharu Hasebe (Female Prisoner Scorpion: #701's Grudge Song) and Toshiya Fujita (Lady Snowblood) the films feature a psychedelic mix of girl gangs, bikers, sex, drugs and rock and roll with plenty of ass-kicking to boot, all captured in a delirious mash up of pop aesthetics including split screens, freeze frames, injections of colour, frenetic editing and dizzying angles, making these films a riotous joy from beginning to end.




    0 0

    Original Post: Stray Cat Rock: Machine Animal 1970 BDRip 480p x264 AC3 Yasuharu Hasebe



    Stray Cat Rock:
    Machine Animal

    AKA:野良猫ロック マシン・アニマル
    IMDb:http://www.imdb.com/title/tt0223782
    Link:Midnight Eye feature on the series

    Director: Yasuharu Hasebe
    Writer: Hideichi Nagahara
    Genre: Exploitation / Action
    Release Date: 22 November 1970
    Runtime: 82 min
    Country: Japan
    Language: Japanese
    Subtitles: English
    Source: Arrow Video UK Stray Cat Rock Collection (My own disc for once)

    Synopsis: Two Japanese men help a Vietnam war deserter escape from Japan to Sweden. They plan to fund the escape by selling LSD pills. After word of the drug deal gets spread around, they find themselves fending off rival gangs. One lead by Meiko Kaji and the other lead by Eiji Go.

    Uploader's Comments: The last entry in the series directed by Hasebe and also the last entry in which Kaji has one of the leading roles. Although not as exciting as the previous one with its slightly relaxed atmosphere, this is still an enjoyable ride that would've been a more fitting conclusion to the series than the (to me) out of place Beat '71.

    1. Delinquent Girl Boss
    2. Wild Jumbo
    3. Sex Hunter
    4. Machine Animal
    5. Beat '71

    MediaInfo
    Spoiler:show
    General
    Unique ID : 232537014070501495757121046768659498028 (0xAEF0FFF6AC39714F8F608D39863C842C)
    Complete name : Stray.Cat.Rock.Machine.Animal.1970.BDRip.480p.x264.AC3-Jongl0.mkv
    Format : Matroska
    Format version : Version 4 / Version 2
    File size : 1.49 GiB
    Duration : 1h 22mn
    Overall bit rate : 2 583 Kbps
    Encoded date : UTC 2015-04-13 15:10:42
    Writing application : mkvmerge v7.6.0 ('Garden of Dreams') 64bit built on Feb 8 2015 13:04:34
    Writing library : libebml v1.3.1 + libmatroska v1.4.2
    DURATION : 01:22:13.662000000
    NUMBER_OF_FRAMES : 1030
    NUMBER_OF_BYTES : 1546377
    _STATISTICS_WRITING_APP : mkvmerge v7.6.0 ('Garden of Dreams') 64bit built on Feb 8 2015 13:04:34
    _STATISTICS_WRITING_DATE_UTC : 2015-04-13 15:10:42
    _STATISTICS_TAGS : BPS DURATION NUMBER_OF_FRAMES NUMBER_OF_BYTES

    Video
    ID : 1
    Format : AVC
    Format/Info : Advanced Video Codec
    Format profile : High@L4.1
    Format settings, CABAC : Yes
    Format settings, ReFrames : 16 frames
    Codec ID : V_MPEG4/ISO/AVC
    Duration : 1h 22mn
    Bit rate : 2 339 Kbps
    Width : 854 pixels
    Height : 342 pixels
    Display aspect ratio : 2.497
    Frame rate mode : Constant
    Frame rate : 23.976 fps
    Color space : YUV
    Chroma subsampling : 4:2:0
    Bit depth : 8 bits
    Scan type : Progressive
    Bits/(Pixel*Frame) : 0.334
    Stream size : 1.35 GiB (91%)
    Writing library : x264 core 142 r2431 ac76440
    Encoding settings : cabac=1 / ref=16 / deblock=1:-3:-3 / analyse=0x3:0x133 / me=umh / subme=10 / psy=1 / psy_rd=1.10:0.00 / mixed_ref=1 / me_range=32 / chroma_me=1 / trellis=2 / 8x8dct=1 / cqm=0 / deadzone=21,11 / fast_pskip=0 / chroma_qp_offset=-2 / threads=12 / lookahead_threads=2 / sliced_threads=0 / nr=0 / decimate=0 / interlaced=0 / bluray_compat=0 / constrained_intra=0 / bframes=14 / b_pyramid=2 / b_adapt=2 / b_bias=0 / direct=3 / weightb=1 / open_gop=0 / weightp=2 / keyint=240 / keyint_min=23 / scenecut=40 / intra_refresh=0 / rc_lookahead=160 / rc=crf / mbtree=1 / crf=17.5 / qcomp=0.60 / qpmin=0 / qpmax=69 / qpstep=4 / vbv_maxrate=14000 / vbv_bufsize=14000 / crf_max=0.0 / nal_hrd=none / filler=0 / ip_ratio=1.40 / aq=1:0.80
    Default : Yes
    Forced : No
    DURATION : 01:22:20.269000000
    NUMBER_OF_FRAMES : 118448
    NUMBER_OF_BYTES : 1473595080
    _STATISTICS_WRITING_APP : mkvmerge v7.6.0 ('Garden of Dreams') 64bit built on Feb 8 2015 13:04:34
    _STATISTICS_WRITING_DATE_UTC : 2015-04-13 15:10:42
    _STATISTICS_TAGS : BPS DURATION NUMBER_OF_FRAMES NUMBER_OF_BYTES

    Audio
    ID : 2
    Format : AC-3
    Format/Info : Audio Coding 3
    Mode extension : CM (complete main)
    Format settings, Endianness : Big
    Codec ID : A_AC3
    Duration : 1h 22mn
    Bit rate mode : Constant
    Bit rate : 192 Kbps
    Channel(s) : 1 channel
    Channel positions : Front: C
    Sampling rate : 48.0 KHz
    Bit depth : 16 bits
    Compression mode : Lossy
    Stream size : 113 MiB (7%)
    Language : Japanese
    Default : Yes
    Forced : No

    Text #1
    ID : 3
    Format : UTF-8
    Codec ID : S_TEXT/UTF8
    Codec ID/Info : UTF-8 Plain Text
    Language : English
    Default : Yes
    Forced : No

    Text #2
    ID : 4
    Format : PGS
    Muxing mode : zlib
    Codec ID : S_HDMV/PGS
    Codec ID/Info : The same subtitle format used on BDs/HD-DVDs
    Language : English
    Default : No
    Forced : No

    Menu
    00:00:00.000 : en:Chapter 1
    00:07:41.836 : en:Chapter 2
    00:13:50.496 : en:Chapter 3
    00:19:49.897 : en:Chapter 4
    00:27:02.663 : en:Chapter 5
    00:34:02.207 : en:Chapter 6
    00:40:26.924 : en:Chapter 7
    00:47:09.577 : en:Chapter 8
    00:56:02.526 : en:Chapter 9
    01:01:54.336 : en:Chapter 10
    01:07:38.721 : en:Chapter 11
    01:14:20.331 : en:Chapter 12


    :
    The Stray Cat Rock series stars Meiko Kaji (Lady Snowblood, Blind Woman's Curse), who with these five films began her reign as the bad ass action queen of the era. In these five tales of rebellious youth, she stars alongside the gorgeous Bunjaku Han (Love Letter) and Tatsuya Fuji (In the Realm of the Senses).

    Directed by genre veterans Yasuharu Hasebe (Female Prisoner Scorpion: #701's Grudge Song) and Toshiya Fujita (Lady Snowblood) the films feature a psychedelic mix of girl gangs, bikers, sex, drugs and rock and roll with plenty of ass-kicking to boot, all captured in a delirious mash up of pop aesthetics including split screens, freeze frames, injections of colour, frenetic editing and dizzying angles, making these films a riotous joy from beginning to end.




    0 0

    Original Post: Falling in Love With Soon Jung E07 XVID WITH


    Drama: Fall in Love with Soon-Jung (literal title)
    Revised romanization: Soonjunge Banhada
    Hangul: 순정에 반하다
    Director: Ji Yeong-Su
    Writer: Yoo Hee-Gyung
    Network: JTBC
    Episodes:
    Release Date: April 3, 2015 --
    Runtime: Fridays & Saturdays 21:50
    Language: Korean
    Country: South Korea

    Plot
    After his uncle's unjust takeover of the family company, Kang Min Ho (Jung Kyung Ho) grows up to be a successful, if not cynical investor who only cares about money. But when he undergoes a sudden heart transplant surgery, Min Ho literally has a change of heart when he inherits a warm and compassionate heart. In the midst of seeing the world anew, including falling for the kind Kim Soon Jung (Kim So Yeon), Min Ho must mitigate his newfound personality with the demands of his cutthroat career.




    Code
    Video
    ID                                       : 0
    Format                                   : MPEG-4 Visual
    Format profile                           : Advanced Simple@L5
    Format settings, BVOP                    : No
    Format settings, QPel                    : No
    Format settings, GMC                     : No warppoints
    Format settings, Matrix                  : Default (MPEG)
    Codec ID                                 : XVID
    Codec ID/Hint                            : XviD
    Bit rate                                 : 1 391 Kbps
    Width                                    : 624 pixels
    Height                                   : 352 pixels
    Display aspect ratio                     : 16:9
    Frame rate                               : 29.970 fps
    Color space                              : YUV
    Chroma subsampling                       : 4:2:0
    Bit depth                                : 8 bits
    Scan type                                : Progressive
    Compression mode                         : Lossy
    Bits/(Pixel*Frame)                       : 0.211
    Stream size                              : 660 MiB (87%)
    Writing library                          : XviD 1.2.1 (UTC 2008-12-04)

    Audio
    ID                                       : 1
    Format                                   : MPEG Audio
    Format version                           : Version 1
    Format profile                           : Layer 3
    Mode                                     : Joint stereo
    Mode extension                           : MS Stereo
    Codec ID                                 : 55
    Codec ID/Hint                            : MP3
    Bit rate mode                            : Constant
    Bit rate                                 : 128 Kbps
    Channel(s)                               : 2 channels
    Sampling rate                            : 48.0 KHz
    Compression mode                         : Lossy
    Stream size                              : 60.8 MiB (8%)
    Alignment                                : Aligned on interleaves
    Writing library                          : LAME3.98.2



    0 0

    Original Post: Falling in Love With Soon Jung E07 720p WITH


    Drama: Fall in Love with Soon-Jung (literal title)
    Revised romanization: Soonjunge Banhada
    Hangul: 순정에 반하다
    Director: Ji Yeong-Su
    Writer: Yoo Hee-Gyung
    Network: JTBC
    Episodes:
    Release Date: April 3, 2015 --
    Runtime: Fridays & Saturdays 21:50
    Language: Korean
    Country: South Korea

    Plot
    After his uncle's unjust takeover of the family company, Kang Min Ho (Jung Kyung Ho) grows up to be a successful, if not cynical investor who only cares about money. But when he undergoes a sudden heart transplant surgery, Min Ho literally has a change of heart when he inherits a warm and compassionate heart. In the midst of seeing the world anew, including falling for the kind Kim Soon Jung (Kim So Yeon), Min Ho must mitigate his newfound personality with the demands of his cutthroat career.




    Code
    Video
    ID                                       : 0
    Format                                   : AVC
    Format/Info                              : Advanced Video Codec
    Format profile                           : Baseline@L3.1
    Format settings, CABAC                   : No
    Format settings, ReFrames                : 1 frame
    Codec ID                                 : H264
    Bit rate                                 : 3 017 Kbps
    Width                                    : 1 280 pixels
    Height                                   : 720 pixels
    Display aspect ratio                     : 16:9
    Frame rate mode                          : Variable
    Frame rate                               : 29.970 fps
    Color space                              : YUV
    Chroma subsampling                       : 4:2:0
    Bit depth                                : 8 bits
    Scan type                                : Progressive
    Bits/(Pixel*Frame)                       : 0.109

    Audio
    ID                                       : 1
    Format                                   : MPEG Audio
    Format version                           : Version 1
    Format profile                           : Layer 3
    Mode                                     : Joint stereo
    Mode extension                           : MS Stereo
    Codec ID                                 : 55
    Codec ID/Hint                            : MP3
    Bit rate mode                            : Constant
    Bit rate                                 : 128 Kbps
    Channel(s)                               : 2 channels
    Sampling rate                            : 44.1 KHz
    Compression mode                         : Lossy
    Stream size                              : 62.1 MiB (4%)
    Alignment                                : Aligned on interleaves
    Interleave, duration                     : 26 ms (0.78 video frame)
    Writing library                          : LAME3.98.2

    http://


    0 0

    Original Post: Design Talks - Bento (704x400 x264)



    http://thetvdb.com/?tab=series&id=274809

    Title: Design Talks

    Broadcast Date: Feb. 25, 2015
    Run Time: 30 min
    Genre: Documentary
    Language: English
    Country: Japan
    Subtitles: None

    Magazine style intellectual aesthetic voyage, exploring art and philosophy in Japanese designs

    from antiques to high-techs, commodities and fashions.

    This Episode:

    Bento

    In Japan, there's a bento - a box packed with delicious seasonal foods - for almost every occasion. Maku-no-uchi bento are enjoyed at events like kabuki theatrical shows and sumo matches, whereas eki-ben are sold at train stations to hungry travelers. These days, people are even arranging the food in bento boxes into cute character designs. Art director Mitsuhiro Tomita is our guest this week as we take a look at Japan's long tradition of bento.




    TECHNICAL INFORMATION

    Code

    General
    Format                                   : Matroska
    Format version                           : Version 2
    File size                                : 263 MiB
    Duration                                 : 28mn 0s
    Overall bit rate                         : 1 312 Kbps
    Writing application                      : libmatroska 1.3.0
    Writing library                          : SolveigMM Matroska Muxer Version 1.0.1208.20

    Video
    ID                                       : 1
    Format                                   : AVC
    Format/Info                              : Advanced Video Codec
    Format profile                           : High@L5
    Format settings, CABAC                   : Yes
    Format settings, ReFrames                : 8 frames
    Codec ID                                 : V_MPEG4/ISO/AVC
    Width                                    : 704 pixels
    Height                                   : 400 pixels
    Display aspect ratio                     : 16:9
    Frame rate mode                          : Variable
    Original frame rate                      : 25.000 fps
    Color space                              : YUV
    Chroma subsampling                       : 4:2:0
    Bit depth                                : 8 bits
    Scan type                                : Progressive
    Language                                 : English
    Default                                  : No
    Forced                                   : No
    Color range                              : Limited
    Color primaries                          : BT.601 PAL
    Transfer characteristics                 : BT.470 System B, BT.470 System G
    Matrix coefficients                      : BT.601

    Audio
    ID                                       : 2
    Format                                   : AAC
    Format/Info                              : Advanced Audio Codec
    Format profile                           : LC
    Codec ID                                 : A_AAC
    Duration                                 : 28mn 0s
    Channel(s)                               : 1 channel
    Channel positions                        : Front: C
    Sampling rate                            : 48.0 KHz
    Compression mode                         : Lossy
    Delay relative to video                  : 7ms
    Language                                 : English
    Default                                  : No
    Forced                                   : No




    0 0

    Original Post: Falling in Love With Soon Jung E08 XVID WITH


    Drama: Fall in Love with Soon-Jung (literal title)
    Revised romanization: Soonjunge Banhada
    Hangul: 순정에 반하다
    Director: Ji Yeong-Su
    Writer: Yoo Hee-Gyung
    Network: JTBC
    Episodes:
    Release Date: April 3, 2015 --
    Runtime: Fridays & Saturdays 21:50
    Language: Korean
    Country: South Korea

    Plot
    After his uncle's unjust takeover of the family company, Kang Min Ho (Jung Kyung Ho) grows up to be a successful, if not cynical investor who only cares about money. But when he undergoes a sudden heart transplant surgery, Min Ho literally has a change of heart when he inherits a warm and compassionate heart. In the midst of seeing the world anew, including falling for the kind Kim Soon Jung (Kim So Yeon), Min Ho must mitigate his newfound personality with the demands of his cutthroat career.




    Code
    Video
    ID                                       : 0
    Format                                   : MPEG-4 Visual
    Format profile                           : Advanced Simple@L5
    Format settings, BVOP                    : No
    Format settings, QPel                    : No
    Format settings, GMC                     : No warppoints
    Format settings, Matrix                  : Default (MPEG)
    Codec ID                                 : XVID
    Codec ID/Hint                            : XviD
    Bit rate                                 : 1 391 Kbps
    Width                                    : 624 pixels
    Height                                   : 352 pixels
    Display aspect ratio                     : 16:9
    Frame rate                               : 29.970 fps
    Color space                              : YUV
    Chroma subsampling                       : 4:2:0
    Bit depth                                : 8 bits
    Scan type                                : Progressive
    Compression mode                         : Lossy
    Bits/(Pixel*Frame)                       : 0.211
    Stream size                              : 660 MiB (87%)
    Writing library                          : XviD 1.2.1 (UTC 2008-12-04)

    Audio
    ID                                       : 1
    Format                                   : MPEG Audio
    Format version                           : Version 1
    Format profile                           : Layer 3
    Mode                                     : Joint stereo
    Mode extension                           : MS Stereo
    Codec ID                                 : 55
    Codec ID/Hint                            : MP3
    Bit rate mode                            : Constant
    Bit rate                                 : 128 Kbps
    Channel(s)                               : 2 channels
    Sampling rate                            : 48.0 KHz
    Compression mode                         : Lossy
    Stream size                              : 60.8 MiB (8%)
    Alignment                                : Aligned on interleaves
    Writing library                          : LAME3.98.2



older | 1 | .... | 1325 | 1326 | (Page 1327) | 1328 | 1329 | .... | 1405 | newer