Are you the publisher? Claim or contact us about this channel


Embed this content in your HTML

Search

Report adult content:

click to rate:

Account: (login)

More Channels


Showcase


Channel Catalog


Channel Description:

Asia Torrents RSS Feed

older | 1 | .... | 1327 | 1328 | (Page 1329) | 1330 | 1331 | .... | 1405 | newer

    0 0

    Original Post: Tenno no Ryoriban 480p HDTVrip [CHINESE-JAPANESE HARDSUBBED]



    Name: Tenno no Ryoriban
    Japanese Title:天皇の料理番
    Alternatively known as: Emperor's Cook
    Release Date: April 26, 2015
    Run time: 1:33:22
    Genre:
    Resolution: 852x480
    Size: 607MB
    Language: Japanese
    Country: Japan
    Subtitles: Hardcoded Chinese and Japanese [Thank you ZhuixinFan]



    Plot:
    Tokuzo Akiyama (Takeru Satoh) is a young man living in a rural area. One day, he eats cutlet. That experience leads him to become a cook for western style food. He first goes to Tokyo and then Paris, France to learn about the culinary arts. Fighting against discrimination and prejudice, he becomes a chef at the Hotel Ritz in Paris, France. At the age of 26, he becomes the chef for the Emperor of Japan.

    Specs:
    Spoiler:show
    General
    Complete name                            : Itongue.gifaige FilesSatoh TakeruTenno no Ryoriban天皇的御厨.Tenno.no.Ryoriban.Ep01.Chi_Jap.HDTVrip.852X480-ZhuixinFan.mp4
    Format                                   : MPEG-4
    Format profile                           : Base Media
    Codec ID                                 : isom
    File size                                : 608 MiB
    Duration                                 : 1h 33mn
    Overall bit rate mode                    : Variable
    Overall bit rate                         : 910 Kbps
    Encoded date                             : UTC 2015-04-25 23:16:23
    Tagged date                              : UTC 2015-04-25 23:16:23

    Video
    ID                                       : 1
    Format                                   : AVC
    Format/Info                              : Advanced Video Codec
    Format profile                           : High@L4.1
    Format settings, CABAC                   : Yes
    Format settings, ReFrames                : 5 frames
    Codec ID                                 : avc1
    Codec ID/Info                            : Advanced Video Coding
    Duration                                 : 1h 33mn
    Bit rate                                 : 810 Kbps
    Maximum bit rate                         : 4 595 Kbps
    Width                                    : 852 pixels
    Height                                   : 480 pixels
    Display aspect ratio                     : 16:9
    Frame rate mode                          : Constant
    Frame rate                               : 29.970 fps
    Color space                              : YUV
    Chroma subsampling                       : 4:2:0
    Bit depth                                : 8 bits
    Scan type                                : Progressive
    Bits/(Pixel*Frame)                       : 0.066
    Stream size                              : 541 MiB (89%)
    Writing library                          : x264 core 133 r2334+704+50 a7549b7 tMod [8-bit@4:2:0 X86]
    Encoding settings                        : cabac=1 / ref=5 / deblock=1:-1:-1 / analyse=0x3:0x113 / me=umh / subme=10 / psy=1 / fade_compensate=0.00 / psy_rd=1.50:0.10 / mixed_ref=1 / me_range=48 / chroma_me=1 / trellis=2 / 8x8dct=1 / cqm=0 / deadzone=21,11 / fast_pskip=0 / chroma_qp_offset=-2 / threads=18 / lookahead_threads=1 / sliced_threads=0 / nr=0 / decimate=1 / interlaced=0 / bluray_compat=0 / constrained_intra=0 / fgo=0 / bframes=6 / b_pyramid=2 / b_adapt=1 / b_bias=0 / direct=3 / weightb=1 / open_gop=0 / weightp=2 / keyint=250 / keyint_min=25 / scenecut=40 / intra_refresh=0 / rc_lookahead=70 / rc=crf / mbtree=0 / crf=25.0000 / qcomp=0.70 / qpmin=0 / qpmax=69 / qpstep=4 / vbv_maxrate=14000 / vbv_bufsize=14000 / crf_max=0.0 / nal_hrd=none / ip_ratio=1.40 / pb_ratio=1.30 / aq=1:1.00 / aq-sensitivity=10.00 / aq-factor=1.00:1.00:1.00 / aq2=0 / aq3=0
    Encoded date                             : UTC 2015-04-26 23:07:56
    Tagged date                              : UTC 2015-04-25 23:16:31

    Audio
    ID                                       : 2
    Format                                   : AAC
    Format/Info                              : Advanced Audio Codec
    Format profile                           : LC
    Codec ID                                 : 40
    Duration                                 : 1h 33mn
    Bit rate mode                            : Variable
    Bit rate                                 : 96.0 Kbps
    Maximum bit rate                         : 105 Kbps
    Channel(s)                               : 2 channels
    Channel positions                        : Front: L R
    Sampling rate                            : 48.0 KHz
    Compression mode                         : Lossy
    Stream size                              : 64.1 MiB (11%)
    Encoded date                             : UTC 2015-04-25 23:16:25
    Tagged date                              : UTC 2015-04-25 23:16:31


    0 0

    Original Post: TVB Limelight Years E02 HDTV 720p-TVBDO



    If you like my upload, please press the "Thank You" buttoncool2.gif

    English Title: Limelight Years
    Chinese Title:華麗轉身
    Network: TVB
    Release Date: April 27, 2015
    Episodes: 20
    Country: Hong Kong
    Audio: Cantonese (AC-3 6 Channels)
    Subtitles: English (.srt embedded)
    Genre: Modern
    Cast: Liza Wang, Damion Lau, Alex Fong, Linda Chung, Eliza Sum, Jonathan Wong, Jacqueline Wong, Michelle Yim (Guest Star)

    Synopsis: There is darkness behind the limelight. After recovering from a long-term sickness, retiring singer Wah Fong Ying (Liza Wang) has come to realize that she has failed to live a fulfilling life. With two failed marriages and strained relationships with her three children, Fong Ying is much lonelier than she admits. Summoning up all her courage, Fong Ying flies to Taiwan to mend her broken relationship with her oldest daughter. During this time, she comes across Hong Kong photographer Law Ben (Damian Lau), who is in Taiwan to fulfill his late wife’s (Michelle Yim) wish of returning to her ancestral home. Sparks fly when the extraordinary meets the ordinary. Both Fong Ying and Ben find their strength as they quietly support each other.

    Encouraged by Ben, Fong Ying decides to perform one last time in a goodbye concert for her close friends and family, but her youngest daughter Tong Yan (Eliza Sam) reacts coldly to the invitation. Nonetheless, Fong Ying remains committed to her last concert and hires a new assistant Szeto Dik Dik (Linda Chung) and a new creative director, Song Sheung Hang (Alex Fong). Dik Dik and Sheung Han initially struggle to get along due to past misunderstandings, but they eventually cultivate a deep relationship. Just as Fong Ying starts to find the light again, she is once again attacked by darkness. While Sheung Hang was preparing a special issue to promote Fong Ying’s concert, he discovers an ugly secret that Fong Ying has been keeping for many years. Dik Dik finds out that Fong Ying and her uncle were involved in the past. Ben is also starting to have hallucinations…






    If you like my upload, please press the "Thank You" buttoncool2.gif


    Code

    General
    Format                                   : Matroska
    Format version                           : Version 4 / Version 2
    File size                                : 1.67 GiB
    Duration                                 : 44mn 17s
    Overall bit rate                         : 5 399 Kbps
    Encoded date                             : UTC 2015-04-29 01:12:32
    Writing application                      : mkvmerge v7.5.0 ('Glass Culture') 32bit built on Jan  4 2015 16:37:25
    Writing library                          : libebml v1.3.1 + libmatroska v1.4.2
    DURATION                                 : 00:40:47.359000000
    NUMBER_OF_FRAMES                         : 616
    NUMBER_OF_BYTES                          : 26239
    _STATISTICS_WRITING_APP                  : mkvmerge v7.5.0 ('Glass Culture') 32bit built on Jan  4 2015 16:37:25
    _STATISTICS_WRITING_DATE_UTC             : 2015-04-29 01:12:32
    _STATISTICS_TAGS                         : BPS DURATION NUMBER_OF_FRAMES NUMBER_OF_BYTES

    Video
    ID                                       : 1
    Format                                   : AVC
    Format/Info                              : Advanced Video Codec
    Format profile                           : High@L3.1
    Format settings, CABAC                   : Yes
    Format settings, ReFrames                : 4 frames
    Codec ID                                 : V_MPEG4/ISO/AVC
    Duration                                 : 44mn 17s
    Bit rate                                 : 5 000 Kbps
    Width                                    : 1 280 pixels
    Height                                   : 720 pixels
    Display aspect ratio                     : 16:9
    Frame rate mode                          : Constant
    Frame rate                               : 25.000 fps
    Color space                              : YUV
    Chroma subsampling                       : 4:2:0
    Bit depth                                : 8 bits
    Scan type                                : Progressive
    Bits/(Pixel*Frame)                       : 0.217
    Stream size                              : 1.52 GiB (91%)
    Writing library                          : x264 core 146 r2538 121396c
    Encoding settings                        : cabac=1 / ref=3 / deblock=1:0:0 / analyse=0x3:0x113 / me=hex / subme=6 / psy=1 / psy_rd=1.00:0.00 / mixed_ref=1 / me_range=16 / chroma_me=1 / trellis=1 / 8x8dct=1 / cqm=0 / deadzone=21,11 / fast_pskip=1 / chroma_qp_offset=-2 / threads=12 / lookahead_threads=2 / sliced_threads=0 / nr=0 / decimate=1 / interlaced=0 / bluray_compat=0 / constrained_intra=0 / bframes=3 / b_pyramid=2 / b_adapt=1 / b_bias=0 / direct=1 / weightb=1 / open_gop=0 / weightp=2 / keyint=250 / keyint_min=25 / scenecut=40 / intra_refresh=0 / rc_lookahead=40 / rc=abr / mbtree=1 / bitrate=5000 / ratetol=1.0 / qcomp=0.60 / qpmin=10 / qpmax=51 / qpstep=4 / ip_ratio=1.41 / aq=1:1.00
    Default                                  : Yes
    Forced                                   : No
    DURATION                                 : 00:44:17.760000000
    NUMBER_OF_FRAMES                         : 66440
    NUMBER_OF_BYTES                          : 1665462684
    _STATISTICS_WRITING_APP                  : mkvmerge v7.5.0 ('Glass Culture') 32bit built on Jan  4 2015 16:37:25
    _STATISTICS_WRITING_DATE_UTC             : 2015-04-29 01:12:32
    _STATISTICS_TAGS                         : BPS DURATION NUMBER_OF_FRAMES NUMBER_OF_BYTES

    Audio
    ID                                       : 2
    Format                                   : AC-3
    Format/Info                              : Audio Coding 3
    Mode extension                           : CM (complete main)
    Format settings, Endianness              : Big
    Codec ID                                 : A_AC3
    Duration                                 : 44mn 17s
    Bit rate mode                            : Constant
    Bit rate                                 : 384 Kbps
    Channel(s)                               : 6 channels
    Channel positions                        : Front: L C R, Side: L R, LFE
    Sampling rate                            : 48.0 KHz
    Bit depth                                : 16 bits
    Compression mode                         : Lossy
    Delay relative to video                  : -40ms
    Stream size                              : 122 MiB (7%)
    Language                                 : Chinese
    Default                                  : Yes
    Forced                                   : No
    DURATION                                 : 00:44:17.771000000
    NUMBER_OF_FRAMES                         : 83013
    NUMBER_OF_BYTES                          : 127507968
    _STATISTICS_WRITING_APP                  : mkvmerge v7.5.0 ('Glass Culture') 32bit built on Jan  4 2015 16:37:25
    _STATISTICS_WRITING_DATE_UTC             : 2015-04-29 01:12:32
    _STATISTICS_TAGS                         : BPS DURATION NUMBER_OF_FRAMES NUMBER_OF_BYTES

    Text
    ID                                       : 3
    Format                                   : UTF-8
    Codec ID                                 : S_TEXT/UTF8
    Codec ID/Info                            : UTF-8 Plain Text
    Language                                 : English
    Default                                  : Yes
    Forced                                   : Yes




    0 0

    Original Post: Roommate S01 to S02 XVID Complete



    Description
    Season 1
    Eleven celebrities live together in close quarters as they share the cooking, cleaning and everyday chores around the house. Will they become close friends? Develop deeper relationships? Or find themselves fighting each other and making enemies? The celebrities include Park Chan Yeol (EXO), Hong Soo Hyun, Jo Se Ho, Lee Dong Wook, Lee So Ra, Nana (After School), Park Bom (2NE1), Park Min Woo, Seo Kang Joon (5urprise), Shin Sung Woo, and Song Ga Yeon.

    Season 2
    With the departure of some of the original roommates, we now have a new crop of boarders in the house: Bae Jong Ok, Jackson from GOT7, Sunny from Girls' Generation, Park Joon Hyung from g.o.d., Otani Ryohei, comedian Lee Gook Joo, and Heo Young Ji from KARA! Will everyone get along, or will they be driven crazy by their new roommates' snoring and crazy antics?





    Code
    Video
    ID                                       : 0
    Format                                   : MPEG-4 Visual
    Format profile                           : Advanced Simple@L5
    Format settings, BVOP                    : No
    Format settings, QPel                    : No
    Format settings, GMC                     : No warppoints
    Format settings, Matrix                  : Default (MPEG)
    Codec ID                                 : XVID
    Codec ID/Hint                            : XviD
    Bit rate                                 : 1 388 Kbps
    Width                                    : 624 pixels
    Height                                   : 352 pixels
    Display aspect ratio                     : 16:9
    Frame rate                               : 29.970 fps
    Color space                              : YUV
    Chroma subsampling                       : 4:2:0
    Bit depth                                : 8 bits
    Scan type                                : Progressive
    Compression mode                         : Lossy
    Bits/(Pixel*Frame)                       : 0.211
    Writing library                          : XviD 1.2.1 (UTC 2008-12-04)

    Audio
    ID                                       : 1
    Format                                   : MPEG Audio
    Format version                           : Version 1
    Format profile                           : Layer 3
    Mode                                     : Joint stereo
    Mode extension                           : MS Stereo
    Codec ID                                 : 55
    Codec ID/Hint                            : MP3
    Bit rate mode                            : Constant
    Bit rate                                 : 128 Kbps
    Channel(s)                               : 2 channels
    Sampling rate                            : 48.0 KHz
    Compression mode                         : Lossy
    Alignment                                : Aligned on interleaves
    Writing library                          : LAME3.98.2
    Language                                 : un



    0 0

    Original Post: Roommate S01 to S02 720p Complete



    Description
    Season 1
    Eleven celebrities live together in close quarters as they share the cooking, cleaning and everyday chores around the house. Will they become close friends? Develop deeper relationships? Or find themselves fighting each other and making enemies? The celebrities include Park Chan Yeol (EXO), Hong Soo Hyun, Jo Se Ho, Lee Dong Wook, Lee So Ra, Nana (After School), Park Bom (2NE1), Park Min Woo, Seo Kang Joon (5urprise), Shin Sung Woo, and Song Ga Yeon.

    Season 2
    With the departure of some of the original roommates, we now have a new crop of boarders in the house: Bae Jong Ok, Jackson from GOT7, Sunny from Girls' Generation, Park Joon Hyung from g.o.d., Otani Ryohei, comedian Lee Gook Joo, and Heo Young Ji from KARA! Will everyone get along, or will they be driven crazy by their new roommates' snoring and crazy antics?





    Code
    Video
    ID                             : 1
    Format                         : AVC
    Format/Info                    : Advanced Video Codec
    Format profile                 : High@L5.1
    Format settings, CABAC         : Yes
    Format settings, ReFrames      : 4 frames
    Codec ID                       : V_MPEG4/ISO/AVC
    Bit rate                       : 887 Kbps
    Nominal bit rate               : 2 496 Kbps
    Width                          : 1 280 pixels
    Height                         : 720 pixels
    Display aspect ratio           : 16:9
    Frame rate mode                : Constant
    Frame rate                     : 29.970 fps
    Color space                    : YUV
    Chroma subsampling             : 4:2:0
    Bit depth                      : 8 bits
    Scan type                      : Progressive
    Bits/(Pixel*Frame)             : 0.032
    Stream size                    : 535 MiB (68%)
    Writing library                : x264 core 130 r2273 b3065e6
    Encoding settings              : cabac=1 / ref=3 / deblock=1:0:0 / analyse=0x3:0x113 / me=hex / subme=7 / psy=1 / psy_rd=1.00:0.00 / mixed_ref=1 / me_range=16 / chroma_me=1 / trellis=1 / 8x8dct=1 / cqm=0 / deadzone=21,11 / fast_pskip=1 / chroma_qp_offset=-2 / threads=1 / lookahead_threads=1 / sliced_threads=0 / nr=0 / decimate=1 / interlaced=0 / bluray_compat=0 / constrained_intra=0 / bframes=3 / b_pyramid=2 / b_adapt=1 / b_bias=0 / direct=1 / weightb=1 / open_gop=0 / weightp=2 / keyint=300 / keyint_min=29 / scenecut=40 / intra_refresh=0 / rc_lookahead=40 / rc=2pass / mbtree=1 / bitrate=2496 / ratetol=1.0 / qcomp=0.60 / qpmin=0 / qpmax=69 / qpstep=4 / cplxblur=20.0 / qblur=0.5 / vbv_maxrate=300000 / vbv_bufsize=300000 / nal_hrd=none / ip_ratio=1.40 / aq=1:1.00
    Default                        : Yes
    Forced                         : No

    Audio
    ID                             : 2
    Format                         : AC-3
    Format/Info                    : Audio Coding 3
    Mode extension                 : CM (complete main)
    Format settings, Endianness    : Big
    Codec ID                       : A_AC3
    Bit rate mode                  : Constant
    Bit rate                       : 384 Kbps
    Channel(s)                     : 2 channels
    Channel positions              : Front: L R
    Sampling rate                  : 44.1 KHz
    Bit depth                      : 16 bits
    Compression mode               : Lossy
    Stream size                    : 232 MiB (30%)
    Language                       : Korean
    Default                        : Yes
    Forced                         : No



    0 0
  • 04/29/15--04:22: Sensory Couple E09 450p LIMO
  • Original Post: Sensory Couple E09 450p LIMO


    Details
    Title: 냄새를 보는 소녀 / A Girl Who Sees Smells
    Genre: Romance
    Episodes:
    Broadcast network: SBS
    Broadcast period: 2015-Apr-01 to 2015-Jun-??
    Air time: Wednesday & Thursday 22:00
    Original Soundtrack: A Girl Who Sees Smells OST
    Synopsis
    Three years ago, a man lost his younger sister in the "Bar Code" murder case, since then he lost his senses. A girl miraculously survived the "Bar code" murder case, since then she has lost her memory. But she has also gained the ability to see smells.

    Cast
    Main Cast
    Park Yoo Chun as Choi Moo Gak
    Shin Se Kyung as Oh Cho Rim
    Nam Goong Min as Kwon Jae Hee
    Yoon Jin Seo as Yeom Mi




    Code
    Video
    ID                                       : 0
    Format                                   : AVC
    Format/Info                              : Advanced Video Codec
    Format profile                           : High@L5.1
    Format settings, CABAC                   : Yes
    Format settings, ReFrames                : 4 frames
    Codec ID                                 : H264
    Bit rate                                 : 1 500 Kbps
    Width                                    : 800 pixels
    Height                                   : 450 pixels
    Display aspect ratio                     : 16:9
    Frame rate mode                          : Variable
    Frame rate                               : 29.970 fps
    Color space                              : YUV
    Chroma subsampling                       : 4:2:0
    Bit depth                                : 8 bits
    Scan type                                : Progressive
    Bits/(Pixel*Frame)                       : 0.139
    Stream size                              : 686 MiB (88%)
    Writing library                          : x264 core 112

    Audio
    ID                                       : 1
    Format                                   : MPEG Audio
    Format version                           : Version 1
    Format profile                           : Layer 3
    Mode                                     : Joint stereo
    Mode extension                           : MS Stereo
    Codec ID                                 : 55
    Codec ID/Hint                            : MP3
    Bit rate mode                            : Constant
    Bit rate                                 : 192 Kbps
    Channel(s)                               : 2 channels
    Sampling rate                            : 48.0 KHz
    Compression mode                         : Lossy
    Stream size                              : 88.3 MiB (11%)
    Alignment                                : Aligned on interleaves
    Interleave, duration                     : 24 ms (0.72 video frame)
    Writing library                          : LAME3.98.2
    Language                                 : Korean



    0 0
  • 04/29/15--04:22: Sensory Couple E09 720p LIMO
  • Original Post: Sensory Couple E09 720p LIMO


    Details
    Title: 냄새를 보는 소녀 / A Girl Who Sees Smells
    Genre: Romance
    Episodes:
    Broadcast network: SBS
    Broadcast period: 2015-Apr-01 to 2015-Jun-??
    Air time: Wednesday & Thursday 22:00
    Original Soundtrack: A Girl Who Sees Smells OST
    Synopsis
    Three years ago, a man lost his younger sister in the "Bar Code" murder case, since then he lost his senses. A girl miraculously survived the "Bar code" murder case, since then she has lost her memory. But she has also gained the ability to see smells.

    Cast
    Main Cast
    Park Yoo Chun as Choi Moo Gak
    Shin Se Kyung as Oh Cho Rim
    Nam Goong Min as Kwon Jae Hee
    Yoon Jin Seo as Yeom Mi




    Code
    Video
    ID                               : 0
    Format                           : AVC
    Format/Info                      : Advanced Video Codec
    Format profile                   : High@L5.1
    Format settings, CABAC           : Yes
    Format settings, ReFrames        : 4 frames
    Codec ID                         : H264
    Duration                         : 1h 4mn
    Bit rate                         : 3 000 Kbps
    Width                            : 1 280 pixels
    Height                           : 720 pixels
    Display aspect ratio             : 16:9
    Frame rate mode                  : Variable
    Frame rate                       : 29.970 fps
    Color space                      : YUV
    Chroma subsampling               : 4:2:0
    Bit depth                        : 8 bits
    Scan type                        : Progressive
    Bits/(Pixel*Frame)               : 0.109
    Stream size                      : 1.35 GiB (94%)
    Writing library                  : x264 core 112
    Encoding settings                : cabac=1 / ref=3 / deblock=1:-1:-1 / analyse=0x3:0x113 / me=hex / subme=6 / psy=1 / psy_rd=1.00:1.00 / mixed_ref=1 / me_range=16 / chroma_me=1 / trellis=1 / 8x8dct=1 / cqm=0 / deadzone=21,11 / fast_pskip=0 / chroma_qp_offset=-4 / threads=12 / sliced_threads=0 / nr=0 / decimate=1 / interlaced=0 / constrained_intra=0 / bframes=3 / b_pyramid=2 / b_adapt=1 / b_bias=1 / direct=3 / weightb=1 / open_gop=0 / weightp=2 / keyint=299 / keyint_min=25 / scenecut=1 / intra_refresh=0 / rc_lookahead=40 / rc=abr / mbtree=1 / bitrate=3000 / ratetol=1.0 / qcomp=0.60 / qpmin=10 / qpmax=51 / qpstep=4 / ip_ratio=1.40 / aq=1:1.00

    Audio
    ID                               : 1
    Format                           : MPEG Audio
    Format version                   : Version 1
    Format profile                   : Layer 3
    Mode                             : Joint stereo
    Mode extension                   : MS Stereo
    Codec ID                         : 55
    Codec ID/Hint                    : MP3
    Duration                         : 1h 4mn
    Bit rate mode                    : Constant
    Bit rate                         : 192 Kbps
    Channel(s)                       : 2 channels
    Sampling rate                    : 48.0 KHz
    Stream size                      : 88.0 MiB (6%)
    Alignment                        : Split accross interleaves
    Interleave, duration             : 33 ms (1.00 video frame)
    Interleave, preload duration     : 500 ms
    Writing library                  : LAME3.98.2



    0 0
  • 04/29/15--04:23: Angry Mom E13 XVID LIMO
  • Original Post: Angry Mom E13 XVID LIMO


    Details
    Title: 앵그리 맘 / Aenggeuri Mam
    Genre: Family, drama, human, school
    Episodes: 16
    Broadcast network: MBC
    Broadcast period: 2015-Mar-18 to 2015-???-??
    Air time: Wednesday & Thursday 22:00
    Original Soundtrack: Angry Mom OST
    Synopsis
    Jo Kang Ja was once a legendary badass in her teenage days—and as a Busan girl, she would have been extra rough-and-tumble. Daughter to a sashimi-restaurant-owner mother who loves to swear and a father with a rap sheet for fighting, Kang Hee inherits her parents’ penchant for cursing, quick temper, and sashimi knife skills.

    As a young mother, she is the kind of person who prefers dramas to news or current events. But when she finds out that her daughter, Oh Ah Ran, is being victimized by bullies at school, she decides to do something about it directly, and what ensues is a positive, upbeat, and poignant” story that seeks to highlight trouble spots in South Korea’s educational system. --Dramabeans

    Cast
    Kim Hee Sun as Jo Kang Ja (Ah Ran's mother)
    Ji Hyun Woo as Park Noh Ah
    Kim Yoo Jung as Oh Ah Ran (Kang Ja's daughter)




    Code
    Video
    ID                                       : 0
    Format                                   : MPEG-4 Visual
    Format profile                           : Advanced Simple@L5
    Format settings, BVOP                    : No
    Format settings, QPel                    : No
    Format settings, GMC                     : No warppoints
    Format settings, Matrix                  : Default (MPEG)
    Codec ID                                 : XVID
    Codec ID/Hint                            : XviD
    Duration                                 : 1h 6mn
    Bit rate                                 : 1 391 Kbps
    Width                                    : 624 pixels
    Height                                   : 352 pixels
    Display aspect ratio                     : 16:9
    Frame rate                               : 29.970 fps
    Color space                              : YUV
    Chroma subsampling                       : 4:2:0
    Bit depth                                : 8 bits
    Scan type                                : Progressive
    Compression mode                         : Lossy
    Bits/(Pixel*Frame)                       : 0.211
    Stream size                              : 660 MiB (87%)
    Writing library                          : XviD 1.2.1 (UTC 2008-12-04)

    Audio
    ID                                       : 1
    Format                                   : MPEG Audio
    Format version                           : Version 1
    Format profile                           : Layer 3
    Mode                                     : Joint stereo
    Mode extension                           : MS Stereo
    Codec ID                                 : 55
    Codec ID/Hint                            : MP3
    Duration                                 : 1h 6mn
    Bit rate mode                            : Constant
    Bit rate                                 : 128 Kbps
    Channel(s)                               : 2 channels
    Sampling rate                            : 48.0 KHz
    Compression mode                         : Lossy
    Stream size                              : 60.8 MiB (8%)
    Alignment                                : Aligned on interleaves
    Writing library                          : LAME3.98.2




    0 0
  • 04/29/15--04:23: Angry Mom E13 450p LIMO
  • Original Post: Angry Mom E13 450p LIMO


    Details
    Title: 앵그리 맘 / Aenggeuri Mam
    Genre: Family, drama, human, school
    Episodes: 16
    Broadcast network: MBC
    Broadcast period: 2015-Mar-18 to 2015-???-??
    Air time: Wednesday & Thursday 22:00
    Original Soundtrack: Angry Mom OST
    Synopsis
    Jo Kang Ja was once a legendary badass in her teenage days—and as a Busan girl, she would have been extra rough-and-tumble. Daughter to a sashimi-restaurant-owner mother who loves to swear and a father with a rap sheet for fighting, Kang Hee inherits her parents’ penchant for cursing, quick temper, and sashimi knife skills.

    As a young mother, she is the kind of person who prefers dramas to news or current events. But when she finds out that her daughter, Oh Ah Ran, is being victimized by bullies at school, she decides to do something about it directly, and what ensues is a positive, upbeat, and poignant” story that seeks to highlight trouble spots in South Korea’s educational system. --Dramabeans

    Cast
    Kim Hee Sun as Jo Kang Ja (Ah Ran's mother)
    Ji Hyun Woo as Park Noh Ah
    Kim Yoo Jung as Oh Ah Ran (Kang Ja's daughter)




    Code
    Video
    ID                                       : 0
    Format                                   : AVC
    Format/Info                              : Advanced Video Codec
    Format profile                           : High@L5.1
    Format settings, CABAC                   : Yes
    Format settings, ReFrames                : 4 frames
    Codec ID                                 : H264
    Bit rate                                 : 1 500 Kbps
    Width                                    : 800 pixels
    Height                                   : 450 pixels
    Display aspect ratio                     : 16:9
    Frame rate mode                          : Variable
    Frame rate                               : 29.970 fps
    Color space                              : YUV
    Chroma subsampling                       : 4:2:0
    Bit depth                                : 8 bits
    Scan type                                : Progressive
    Bits/(Pixel*Frame)                       : 0.139
    Stream size                              : 686 MiB (88%)
    Writing library                          : x264 core 112

    Audio
    ID                                       : 1
    Format                                   : MPEG Audio
    Format version                           : Version 1
    Format profile                           : Layer 3
    Mode                                     : Joint stereo
    Mode extension                           : MS Stereo
    Codec ID                                 : 55
    Codec ID/Hint                            : MP3
    Bit rate mode                            : Constant
    Bit rate                                 : 192 Kbps
    Channel(s)                               : 2 channels
    Sampling rate                            : 48.0 KHz
    Compression mode                         : Lossy
    Stream size                              : 88.3 MiB (11%)
    Alignment                                : Aligned on interleaves
    Interleave, duration                     : 24 ms (0.72 video frame)
    Writing library                          : LAME3.98.2
    Language                                 : Korean



    0 0
  • 04/29/15--04:23: Angry Mom E13 720p LIMO
  • Original Post: Angry Mom E13 720p LIMO


    Details
    Title: 앵그리 맘 / Aenggeuri Mam
    Genre: Family, drama, human, school
    Episodes: 16
    Broadcast network: MBC
    Broadcast period: 2015-Mar-18 to 2015-???-??
    Air time: Wednesday & Thursday 22:00
    Original Soundtrack: Angry Mom OST
    Synopsis
    Jo Kang Ja was once a legendary badass in her teenage days—and as a Busan girl, she would have been extra rough-and-tumble. Daughter to a sashimi-restaurant-owner mother who loves to swear and a father with a rap sheet for fighting, Kang Hee inherits her parents’ penchant for cursing, quick temper, and sashimi knife skills.

    As a young mother, she is the kind of person who prefers dramas to news or current events. But when she finds out that her daughter, Oh Ah Ran, is being victimized by bullies at school, she decides to do something about it directly, and what ensues is a positive, upbeat, and poignant” story that seeks to highlight trouble spots in South Korea’s educational system. --Dramabeans

    Cast
    Kim Hee Sun as Jo Kang Ja (Ah Ran's mother)
    Ji Hyun Woo as Park Noh Ah
    Kim Yoo Jung as Oh Ah Ran (Kang Ja's daughter)




    Code
    Video
    ID                               : 0
    Format                           : AVC
    Format/Info                      : Advanced Video Codec
    Format profile                   : High@L5.1
    Format settings, CABAC           : Yes
    Format settings, ReFrames        : 4 frames
    Codec ID                         : H264
    Duration                         : 1h 4mn
    Bit rate                         : 3 000 Kbps
    Width                            : 1 280 pixels
    Height                           : 720 pixels
    Display aspect ratio             : 16:9
    Frame rate mode                  : Variable
    Frame rate                       : 29.970 fps
    Color space                      : YUV
    Chroma subsampling               : 4:2:0
    Bit depth                        : 8 bits
    Scan type                        : Progressive
    Bits/(Pixel*Frame)               : 0.109
    Stream size                      : 1.35 GiB (94%)
    Writing library                  : x264 core 112
    Encoding settings                : cabac=1 / ref=3 / deblock=1:-1:-1 / analyse=0x3:0x113 / me=hex / subme=6 / psy=1 / psy_rd=1.00:1.00 / mixed_ref=1 / me_range=16 / chroma_me=1 / trellis=1 / 8x8dct=1 / cqm=0 / deadzone=21,11 / fast_pskip=0 / chroma_qp_offset=-4 / threads=12 / sliced_threads=0 / nr=0 / decimate=1 / interlaced=0 / constrained_intra=0 / bframes=3 / b_pyramid=2 / b_adapt=1 / b_bias=1 / direct=3 / weightb=1 / open_gop=0 / weightp=2 / keyint=299 / keyint_min=25 / scenecut=1 / intra_refresh=0 / rc_lookahead=40 / rc=abr / mbtree=1 / bitrate=3000 / ratetol=1.0 / qcomp=0.60 / qpmin=10 / qpmax=51 / qpstep=4 / ip_ratio=1.40 / aq=1:1.00

    Audio
    ID                               : 1
    Format                           : MPEG Audio
    Format version                   : Version 1
    Format profile                   : Layer 3
    Mode                             : Joint stereo
    Mode extension                   : MS Stereo
    Codec ID                         : 55
    Codec ID/Hint                    : MP3
    Duration                         : 1h 4mn
    Bit rate mode                    : Constant
    Bit rate                         : 192 Kbps
    Channel(s)                       : 2 channels
    Sampling rate                    : 48.0 KHz
    Stream size                      : 88.0 MiB (6%)
    Alignment                        : Split accross interleaves
    Interleave, duration             : 33 ms (1.00 video frame)
    Interleave, preload duration     : 500 ms
    Writing library                  : LAME3.98.2



    0 0
  • 04/29/15--04:23: Unkind Women E19 XVID LIMO
  • Original Post: Unkind Women E19 XVID LIMO


    Details
    Title: 착하지 않은 여자들 / Chakhaji Anheun Yeojadeul
    Also known as: Unkind Women
    Genre: Family, drama, romance
    Episodes: 24
    Broadcast network: KBS2
    Broadcast period: 2015-Feb-25 to 2015-???-??
    Air time: Wednesday & Thursday 22:00
    Original Soundtrack: Unkind Ladies OST
    Synopsis
    This drama features the women of three generations and people around them.

    Ma Ri grows up as a good teacher of this generation where there is no true mentor. Hyun Sook, who has been a troublemaker, realizes the love and support of her family. Kang Soon Ok regards herself as unlucky, but later on realizes how happy she has been.

    How can you hold up when your life gets tough? You will figure it out by holding up day by day, just like these women in the drama.

    Source: KBS World

    Cast
    Main Cast
    Kim Hye Ja as Kang Soon Ok
    Chae Si Ra as Kim Hyun Sook
    Do Ji Won as Kim Hyun Jung
    Lee Ha Na as Jung Ma Ri




    Code
    Video
    ID                                       : 0
    Format                                   : MPEG-4 Visual
    Format profile                           : Advanced Simple@L5
    Format settings, BVOP                    : No
    Format settings, QPel                    : No
    Format settings, GMC                     : No warppoints
    Format settings, Matrix                  : Default (MPEG)
    Codec ID                                 : XVID
    Codec ID/Hint                            : XviD
    Duration                                 : 1h 6mn
    Bit rate                                 : 1 391 Kbps
    Width                                    : 624 pixels
    Height                                   : 352 pixels
    Display aspect ratio                     : 16:9
    Frame rate                               : 29.970 fps
    Color space                              : YUV
    Chroma subsampling                       : 4:2:0
    Bit depth                                : 8 bits
    Scan type                                : Progressive
    Compression mode                         : Lossy
    Bits/(Pixel*Frame)                       : 0.211
    Stream size                              : 660 MiB (87%)
    Writing library                          : XviD 1.2.1 (UTC 2008-12-04)

    Audio
    ID                                       : 1
    Format                                   : MPEG Audio
    Format version                           : Version 1
    Format profile                           : Layer 3
    Mode                                     : Joint stereo
    Mode extension                           : MS Stereo
    Codec ID                                 : 55
    Codec ID/Hint                            : MP3
    Duration                                 : 1h 6mn
    Bit rate mode                            : Constant
    Bit rate                                 : 128 Kbps
    Channel(s)                               : 2 channels
    Sampling rate                            : 48.0 KHz
    Compression mode                         : Lossy
    Stream size                              : 60.8 MiB (8%)
    Alignment                                : Aligned on interleaves
    Writing library                          : LAME3.98.2



    0 0
  • 04/29/15--04:23: Unkind Women E19 450p LIMO
  • Original Post: Unkind Women E19 450p LIMO


    Details
    Title: 착하지 않은 여자들 / Chakhaji Anheun Yeojadeul
    Also known as: Unkind Women
    Genre: Family, drama, romance
    Episodes: 24
    Broadcast network: KBS2
    Broadcast period: 2015-Feb-25 to 2015-???-??
    Air time: Wednesday & Thursday 22:00
    Original Soundtrack: Unkind Ladies OST
    Synopsis
    This drama features the women of three generations and people around them.

    Ma Ri grows up as a good teacher of this generation where there is no true mentor. Hyun Sook, who has been a troublemaker, realizes the love and support of her family. Kang Soon Ok regards herself as unlucky, but later on realizes how happy she has been.

    How can you hold up when your life gets tough? You will figure it out by holding up day by day, just like these women in the drama.

    Source: KBS World

    Cast
    Main Cast
    Kim Hye Ja as Kang Soon Ok
    Chae Si Ra as Kim Hyun Sook
    Do Ji Won as Kim Hyun Jung
    Lee Ha Na as Jung Ma Ri




    Code
    Video
    ID                                       : 0
    Format                                   : AVC
    Format/Info                              : Advanced Video Codec
    Format profile                           : High@L5.1
    Format settings, CABAC                   : Yes
    Format settings, ReFrames                : 4 frames
    Codec ID                                 : H264
    Bit rate                                 : 1 500 Kbps
    Width                                    : 800 pixels
    Height                                   : 450 pixels
    Display aspect ratio                     : 16:9
    Frame rate mode                          : Variable
    Frame rate                               : 29.970 fps
    Color space                              : YUV
    Chroma subsampling                       : 4:2:0
    Bit depth                                : 8 bits
    Scan type                                : Progressive
    Bits/(Pixel*Frame)                       : 0.139
    Stream size                              : 686 MiB (88%)
    Writing library                          : x264 core 112

    Audio
    ID                                       : 1
    Format                                   : MPEG Audio
    Format version                           : Version 1
    Format profile                           : Layer 3
    Mode                                     : Joint stereo
    Mode extension                           : MS Stereo
    Codec ID                                 : 55
    Codec ID/Hint                            : MP3
    Bit rate mode                            : Constant
    Bit rate                                 : 192 Kbps
    Channel(s)                               : 2 channels
    Sampling rate                            : 48.0 KHz
    Compression mode                         : Lossy
    Stream size                              : 88.3 MiB (11%)
    Alignment                                : Aligned on interleaves
    Interleave, duration                     : 24 ms (0.72 video frame)
    Writing library                          : LAME3.98.2
    Language                                 : Korean



    0 0
  • 04/29/15--04:23: Unkind Women E19 720p LIMO
  • Original Post: Unkind Women E19 720p LIMO


    Details
    Title: 착하지 않은 여자들 / Chakhaji Anheun Yeojadeul
    Also known as: Unkind Women
    Genre: Family, drama, romance
    Episodes: 24
    Broadcast network: KBS2
    Broadcast period: 2015-Feb-25 to 2015-???-??
    Air time: Wednesday & Thursday 22:00
    Original Soundtrack: Unkind Ladies OST
    Synopsis
    This drama features the women of three generations and people around them.

    Ma Ri grows up as a good teacher of this generation where there is no true mentor. Hyun Sook, who has been a troublemaker, realizes the love and support of her family. Kang Soon Ok regards herself as unlucky, but later on realizes how happy she has been.

    How can you hold up when your life gets tough? You will figure it out by holding up day by day, just like these women in the drama.

    Source: KBS World

    Cast
    Main Cast
    Kim Hye Ja as Kang Soon Ok
    Chae Si Ra as Kim Hyun Sook
    Do Ji Won as Kim Hyun Jung
    Lee Ha Na as Jung Ma Ri




    Code
    Video
    ID                               : 0
    Format                           : AVC
    Format/Info                      : Advanced Video Codec
    Format profile                   : High@L5.1
    Format settings, CABAC           : Yes
    Format settings, ReFrames        : 4 frames
    Codec ID                         : H264
    Duration                         : 1h 4mn
    Bit rate                         : 3 000 Kbps
    Width                            : 1 280 pixels
    Height                           : 720 pixels
    Display aspect ratio             : 16:9
    Frame rate mode                  : Variable
    Frame rate                       : 29.970 fps
    Color space                      : YUV
    Chroma subsampling               : 4:2:0
    Bit depth                        : 8 bits
    Scan type                        : Progressive
    Bits/(Pixel*Frame)               : 0.109
    Stream size                      : 1.35 GiB (94%)
    Writing library                  : x264 core 112
    Encoding settings                : cabac=1 / ref=3 / deblock=1:-1:-1 / analyse=0x3:0x113 / me=hex / subme=6 / psy=1 / psy_rd=1.00:1.00 / mixed_ref=1 / me_range=16 / chroma_me=1 / trellis=1 / 8x8dct=1 / cqm=0 / deadzone=21,11 / fast_pskip=0 / chroma_qp_offset=-4 / threads=12 / sliced_threads=0 / nr=0 / decimate=1 / interlaced=0 / constrained_intra=0 / bframes=3 / b_pyramid=2 / b_adapt=1 / b_bias=1 / direct=3 / weightb=1 / open_gop=0 / weightp=2 / keyint=299 / keyint_min=25 / scenecut=1 / intra_refresh=0 / rc_lookahead=40 / rc=abr / mbtree=1 / bitrate=3000 / ratetol=1.0 / qcomp=0.60 / qpmin=10 / qpmax=51 / qpstep=4 / ip_ratio=1.40 / aq=1:1.00

    Audio
    ID                               : 1
    Format                           : MPEG Audio
    Format version                   : Version 1
    Format profile                   : Layer 3
    Mode                             : Joint stereo
    Mode extension                   : MS Stereo
    Codec ID                         : 55
    Codec ID/Hint                    : MP3
    Duration                         : 1h 4mn
    Bit rate mode                    : Constant
    Bit rate                         : 192 Kbps
    Channel(s)                       : 2 channels
    Sampling rate                    : 48.0 KHz
    Stream size                      : 88.0 MiB (6%)
    Alignment                        : Split accross interleaves
    Interleave, duration             : 33 ms (1.00 video frame)
    Interleave, preload duration     : 500 ms
    Writing library                  : LAME3.98.2



    0 0

    Original Post: Stray Cat Rock: Beat '71 1971 BDRip 720p x264 AC3 Toshiya Fujita

    Contains nudity



    Stray Cat Rock:
    Beat '71

    AKA: Crazy Rider '71 / 野良猫ロック 暴走集団’71
    IMDb:http://www.imdb.com/title/tt0202269
    Link:Midnight Eye feature on the series

    Director: Toshiya Fujita
    Writer: Tatsuya Asai, Hideichi Nagahara
    Genre: Action / Comedy / Exploitation
    Release Date: 3 January 1971
    Runtime: 87 min
    Country: Japan
    Language: Japanese
    Subtitles: English
    Source: Arrow Video UK Stray Cat Rock Collection (My own disc for once)

    Synopsis: Furiko (Meiko Kaji) and Ryumei lived quietly in a commune in Shinjuku. They were a young couple in love. In disagreement with society's rules, they lead a bohemian hippie life style. When Ryumei's father, a powerful politician, orders a local bike gang to ambush his son's trailer, Ryumei ends up stabbing one of the bikers to death in attempt to protect Furiko. He is abducted from the crime scene by his father and Furiko is left behind with a bloody knife in her hand. Just then, the police arrive to the scene.

    Uploader's Comments: Fujita closes the series with a, for me, very disappointing entry. Kaji's character in particular is so underwhelming that it would've been better to just cast someone else. But, even though I don't recommend it, I'm sure this could appeal to others. If you've watched the others, you might as well check this one out too.


    MediaInfo
    Spoiler:show
    General
    Unique ID : 190424089113738108932867652176091751099 (0x8F42587506C237C18971E762BE1B22BB)
    Complete name : Stray.Cat.Rock.Beat.'71.1971.BDRip.720p.x264.AC3-Jongl0.mkv
    Format : Matroska
    Format version : Version 4 / Version 2
    File size : 5.85 GiB
    Duration : 1h 26mn
    Overall bit rate : 9 642 Kbps
    Encoded date : UTC 2015-04-14 15:07:15
    Writing application : mkvmerge v7.6.0 ('Garden of Dreams') 64bit built on Feb 8 2015 13:04:34
    Writing library : libebml v1.3.1 + libmatroska v1.4.2
    DURATION : 01:26:42.030000000
    NUMBER_OF_FRAMES : 1142
    NUMBER_OF_BYTES : 3190192
    _STATISTICS_WRITING_APP : mkvmerge v7.6.0 ('Garden of Dreams') 64bit built on Feb 8 2015 13:04:34
    _STATISTICS_WRITING_DATE_UTC : 2015-04-14 15:07:15
    _STATISTICS_TAGS : BPS DURATION NUMBER_OF_FRAMES NUMBER_OF_BYTES

    Video
    ID : 1
    Format : AVC
    Format/Info : Advanced Video Codec
    Format profile : High@L4.1
    Format settings, CABAC : Yes
    Format settings, ReFrames : 12 frames
    Codec ID : V_MPEG4/ISO/AVC
    Duration : 1h 26mn
    Bit rate : 9 002 Kbps
    Width : 1 280 pixels
    Height : 524 pixels
    Display aspect ratio : 2.40:1
    Frame rate mode : Constant
    Frame rate : 23.976 fps
    Color space : YUV
    Chroma subsampling : 4:2:0
    Bit depth : 8 bits
    Scan type : Progressive
    Bits/(Pixel*Frame) : 0.560
    Stream size : 5.47 GiB (93%)
    Writing library : x264 core 142 r2431 ac76440
    Encoding settings : cabac=1 / ref=12 / deblock=1:-3:-3 / analyse=0x3:0x133 / me=umh / subme=10 / psy=1 / psy_rd=1.10:0.00 / mixed_ref=1 / me_range=32 / chroma_me=1 / trellis=2 / 8x8dct=1 / cqm=0 / deadzone=21,11 / fast_pskip=0 / chroma_qp_offset=-2 / threads=12 / lookahead_threads=3 / sliced_threads=0 / nr=0 / decimate=0 / interlaced=0 / bluray_compat=0 / constrained_intra=0 / bframes=14 / b_pyramid=2 / b_adapt=2 / b_bias=0 / direct=3 / weightb=1 / open_gop=0 / weightp=2 / keyint=240 / keyint_min=23 / scenecut=40 / intra_refresh=0 / rc_lookahead=50 / rc=crf / mbtree=0 / crf=17.5 / qcomp=0.65 / qpmin=0 / qpmax=69 / qpstep=4 / vbv_maxrate=62500 / vbv_bufsize=78125 / crf_max=0.0 / nal_hrd=none / filler=0 / ip_ratio=1.40 / pb_ratio=1.30 / aq=1:0.80
    Default : Yes
    Forced : No
    DURATION : 01:26:55.961000000
    NUMBER_OF_FRAMES : 125058
    NUMBER_OF_BYTES : 5989924007
    _STATISTICS_WRITING_APP : mkvmerge v7.6.0 ('Garden of Dreams') 64bit built on Feb 8 2015 13:04:34
    _STATISTICS_WRITING_DATE_UTC : 2015-04-14 15:07:15
    _STATISTICS_TAGS : BPS DURATION NUMBER_OF_FRAMES NUMBER_OF_BYTES

    Audio
    ID : 2
    Format : AC-3
    Format/Info : Audio Coding 3
    Mode extension : CM (complete main)
    Format settings, Endianness : Big
    Codec ID : A_AC3
    Duration : 1h 26mn
    Bit rate mode : Constant
    Bit rate : 448 Kbps
    Channel(s) : 1 channel
    Channel positions : Front: C
    Sampling rate : 48.0 KHz
    Bit depth : 16 bits
    Compression mode : Lossy
    Stream size : 279 MiB (5%)
    Language : Japanese
    Default : Yes
    Forced : No

    Text #1
    ID : 3
    Format : UTF-8
    Codec ID : S_TEXT/UTF8
    Codec ID/Info : UTF-8 Plain Text
    Language : English
    Default : Yes
    Forced : No

    Text #2
    ID : 4
    Format : PGS
    Muxing mode : zlib
    Codec ID : S_HDMV/PGS
    Codec ID/Info : The same subtitle format used on BDs/HD-DVDs
    Language : English
    Default : No
    Forced : No

    Menu
    00:00:00.000 : en:Chapter 1
    00:08:35.432 : en:Chapter 2
    00:14:39.253 : en:Chapter 3
    00:20:05.955 : en:Chapter 4
    00:29:47.285 : en:Chapter 5
    00:35:08.440 : en:Chapter 6
    00:43:45.790 : en:Chapter 7
    00:52:38.655 : en:Chapter 8
    00:58:39.725 : en:Chapter 9
    01:06:11.885 : en:Chapter 10
    01:11:08.848 : en:Chapter 11
    01:17:43.158 : en:Chapter 12


    :
    The Stray Cat Rock series stars Meiko Kaji (Lady Snowblood, Blind Woman's Curse), who with these five films began her reign as the bad ass action queen of the era. In these five tales of rebellious youth, she stars alongside the gorgeous Bunjaku Han (Love Letter) and Tatsuya Fuji (In the Realm of the Senses).

    Directed by genre veterans Yasuharu Hasebe (Female Prisoner Scorpion: #701's Grudge Song) and Toshiya Fujita (Lady Snowblood) the films feature a psychedelic mix of girl gangs, bikers, sex, drugs and rock and roll with plenty of ass-kicking to boot, all captured in a delirious mash up of pop aesthetics including split screens, freeze frames, injections of colour, frenetic editing and dizzying angles, making these films a riotous joy from beginning to end.




    0 0

    Original Post: Ayumi Hamasaki - COUNTDOWN LIVE 2014-2015 A Cirque de Minuit ~Mayonaka no Circus~ [720p] [H264] [.mkv]

    Ayumi Hamasaki  
    Countdown Live 2014-2015 A Cirque de Minuit ~Mayonaka no Circus~

    Live At @Yoyogi 1st National Stadium on December 31, 2014 Tokyo, Japan




    Air Live Date: 29-31 December 2014
    Release DVD/BD: 08-04-2015
    Format: Matroska
    Lenght: 2:04:56
    Size: 6.37 GB


    MORE INFO:
    http://www.cdjapan.co.jp/product/AVBD-92226

    COUNTDOWN LIVE 2014-2015 A Cirque de Minuit ~真夜中のサーカス~

    Having overthrown the usual concept of a nationwide arena tour, Hamasaki Ayumi faced the challenge of whittling down the annual tour to 3 large venues at Tokyo, Nayoga and Osaka, and making use of the latest technology for the first time in a Japanese concert, distilling the true essense of an entertainment show.


    TRACKLIST

    01. Duty
    02. Microphone
    03. Energy Blasts
    04. GAME
    05. my name's WOMEN
    06. 1 LOVE
    07. End roll
    08. Zutto...
    09. Last minute
    10. Tears
    11. Walk
    12. forgiveness
    13. progress
    14. SURREAL ~ evolution ~ SURREAL
    15. NOW & 4EVA
    16. Movin' on without you
    17. XOXO
    18. Lelio
    19. Boys & Girls
    20. how beautiful you are
    21. Born To Be...


    SCREENSHOTS







    TECHNICAL INFO

    Video: MPEG4 Video (H264) 1280x720 23.976fps [Video]
    Audio: Dolby AC3 48000Hz stereo [Audio]


    Please seed as long as possible - Thank You 


    0 0

    Original Post: Stray Cat Rock: Beat '71 1971 BDRip 480p x264 AC3 Toshiya Fujita

    Contains nudity



    Stray Cat Rock:
    Beat '71

    AKA: Crazy Rider '71 / 野良猫ロック 暴走集団’71
    IMDb:http://www.imdb.com/title/tt0202269
    Link:Midnight Eye feature on the series

    Director: Toshiya Fujita
    Writer: Tatsuya Asai, Hideichi Nagahara
    Genre: Action / Comedy / Exploitation
    Release Date: 3 January 1971
    Runtime: 87 min
    Country: Japan
    Language: Japanese
    Subtitles: English
    Source: Arrow Video UK Stray Cat Rock Collection (My own disc for once)

    Synopsis: Furiko (Meiko Kaji) and Ryumei lived quietly in a commune in Shinjuku. They were a young couple in love. In disagreement with society's rules, they lead a bohemian hippie life style. When Ryumei's father, a powerful politician, orders a local bike gang to ambush his son's trailer, Ryumei ends up stabbing one of the bikers to death in attempt to protect Furiko. He is abducted from the crime scene by his father and Furiko is left behind with a bloody knife in her hand. Just then, the police arrive to the scene.

    Uploader's Comments: Fujita closes the series with a, for me, very disappointing entry. Kaji's character in particular is so underwhelming that it would've been better to just cast someone else. But, even though I don't recommend it, I'm sure this could appeal to others. If you've watched the others, you might as well check this one out too.


    MediaInfo
    Spoiler:show
    General
    Unique ID : 242008744853090728449407424352131139480 (0xB61130589450F8E9A2180EC97502C798)
    Complete name : Stray.Cat.Rock.Beat.'71.1971.BDRip.480p.x264.AC3-Jongl0.mkv
    Format : Matroska
    Format version : Version 4 / Version 2
    File size : 1.56 GiB
    Duration : 1h 26mn
    Overall bit rate : 2 576 Kbps
    Encoded date : UTC 2015-04-14 15:34:08
    Writing application : mkvmerge v7.6.0 ('Garden of Dreams') 64bit built on Feb 8 2015 13:04:34
    Writing library : libebml v1.3.1 + libmatroska v1.4.2
    DURATION : 01:26:42.030000000
    NUMBER_OF_FRAMES : 1142
    NUMBER_OF_BYTES : 1759126
    _STATISTICS_WRITING_APP : mkvmerge v7.6.0 ('Garden of Dreams') 64bit built on Feb 8 2015 13:04:34
    _STATISTICS_WRITING_DATE_UTC : 2015-04-14 15:34:08
    _STATISTICS_TAGS : BPS DURATION NUMBER_OF_FRAMES NUMBER_OF_BYTES

    Video
    ID : 1
    Format : AVC
    Format/Info : Advanced Video Codec
    Format profile : High@L4.1
    Format settings, CABAC : Yes
    Format settings, ReFrames : 16 frames
    Codec ID : V_MPEG4/ISO/AVC
    Duration : 1h 26mn
    Bit rate : 2 333 Kbps
    Width : 854 pixels
    Height : 350 pixels
    Display aspect ratio : 2.40:1
    Frame rate mode : Constant
    Frame rate : 23.976 fps
    Color space : YUV
    Chroma subsampling : 4:2:0
    Bit depth : 8 bits
    Scan type : Progressive
    Bits/(Pixel*Frame) : 0.325
    Stream size : 1.42 GiB (91%)
    Writing library : x264 core 142 r2431 ac76440
    Encoding settings : cabac=1 / ref=16 / deblock=1:-3:-3 / analyse=0x3:0x133 / me=umh / subme=10 / psy=1 / psy_rd=1.10:0.00 / mixed_ref=1 / me_range=32 / chroma_me=1 / trellis=2 / 8x8dct=1 / cqm=0 / deadzone=21,11 / fast_pskip=0 / chroma_qp_offset=-2 / threads=12 / lookahead_threads=2 / sliced_threads=0 / nr=0 / decimate=0 / interlaced=0 / bluray_compat=0 / constrained_intra=0 / bframes=14 / b_pyramid=2 / b_adapt=2 / b_bias=0 / direct=3 / weightb=1 / open_gop=0 / weightp=2 / keyint=240 / keyint_min=23 / scenecut=40 / intra_refresh=0 / rc_lookahead=160 / rc=crf / mbtree=1 / crf=17.5 / qcomp=0.60 / qpmin=0 / qpmax=69 / qpstep=4 / vbv_maxrate=14000 / vbv_bufsize=14000 / crf_max=0.0 / nal_hrd=none / filler=0 / ip_ratio=1.40 / aq=1:0.80
    Default : Yes
    Forced : No
    DURATION : 01:26:55.961000000
    NUMBER_OF_FRAMES : 125058
    NUMBER_OF_BYTES : 1551298566
    _STATISTICS_WRITING_APP : mkvmerge v7.6.0 ('Garden of Dreams') 64bit built on Feb 8 2015 13:04:34
    _STATISTICS_WRITING_DATE_UTC : 2015-04-14 15:34:08
    _STATISTICS_TAGS : BPS DURATION NUMBER_OF_FRAMES NUMBER_OF_BYTES

    Audio
    ID : 2
    Format : AC-3
    Format/Info : Audio Coding 3
    Mode extension : CM (complete main)
    Format settings, Endianness : Big
    Codec ID : A_AC3
    Duration : 1h 26mn
    Bit rate mode : Constant
    Bit rate : 192 Kbps
    Channel(s) : 1 channel
    Channel positions : Front: C
    Sampling rate : 48.0 KHz
    Bit depth : 16 bits
    Compression mode : Lossy
    Stream size : 119 MiB (7%)
    Language : Japanese
    Default : Yes
    Forced : No

    Text #1
    ID : 3
    Format : UTF-8
    Codec ID : S_TEXT/UTF8
    Codec ID/Info : UTF-8 Plain Text
    Language : English
    Default : Yes
    Forced : No

    Text #2
    ID : 4
    Format : PGS
    Muxing mode : zlib
    Codec ID : S_HDMV/PGS
    Codec ID/Info : The same subtitle format used on BDs/HD-DVDs
    Language : English
    Default : No
    Forced : No

    Menu
    00:00:00.000 : en:Chapter 1
    00:08:35.432 : en:Chapter 2
    00:14:39.253 : en:Chapter 3
    00:20:05.955 : en:Chapter 4
    00:29:47.285 : en:Chapter 5
    00:35:08.440 : en:Chapter 6
    00:43:45.790 : en:Chapter 7
    00:52:38.655 : en:Chapter 8
    00:58:39.725 : en:Chapter 9
    01:06:11.885 : en:Chapter 10
    01:11:08.848 : en:Chapter 11
    01:17:43.158 : en:Chapter 12


    :
    The Stray Cat Rock series stars Meiko Kaji (Lady Snowblood, Blind Woman's Curse), who with these five films began her reign as the bad ass action queen of the era. In these five tales of rebellious youth, she stars alongside the gorgeous Bunjaku Han (Love Letter) and Tatsuya Fuji (In the Realm of the Senses).

    Directed by genre veterans Yasuharu Hasebe (Female Prisoner Scorpion: #701's Grudge Song) and Toshiya Fujita (Lady Snowblood) the films feature a psychedelic mix of girl gangs, bikers, sex, drugs and rock and roll with plenty of ass-kicking to boot, all captured in a delirious mash up of pop aesthetics including split screens, freeze frames, injections of colour, frenetic editing and dizzying angles, making these films a riotous joy from beginning to end.




    0 0
  • 04/29/15--08:12: Kou Kou Kyoushi (1993)
  • Original Post: Kou Kou Kyoushi (1993)



    http://wiki.d-addicts.com/Kou_Kou_Kyoushi
    Details
    Title: 高校教師
    Title (romaji): Kou Kou Kyoushi
    Also known as: High School Teacher
    Genre: Romance
    Episodes: 11
    Viewership ratings: 21.9%
    Broadcast network: TBS
    Broadcast period: 1993-Jan-08 to 1993-Mar-19
    Air time: Friday 22:00
    Theme Song: "Bokutachi no Shippai", by Morita Doji (森田童子)
    Related shows: Kou Kou Kyoushi 1974 (TV Tokyo, 1974), Kou Kou Kyoushi 2003 (TBS, 2003)
    Synopsis
    The life of the lead character has been a series of embarrassing events beyond his control. Yet his fate is sealed when he falls in love with one of his students, with a passion that seems to intensify in the face of social mores. This drama explores the complex emotions that lead to forbidden paths of infatuation.
    English Subtitle: Hananet Japan Drama Movie ClubNSoftsubs edited & timed by: keiko1981 RAW provider: xaxa


    Cast
    Sanada Hiroyuki as Hamura Takao
    Sakurai Sachiko as Ninomiya Mayu
    Kyomoto Masaki as Fujimura Tomoki
    Mochida Maki as Aizawa Naoko
    Akai Hidekazu as Shinjyo Toru
    Sato Koichi
    Kaneda Akio
    Kato Takako
    Asaoka Mirei
    Kosaka Kazuya
    Kuroda Arthur
    Watanabe Noriko
    Minegishi Toru as Ninomiya Kosuke

    Screenshots
    Spoiler:show








    0 0

    Original Post: DoS Deka EP03 720p HDTV x264 AAC-DoA



    http://wiki.d-addicts.com/DoS_Deka
    http://asianwiki.com/DoS_Deka
    http://thetvdb.com/?tab=series&id=294718

    Title (romaji): DoS Deka
    Also known as: Ms. Sadistic Detective
    Format: Renzoku
    Genre: Detective comedy
    Episodes: TBD
    Broadcast network: NTV
    Broadcast period: 2015-Apr-11 start
    Air time: Saturday 21:00
    Theme song: Tsuyoku Tsuyoku Tsuyoku by Kanjani8
    Subtitles: English(synced to the RAW uploaded at plotboxes) - hikaruisyum
    RAW credit to DoA


    Cast

       Tabe Mikako as Kuroi Maya
       Okura Tadayoshi as Daikanyama Shusuke
       Yoshida Yo as Shirokane Fujiko
       Yaotome Hikaru as Hamda Soichiro
       Nakamura Yasuhi as Nakane Masanobu
       Katsumura Masanobu as Arisugawa Tsuneo
       Ishii Masanori as Yura Fumio
       Mitz Mangrove (ミッツ・マングローブ) as Inui Kenzaburo
       Seto Saori (瀬戸さおり) as Daikanyama Kaori
       Suga Yusuke (菅裕輔) as Ken-chan
       Ibu Masato as Kondo Tokuji
       Kishimoto Kayoko as Daikanyama Keiko


    Synopsis

    An uber-sadistic female detective and her nice-guy cop—an unbeatable partnership?! A delightful police comedy is born!

    She has no loyalty to her organization and doesn't follow any rules. She's a detective who enjoys seeing people's troubled faces. Her name is Kuroi Maya. She chose to become a detective because she thought she could torment bad people all she wants. With her sharp intuition, she finds the suspects quicker than anybody else. Beautiful but also a pain in the neck, she unleashes her sadistic ways to round up the bad people from society. This is a story about a never-before-seen uber-sadistic detective.

    Her unlucky partner? Daikanyama Shusuke, an officer who works in a police box. Caught in between a strong-willed mother and younger sister, he is constantly being pushed around at home. Shusuke and Maya have their chance encounter at a crime scene and the two end up as buddies. -- NTV


    Mediainfo
    Spoiler:show

    Code
    Format                                   : Matroska
    Format version                           : Version 4 / Version 2
    File size                                : 1.26 GiB
    Duration                                 : 46mn 4s
    Overall bit rate                         : 3 915 Kbps
    Movie name                               : ドS刑事 第3話 720p HDTV x264 AAC-DoA
    Encoded date                             : UTC 2015-04-26 12:25:50
    Writing application                      : mkvmerge v7.8.0 ('River Man') 64bit built on Mar 27 2015 16:31:37
    Writing library                          : libebml v1.3.1 + libmatroska v1.4.2
    DURATION                                 : 00:46:04.842000000
    NUMBER_OF_FRAMES                         : 129602
    NUMBER_OF_BYTES                          : 65189806
    _STATISTICS_WRITING_APP                  : mkvmerge v7.8.0 ('River Man') 64bit built on Mar 27 2015 16:31:37
    _STATISTICS_WRITING_DATE_UTC             : 2015-04-26 12:25:50
    _STATISTICS_TAGS                         : BPS DURATION NUMBER_OF_FRAMES NUMBER_OF_BYTES

    Video
    ID                                       : 1
    Format                                   : AVC
    Format/Info                              : Advanced Video Codec
    Format profile                           : High@L4.1
    Format settings, CABAC                   : Yes
    Format settings, ReFrames                : 9 frames
    Codec ID                                 : V_MPEG4/ISO/AVC
    Duration                                 : 46mn 4s
    Width                                    : 1 280 pixels
    Height                                   : 720 pixels
    Display aspect ratio                     : 16:9
    Frame rate mode                          : Constant
    Frame rate                               : 29.970 fps
    Color space                              : YUV
    Chroma subsampling                       : 4:2:0
    Bit depth                                : 8 bits
    Scan type                                : Progressive
    Title                                    : Encode by TTG-DoA
    Writing library                          : x264 core 146 r2538 121396c
    Encoding settings                        : cabac=1 / ref=9 / deblock=1:-2:-2 / analyse=0x3:0x133 / me=umh / subme=10 / psy=1 / psy_rd=1.00:0.15 / mixed_ref=1 / me_range=48 / chroma_me=1 / trellis=2 / 8x8dct=1 / cqm=0 / deadzone=21,11 / fast_pskip=0 / chroma_qp_offset=-3 / threads=12 / lookahead_threads=2 / sliced_threads=0 / nr=0 / decimate=1 / interlaced=0 / bluray_compat=0 / constrained_intra=0 / bframes=8 / b_pyramid=2 / b_adapt=2 / b_bias=0 / direct=3 / weightb=1 / open_gop=0 / weightp=2 / keyint=300 / keyint_min=29 / scenecut=40 / intra_refresh=0 / rc_lookahead=60 / rc=crf / mbtree=1 / crf=17.0 / qcomp=0.60 / qpmin=0 / qpmax=69 / qpstep=4 / ip_ratio=1.40 / aq=1:1.00
    Language                                 : Japanese
    Default                                  : Yes
    Forced                                   : No
    _STATISTICS_WRITING_APP                  : mkvmerge v7.8.0 ('River Man') 64bit built on Mar 27 2015 16:31:37
    _STATISTICS_WRITING_DATE_UTC             : 2015-04-26 12:25:50
    _STATISTICS_TAGS                         : BPS DURATION NUMBER_OF_FRAMES NUMBER_OF_BYTES
    DURATION                                 : 00:46:04.862000000
    NUMBER_OF_FRAMES                         : 82863
    NUMBER_OF_BYTES                          : 1287046266

    Audio
    ID                                       : 2
    Format                                   : AAC
    Format/Info                              : Advanced Audio Codec
    Format profile                           : LC
    Codec ID                                 : A_AAC
    Duration                                 : 46mn 4s
    Channel(s)                               : 2 channels
    Channel positions                        : Front: L R
    Sampling rate                            : 48.0 KHz
    Compression mode                         : Lossy
    Language                                 : Japanese
    Default                                  : Yes
    Forced                                   : No

    Menu
    00:00:00.000                             : ja:Chapter 01
    00:19:39.978                             : ja:Chapter 02
    00:27:31.950                             : ja:Chapter 03
    00:35:50.915                             : ja:Chapter 04





    0 0

    Original Post: TVB Limelight Years E03 HDTV 720p-TVBDO



    If you like my upload, please press the "Thank You" buttoncool2.gif

    English Title: Limelight Years
    Chinese Title:華麗轉身
    Network: TVB
    Release Date: April 27, 2015
    Episodes: 20
    Country: Hong Kong
    Audio: Cantonese (AC-3 6 Channels)
    Subtitles: English (.srt embedded)
    Genre: Modern
    Cast: Liza Wang, Damion Lau, Alex Fong, Linda Chung, Eliza Sum, Jonathan Wong, Jacqueline Wong, Michelle Yim (Guest Star)

    Synopsis: There is darkness behind the limelight. After recovering from a long-term sickness, retiring singer Wah Fong Ying (Liza Wang) has come to realize that she has failed to live a fulfilling life. With two failed marriages and strained relationships with her three children, Fong Ying is much lonelier than she admits. Summoning up all her courage, Fong Ying flies to Taiwan to mend her broken relationship with her oldest daughter. During this time, she comes across Hong Kong photographer Law Ben (Damian Lau), who is in Taiwan to fulfill his late wife’s (Michelle Yim) wish of returning to her ancestral home. Sparks fly when the extraordinary meets the ordinary. Both Fong Ying and Ben find their strength as they quietly support each other.

    Encouraged by Ben, Fong Ying decides to perform one last time in a goodbye concert for her close friends and family, but her youngest daughter Tong Yan (Eliza Sam) reacts coldly to the invitation. Nonetheless, Fong Ying remains committed to her last concert and hires a new assistant Szeto Dik Dik (Linda Chung) and a new creative director, Song Sheung Hang (Alex Fong). Dik Dik and Sheung Han initially struggle to get along due to past misunderstandings, but they eventually cultivate a deep relationship. Just as Fong Ying starts to find the light again, she is once again attacked by darkness. While Sheung Hang was preparing a special issue to promote Fong Ying’s concert, he discovers an ugly secret that Fong Ying has been keeping for many years. Dik Dik finds out that Fong Ying and her uncle were involved in the past. Ben is also starting to have hallucinations…






    If you like my upload, please press the "Thank You" buttoncool2.gif


    Code

    General
    Format                                   : Matroska
    Format version                           : Version 4 / Version 2
    File size                                : 1.67 GiB
    Duration                                 : 44mn 11s
    Overall bit rate                         : 5 411 Kbps
    Encoded date                             : UTC 2015-04-29 22:04:13
    Writing application                      : mkvmerge v7.5.0 ('Glass Culture') 32bit built on Jan  4 2015 16:37:25
    Writing library                          : Lavf55.12.0
    DURATION                                 : 00:41:23.191000000
    NUMBER_OF_FRAMES                         : 559
    NUMBER_OF_BYTES                          : 24427
    _STATISTICS_WRITING_APP                  : mkvmerge v7.5.0 ('Glass Culture') 32bit built on Jan  4 2015 16:37:25
    _STATISTICS_WRITING_DATE_UTC             : 2015-04-29 22:04:13
    _STATISTICS_TAGS                         : BPS DURATION NUMBER_OF_FRAMES NUMBER_OF_BYTES

    Video
    ID                                       : 1
    Format                                   : AVC
    Format/Info                              : Advanced Video Codec
    Format profile                           : High@L4.1
    Format settings, CABAC                   : Yes
    Format settings, ReFrames                : 4 frames
    Codec ID                                 : V_MPEG4/ISO/AVC
    Duration                                 : 44mn 11s
    Bit rate                                 : 5 000 Kbps
    Width                                    : 1 280 pixels
    Height                                   : 720 pixels
    Display aspect ratio                     : 16:9
    Frame rate mode                          : Constant
    Frame rate                               : 25.000 fps
    Color space                              : YUV
    Chroma subsampling                       : 4:2:0
    Bit depth                                : 8 bits
    Scan type                                : Progressive
    Bits/(Pixel*Frame)                       : 0.217
    Stream size                              : 1.52 GiB (91%)
    Writing library                          : x264 core 142 r2479 dd79a61
    Encoding settings                        : cabac=1 / ref=3 / deblock=1:-1:-1 / analyse=0x3:0x113 / me=hex / subme=7 / psy=1 / psy_rd=1.00:0.15 / mixed_ref=1 / me_range=16 / chroma_me=1 / trellis=1 / 8x8dct=1 / cqm=0 / deadzone=21,11 / fast_pskip=1 / chroma_qp_offset=-3 / threads=18 / lookahead_threads=3 / sliced_threads=0 / nr=0 / decimate=1 / interlaced=0 / bluray_compat=0 / constrained_intra=0 / bframes=3 / b_pyramid=2 / b_adapt=1 / b_bias=0 / direct=1 / weightb=1 / open_gop=0 / weightp=2 / keyint=250 / keyint_min=25 / scenecut=40 / intra_refresh=0 / rc_lookahead=40 / rc=abr / mbtree=1 / bitrate=5000 / ratetol=1.0 / qcomp=0.60 / qpmin=0 / qpmax=69 / qpstep=4 / vbv_maxrate=62500 / vbv_bufsize=78125 / nal_hrd=none / filler=0 / ip_ratio=1.40 / aq=1:1.00
    Default                                  : Yes
    Forced                                   : No
    Color primaries                          : BT.709
    Transfer characteristics                 : BT.709
    Matrix coefficients                      : BT.709
    Color range                              : Limited
    DURATION                                 : 00:44:11.120000000
    NUMBER_OF_FRAMES                         : 66278
    NUMBER_OF_BYTES                          : 1665417900
    _STATISTICS_WRITING_APP                  : mkvmerge v7.5.0 ('Glass Culture') 32bit built on Jan  4 2015 16:37:25
    _STATISTICS_WRITING_DATE_UTC             : 2015-04-29 22:04:13
    _STATISTICS_TAGS                         : BPS DURATION NUMBER_OF_FRAMES NUMBER_OF_BYTES

    Audio
    ID                                       : 2
    Format                                   : AC-3
    Format/Info                              : Audio Coding 3
    Mode extension                           : CM (complete main)
    Format settings, Endianness              : Big
    Codec ID                                 : A_AC3
    Duration                                 : 44mn 11s
    Bit rate mode                            : Constant
    Bit rate                                 : 384 Kbps
    Channel(s)                               : 6 channels
    Channel positions                        : Front: L C R, Side: L R, LFE
    Sampling rate                            : 48.0 KHz
    Bit depth                                : 16 bits
    Compression mode                         : Lossy
    Stream size                              : 121 MiB (7%)
    Title                                    : Surround
    Default                                  : Yes
    Forced                                   : No
    DURATION                                 : 00:44:11.168000000
    NUMBER_OF_FRAMES                         : 82849
    NUMBER_OF_BYTES                          : 127256064
    _STATISTICS_WRITING_APP                  : mkvmerge v7.5.0 ('Glass Culture') 32bit built on Jan  4 2015 16:37:25
    _STATISTICS_WRITING_DATE_UTC             : 2015-04-29 22:04:13
    _STATISTICS_TAGS                         : BPS DURATION NUMBER_OF_FRAMES NUMBER_OF_BYTES

    Text
    ID                                       : 3
    Format                                   : UTF-8
    Codec ID                                 : S_TEXT/UTF8
    Codec ID/Info                            : UTF-8 Plain Text
    Language                                 : English
    Default                                  : Yes
    Forced                                   : Yes



    0 0

    Original Post: Parasyte Part 1 (Chinese hardsubbed)

    Title: Parasyte: Part 1 (2014)  
    Revised romanization: Kiseiju  
    Hangul: 寄生獣
    Director: Takashi Yamazaki
    Release Date: November 29, 2014
    Runtime: 109 min.
    Genre: Horror, Sci-Fi
    Language: Japanese
    Country: Japan
    Subtitles: No subtitles
    IMDB URL: http://www.imdb.com/title/tt3345472/

    Cast: Shôta Sometani, Eri Fukatsu, Ai Hashimoto

    Synopsis:

    Mysterious worm-like aliens fall from the sky. They penetrate through the ears or nose into human beings and live off their brain while dominating the body. Now with human appearance, the parasites live among humans.
    Shinichi Izumi (Shota Sometani) is an ordinary high school student. His best friend is Satomi Murano (Ai Hashimoto). One day, Shinichi Izumi is attacked by a parasite, but he is able to fight off the parasite before it takes over his brain. The parasite though lives within his right hand. Shinichi Izumi and the parasite now live together. Shinichi believes the parasites are responsible for countless murders all around the world and he feels responsible, because he knows the truth.
    Meanwhile, Ryoko Tamiya (Eri Fukatsu) is a teacher that starts her new post at the same high school where Shinichi attends. She has been taken over by a parasite and comes to observe Shinichi.





    P/S : If subs come out I will put it later. More details about this movie check out here http://asianwiki.com/Parasyte_Part_1


    0 0
  • 04/29/15--13:51: Missing Noir M E05 XVID WITH
  • Original Post: Missing Noir M E05 XVID WITH


    Details
    Title: 실종느와르 M / Siljongneuwareu M
    Genre: Crime, thriller, action
    Episodes: TBA
    Broadcast network: OCN
    Broadcast period: 2015-Mar-28 to 2015-???-??
    Air time: Saturday 23:00
    Original Soundtrack: Missing Noir M OST

    Synopsis
    Gil Soo-Hyun (Kim Kang-Woo) is extremely intelligent. At the age of 10, Gil Soo-Hyun attended Harvard University. After graduating there, he decided to work at the FBI and worked there for 10 years. Afterwards, he decided to come back to South Korea. He now works as the leader of the Special Missing Persons Unit. The unit deals with about 1% of special missing cases involving violent crimes. His appearance borders on perfection, but he holds a secret.
    Detective Oh Dae-Young (Park Hee-Soon) joins the Special Missing Persons Unit. He has worked as a detective for 20 years and he has an obsession in observing the law. He is known as a master of missing person cases.

    Cast
    Kim Kang Woo as Gil Soo Hyun
    Park Hee Soon as Oh Dae Young
    Jo Bo Ah as Jin Suh Joon
    Kim Kyu Chul as Park Jung Do
    Park So Hyun as Kang Joo Young




    Code
    Video
    ID                                       : 0
    Format                                   : MPEG-4 Visual
    Format profile                           : Advanced Simple@L5
    Format settings, BVOP                    : 2
    Format settings, QPel                    : No
    Format settings, GMC                     : No warppoints
    Format settings, Matrix                  : Default (H.263)
    Muxing mode                              : Packed bitstream
    Codec ID                                 : XVID
    Codec ID/Hint                            : XviD
    Duration                                 : 1h 3mn
    Bit rate                                 : 1 238 Kbps
    Width                                    : 640 pixels
    Height                                   : 352 pixels
    Display aspect ratio                     : 16:9
    Frame rate                               : 29.970 fps
    Color space                              : YUV
    Chroma subsampling                       : 4:2:0
    Bit depth                                : 8 bits
    Scan type                                : Progressive
    Compression mode                         : Lossy
    Bits/(Pixel*Frame)                       : 0.183
    Stream size                              : 566 MiB (90%)
    Writing library                          : XviD 58

    Audio
    ID                                       : 1
    Format                                   : MPEG Audio
    Format version                           : Version 1
    Format profile                           : Layer 3
    Mode                                     : Joint stereo
    Mode extension                           : MS Stereo
    Codec ID                                 : 55
    Codec ID/Hint                            : MP3
    Duration                                 : 1h 3mn
    Bit rate mode                            : Constant
    Bit rate                                 : 128 Kbps
    Channel(s)                               : 2 channels
    Sampling rate                            : 48.0 KHz
    Compression mode                         : Lossy
    Stream size                              : 58.5 MiB (9%)
    Alignment                                : Aligned on interleaves
    Interleave, duration                     : 33 ms (1.00 video frame)
    Interleave, preload duration             : 504 ms




older | 1 | .... | 1327 | 1328 | (Page 1329) | 1330 | 1331 | .... | 1405 | newer