Are you the publisher? Claim or contact us about this channel


Embed this content in your HTML

Search

Report adult content:

click to rate:

Account: (login)

More Channels


Showcase


Channel Catalog


Channel Description:

Asia Torrents RSS Feed

older | 1 | .... | 1330 | 1331 | (Page 1332) | 1333 | 1334 | .... | 1405 | newer

    0 0

    Original Post: Cantabile Tomorrow (2014) Complete x265 1080p HDione



    Title: 내일도 칸타빌레 / Naeildo Kantabille
    Also known as: Tomorrow Cantabile
    Previously known as: 노다메 칸타빌레 최종악장 (Nodame Cantabile: The Final Movement) / 칸타빌레 로망스 (Cantabile Romance)
    Genre: Romance, musical, comedy
    Episodes: 16
    Broadcast network: KBS2
    Broadcast period: 2014-Oct-13 to 2014-Dec-02
    Air time: Monday & Tuesday 22:00
    Original Soundtrack: Nae Il's Cantabile OST
    Related TV shows: Nodame Cantabile (Fuji TV, 2006)

    Subtitles: none

    Synopsis:
    Youth, music, and love will bring on a romantic, musical harmony. An arrogant top student at a college of music becomes involved with an eccentric, but energetic pianist. These two, who are polar opposites, embrace each other and step forward to make their lives complete. This drama is about young musicians who are gathered through the universal language, music.

    Main Cast:
    Joo Won as Cha Yoo Jin (23, piano/violin/conducting)
    Choi Kwon Soo (최권수) as child Yoo Jin
    Shim Eun Kyung as Sul Nae Il (21, piano)

    People around Cha Yoo Jin:
    Lee Ah Hyun as Yang Sun Young (45, Yoo Jin's mother)
    Kim Yoo Mi as Chae Do Kyung (23, vocal major)
    Jung Bo Suk as Cha Dong Woo (Yoo Jin's father)
    Sun Woo Jae Duk as Yoo Jin's uncle (cameo)

    A-Orchestra:
    Park Bo Gum as Lee Yoon Hoo (23, cello)
    Bae Min Jung (배민정) as Jung Shi Won (23, violin)
    Lee Joo Hyung (이주형) as Goo Sun Jae (23, oboe)
    Baek Seo Bin (백서빈) as Han Seung Oh (23, conducting)
    Ah Yun (아연) as Son Soo Ji (22, piano)
    Jo Yoon Woo as Lee Jae Yong (22, trumpet)

    S-Orchestra:
    Go Kyung Pyo as Yoo Il Rak (23, violin)
    Min Do Hee as Choi Min Hee (21, contrabass)
    Jang Se Hyun as Ma Soo Min (22, timpani, all percussion)
    Jung Sung Ah (정성아) as Lee Dan Ya (23, viola)

    Others:
    Baek Yoon Shik as Franz von Stressman (58, famous conductor)
    Lee Byung Joon as Do Kang Jae (52, piano professor)
    Ye Ji Won as Song Mi Na (45, Director of Dean School Music/former pianist)
    Ahn Kil Kang as Yoo Won Sang (52, restaurant owner/Il Rak's father)
    Nam Goong Yun (남궁연) as Ahn Gun Sung (44, piano professor)
    Bang Eun Hee as Nae Il's mother
    Yoel Levi as Sebastiano Viera
    Han Min as Jang Woo Sung
    Kim Ji Sook as chairwoman

    Production Credits:
    Production Company: Group Eight
    Chief Producer: Hwang Eui Kyung
    Producer: Kim Jin Won, Park Woo Ram (박우람)
    Original writing: Manga Nodame Cantabile by Tomoko Ninomiya
    Director: Han Sang Woo (한상우), Lee Jung Mi (이정미)
    Screenwriter: Park Pil Joo (박필주), Shin Jae Won (신재원)










    Code
    Complete name               : Cantabile.Tomorrow.E01.141013.HDTV-Film.x265.1080p-HDione.mkv
    Format                      : Matroska
    Format version              : Version 4 / Version 2
    File size                   : 1.91 GiB
    Duration                    : 58mn 49s
    Overall bit rate            : 4 644 Kbps
    Encoded date                : UTC 2014-10-26 03:37:03
    Writing application         : mkvmerge v7.2.0 ('On Every Street') 64bit built on Sep 13 2014 15:52:10
    Writing library             : libebml v1.3.0 + libmatroska v1.4.1
    DURATION                    : 00:58:49.152000000
    NUMBER_OF_FRAMES            : 165429
    NUMBER_OF_BYTES             : 99477912
    _STATISTICS_WRITING_APP     : mkvmerge v7.2.0 ('On Every Street') 64bit built on Sep 13 2014 15:52:10
    _STATISTICS_WRITING_DATE_UT : 2014-10-26 03:37:03
    _STATISTICS_TAGS            : BPS DURATION NUMBER_OF_FRAMES NUMBER_OF_BYTES

    Video
    ID                          : 1
    Format                      : HEVC
    Format/Info                 : High Efficiency Video Coding
    Codec ID                    : V_MPEGH/ISO/HEVC
    Duration                    : 58mn 49s
    Width                       : 1 920 pixels
    Height                      : 1 080 pixels
    Display aspect ratio        : 16:9
    Frame rate mode             : Constant
    Frame rate                  : 23.976 fps
    Default                     : Yes
    Forced                      : No

    Audio
    ID                          : 2
    Format                      : AAC
    Format/Info                 : Advanced Audio Codec
    Format profile              : LC
    Codec ID                    : A_AAC
    Duration                    : 58mn 49s
    Channel(s)                  : 2 channels
    Channel positions           : Front: L R
    Sampling rate               : 48.0 KHz
    Compression mode            : Lossy
    Delay relative to video     : 9ms
    Language                    : Korean
    Default                     : Yes



    0 0

    Original Post: Genkai Shuraku Kabushikigaisha - 720p (Heiwa Fansubs) (English Hard Subbed) Complete





    Title: Genkai Shuraku Kabushikigaisha
    Also known as: Limited Village Corporation
    Also known as: The Marginal Village Stock Company
    Genre: Drama / Life / Farmers / Village


    Episodes: 5
    TV Network: NHK
    Airtime: Saturdays 21:00
    Release Date: January 31, 2015 -- February 28, 2015


    Country: Japan
    Language: Japanese
    Subtitles: English - Hard Subbed by Heiwa Fansubs

    IMDB URL: http://www.imdb.com/title/tt4127192


    Cast:
    Sorimachi Takashi - Ouchi Masato
    Matsuoka Mayu - Ouchi Miho
    Igawa Hisashi - Ouchi Kazuo
    Nagayama Aiko - Ouchi Yayoi
    Tanihara Shosuke - Takigawa Yu
    Hiraizumi Sei - Hagino Sadaharu


    Oouchi Miho is a 20 year-old woman whose home lies in the tiny village of Tomemura where she lives with her grandparents on a farm where they grow organic crops. Miho, whose Mother died young and whose Father abandoned her when she was 7, hopes to leave Tomemura for the brighter prospects of Tokyo, but she just can't seem to land a job there. Although Miho loves Tomemura, it's what is known as a Genkai Shuraku - a marginal village where most of the inhabitants are elderly. But when her Grandfather dies suddenly, Miho impulsively says she'll stay and try to work the family's field. But as an amateur, she'll find the going rough. But the return of her Father and the appearance of the strange Consultant, Takigawa Yu, may change things...


















    Code
    General
    Complete name                            : (Heiwa Fansubs) Genkai Shuraku Kabushikigaisha (EP 01) [Eng Sub] HD.mp4
    Format                                   : MPEG-4
    Format profile                           : Base Media
    Codec ID                                 : isom
    File size                                : 750 MiB
    Duration                                 : 58mn 0s
    Overall bit rate                         : 1809 Kbps


    Video
    ID                                       : 1
    Format                                   : AVC
    Format/Info                              : Advanced Video Codec
    Format profile                           : High@L3.1
    Format settings, CABAC                   : Yes
    Format settings, ReFrames                : 4 frames
    Codec ID                                 : avc1
    Codec ID/Info                            : Advanced Video Coding
    Duration                                 : 58mn 0s
    Bit rate                                 : 1421 Kbps
    Maximum bit rate                         : 7454 Kbps
    Width                                    : 1280 pixels
    Height                                   : 720 pixels
    Display aspect ratio                     : 16:9
    Frame rate mode                          : Constant
    Frame rate                               : 29.970 fps
    Color space                              : YUV
    Chroma subsampling                       : 4:2:0
    Bit depth                                : 8 bits
    Scan type                                : Progressive
    Bits/(Pixel*Frame)                       : 0.051
    Stream size                              : 590 MiB (79%)


    Audio
    ID                                       : 2
    Format                                   : AC-3
    Format/Info                              : Audio Coding 3
    Codec ID                                 : ac-3
    Duration                                 : 58mn 0s
    Bit rate mode                            : Constant
    Bit rate                                 : 384 Kbps
    Channel(s)                               : 1 channel
    Channel positions                        : Front: C
    Sampling rate                            : 48.0 KHz
    Bit depth                                : 16 bits
    Compression mode                         : Lossy
    Stream size                              : 159 MiB (21%)



    0 0

    Original Post: Fuben na Benriya EP03 720p HDTV x264 AAC DoA



    http://wiki.d-addicts.com/Fuben_na_Benriya
    http://asianwiki.com/Fuben_na_Benriya
    http://thetvdb.com/?tab=series&id=294580&lid=7

    Title (romaji): Fuben na Benriya
    Format: Renzoku
    Genre: Comedy
    Episodes: TBD
    Broadcast network: TV Tokyo
    Broadcast period: 2015-Apr-10 start
    Air time: Friday 24:12
    Theme song: The Place Has No Name by Straightener
    Subtitles: English(synced to the RAW uploaded by Furansu) - Monchi  
    RAW credit to DoA


    Cast

       Okada Masaki as Takeyama Jun
       Suzuki Kosuke as Matsui Hideo
       Endo Kenichi as Umemoto Soichi
       Moriyama Eiji (森山栄治)
       Triendl Reina
       Morisaka Hiroyuki (森崎博之)
       Sakuma Mio (さくまみお)
       Tanaka Yoji
       Inoue Takashi


    Synopsis

    Matsui runs a benriya (odd jobs for hire) in a small nameless Hokkaido village. Umemoto has divorced 3 times. Screenwriter Takeyama (Masaki Okada) wants to go to Furano, but the bus to Furano becomes stranded due to a snowstorm. Takeyama stops at a bar to eat something, but at the bar he loses his wallet and cellphone. Takeyama is now obliged to stay in the small and nameless village.

    Matsui, Umemoto and Takeyama are now all at Matsui’s Benriya.  


    Mediainfo
    Spoiler:show

    Code
    Format                                   : Matroska
    Format version                           : Version 4 / Version 2
    File size                                : 829 MiB
    Duration                                 : 29mn 14s
    Overall bit rate                         : 3 963 Kbps
    Encoded date                             : UTC 2015-04-29 06:19:35
    Writing application                      : mkvmerge v7.8.0 ('River Man') 64bit built on Mar 27 2015 16:31:37
    Writing library                          : libebml v1.3.1 + libmatroska v1.4.2
    DURATION                                 : 00:29:14.901000000
    NUMBER_OF_FRAMES                         : 82261
    NUMBER_OF_BYTES                          : 41377283
    _STATISTICS_WRITING_APP                  : mkvmerge v7.8.0 ('River Man') 64bit built on Mar 27 2015 16:31:37
    _STATISTICS_WRITING_DATE_UTC             : 2015-04-29 06:19:35
    _STATISTICS_TAGS                         : BPS DURATION NUMBER_OF_FRAMES NUMBER_OF_BYTES

    Video
    ID                                       : 1
    Format                                   : AVC
    Format/Info                              : Advanced Video Codec
    Format profile                           : High@L4.1
    Format settings, CABAC                   : Yes
    Format settings, ReFrames                : 9 frames
    Codec ID                                 : V_MPEG4/ISO/AVC
    Duration                                 : 29mn 14s
    Width                                    : 1 280 pixels
    Height                                   : 720 pixels
    Display aspect ratio                     : 16:9
    Frame rate mode                          : Constant
    Frame rate                               : 29.970 fps
    Color space                              : YUV
    Chroma subsampling                       : 4:2:0
    Bit depth                                : 8 bits
    Scan type                                : Progressive
    Writing library                          : x264 core 146 r2538 121396c
    Encoding settings                        : cabac=1 / ref=9 / deblock=1:-3:-3 / analyse=0x3:0x133 / me=umh / subme=10 / psy=1 / psy_rd=1.00:0.15 / mixed_ref=1 / me_range=48 / chroma_me=1 / trellis=2 / 8x8dct=1 / cqm=0 / deadzone=21,11 / fast_pskip=0 / chroma_qp_offset=-3 / threads=12 / lookahead_threads=2 / sliced_threads=0 / nr=0 / decimate=1 / interlaced=0 / bluray_compat=0 / stitchable=1 / constrained_intra=0 / bframes=9 / b_pyramid=2 / b_adapt=2 / b_bias=0 / direct=3 / weightb=1 / open_gop=0 / weightp=2 / keyint=250 / keyint_min=25 / scenecut=40 / intra_refresh=0 / rc_lookahead=250 / rc=crf / mbtree=1 / crf=17.5 / qcomp=0.60 / qpmin=0 / qpmax=69 / qpstep=4 / ip_ratio=1.40 / aq=1:1.00
    Language                                 : Japanese
    Default                                  : Yes
    Forced                                   : No

    Audio
    ID                                       : 2
    Format                                   : AAC
    Format/Info                              : Advanced Audio Codec
    Format profile                           : LC
    Codec ID                                 : A_AAC
    Duration                                 : 29mn 14s
    Channel(s)                               : 2 channels
    Channel positions                        : Front: L R
    Sampling rate                            : 48.0 KHz
    Compression mode                         : Lossy
    Delay relative to video                  : 15ms
    Title                                    : Japanese 2.0 AAC
    Language                                 : Japanese
    Default                                  : Yes
    Forced                                   : No

    Menu
    00:00:00.000                             : ja:Preview
    00:00:04.972                             : ja:Section I
    00:01:59.119                             : ja:Opening
    00:02:53.473                             : ja:Section II
    00:09:15.955                             : ja:Section III
    00:15:55.955                             : ja:Section IV
    00:21:46.939                             : ja:Section V
    00:27:35.287                             : ja:Credits
    00:28:44.923                             : ja:Trailer
    00:28:59.905                             : ja:Advertisement





    0 0

    Original Post: [performance] Shannon ~ Daybreak Rain + Why Why + more [collection] [HDTV][1080p]

    Shannon: http://en.wikipedia.org/wiki/Shannon_%28British_singer%29

    Special thanks: kpop24hrs.com

    Screenshots
    Spoiler:show







    Mediainfo
    Spoiler:show


    Code

    General
    File name                                : Why Why/[150305] Shannon - Why Why (MCD Mnet M-Countdown).ts
    Format                                   : MPEG-TS
    File size                                : 487 MiB
    Duration                                 : 3mn 32s
    Overall bit rate mode                    : Variable
    Overall bit rate                         : 19.3 Mbps

    Video
    ID                                       : 17 (0x11)
    Menu ID                                  : 1 (0x1)
    Format                                   : MPEG Video
    Format version                           : Version 2
    Format profile                           : Main@High
    Format settings, BVOP                    : Yes
    Format settings, Matrix                  : Default
    Format settings, GOP                     : M=3, N=12
    Format settings, picture structure       : Frame
    Codec ID                                 : 2
    Duration                                 : 3mn 32s
    Bit rate mode                            : Variable
    Bit rate                                 : 18.0 Mbps
    Maximum bit rate                         : 24.0 Mbps
    Width                                    : 1 920 pixels
    Height                                   : 1 080 pixels
    Display aspect ratio                     : 16:9
    Frame rate                               : 29.970 fps
    Color space                              : YUV
    Chroma subsampling                       : 4:2:0
    Bit depth                                : 8 bits
    Scan type                                : Interlaced
    Scan order                               : Top Field First
    Compression mode                         : Lossy
    Bits/(Pixel*Frame)                       : 0.290
    Time code of first frame                 : 00:37:25:16
    Time code source                         : Group of pictures header
    GOP, Open/Closed                         : Open
    Stream size                              : 456 MiB (94%)

    Audio
    ID                                       : 20 (0x14)
    Menu ID                                  : 1 (0x1)
    Format                                   : AC-3
    Format/Info                              : Audio Coding 3
    Mode extension                           : CM (complete main)
    Format settings, Endianness              : Big
    Codec ID                                 : 129
    Duration                                 : 3mn 32s
    Bit rate mode                            : Constant
    Bit rate                                 : 256 Kbps
    Channel(s)                               : 2 channels
    Channel positions                        : Front: L R
    Sampling rate                            : 48.0 KHz
    Bit depth                                : 16 bits
    Compression mode                         : Lossy
    Delay relative to video                  : -498ms
    Stream size                              : 6.47 MiB (1%)



    Code

    General
    File name                                : [fancam]/Guerrilla Concert/[141208] Shannon - Confetti (Guerrilla Concert) [fancam by Spinel].mp4
    Format                                   : MPEG-4
    Format profile                           : Base Media
    Codec ID                                 : isom
    File size                                : 203 MiB
    Duration                                 : 3mn 51s
    Overall bit rate                         : 7 366 Kbps
    Writing application                      : Lavf55.36.103

    Video
    ID                                       : 1
    Format                                   : AVC
    Format/Info                              : Advanced Video Codec
    Format profile                           : High@L5.0
    Format settings, CABAC                   : Yes
    Format settings, ReFrames                : 3 frames
    Codec ID                                 : avc1
    Codec ID/Info                            : Advanced Video Coding
    Duration                                 : 3mn 51s
    Bit rate                                 : 7 232 Kbps
    Width                                    : 2 560 pixels
    Height                                   : 1 440 pixels
    Display aspect ratio                     : 16:9
    Frame rate mode                          : Constant
    Frame rate                               : 29.970 fps
    Color space                              : YUV
    Chroma subsampling                       : 4:2:0
    Bit depth                                : 8 bits
    Scan type                                : Progressive
    Bits/(Pixel*Frame)                       : 0.065
    Stream size                              : 199 MiB (98%)

    Audio
    ID                                       : 2
    Format                                   : AAC
    Format/Info                              : Advanced Audio Codec
    Format profile                           : LC
    Codec ID                                 : 40
    Duration                                 : 3mn 51s
    Bit rate mode                            : Constant
    Bit rate                                 : 126 Kbps
    Channel(s)                               : 2 channels
    Channel positions                        : Front: L R
    Sampling rate                            : 44.1 KHz
    Compression mode                         : Lossy
    Stream size                              : 3.46 MiB (2%)




    0 0

    Original Post: Super Daddy E16 END 720p WITH


    Details
    Title: 슈퍼대디 열 / Syupeodaedi Yeol (Syupudaedi Yul)
    Genre: Family
    Episodes: 16
    Broadcast network: tvN
    Broadcast period: 2015-Mar-13 to 2015-May-02
    Air time: Friday & Saturday 20:30
    Original Soundtrack: Super Daddy Yul OST
    Synopsis
    Doctor Cha Mi Rae (Lee Yu-Ri), who has a young daughter, is diagnosed with a rare cancer. Informed by her doctor that she has about one year to live, she seeks out her first love Kim Yul (Lee Dong-Gun) hoping to transform him into the best father possible for her daughter.

    Cast
    Lee Dong Gun as Kim Yul
    Lee Yoo Ri as Cha Mi Rae
    Seo Ye Ji
    Seo Joon Young
    Lee Re (이레)
    Choi Min
    Jang Kwang
    Oh Joo Eun
    Han Young (한영)




    Code

    Video
    ID                                       : 0
    Format                                   : AVC
    Format/Info                              : Advanced Video Codec
    Format profile                           : Baseline@L3.1
    Format settings, CABAC                   : No
    Format settings, ReFrames                : 1 frame
    Codec ID                                 : H264
    Bit rate                                 : 3 017 Kbps
    Width                                    : 1 280 pixels
    Height                                   : 720 pixels
    Display aspect ratio                     : 16:9
    Frame rate mode                          : Variable
    Frame rate                               : 29.970 fps
    Color space                              : YUV
    Chroma subsampling                       : 4:2:0
    Bit depth                                : 8 bits
    Scan type                                : Progressive
    Bits/(Pixel*Frame)                       : 0.109

    Audio
    ID                                       : 1
    Format                                   : MPEG Audio
    Format version                           : Version 1
    Format profile                           : Layer 3
    Mode                                     : Joint stereo
    Mode extension                           : MS Stereo
    Codec ID                                 : 55
    Codec ID/Hint                            : MP3
    Bit rate mode                            : Constant
    Bit rate                                 : 128 Kbps
    Channel(s)                               : 2 channels
    Sampling rate                            : 44.1 KHz
    Compression mode                         : Lossy
    Stream size                              : 62.1 MiB (4%)
    Alignment                                : Aligned on interleaves
    Interleave, duration                     : 26 ms (0.78 video frame)
    Writing library                          : LAME3.98.2



    0 0

    Original Post: Super Daddy (2015) Complete XVID WITH


    Details
    Title: 슈퍼대디 열 / Syupeodaedi Yeol (Syupudaedi Yul)
    Genre: Family
    Episodes: 16
    Broadcast network: tvN
    Broadcast period: 2015-Mar-13 to 2015-May-02
    Air time: Friday & Saturday 20:30
    Original Soundtrack: Super Daddy Yul OST
    Synopsis
    Doctor Cha Mi Rae (Lee Yu-Ri), who has a young daughter, is diagnosed with a rare cancer. Informed by her doctor that she has about one year to live, she seeks out her first love Kim Yul (Lee Dong-Gun) hoping to transform him into the best father possible for her daughter.

    Cast
    Lee Dong Gun as Kim Yul
    Lee Yoo Ri as Cha Mi Rae
    Seo Ye Ji
    Seo Joon Young
    Lee Re (이레)
    Choi Min
    Jang Kwang
    Oh Joo Eun
    Han Young (한영)




    Code
    Video
    ID                                       : 0
    Format                                   : MPEG-4 Visual
    Format profile                           : Advanced Simple@L5
    Format settings, BVOP                    : No
    Format settings, QPel                    : No
    Format settings, GMC                     : No warppoints
    Format settings, Matrix                  : Default (MPEG)
    Codec ID                                 : XVID
    Codec ID/Hint                            : XviD
    Bit rate                                 : 1 391 Kbps
    Width                                    : 624 pixels
    Height                                   : 352 pixels
    Display aspect ratio                     : 16:9
    Frame rate                               : 29.970 fps
    Color space                              : YUV
    Chroma subsampling                       : 4:2:0
    Bit depth                                : 8 bits
    Scan type                                : Progressive
    Compression mode                         : Lossy
    Bits/(Pixel*Frame)                       : 0.211
    Stream size                              : 660 MiB (87%)
    Writing library                          : XviD 1.2.1 (UTC 2008-12-04)

    Audio
    ID                                       : 1
    Format                                   : MPEG Audio
    Format version                           : Version 1
    Format profile                           : Layer 3
    Mode                                     : Joint stereo
    Mode extension                           : MS Stereo
    Codec ID                                 : 55
    Codec ID/Hint                            : MP3
    Bit rate mode                            : Constant
    Bit rate                                 : 128 Kbps
    Channel(s)                               : 2 channels
    Sampling rate                            : 48.0 KHz
    Compression mode                         : Lossy
    Stream size                              : 60.8 MiB (8%)
    Alignment                                : Aligned on interleaves
    Writing library                          : LAME3.98.2



    0 0

    Original Post: Super Daddy (2015) Complete 720p WITH


    Details
    Title: 슈퍼대디 열 / Syupeodaedi Yeol (Syupudaedi Yul)
    Genre: Family
    Episodes: 16
    Broadcast network: tvN
    Broadcast period: 2015-Mar-13 to 2015-May-02
    Air time: Friday & Saturday 20:30
    Original Soundtrack: Super Daddy Yul OST
    Synopsis
    Doctor Cha Mi Rae (Lee Yu-Ri), who has a young daughter, is diagnosed with a rare cancer. Informed by her doctor that she has about one year to live, she seeks out her first love Kim Yul (Lee Dong-Gun) hoping to transform him into the best father possible for her daughter.

    Cast
    Lee Dong Gun as Kim Yul
    Lee Yoo Ri as Cha Mi Rae
    Seo Ye Ji
    Seo Joon Young
    Lee Re (이레)
    Choi Min
    Jang Kwang
    Oh Joo Eun
    Han Young (한영)




    Code

    Video
    ID                                       : 0
    Format                                   : AVC
    Format/Info                              : Advanced Video Codec
    Format profile                           : Baseline@L3.1
    Format settings, CABAC                   : No
    Format settings, ReFrames                : 1 frame
    Codec ID                                 : H264
    Bit rate                                 : 3 017 Kbps
    Width                                    : 1 280 pixels
    Height                                   : 720 pixels
    Display aspect ratio                     : 16:9
    Frame rate mode                          : Variable
    Frame rate                               : 29.970 fps
    Color space                              : YUV
    Chroma subsampling                       : 4:2:0
    Bit depth                                : 8 bits
    Scan type                                : Progressive
    Bits/(Pixel*Frame)                       : 0.109

    Audio
    ID                                       : 1
    Format                                   : MPEG Audio
    Format version                           : Version 1
    Format profile                           : Layer 3
    Mode                                     : Joint stereo
    Mode extension                           : MS Stereo
    Codec ID                                 : 55
    Codec ID/Hint                            : MP3
    Bit rate mode                            : Constant
    Bit rate                                 : 128 Kbps
    Channel(s)                               : 2 channels
    Sampling rate                            : 44.1 KHz
    Compression mode                         : Lossy
    Stream size                              : 62.1 MiB (4%)
    Alignment                                : Aligned on interleaves
    Interleave, duration                     : 26 ms (0.78 video frame)
    Writing library                          : LAME3.98.2



    0 0
  • 05/02/15--05:17: Fuben na Benriya ep04 480p
  • Original Post: Fuben na Benriya ep04 480p



    http://wiki.d-addicts.com/Fuben_na_Benriya
    http://asianwiki.com/Fuben_na_Benriya

    Title: 不便な便利屋
    Title (romaji): Fuben na Benriya
    Format: Renzoku
    Genre: Comedy
    Episodes: TBD
    Broadcast network: TV Tokyo
    Broadcast period: 2015-Apr-10 start
    Air time: Friday 24:12
    Theme song: The Place Has No Name by Straightener
    Language: Japanese
    Country: Japan
    Subtitles: English here: Monchi
    RAW credit tot furransu

    Cast
       Okada Masaki as Takeyama Jun
       Suzuki Kosuke as Matsui Hideo
       Endo Kenichi as Umemoto Soichi
       Moriyama Eiji (森山栄治)
       Triendl Reina
       Morisaka Hiroyuki (森崎博之)
       Sakuma Mio (さくまみお)
       Tanaka Yoji
       Inoue Takashi

    Guests
       Tokito Saburo (ep1)
       Otoo Takuma (ep1)
       Shiratori Kumiko (白鳥久美子) (ep1)
       Uchiyama Rina
       Kohinata Fumiyo
       Sato Megumi
       Suzuki Fuku
       Takei Ryosuke (竹井亮介)
       Tanaka Misako
       Yanagisawa Shingo
       Yamashita Rio

    Synopsis
    Matsui runs a benriya (odd jobs for hire) in a small nameless Hokkaido village. Umemoto has divorced 3 times. Screenwriter Takeyama (Masaki Okada) wants to go to Furano, but the bus to Furano becomes stranded due to a snowstorm. Takeyama stops at a bar to eat something, but at the bar he loses his wallet and cellphone. Takeyama is now obliged to stay in the small and nameless village. Matsui, Umemoto and Takeyama are now all at Matsui’s Benriya.

    General
    Complete name                  : Fuben na Benriya ep04 (848x480 x264).mp4
    Format                         : MPEG-4
    Format profile                 : Base Media
    Codec ID                       : isom
    File size                      : 243 MiB
    Duration                       : 29mn 8s
    Overall bit rate mode          : Variable
    Overall bit rate               : 1 165 Kbps

    Video
    ID                             : 1
    Format                         : AVC
    Format/Info                    : Advanced Video Codec
    Format profile                 : High@L4.1
    Format settings, CABAC         : Yes
    Format settings, ReFrames      : 4 frames
    Codec ID                       : avc1
    Codec ID/Info                  : Advanced Video Coding
    Duration                       : 29mn 7s
    Bit rate                       : 1 033 Kbps
    Maximum bit rate               : 4 040 Kbps
    Width                          : 848 pixels
    Height                         : 480 pixels
    Display aspect ratio           : 16:9
    Frame rate mode                : Constant
    Frame rate                     : 29.970 fps
    Color space                    : YUV
    Chroma subsampling             : 4:2:0
    Bit depth                      : 8 bits
    Scan type                      : Progressive
    Bits/(Pixel*Frame)             : 0.085
    Stream size                    : 215 MiB (89%)

    Audio
    ID                             : 2
    Format                         : AAC
    Format/Info                    : Advanced Audio Codec
    Format profile                 : LC
    Codec ID                       : 40
    Duration                       : 29mn 8s
    Bit rate mode                  : Variable
    Bit rate                       : 128 Kbps
    Maximum bit rate               : 134 Kbps
    Channel count                  : 2 channels
    Channel positions              : Front: L R
    Sampling rate                  : 48.0 KHz
    Compression mode               : Lossy



    0 0

    Original Post: Various Artists – Super Daddy Yeol OST



    Various Artists – 슈퍼대디열 (tvN 금토드라마) OST
    Release Date: 2015.05.01
    Genre: OST
    Language: Korean
    Bit Rate: MP3-320kbps
    credit to k2nblog

    Track List:

    01. Home Sweet Home (Main Title)
    02. Yolo Man – 정동하 (Jung Dong Ha)
    03. 너 때문에 – 스피카 (Spica)
    04. 신기루 – 창민 (Changmin)
    05. 아파아파 – 임정희 (Lim Jeong Hee)
    06. 비와 당신 – 미(MIIII)
    07. 아파아파 (Piano Ver.)
    08. 비와 당신 (Acoustic Ver.) – 미(MIIII)
    09. Yolo Man (Inst.)
    10. 너 때문에 (Inst.)
    11. 한열테마
    12. Funny-Funk
    13. My Hope
    14. 억지 춘향
    15. 그 강가에서



    0 0

    Original Post: Murphy's Law of Love (2015) Eng Sub [Ongoing] E07 720p



    Details:

    Also known as Perhaps, This is Called Love
    Genre Romance, Comedy
    Created by Sanlih E-Television
    Written by Wang Ruo-ting 王若婷
    Fang Yi-de 方懿德
    Wu Xiang-ying 吳香穎
    Chen Xin-ying 陳妡盈
    Directed by Ye Tian-lun 葉天倫
    Li Qing-rong 李青蓉
    Opening theme Fly With Me by Landy Wen 溫嵐
    Ending theme Want To Say 想說 by GJ 蔣卓嘉
    Country of origin Republic of China (Taiwan)
    Original language(s) Mandarin
    No. of episodes 20
    http://thetvdb.com/?tab=series&id=293952

    Video Raws: thanks to abugemilang
    Subtitles: English SRT, credit DramaFever and/or Viki, thanks to abugemilang

    Synopsis

    What happens when true love meets Murphy’s Law? Murphy’s Law states “anything that can go wrong, will go wrong.” Guan Xiao Tong (Ivelyn Lee) is known as the “love guru” of the Meet and Match Online Dating Company, able to solve anybody’s relationship issues. After He Zhi Yu (Wang Si Ping), a beautiful model, leaves Ji Jia Wei (Danson Tang), he is heartbroken but his father tries to convince him to move on. To help his own divorced father get close to Wu Mei Zhen (Lin Mei Zhen), the boss of the dating company, Jia Wei proposes a joint-company matchmaking event. There, Jia Wei meets Xiao Tong, and the two get off on the wrong foot and they soon delight in tormenting each other. Meanwhile, Mei Zhen’s son, Xiang Zi Yan (Jolin Chien), gets to know Xiao Tong and begins to develop feelings for her. Can dating experts who hold the fate of other people’s happiness in their own hands be able to navigate the tides of their own hearts? “Murphy’s Law of Love” is a 2015 Taiwanese drama series.

    Main cast

       Danson Tang 唐禹哲 as Ji Jia-wei 紀家尉
       Ivelyn Lee 李佳穎 as Guan Xiao-tong 關曉彤
       Jolin Chien 簡宏霖 as Xiang Zi-yan 向子諺
       Jenna Wang 王思平 as He Zhi-yu 何芝羽







    Video Codec

    Code
    Video
    ID                                       : 1
    Format                                   : AVC
    Format/Info                              : Advanced Video Codec
    Format profile                           : Main@L3.1
    Format settings, CABAC                   : Yes
    Format settings, ReFrames                : 4 frames
    Codec ID                                 : avc1
    Codec ID/Info                            : Advanced Video Coding
    Duration                                 : 1h 13mn
    Bit rate                                 : 1 169 Kbps
    Width                                    : 1 280 pixels
    Height                                   : 720 pixels
    Display aspect ratio                     : 16:9
    Frame rate mode                          : Constant
    Frame rate                               : 29.970 fps
    Color space                              : YUV
    Chroma subsampling                       : 4:2:0
    Bit depth                                : 8 bits
    Scan type                                : Progressive
    Bits/(Pixel*Frame)                       : 0.042
    Stream size                              : 611 MiB (82%)
    Writing library                          : x264 core 138 r2 9e941d1
    Encoding settings                        : cabac=1 / ref=1 / deblock=1:0:0 / analyse=0x1:0 / me=dia / subme=2 / psy=1 / psy_rd=1.00:0.00 / mixed_ref=0 / me_range=16 / chroma_me=1 / trellis=0 / 8x8dct=0 / cqm=0 / deadzone=21,11 / fast_pskip=1 / chroma_qp_offset=0 / threads=12 / lookahead_threads=4 / sliced_threads=0 / nr=0 / decimate=1 / interlaced=0 / bluray_compat=0 / constrained_intra=0 / bframes=3 / b_pyramid=2 / b_adapt=1 / b_bias=0 / direct=1 / weightb=1 / open_gop=0 / weightp=2 / keyint=300 / keyint_min=29 / scenecut=40 / intra_refresh=0 / rc_lookahead=40 / rc=crf / mbtree=1 / crf=23.0 / qcomp=0.60 / qpmin=0 / qpmax=69 / qpstep=4 / ip_ratio=1.40 / aq=1:1.00
    Tagged date                              : UTC 2015-03-23 09:32:32

    Audio
    ID                                       : 2
    Format                                   : AAC
    Format/Info                              : Advanced Audio Codec
    Format profile                           : LC
    Codec ID                                 : 40
    Duration                                 : 1h 13mn
    Bit rate mode                            : Constant
    Bit rate                                 : 192 Kbps
    Channel(s)                               : 2 channels
    Channel positions                        : Front: L R
    Sampling rate                            : 48.0 KHz
    Compression mode                         : Lossy
    Stream size                              : 100 MiB (13%)
    Tagged date                              : UTC 2015-03-23 09:32:32




    0 0

    Original Post: Drama Special E110: Ugly Love HDTV 720p WITH


    Details
    Title: Ugly Love / 추한 사랑 | choo-han sa-rang
    Also known as: Repulsive Love
    Genre: Drama
    Format: Drama Special
    Episodes: 1
    Broadcast network: KBS2
    Broadcast date: 2014-10-26
    Air time: Sunday 24:00

    Subtitles:
    English subtitle: NONE

    Synopsis
    A mam that doesn't remember what love feels like. He's a senior employee of the marketing team but he spends more time as Director Jang's personal assistant and driver. He's hardly dreamed of being loved or being in love. The rest of his team ignores and disrespects him. The man, Chu Hansang has grown indifferent to his reality. But then one day appears a woman who opens up his heart again.--KBS World

    Cast
    Jo Dal Hwan as Choo Han Sang, Samjeong Group marketing team Agency
    Koo Jae Yi (구재이) as Song Yun Yi, Samjeong Group marketing team for new employees
    Kim Young Hoon as Jang Young Chul, Samjeong Group marketing Managing Director
    Song Min Ji as Kim Mi Young
    Park Chul Min as Team Leader Kim
    Seo Dong Kab (서동갑) as Deputy Lee
    Jung Young Ki (정영기) as Agency worker Kim
    Kim Sun Ha (김선하) as Agency worker Yeo
    Oh Hee Joong (오희중) as a male employee

    Production Credits
    Director: Ahn Jung Yong
    Screenwriter: Ahn Jung Yong


    Code
    Video
    ID                          : 1
    Format                      : AVC
    Format/Info                 : Advanced Video Codec
    Format profile              : High@L3.1
    Format settings, CABAC      : Yes
    Format settings, ReFrames   : 4 frames
    Codec ID                    : avc1
    Codec ID/Info               : Advanced Video Coding
    Duration                    : 1h 10mn
    Source duration             : 1h 10mn
    Bit rate                    : 2 200 Kbps
    Maximum bit rate            : 9 981 Kbps
    Width                       : 1 280 pixels
    Height                      : 720 pixels
    Display aspect ratio        : 16:9
    Frame rate mode             : Constant
    Frame rate                  : 29.970 fps
    Color space                 : YUV
    Chroma subsampling          : 4:2:0
    Bit depth                   : 8 bits
    Scan type                   : Progressive
    Bits/(Pixel*Frame)          : 0.080
    Stream size                 : 1.09 GiB (94%)
    Source stream size          : 1.09 GiB (94%)
    Writing library             : x264 core 128 r2216 198a7ea
    Encoding settings           : cabac=1 / ref=3 / deblock=1:0:0 / analyse=0x3:0x113 / me=hex / subme=7 / psy=1 / psy_rd=1.00:0.00 / mixed_ref=1 / me_range=16 / chroma_me=1 / trellis=1 / 8x8dct=1 / cqm=0 / deadzone=21,11 / fast_pskip=1 / chroma_qp_offset=-2 / threads=12 / lookahead_threads=2 / sliced_threads=0 / nr=0 / decimate=1 / interlaced=0 / bluray_compat=0 / constrained_intra=0 / bframes=3 / b_pyramid=2 / b_adapt=1 / b_bias=0 / direct=1 / weightb=1 / open_gop=0 / weightp=2 / keyint=250 / keyint_min=25 / scenecut=40 / intra_refresh=0 / rc_lookahead=40 / rc=abr / mbtree=1 / bitrate=2200 / ratetol=1.0 / qcomp=0.60 / qpmin=0 / qpmax=69 / qpstep=4 / vbv_maxrate=50000 / vbv_bufsize=50000 / nal_hrd=none / ip_ratio=1.40 / aq=1:1.00
    Encoded date                : UTC 2014-10-26 15:42:57
    Tagged date                 : UTC 2014-10-26 16:21:32

    Audio
    ID                          : 2
    Format                      : AAC
    Format/Info                 : Advanced Audio Codec
    Format profile              : LC
    Codec ID                    : 40
    Duration                    : 1h 10mn
    Bit rate mode               : Variable
    Bit rate                    : 128 Kbps
    Maximum bit rate            : 134 Kbps
    Channel(s)                  : 2 channels
    Channel positions           : Front: L R
    Sampling rate               : 48.0 KHz
    Compression mode            : Lossy
    Stream size                 : 64.9 MiB (5%)
    Encoded date                : UTC 2014-10-26 16:21:31
    Tagged date                 : UTC 2014-10-26 16:21:32



    0 0

    Original Post: Drama Special E111: The Last Puzzle HDTV 720p WITH


    Details
    Title: The Last Puzzle / 마지막 퍼즐 | majimak peojeul
    Also known as: The Final Puzzle
    Genre: Drama
    Format: Drama Special
    Episodes: 1
    Broadcast network: KBS2
    Broadcast date: 2014-11-02
    Air time: Sunday 24:00

    Subtitles:
    English subtitle: NONE

    Synopsis
    What if I was the father of a child that had experienced a horrific crime? The thin line between revenge and forgiveness... If we had to make that decision based on something that happened to our loving child... What would that feel like? Will we be able to forgive? The criminals and the law enforcers, no one can comfort a father dying inside. How much pain would that be? This story will attempt to describe that pain and the choices such a father has to make.--KBS World

    Cast
    Yoon Tae Young as Jae Ho
    Jung Ji Yoon as Min Ju
    Kim Min Sang as Cha Gum Sa
    Kim Min Jae as Tae Shik
    Eom Dong Hyun as Team Leader Park
    Choi Dae Chul as Min Chul
    Lee Ah Hyun as Jae Kyung
    Hong Hyung Sa as Hong Hyung Sa
    So Hee as So Hee

    Production Credits
    Director: Kim Jung Hyun
    Screenwriter: Lee Joo Ha


    Code
    Video
    ID                          : 1
    Format                      : AVC
    Format/Info                 : Advanced Video Codec
    Format profile              : High@L3.1
    Format settings, CABAC      : Yes
    Format settings, ReFrames   : 4 frames
    Codec ID                    : avc1
    Codec ID/Info               : Advanced Video Coding
    Duration                    : 1h 8mn
    Source duration             : 1h 8mn
    Bit rate                    : 2 200 Kbps
    Maximum bit rate            : 12.7 Mbps
    Width                       : 1 280 pixels
    Height                      : 720 pixels
    Display aspect ratio        : 16:9
    Frame rate mode             : Constant
    Frame rate                  : 29.970 fps
    Color space                 : YUV
    Chroma subsampling          : 4:2:0
    Bit depth                   : 8 bits
    Scan type                   : Progressive
    Bits/(Pixel*Frame)          : 0.080
    Stream size                 : 1.06 GiB (94%)
    Source stream size          : 1.06 GiB (94%)
    Writing library             : x264 core 128 r2216 198a7ea
    Encoding settings           : cabac=1 / ref=3 / deblock=1:0:0 / analyse=0x3:0x113 / me=hex / subme=7 / psy=1 / psy_rd=1.00:0.00 / mixed_ref=1 / me_range=16 / chroma_me=1 / trellis=1 / 8x8dct=1 / cqm=0 / deadzone=21,11 / fast_pskip=1 / chroma_qp_offset=-2 / threads=12 / lookahead_threads=2 / sliced_threads=0 / nr=0 / decimate=1 / interlaced=0 / bluray_compat=0 / constrained_intra=0 / bframes=3 / b_pyramid=2 / b_adapt=1 / b_bias=0 / direct=1 / weightb=1 / open_gop=0 / weightp=2 / keyint=250 / keyint_min=25 / scenecut=40 / intra_refresh=0 / rc_lookahead=40 / rc=abr / mbtree=1 / bitrate=2200 / ratetol=1.0 / qcomp=0.60 / qpmin=0 / qpmax=69 / qpstep=4 / vbv_maxrate=50000 / vbv_bufsize=50000 / nal_hrd=none / ip_ratio=1.40 / aq=1:1.00
    Encoded date                : UTC 2014-11-02 15:47:15
    Tagged date                 : UTC 2014-11-02 16:16:41

    Audio
    ID                          : 2
    Format                      : AAC
    Format/Info                 : Advanced Audio Codec
    Format profile              : LC
    Codec ID                    : 40
    Duration                    : 1h 8mn
    Bit rate mode               : Variable
    Bit rate                    : 128 Kbps
    Maximum bit rate            : 135 Kbps
    Channel(s)                  : 2 channels
    Channel positions           : Front: L R
    Sampling rate               : 48.0 KHz
    Compression mode            : Lossy
    Stream size                 : 62.7 MiB (5%)
    Encoded date                : UTC 2014-11-02 16:16:39
    Tagged date                 : UTC 2014-11-02 16:16:41



    0 0

    Original Post: Drama Special E112: The Girl Who Became a Photo HDTV 720p WITH


    Details
    Title: The Girl Who Became a Photo / 액자가 된 소녀 | aegja-ga dwin sonyeo
    Also known as: The Girl in the Frame / Girl That's Been Framed
    Genre: Drama
    Format: Drama Special
    Episodes: 1
    Broadcast network: KBS2
    Broadcast date: 2014-11-09
    Air time: Sunday 24:00

    Subtitles:
    English subtitle: NONE

    Synopsis
    70-year-old man Seongtaek convinces the neighborhood for redevelopment into a fancy new apartment complex so that he has something to leave for his daughter and granddaughter. But the day before he is to move so that they start construction, something unbelievable happens to his granddaughter.--KBS World

    Cast
    Choi Jong Won as Min Sung Taek
    Jung In Sun as Min Se Young
    Lee Jae Gyoon as Lee Sang Rim
    Jin Kyung as Seo Ji Eun
    Jung In Gi as Park Chul Ho
    Lee Se Eun as Min Yoon Hee

    Production Credits
    Director: Yoo Jong Sun
    Screenwriter: Lee Kang


    Code
    Video
    ID                          : 1
    Format                      : AVC
    Format/Info                 : Advanced Video Codec
    Format profile              : High@L3.1
    Format settings, CABAC      : Yes
    Format settings, ReFrames   : 4 frames
    Codec ID                    : avc1
    Codec ID/Info               : Advanced Video Coding
    Duration                    : 1h 10mn
    Source duration             : 1h 10mn
    Bit rate                    : 2 200 Kbps
    Maximum bit rate            : 6 104 Kbps
    Width                       : 1 280 pixels
    Height                      : 720 pixels
    Display aspect ratio        : 16:9
    Frame rate mode             : Constant
    Frame rate                  : 29.970 fps
    Color space                 : YUV
    Chroma subsampling          : 4:2:0
    Bit depth                   : 8 bits
    Scan type                   : Progressive
    Bits/(Pixel*Frame)          : 0.080
    Stream size                 : 1.08 GiB (94%)
    Source stream size          : 1.08 GiB (94%)
    Writing library             : x264 core 128 r2216 198a7ea
    Encoding settings           : cabac=1 / ref=3 / deblock=1:0:0 / analyse=0x3:0x113 / me=hex / subme=7 / psy=1 / psy_rd=1.00:0.00 / mixed_ref=1 / me_range=16 / chroma_me=1 / trellis=1 / 8x8dct=1 / cqm=0 / deadzone=21,11 / fast_pskip=1 / chroma_qp_offset=-2 / threads=12 / lookahead_threads=2 / sliced_threads=0 / nr=0 / decimate=1 / interlaced=0 / bluray_compat=0 / constrained_intra=0 / bframes=3 / b_pyramid=2 / b_adapt=1 / b_bias=0 / direct=1 / weightb=1 / open_gop=0 / weightp=2 / keyint=250 / keyint_min=25 / scenecut=40 / intra_refresh=0 / rc_lookahead=40 / rc=abr / mbtree=1 / bitrate=2200 / ratetol=1.0 / qcomp=0.60 / qpmin=0 / qpmax=69 / qpstep=4 / vbv_maxrate=50000 / vbv_bufsize=50000 / nal_hrd=none / ip_ratio=1.40 / aq=1:1.00
    Encoded date                : UTC 2014-11-09 15:48:05
    Tagged date                 : UTC 2014-11-09 16:23:59

    Audio
    ID                          : 2
    Format                      : AAC
    Format/Info                 : Advanced Audio Codec
    Format profile              : LC
    Codec ID                    : 40
    Duration                    : 1h 10mn
    Bit rate mode               : Variable
    Bit rate                    : 128 Kbps
    Maximum bit rate            : 135 Kbps
    Channel(s)                  : 2 channels
    Channel positions           : Front: L R
    Sampling rate               : 48.0 KHz
    Compression mode            : Lossy
    Stream size                 : 64.4 MiB (5%)
    Encoded date                : UTC 2014-11-09 16:23:57
    Tagged date                 : UTC 2014-11-09 16:23:59



    0 0

    Original Post: Super Daddy (2015) Complete 1080p DWBH



    Title: 슈퍼대디 열 / Syupeodaedi Yeol (Syupudaedi Yul)
    Genre: Family, comedy, romance
    Episodes: 16
    Broadcast network: tvN
    Broadcast period: 2015-Mar-13 to 2015-May-02
    Air time: Friday & Saturday 20:30
    Original Soundtrack: Super Daddy Yul OST

    subtitles: none

    Synopsis:
    Doctor Cha Mi Rae (Lee Yu Ri), who has a young daughter, is diagnosed with a rare cancer. Informed by her doctor that she has about one year to live, she seeks out her first love Kim Yul (Lee Dong Gun) hoping to transform him into the best father possible for her daughter.

    Correlation Chart:


    Cast:
    Lee Dong Gun as Han Yul (35)
    Lee Yoo Ri as Dr. Cha Mi Rae (35)

    People around Han Yul:
    Seo Ye Ji as Hwang Ji Hye (30)
    Kang Nam Gil as Han Min Ho (66, Han Yul's father)
    Kim Mi Kyung as Director Hwang (56, Director of Rehabilitation Clinic)

    People around Cha Mi Rae:
    Lee Re (이레) as Cha Sa Rang (9)
    Seo Joon Young as Dr. Shin Woo Hyuk (30, Neurosurgeons)
    Lee Han Wie as Choi Nak Kwon (59, Director of University Hospital)

    People at Shin Woo Phoenix:
    Jang Kwang as Bang Kwang (60, Executive Director of Shin Woo Phoenix)
    Choi Min as Ryu Hyun Woo (27, ace of Shin Woo Phoenix)
    Park Joo Hyung as Uhm Ki Tae (35, head coach of Shin Woo Phoenix)
    Choi Dae Chul as Shik Sang Hae (35, group 2 strike coach)
    Jung Ji Ah as Jang Shi Eun (24)

    Others:
    Choi Kwon Soo as Lee Min Woo (9, Sarang's classmate)
    Lee Young Eun (이영은) as Uhm Bo Mi (9, Sa Rang's classmate)
    Oh Joo Eun as Chae Yoo Ra (34)
    Kim Hye Na as Min Mang Hae (33, Shik Sang Hae's wife)
    Han Groo as Lola Jang (cameo, ep 8-9)

    Production Credits:
    Director: Song Hyun Wook
    Screenwriter: Kim Kyung Se (김경세)










    Code
    Complete name                            : [tvN] Super Daddy Yul 20150313 E01 CATV X264 AAC 1080p-DWBH.mp4
    Format                                   : MPEG-4
    Format profile                           : Base Media / Version 2
    Codec ID                                 : mp42
    File size                                : 2.06 GiB
    Duration                                 : 1h 4mn
    Overall bit rate mode                    : Variable
    Overall bit rate                         : 4 557 Kbps
    Movie name                               : Release Data for DWBH
    ContentType                              : 10
    Tagged date                              : UTC 2015-03-13 13:58:50
    Copyright                                : tvN
    Comment                                  : Encoded by CODE NAME DWBH

    Video
    ID                                       : 2
    Format                                   : AVC
    Format/Info                              : Advanced Video Codec
    Format profile                           : Main@L4.0
    Format settings, CABAC                   : Yes
    Format settings, ReFrames                : 2 frames
    Format settings, GOP                     : M=1, N=16
    Codec ID                                 : avc1
    Codec ID/Info                            : Advanced Video Coding
    Duration                                 : 1h 4mn
    Bit rate mode                            : Variable
    Bit rate                                 : 4 170 Kbps
    Maximum bit rate                         : 10 000 Kbps
    Width                                    : 1 920 pixels
    Height                                   : 1 080 pixels
    Display aspect ratio                     : 16:9
    Frame rate mode                          : Constant
    Frame rate                               : 29.970 fps
    Standard                                 : NTSC
    Color space                              : YUV
    Chroma subsampling                       : 4:2:0
    Bit depth                                : 8 bits
    Scan type                                : Progressive
    Bits/(Pixel*Frame)                       : 0.067
    Stream size                              : 1.88 GiB (92%)
    Writing library                          : x264 core 114
    Color primaries                          : BT.709
    Transfer characteristics                 : BT.709
    Matrix coefficients                      : BT.709

    Audio
    ID                                       : 1
    Format                                   : AAC
    Format/Info                              : Advanced Audio Codec
    Format profile                           : LC
    Codec ID                                 : 40
    Duration                                 : 1h 4mn
    Bit rate mode                            : Variable
    Bit rate                                 : 384 Kbps
    Maximum bit rate                         : 391 Kbps
    Channel count                            : 2 channels
    Channel positions                        : Front: L R
    Sampling rate                            : 48.0 KHz
    Compression mode                         : Lossy
    Stream size                              : 178 MiB (8%)



    0 0

    Original Post: Kokoro ga Pokitto ne EP04 720p HDTV x264 AAC DoA



    http://wiki.d-addicts.com/Kokoro_ga_Pokitto_ne
    http://thetvdb.com/?tab=series&id=294579

    Title (romaji): Kokoro ga Pokitto ne
    Also known as: Crazy for Me
    Format: Renzoku
    Genre: Love comedy
    Episodes: TBD
    Broadcast network: Fuji TV
    Broadcast period: 2015-Apr-08 start
    Air time: Wednesday 22:00
    Theme song: SUN by Hoshino Gen
    Subtitles: English
    RAW credit to DoA


    Cast

    Abe Sadao as Kojima Haruta
    Mizuhara Kiko as Hayama Miyako
    Fujiki Naohito as Otake Shin
    Yamaguchi Tomoko as Kamoda Shizuka
    Tokunaga Eri as Itoyama Fumi
    Yamashita Rio as Makino Eriko
    Nagase Tasuku
    Ikezu Shoko
    Yamanishi Atsushi (山西惇)


    Synopsis

    Set in Tokyo, the story follows Kojima Haruta, a 40-year-old man who hits the rock bottom as he fell mentally ill which led him to lose his job, family, and even a place to live. After a certain turn of events, Haruta encounters Otake Shin, the owner of an antique furniture shop who takes Haruta in and hires him as a furniture repairman in the shop. Touched by such kindness, Haruta promised himself to try to put his life back together but kept himself isolated in order to avoid any additional stress being created. However, things suddenly starts to change as Haruta encounters Hayama Miyako, a 26-year-old woman who has a tendency to become overly dependent and extremely obsessed with a man she falls in love with... -- Fuji TV


    Mediainfo
    Spoiler:show

    Code
    Format                                   : Matroska
    Format version                           : Version 4 / Version 2
    File size                                : 1.24 GiB
    Duration                                 : 46mn 24s
    Overall bit rate                         : 3 828 Kbps
    Movie name                               : 心がポキッとね 第4回 720p HDTV x264 AAC-DoA
    Encoded date                             : UTC 2015-04-30 03:00:31
    Writing application                      : mkvmerge v7.8.0 ('River Man') 64bit built on Mar 27 2015 16:31:37
    Writing library                          : libebml v1.3.1 + libmatroska v1.4.2
    DURATION                                 : 00:46:24.896000000
    NUMBER_OF_FRAMES                         : 130542
    NUMBER_OF_BYTES                          : 65662626
    _STATISTICS_WRITING_APP                  : mkvmerge v7.8.0 ('River Man') 64bit built on Mar 27 2015 16:31:37
    _STATISTICS_WRITING_DATE_UTC             : 2015-04-30 03:00:31
    _STATISTICS_TAGS                         : BPS DURATION NUMBER_OF_FRAMES NUMBER_OF_BYTES

    Video
    ID                                       : 1
    Format                                   : AVC
    Format/Info                              : Advanced Video Codec
    Format profile                           : High@L4.1
    Format settings, CABAC                   : Yes
    Format settings, ReFrames                : 9 frames
    Codec ID                                 : V_MPEG4/ISO/AVC
    Duration                                 : 46mn 24s
    Width                                    : 1 280 pixels
    Height                                   : 720 pixels
    Display aspect ratio                     : 16:9
    Frame rate mode                          : Constant
    Frame rate                               : 29.970 fps
    Color space                              : YUV
    Chroma subsampling                       : 4:2:0
    Bit depth                                : 8 bits
    Scan type                                : Progressive
    Title                                    : Encode by TTG-DoA
    Writing library                          : x264 core 146 r2538 121396c
    Encoding settings                        : cabac=1 / ref=9 / deblock=1:-2:-2 / analyse=0x3:0x133 / me=umh / subme=10 / psy=1 / psy_rd=1.00:0.15 / mixed_ref=1 / me_range=48 / chroma_me=1 / trellis=2 / 8x8dct=1 / cqm=0 / deadzone=21,11 / fast_pskip=0 / chroma_qp_offset=-3 / threads=12 / lookahead_threads=2 / sliced_threads=0 / nr=0 / decimate=1 / interlaced=0 / bluray_compat=0 / constrained_intra=0 / bframes=8 / b_pyramid=2 / b_adapt=2 / b_bias=0 / direct=3 / weightb=1 / open_gop=0 / weightp=2 / keyint=300 / keyint_min=29 / scenecut=40 / intra_refresh=0 / rc_lookahead=60 / rc=crf / mbtree=1 / crf=17.1 / qcomp=0.60 / qpmin=0 / qpmax=69 / qpstep=4 / ip_ratio=1.40 / aq=1:1.00
    Language                                 : Japanese
    Default                                  : Yes
    Forced                                   : No
    _STATISTICS_WRITING_APP                  : mkvmerge v7.8.0 ('River Man') 64bit built on Mar 27 2015 16:31:37
    _STATISTICS_WRITING_DATE_UTC             : 2015-04-30 03:00:31
    _STATISTICS_TAGS                         : BPS DURATION NUMBER_OF_FRAMES NUMBER_OF_BYTES
    DURATION                                 : 00:46:24.915000000
    NUMBER_OF_FRAMES                         : 83464
    NUMBER_OF_BYTES                          : 1265958802

    Audio
    ID                                       : 2
    Format                                   : AAC
    Format/Info                              : Advanced Audio Codec
    Format profile                           : LC
    Codec ID                                 : A_AAC
    Duration                                 : 46mn 24s
    Channel(s)                               : 2 channels
    Channel positions                        : Front: L R
    Sampling rate                            : 48.0 KHz
    Compression mode                         : Lossy
    Language                                 : Japanese
    Default                                  : Yes
    Forced                                   : No

    Menu
    00:00:00.000                             : ja:Chapter 01
    00:16:46.972                             : ja:Chapter 02
    00:22:47.966                             : ja:Chapter 03
    00:32:09.928                             : ja:Chapter 04
    00:38:44.922                             : ja:Chapter 05





    0 0

    Original Post: Super Daddy (2015) Complete X264 Small WITH


    Details
    Title: 슈퍼대디 열 / Syupeodaedi Yeol (Syupudaedi Yul)
    Genre: Family
    Episodes: 16
    Broadcast network: tvN
    Broadcast period: 2015-Mar-13 to 2015-May-02
    Air time: Friday & Saturday 20:30
    Original Soundtrack: Super Daddy Yul OST
    Synopsis
    Doctor Cha Mi Rae (Lee Yu-Ri), who has a young daughter, is diagnosed with a rare cancer. Informed by her doctor that she has about one year to live, she seeks out her first love Kim Yul (Lee Dong-Gun) hoping to transform him into the best father possible for her daughter.

    Cast
    Lee Dong Gun as Kim Yul
    Lee Yoo Ri as Cha Mi Rae
    Seo Ye Ji
    Seo Joon Young
    Lee Re (이레)
    Choi Min
    Jang Kwang
    Oh Joo Eun
    Han Young (한영)




    Code
    Video
    ID                                       : 1
    Format                                   : AVC
    Format/Info                              : Advanced Video Codec
    Format profile                           : Main@L4.0
    Format settings, CABAC                   : Yes
    Format settings, ReFrames                : 4 frames
    Codec ID                                 : V_MPEG4/ISO/AVC
    Duration                                 : 1h 1mn
    Nominal bit rate                         : 450 Kbps
    Width                                    : 800 pixels
    Height                                   : 450 pixels
    Display aspect ratio                     : 16:9
    Frame rate mode                          : Variable
    Frame rate                               : 29.970 fps
    Color space                              : YUV
    Chroma subsampling                       : 4:2:0
    Bit depth                                : 8 bits
    Scan type                                : Progressive
    Bits/(Pixel*Frame)                       : 0.042
    Writing library                          : x264 core 130 r2273 b3065e6
    Encoding settings                        : cabac=1 / ref=1 / deblock=1:0:0 / analyse=0x1:0x111 / me=hex / subme=2 / psy=1 / psy_rd=1.00:0.00 / mixed_ref=0 / me_range=16 / chroma_me=1 / trellis=0 / 8x8dct=0 / cqm=0 / deadzone=21,11 / fast_pskip=1 / chroma_qp_offset=0 / threads=1 / lookahead_threads=1 / sliced_threads=0 / nr=0 / decimate=1 / interlaced=0 / bluray_compat=0 / constrained_intra=0 / bframes=3 / b_pyramid=2 / b_adapt=1 / b_bias=0 / direct=1 / weightb=1 / open_gop=0 / weightp=1 / keyint=300 / keyint_min=30 / scenecut=40 / intra_refresh=0 / rc_lookahead=10 / rc=abr / mbtree=1 / bitrate=450 / ratetol=1.0 / qcomp=0.60 / qpmin=0 / qpmax=69 / qpstep=4 / vbv_maxrate=20000 / vbv_bufsize=25000 / nal_hrd=none / ip_ratio=1.40 / aq=1:1.00
    Language                                 : English
    Default                                  : Yes
    Forced                                   : No
    Color primaries                          : BT.601-6 525, BT.1358 525, BT.1700 NTSC, SMPTE 170M
    Transfer characteristics                 : BT.709-5, BT.1361
    Matrix coefficients                      : BT.601-6 525, BT.1358 525, BT.1700 NTSC, SMPTE 170M

    Audio
    ID                                       : 2
    Format                                   : MPEG Audio
    Format version                           : Version 1
    Format profile                           : Layer 3
    Mode                                     : Joint stereo
    Mode extension                           : MS Stereo
    Codec ID                                 : A_MPEG/L3
    Codec ID/Hint                            : MP3
    Duration                                 : 1h 1mn
    Bit rate mode                            : Variable
    Channel(s)                               : 2 channels
    Sampling rate                            : 48.0 KHz
    Compression mode                         : Lossy
    Default                                  : Yes
    Forced                                   : No



    0 0

    Original Post: The.Catch.1983.720p.WEB-DL.x264


    The Catch (1983)
    Romaji: Gyoei no mure
    Japanese: 魚影の群れ
    Director: Shinji Sômai
    Release Date: October 29, 1983
    Genre: Drama
    Country: Japan
    Language: Japanese
    Subtitles: English
    IMDb link: http://www.imdb.com/title/tt0085632/

    Cast:
    Ken Ogata - Fusajiro Kohama
    Masako Natsume - Tokiko Kohama
    Kôichi Satô - Shunichi Ida
    Yukiyo Toake - Aya
    Saburô Ishikura - Kishimoto
    Eiichi Kudô - Bar owner
    Leonard Kuma - Kumagai
    Enraku Sanyutei - Eisuke
    Tappei Shimokawa - Asami
    Shigeru Yazaki - Shinichi

    Plot:
    A solitary fisherman raising his daughter on his own is taken aback when she tells him of her plans to marry a local youth who works in a cafe. The boy even offers to become the heir to his fishing operation, but the stubborn old man is unreceptive...

    Media Info:
    Spoiler:show

    General
    Complete name               : The.Catch.1983.720p.WEB-DL.x264.mkv
    Format                      : Matroska
    Format version              : Version 4 / Version 2
    File size                   : 3.13 GiB
    Duration                    : 2h 20mn
    Overall bit rate            : 3 194 Kbps
    Encoded date                : UTC 2015-04-29 23:42:04
    Writing application         : mkvmerge v7.8.0 ('River Man') 64bit built on Mar 27 2015 16:31:37
    Writing library             : libebml v1.3.1 + libmatroska v1.4.2
    DURATION                    : 02:20:05.006000000
    NUMBER_OF_FRAMES            : 713
    NUMBER_OF_BYTES             : 17393
    _STATISTICS_WRITING_APP     : mkvmerge v7.8.0 ('River Man') 64bit built on Mar 27 2015 16:31:37
    _STATISTICS_WRITING_DATE_UT : 2015-04-29 23:42:04
    _STATISTICS_TAGS            : BPS DURATION NUMBER_OF_FRAMES NUMBER_OF_BYTES

    Video
    ID                          : 1
    Format                      : AVC
    Format/Info                 : Advanced Video Codec
    Format profile              : High@L3.1
    Format settings, CABAC      : Yes
    Format settings, ReFrames   : 5 frames
    Codec ID                    : V_MPEG4/ISO/AVC
    Width                       : 1 280 pixels
    Height                      : 720 pixels
    Display aspect ratio        : 16:9
    Frame rate mode             : Variable
    Color space                 : YUV
    Chroma subsampling          : 4:2:0
    Bit depth                   : 8 bits
    Scan type                   : Progressive
    Default                     : Yes
    Forced                      : No

    Audio
    ID                          : 2
    Format                      : AAC
    Format/Info                 : Advanced Audio Codec
    Format profile              : HE-AAC / LC
    Codec ID                    : A_AAC
    Duration                    : 2h 20mn
    Channel(s)                  : 2 channels
    Channel positions           : Front: L R
    Sampling rate               : 48.0 KHz / 24.0 KHz
    Compression mode            : Lossy
    Delay relative to video     : -67ms
    Title                       : Japanese 2.0
    Language                    : Japanese
    Default                     : Yes
    Forced                      : No

    Text
    ID                          : 3
    Format                      : UTF-8
    Codec ID                    : S_TEXT/UTF8
    Codec ID/Info               : UTF-8 Plain Text
    Title                       : English
    Language                    : English
    Default                     : Yes
    Forced                      : No

    Huge thanks to lordretsudo for giving me a srt of the subs he used on his custom DVD! I delayed the subs by 6.929 seconds to sync with this version.













    0 0

    Original Post: Proof of the Man 1977 720p BluRay x264-WiKi


           NAME.................: Proof of the Man
           GENRE................: Crime | Drama
           RATiNG...............: 6.9/10 (170 votes)
           iMDB.................: http://www.imdb.com/title/tt0076460/
           RELEASE DATE.........: 2014-12-02
           ENCODE BY............: YiFan @ WiKi
           RUNTiME..............: 2h:12m:44s
           FiLE SiZE............: 9.40 GB
           ViDEO CODEC..........: x264 @ 9500 Kbps
           AUDiO CODEC..........: Japanese DD 2.0 @ 448 Kbps
           FRAMERATE............: 23.976 fps                    
           RESOLUTiON...........: 1280x668
           SOURCE...............: 1080p JPN Blu-ray AVC LPCM2.0        







    0 0

    Original Post: [Album] Chakra - Han (한; One) [2000.03.02]



    Chakra

    http://en.wikipedia.org/wiki/Chakra_%28band%29

    Han (한; One)

    Han is the debut album by Chakra. The songs "Han" and "Sarangjinghu" were used as lead tracks.
    Language: Korean
    Format: MP3
    Bitrate: 320kbps

    Tracklist:
    01: The New voxby
    02: Han (한)
    03: Sarangjinghu (사랑징후)
    04: Why (feat. Danny Ohm)
    05: Makea Love
    06: Fantasy (feat. X-Large)
    07: Champion
    08: Gyeolsim (결심)
    09: Hey U (feat. Danny Ohm)
    10: Ibyeoljinghu (이별징후)
    11: Giwon (Duet By Ryeo Won And Danny Ohm) (기원)



    0 0

    Original Post: Drama Special E113: Vengeful Spirit HDTV 720p WITH


    Details
    Title: Vengeful Spirit / 원혼 / won hon
    Also known as: Revengeful Spirit / Ghost
    Genre: Mystery, Thriller
    Format: Drama Special
    Episodes: 1
    Broadcast network: KBS2
    Broadcast date: 2014-11-16
    Air time: Sunday 24:00

    Subtitles:
    English subtitle: NONE

    Synopsis
    A Japanese occupation era thriller about a haunted house. In 1930, Inyong executed and tortured Koreans involved in the resistance movement. He gets placed in a home far from the city with his family for their own safety. The children are excited about being in a big new house but scary and unpredictable things keep happening there with the presence of evil.--KBS World

    Cast
    Ahn Jae Mo as Seo In Yong
    Park Eun Hye as Min Yoo Sun
    Seo Jung Eun as Seo Jung Eun
    Seo Kyung Eun as Seo Kyung Eun
    Bi Ryu as Bi Ryu
    Moon Do Chul as Moon Do Chul
    Ko Ji as Ko Ji

    Production Credits
    Director: Lee Jae Hoon
    Screenwriter: Park Jae Bum


    Code
    Video
    ID                          : 1
    Format                      : AVC
    Format/Info                 : Advanced Video Codec
    Format profile              : High@L3.1
    Format settings, CABAC      : Yes
    Format settings, ReFrames   : 4 frames
    Codec ID                    : avc1
    Codec ID/Info               : Advanced Video Coding
    Duration                    : 1h 8mn
    Source duration             : 1h 8mn
    Bit rate                    : 2 200 Kbps
    Maximum bit rate            : 12.8 Mbps
    Width                       : 1 280 pixels
    Height                      : 720 pixels
    Display aspect ratio        : 16:9
    Frame rate mode             : Constant
    Frame rate                  : 29.970 fps
    Color space                 : YUV
    Chroma subsampling          : 4:2:0
    Bit depth                   : 8 bits
    Scan type                   : Progressive
    Bits/(Pixel*Frame)          : 0.080
    Stream size                 : 1.06 GiB (94%)
    Source stream size          : 1.06 GiB (94%)
    Writing library             : x264 core 128 r2216 198a7ea
    Encoding settings           : cabac=1 / ref=3 / deblock=1:0:0 / analyse=0x3:0x113 / me=hex / subme=7 / psy=1 / psy_rd=1.00:0.00 / mixed_ref=1 / me_range=16 / chroma_me=1 / trellis=1 / 8x8dct=1 / cqm=0 / deadzone=21,11 / fast_pskip=1 / chroma_qp_offset=-2 / threads=12 / lookahead_threads=2 / sliced_threads=0 / nr=0 / decimate=1 / interlaced=0 / bluray_compat=0 / constrained_intra=0 / bframes=3 / b_pyramid=2 / b_adapt=1 / b_bias=0 / direct=1 / weightb=1 / open_gop=0 / weightp=2 / keyint=250 / keyint_min=25 / scenecut=40 / intra_refresh=0 / rc_lookahead=40 / rc=abr / mbtree=1 / bitrate=2200 / ratetol=1.0 / qcomp=0.60 / qpmin=0 / qpmax=69 / qpstep=4 / vbv_maxrate=50000 / vbv_bufsize=50000 / nal_hrd=none / ip_ratio=1.40 / aq=1:1.00
    Encoded date                : UTC 2014-11-16 15:53:14
    Tagged date                 : UTC 2014-11-16 16:23:46

    Audio
    ID                          : 2
    Format                      : AAC
    Format/Info                 : Advanced Audio Codec
    Format profile              : LC
    Codec ID                    : 40
    Duration                    : 1h 8mn
    Bit rate mode               : Variable
    Bit rate                    : 128 Kbps
    Maximum bit rate            : 134 Kbps
    Channel(s)                  : 2 channels
    Channel positions           : Front: L R
    Sampling rate               : 48.0 KHz
    Compression mode            : Lossy
    Stream size                 : 62.8 MiB (5%)
    Encoded date                : UTC 2014-11-16 16:23:45
    Tagged date                 : UTC 2014-11-16 16:23:46



older | 1 | .... | 1330 | 1331 | (Page 1332) | 1333 | 1334 | .... | 1405 | newer