Are you the publisher? Claim or contact us about this channel


Embed this content in your HTML

Search

Report adult content:

click to rate:

Account: (login)

More Channels


Showcase


Channel Catalog


Channel Description:

Asia Torrents RSS Feed

older | 1 | .... | 1334 | 1335 | (Page 1336) | 1337 | 1338 | .... | 1405 | newer

    0 0

    Original Post: [Single] KARA – サマー☆ジック/Sunshine Miracle/SUNNY DAYS [2015.05.05] (Japanese Release)



    KARA – サマー☆ジック/Sunshine Miracle/SUNNY DAYS

    Korean Superstars Kara's new Japanese release

    Release Date: 2015.05.05
    Genre: Japanese
    Bit rate: MP3-320K
    Thanks to hulkpop

    Track List:

    01. サマー☆ジック
    02. Sunshine Miracle
    03. SUNNY DAYS
    04. サマー☆ジック(Instrumental)
    05. Sunshine Miracle(Instrumental)
    06. SUNNY DAYS(Instrumental)


    0 0

    Original Post: She EP03 720p HDTV x264 AAC-DoA



    http://wiki.d-addicts.com/She
    http://asianwiki.com/She_%28Japanese_Drama%29
    http://thetvdb.com/?tab=series&id=294070&lid=7


    Title: She
    Format: Renzoku
    Genre: Suspense, school
    Episodes: 5
    Broadcast network: Fuji TV
    Broadcast period: 2015-Apr-18 to 2015-May-16
    Air time: Saturday 23:40
    Subtitles: English - miitla
    RAW credit to DoA


    Cast

      Matsuoka Mayu as Nishizawa Ryoko
       Nakajo Ayami as Ogiwara Azusa
       Taketomi Seika as Yamamoto Saya
      Morikawa Aoi as Okumura Chisato
       Shimizu Kurumi (清水くるみ) as Eto Miyuri
       Narita Ryo (成田凌) as Muraoka Haruto
       Shirasu Jin (白洲迅) as Hirose Yuki


    Synopsis

    Nishizawa Ryoko is a cool-headed, brilliant-minded high school student who aspires to become journalist. On the very first day of the school year, Ryoko's best friend Ogiwara Azusa goes missing all of a sudden and no one can account her whereabouts. Azusa's mother and police immediately starts investigating the case and interviewing students at school. In order to uncover the hidden truth and real reason behind the disappearance of her best friends, Ryoko undertakes her own investigation into the matter. As she digs further and further into her investigation and talking to Azusa's circle of friends, their deep-hidden feelings are revealed and friendships get tested to the brink... -- Fuji TV


    Mediainfo
    Spoiler:show

    Code
    Format                                   : Matroska
    Format version                           : Version 4 / Version 2
    File size                                : 588 MiB
    Duration                                 : 19mn 29s
    Overall bit rate                         : 4 213 Kbps
    Movie name                               : She #03 720p HDTV x264 AAC-DoA
    Encoded date                             : UTC 2015-05-03 08:43:55
    Writing application                      : mkvmerge v7.8.0 ('River Man') 64bit built on Mar 27 2015 16:31:37
    Writing library                          : libebml v1.3.1 + libmatroska v1.4.2
    DURATION                                 : 00:19:29.834000000
    NUMBER_OF_FRAMES                         : 54836
    NUMBER_OF_BYTES                          : 27582362
    _STATISTICS_WRITING_APP                  : mkvmerge v7.8.0 ('River Man') 64bit built on Mar 27 2015 16:31:37
    _STATISTICS_WRITING_DATE_UTC             : 2015-05-03 08:43:55
    _STATISTICS_TAGS                         : BPS DURATION NUMBER_OF_FRAMES NUMBER_OF_BYTES

    Video
    ID                                       : 1
    Format                                   : AVC
    Format/Info                              : Advanced Video Codec
    Format profile                           : High@L4.1
    Format settings, CABAC                   : Yes
    Format settings, ReFrames                : 9 frames
    Codec ID                                 : V_MPEG4/ISO/AVC
    Duration                                 : 19mn 30s
    Width                                    : 1 280 pixels
    Height                                   : 720 pixels
    Display aspect ratio                     : 16:9
    Frame rate mode                          : Constant
    Frame rate                               : 29.970 fps
    Color space                              : YUV
    Chroma subsampling                       : 4:2:0
    Bit depth                                : 8 bits
    Scan type                                : Progressive
    Title                                    : Encode by DoA
    Writing library                          : x264 core 130 r2273 b3065e6
    Encoding settings                        : cabac=1 / ref=9 / deblock=1:-2:-2 / analyse=0x3:0x133 / me=umh / subme=10 / psy=1 / psy_rd=1.00:0.15 / mixed_ref=1 / me_range=48 / chroma_me=1 / trellis=2 / 8x8dct=1 / cqm=0 / deadzone=21,11 / fast_pskip=0 / chroma_qp_offset=-3 / threads=12 / lookahead_threads=2 / sliced_threads=0 / nr=0 / decimate=1 / interlaced=0 / bluray_compat=0 / constrained_intra=0 / bframes=8 / b_pyramid=2 / b_adapt=2 / b_bias=0 / direct=3 / weightb=1 / open_gop=0 / weightp=2 / keyint=300 / keyint_min=29 / scenecut=40 / intra_refresh=0 / rc_lookahead=60 / rc=crf / mbtree=1 / crf=17.5 / qcomp=0.60 / qpmin=0 / qpmax=69 / qpstep=4 / ip_ratio=1.40 / aq=1:1.00
    Language                                 : Japanese
    Default                                  : Yes
    Forced                                   : No
    DURATION                                 : 00:19:29.802000000
    NUMBER_OF_FRAMES                         : 35059
    NUMBER_OF_BYTES                          : 588198725
    _STATISTICS_WRITING_APP                  : mkvmerge v7.8.0 ('River Man') 64bit built on Mar 27 2015 16:31:37
    _STATISTICS_WRITING_DATE_UTC             : 2015-05-03 08:43:55
    _STATISTICS_TAGS                         : BPS DURATION NUMBER_OF_FRAMES NUMBER_OF_BYTES

    Audio
    ID                                       : 2
    Format                                   : AAC
    Format/Info                              : Advanced Audio Codec
    Format profile                           : LC
    Codec ID                                 : A_AAC
    Duration                                 : 19mn 29s
    Channel(s)                               : 2 channels
    Channel positions                        : Front: L R
    Sampling rate                            : 48.0 KHz
    Compression mode                         : Lossy
    Delay relative to video                  : 162ms
    Language                                 : Japanese
    Default                                  : Yes
    Forced                                   : No

    Menu
    00:00:00.000                             : ja:She #03 Part 1
    00:04:09.649                             : ja:オープニング
    00:04:17.957                             : ja:She #03 Part 2
    00:07:27.980                             : ja:She #03 Part 3
    00:08:39.919                             : ja:She #03 Part 4
    00:13:10.890                             : ja:提供
    00:13:20.866                             : ja:She #03 Part 5
    00:19:21.827                             : ja:エンディング





    0 0

    Original Post: Kabukimono Keiji EP01 720p HDTV x264 AAC-DoA



    https://jdramas.wordpress.com/2015/04/25/kabukimono-keiji/


    Title: Kabukimono Keiji
    Genre: jidaigeki
    Number of Episodes: 11
    Broadcaster NHK
    Air date: 04/09/2015 - 06/18/2015
    Air time: Thursday, 20:00
    Subtitles: None - [url=][/url]
    RAW credit to DoA


    Cast

       Fuji Tatsuya as Maeda Keiji
       Nakamura Aoi as Maeda Shinkurou
       Nishiuchi Mariya as Maeda Sano
       Kudo Asuka as Yasuda Katsunoshin
       Enami Kyoko as Maeda Mitsu
       Aoyama Noriko as Maeda Hana
       Dan Mitsu as Shizuku
       Yoo Min as Yukiyo
       Tabata Tomoko as Take
       Maeda Beverly as Izumi-kyoku
       Kakuda Nobuaki as Kitagawa Jiuemon
       Ibu Masato as Tentoku Osho
       Hino Shohei as Matayoshi


    Synopsis

    1608 (Keichou 13) was the year Tokugawa Ieyasu won the Battle of Sekigahara. Under Ieyasu’s reign the Uesugis had their vast 1,200,000 koku holdings in Aizu drastically curtailed to 300,000 koku in Yonezawa, Dewa Province. Many vassals give up on the future and leave the Uesugis. In the midst of this, Maeda Keiji continues to remain in Yonezawa and chooses to live with people trying to cope with difficult times. Over 60, he lives in a shabby, secluded hut and contemplates the “right time”. On the other hand, his son, Shinkuro, objects to him being fond of drinking and absorbed in cultural pursuits such as poetry, painting and calligraphy, and nothing like the brave general he is famed to be with the rumours of the Tokugawa plotting the demise of the Uesugis. However, Keiji “performs” when it comes to the crunch. Although he has considered retirement, he is willing to sacrifice himself in order to protect the Uesugis. Shinkuro is gradually fascinated by his magnanimity and his way of life. Keiji is in no hurry to hand over the reins of the family to Shinkuro. Furthermore, Keiji’s daughter, Sano, comes from the Maedas of Kaga to bring her father back and both Shinkuro and Sano are shocked to learn of the existence of a sibling for the first time. In the midst of this, Kitagawa Jiemon a wandering samurai who once fought with Keiji, challenges him to a duel.


    Mediainfo
    Spoiler:show

    Code
    Format                                   : Matroska
    Format version                           : Version 4 / Version 2
    File size                                : 1 001 MiB
    Duration                                 : 42mn 59s
    Overall bit rate                         : 3 256 Kbps
    Encoded date                             : UTC 2015-04-30 11:16:31
    Writing application                      : mkvmerge v7.0.0 ('Where We Going') 32bit built on Jun  9 2014 15:08:34
    Writing library                          : libebml v1.3.0 + libmatroska v1.4.1
    DURATION                                 : 00:42:59.669000000
    NUMBER_OF_FRAMES                         : 120922
    NUMBER_OF_BYTES                          : 45345750
    _STATISTICS_WRITING_APP                  : mkvmerge v7.0.0 ('Where We Going') 32bit built on Jun  9 2014 15:08:34
    _STATISTICS_WRITING_DATE_UTC             : 2015-04-30 11:16:31
    _STATISTICS_TAGS                         : BPS DURATION NUMBER_OF_FRAMES NUMBER_OF_BYTES

    Video
    ID                                       : 1
    Format                                   : AVC
    Format/Info                              : Advanced Video Codec
    Format profile                           : High@L4.1
    Format settings, CABAC                   : Yes
    Format settings, ReFrames                : 9 frames
    Codec ID                                 : V_MPEG4/ISO/AVC
    Duration                                 : 42mn 59s
    Width                                    : 1 280 pixels
    Height                                   : 720 pixels
    Display aspect ratio                     : 16:9
    Frame rate mode                          : Constant
    Frame rate                               : 29.970 fps
    Color space                              : YUV
    Chroma subsampling                       : 4:2:0
    Bit depth                                : 8 bits
    Scan type                                : Progressive
    Writing library                          : x264 core 146 r2538 121396c
    Encoding settings                        : cabac=1 / ref=9 / deblock=1:-3:-3 / analyse=0x3:0x133 / me=umh / subme=10 / psy=1 / psy_rd=1.00:0.00 / mixed_ref=1 / me_range=48 / chroma_me=1 / trellis=2 / 8x8dct=1 / cqm=0 / deadzone=21,11 / fast_pskip=0 / chroma_qp_offset=-2 / threads=12 / lookahead_threads=2 / sliced_threads=0 / nr=0 / decimate=1 / interlaced=0 / bluray_compat=0 / constrained_intra=0 / bframes=8 / b_pyramid=2 / b_adapt=2 / b_bias=0 / direct=3 / weightb=1 / open_gop=0 / weightp=2 / keyint=300 / keyint_min=29 / scenecut=40 / intra_refresh=0 / rc_lookahead=60 / rc=crf / mbtree=1 / crf=18.0 / qcomp=0.60 / qpmin=0 / qpmax=69 / qpstep=4 / ip_ratio=1.40 / aq=1:1.00
    Language                                 : English
    Default                                  : Yes
    Forced                                   : No
    DURATION                                 : 00:42:59.877000000
    NUMBER_OF_FRAMES                         : 77319
    NUMBER_OF_BYTES                          : 1003671623
    _STATISTICS_WRITING_APP                  : mkvmerge v7.0.0 ('Where We Going') 32bit built on Jun  9 2014 15:08:34
    _STATISTICS_WRITING_DATE_UTC             : 2015-04-30 11:16:31
    _STATISTICS_TAGS                         : BPS DURATION NUMBER_OF_FRAMES NUMBER_OF_BYTES

    Audio
    ID                                       : 2
    Format                                   : AAC
    Format/Info                              : Advanced Audio Codec
    Format profile                           : LC
    Codec ID                                 : A_AAC
    Duration                                 : 42mn 59s
    Channel(s)                               : 2 channels
    Channel positions                        : Front: L R
    Sampling rate                            : 48.0 KHz
    Compression mode                         : Lossy
    Delay relative to video                  : 19ms
    Default                                  : Yes
    Forced                                   : No





    0 0

    Original Post: God of Gamblers 1989 720p BluRay x264 DTS-WiKi





    Detail:
    Title: God of Gamblers
    Genre: Action, Comedy, Drama
    Release Date: 14 December 1989 (Hong Kong)
    Runtime: 126 min
    Director: Wong Jing
    Rating: 7.5/10 from 2,879 users
    Country: Hong Kong
    Language: Mandarin
    Subtitles:No Subtitles

    Synopsis:
    Do San (the God of gamblers) is a legendary gambler helped by his supernatural abilities. He undertakes to help a friend pay a debt by beating his friend‘s advisory at the card table. Despite being assigned a bodyguard Do San has a freak accident which leaves him with partial memory loss and at a mental stage of a child. The small time hustler Knife, his side-kick and his girl friend, being responsible for the accident takes care of the retarded Do San. After some time they discover that he has not lost all of his powers and takes him on a round at the local gambling halls. After being chased by both Knife‘s loan-shark and enemies closer to the home of Do San, a final showdown at the card tables may take place.

    Cast:
    Chow Yun-Fat, Andy Lau,  Joey Wong, Lung Fong








    Code

    Video
    ID                                       : 1
    Format                                   : AVC
    Format/Info                              : Advanced Video Codec
    Format profile                           : High@L4.1
    Format settings, CABAC                   : Yes
    Format settings, ReFrames                : 9 frames
    Muxing mode                              : Header stripping
    Codec ID                                 : V_MPEG4/ISO/AVC
    Duration                                 : 2h 6mn
    Bit rate                                 : 9 438 Kbps
    Width                                    : 1 280 pixels
    Height                                   : 720 pixels
    Display aspect ratio                     : 16:9
    Frame rate                               : 24.000 fps
    Color space                              : YUV
    Chroma subsampling                       : 4:2:0
    Bit depth                                : 8 bits
    Scan type                                : Progressive
    Bits/(Pixel*Frame)                       : 0.427
    Stream size                              : 8.13 GiB (81%)
    Writing library                          : x264 core 129 r2245 bc13772
    Encoding settings                        : cabac=1 / ref=9 / deblock=1:-3:-3 / analyse=0x3:0x133 / me=umh / subme=11 / psy=1 / psy_rd=1.10:0.10 / mixed_ref=1 / me_range=32 / chroma_me=1 / trellis=2 / 8x8dct=1 / cqm=0 / deadzone=21,11 / fast_pskip=0 / chroma_qp_offset=-3 / threads=12 / lookahead_threads=2 / sliced_threads=0 / nr=0 / decimate=1 / interlaced=0 / bluray_compat=0 / constrained_intra=0 / bframes=8 / b_pyramid=2 / b_adapt=2 / b_bias=0 / direct=3 / weightb=1 / open_gop=0 / weightp=2 / keyint=250 / keyint_min=24 / scenecut=40 / intra_refresh=0 / rc_lookahead=60 / rc=2pass / mbtree=1 / bitrate=9438 / ratetol=1.0 / qcomp=0.60 / qpmin=0 / qpmax=69 / qpstep=4 / cplxblur=20.0 / qblur=0.5 / ip_ratio=1.40 / aq=1:0.80
    Language                                 : English
    Default                                  : Yes
    Forced                                   : No

    Audio #1
    ID                                       : 2
    Format                                   : DTS
    Format/Info                              : Digital Theater Systems
    Muxing mode                              : Header stripping
    Codec ID                                 : A_DTS
    Duration                                 : 2h 6mn
    Bit rate mode                            : Constant
    Bit rate                                 : 1 510 Kbps
    Channel(s)                               : 6 channels
    Channel positions                        : Front: L C R, Side: L R, LFE
    Sampling rate                            : 48.0 KHz
    Bit depth                                : 16 bits
    Compression mode                         : Lossy
    Stream size                              : 1.33 GiB (13%)
    Title                                    : 粤语
    Language                                 : Chinese
    Default                                  : Yes
    Forced                                   : No

    Audio #2
    ID                                       : 3
    Format                                   : AC-3
    Format/Info                              : Audio Coding 3
    Mode extension                           : CM (complete main)
    Format settings, Endianness              : Big
    Muxing mode                              : Header stripping
    Codec ID                                 : A_AC3
    Duration                                 : 2h 6mn
    Bit rate mode                            : Constant
    Bit rate                                 : 384 Kbps
    Channel(s)                               : 2 channels
    Channel positions                        : Front: L R
    Sampling rate                            : 48.0 KHz
    Bit depth                                : 16 bits
    Compression mode                         : Lossy
    Stream size                              : 347 MiB (3%)
    Title                                    : 国语
    Language                                 : Chinese
    Default                                  : No
    Forced                                   : No



    0 0
  • 05/06/15--04:24: Angry Mom E15 XVID LIMO
  • Original Post: Angry Mom E15 XVID LIMO


    Details
    Title: 앵그리 맘 / Aenggeuri Mam
    Genre: Family, drama, human, school
    Episodes: 16
    Broadcast network: MBC
    Broadcast period: 2015-Mar-18 to 2015-???-??
    Air time: Wednesday & Thursday 22:00
    Original Soundtrack: Angry Mom OST
    Synopsis
    Jo Kang Ja was once a legendary badass in her teenage days—and as a Busan girl, she would have been extra rough-and-tumble. Daughter to a sashimi-restaurant-owner mother who loves to swear and a father with a rap sheet for fighting, Kang Hee inherits her parents’ penchant for cursing, quick temper, and sashimi knife skills.

    As a young mother, she is the kind of person who prefers dramas to news or current events. But when she finds out that her daughter, Oh Ah Ran, is being victimized by bullies at school, she decides to do something about it directly, and what ensues is a positive, upbeat, and poignant” story that seeks to highlight trouble spots in South Korea’s educational system. --Dramabeans

    Cast
    Kim Hee Sun as Jo Kang Ja (Ah Ran's mother)
    Ji Hyun Woo as Park Noh Ah
    Kim Yoo Jung as Oh Ah Ran (Kang Ja's daughter)




    Code
    Video
    ID                                       : 0
    Format                                   : MPEG-4 Visual
    Format profile                           : Advanced Simple@L5
    Format settings, BVOP                    : No
    Format settings, QPel                    : No
    Format settings, GMC                     : No warppoints
    Format settings, Matrix                  : Default (MPEG)
    Codec ID                                 : XVID
    Codec ID/Hint                            : XviD
    Duration                                 : 1h 6mn
    Bit rate                                 : 1 391 Kbps
    Width                                    : 624 pixels
    Height                                   : 352 pixels
    Display aspect ratio                     : 16:9
    Frame rate                               : 29.970 fps
    Color space                              : YUV
    Chroma subsampling                       : 4:2:0
    Bit depth                                : 8 bits
    Scan type                                : Progressive
    Compression mode                         : Lossy
    Bits/(Pixel*Frame)                       : 0.211
    Stream size                              : 660 MiB (87%)
    Writing library                          : XviD 1.2.1 (UTC 2008-12-04)

    Audio
    ID                                       : 1
    Format                                   : MPEG Audio
    Format version                           : Version 1
    Format profile                           : Layer 3
    Mode                                     : Joint stereo
    Mode extension                           : MS Stereo
    Codec ID                                 : 55
    Codec ID/Hint                            : MP3
    Duration                                 : 1h 6mn
    Bit rate mode                            : Constant
    Bit rate                                 : 128 Kbps
    Channel(s)                               : 2 channels
    Sampling rate                            : 48.0 KHz
    Compression mode                         : Lossy
    Stream size                              : 60.8 MiB (8%)
    Alignment                                : Aligned on interleaves
    Writing library                          : LAME3.98.2




    0 0
  • 05/06/15--04:24: Angry Mom E15 450p LIMO
  • Original Post: Angry Mom E15 450p LIMO


    Details
    Title: 앵그리 맘 / Aenggeuri Mam
    Genre: Family, drama, human, school
    Episodes: 16
    Broadcast network: MBC
    Broadcast period: 2015-Mar-18 to 2015-???-??
    Air time: Wednesday & Thursday 22:00
    Original Soundtrack: Angry Mom OST
    Synopsis
    Jo Kang Ja was once a legendary badass in her teenage days—and as a Busan girl, she would have been extra rough-and-tumble. Daughter to a sashimi-restaurant-owner mother who loves to swear and a father with a rap sheet for fighting, Kang Hee inherits her parents’ penchant for cursing, quick temper, and sashimi knife skills.

    As a young mother, she is the kind of person who prefers dramas to news or current events. But when she finds out that her daughter, Oh Ah Ran, is being victimized by bullies at school, she decides to do something about it directly, and what ensues is a positive, upbeat, and poignant” story that seeks to highlight trouble spots in South Korea’s educational system. --Dramabeans

    Cast
    Kim Hee Sun as Jo Kang Ja (Ah Ran's mother)
    Ji Hyun Woo as Park Noh Ah
    Kim Yoo Jung as Oh Ah Ran (Kang Ja's daughter)




    Code
    Video
    ID                                       : 0
    Format                                   : AVC
    Format/Info                              : Advanced Video Codec
    Format profile                           : High@L5.1
    Format settings, CABAC                   : Yes
    Format settings, ReFrames                : 4 frames
    Codec ID                                 : H264
    Bit rate                                 : 1 500 Kbps
    Width                                    : 800 pixels
    Height                                   : 450 pixels
    Display aspect ratio                     : 16:9
    Frame rate mode                          : Variable
    Frame rate                               : 29.970 fps
    Color space                              : YUV
    Chroma subsampling                       : 4:2:0
    Bit depth                                : 8 bits
    Scan type                                : Progressive
    Bits/(Pixel*Frame)                       : 0.139
    Stream size                              : 686 MiB (88%)
    Writing library                          : x264 core 112

    Audio
    ID                                       : 1
    Format                                   : MPEG Audio
    Format version                           : Version 1
    Format profile                           : Layer 3
    Mode                                     : Joint stereo
    Mode extension                           : MS Stereo
    Codec ID                                 : 55
    Codec ID/Hint                            : MP3
    Bit rate mode                            : Constant
    Bit rate                                 : 192 Kbps
    Channel(s)                               : 2 channels
    Sampling rate                            : 48.0 KHz
    Compression mode                         : Lossy
    Stream size                              : 88.3 MiB (11%)
    Alignment                                : Aligned on interleaves
    Interleave, duration                     : 24 ms (0.72 video frame)
    Writing library                          : LAME3.98.2
    Language                                 : Korean



    0 0
  • 05/06/15--04:24: Angry Mom E15 720p LIMO
  • Original Post: Angry Mom E15 720p LIMO


    Details
    Title: 앵그리 맘 / Aenggeuri Mam
    Genre: Family, drama, human, school
    Episodes: 16
    Broadcast network: MBC
    Broadcast period: 2015-Mar-18 to 2015-???-??
    Air time: Wednesday & Thursday 22:00
    Original Soundtrack: Angry Mom OST
    Synopsis
    Jo Kang Ja was once a legendary badass in her teenage days—and as a Busan girl, she would have been extra rough-and-tumble. Daughter to a sashimi-restaurant-owner mother who loves to swear and a father with a rap sheet for fighting, Kang Hee inherits her parents’ penchant for cursing, quick temper, and sashimi knife skills.

    As a young mother, she is the kind of person who prefers dramas to news or current events. But when she finds out that her daughter, Oh Ah Ran, is being victimized by bullies at school, she decides to do something about it directly, and what ensues is a positive, upbeat, and poignant” story that seeks to highlight trouble spots in South Korea’s educational system. --Dramabeans

    Cast
    Kim Hee Sun as Jo Kang Ja (Ah Ran's mother)
    Ji Hyun Woo as Park Noh Ah
    Kim Yoo Jung as Oh Ah Ran (Kang Ja's daughter)




    Code
    Video
    ID                               : 0
    Format                           : AVC
    Format/Info                      : Advanced Video Codec
    Format profile                   : High@L5.1
    Format settings, CABAC           : Yes
    Format settings, ReFrames        : 4 frames
    Codec ID                         : H264
    Duration                         : 1h 4mn
    Bit rate                         : 3 000 Kbps
    Width                            : 1 280 pixels
    Height                           : 720 pixels
    Display aspect ratio             : 16:9
    Frame rate mode                  : Variable
    Frame rate                       : 29.970 fps
    Color space                      : YUV
    Chroma subsampling               : 4:2:0
    Bit depth                        : 8 bits
    Scan type                        : Progressive
    Bits/(Pixel*Frame)               : 0.109
    Stream size                      : 1.35 GiB (94%)
    Writing library                  : x264 core 112
    Encoding settings                : cabac=1 / ref=3 / deblock=1:-1:-1 / analyse=0x3:0x113 / me=hex / subme=6 / psy=1 / psy_rd=1.00:1.00 / mixed_ref=1 / me_range=16 / chroma_me=1 / trellis=1 / 8x8dct=1 / cqm=0 / deadzone=21,11 / fast_pskip=0 / chroma_qp_offset=-4 / threads=12 / sliced_threads=0 / nr=0 / decimate=1 / interlaced=0 / constrained_intra=0 / bframes=3 / b_pyramid=2 / b_adapt=1 / b_bias=1 / direct=3 / weightb=1 / open_gop=0 / weightp=2 / keyint=299 / keyint_min=25 / scenecut=1 / intra_refresh=0 / rc_lookahead=40 / rc=abr / mbtree=1 / bitrate=3000 / ratetol=1.0 / qcomp=0.60 / qpmin=10 / qpmax=51 / qpstep=4 / ip_ratio=1.40 / aq=1:1.00

    Audio
    ID                               : 1
    Format                           : MPEG Audio
    Format version                   : Version 1
    Format profile                   : Layer 3
    Mode                             : Joint stereo
    Mode extension                   : MS Stereo
    Codec ID                         : 55
    Codec ID/Hint                    : MP3
    Duration                         : 1h 4mn
    Bit rate mode                    : Constant
    Bit rate                         : 192 Kbps
    Channel(s)                       : 2 channels
    Sampling rate                    : 48.0 KHz
    Stream size                      : 88.0 MiB (6%)
    Alignment                        : Split accross interleaves
    Interleave, duration             : 33 ms (1.00 video frame)
    Interleave, preload duration     : 500 ms
    Writing library                  : LAME3.98.2



    0 0
  • 05/06/15--04:24: Sensory Couple E11 XVID LIMO
  • Original Post: Sensory Couple E11 XVID LIMO


    Details
    Title: 냄새를 보는 소녀 / A Girl Who Sees Smells
    Genre: Romance
    Episodes:
    Broadcast network: SBS
    Broadcast period: 2015-Apr-01 to 2015-Jun-??
    Air time: Wednesday & Thursday 22:00
    Original Soundtrack: A Girl Who Sees Smells OST
    Synopsis
    Three years ago, a man lost his younger sister in the "Bar Code" murder case, since then he lost his senses. A girl miraculously survived the "Bar code" murder case, since then she has lost her memory. But she has also gained the ability to see smells.

    Cast
    Main Cast
    Park Yoo Chun as Choi Moo Gak
    Shin Se Kyung as Oh Cho Rim
    Nam Goong Min as Kwon Jae Hee
    Yoon Jin Seo as Yeom Mi




    Code
    Video
    ID                                       : 0
    Format                                   : MPEG-4 Visual
    Format profile                           : Advanced Simple@L5
    Format settings, BVOP                    : No
    Format settings, QPel                    : No
    Format settings, GMC                     : No warppoints
    Format settings, Matrix                  : Default (MPEG)
    Codec ID                                 : XVID
    Codec ID/Hint                            : XviD
    Duration                                 : 1h 6mn
    Bit rate                                 : 1 391 Kbps
    Width                                    : 624 pixels
    Height                                   : 352 pixels
    Display aspect ratio                     : 16:9
    Frame rate                               : 29.970 fps
    Color space                              : YUV
    Chroma subsampling                       : 4:2:0
    Bit depth                                : 8 bits
    Scan type                                : Progressive
    Compression mode                         : Lossy
    Bits/(Pixel*Frame)                       : 0.211
    Stream size                              : 660 MiB (87%)
    Writing library                          : XviD 1.2.1 (UTC 2008-12-04)

    Audio
    ID                                       : 1
    Format                                   : MPEG Audio
    Format version                           : Version 1
    Format profile                           : Layer 3
    Mode                                     : Joint stereo
    Mode extension                           : MS Stereo
    Codec ID                                 : 55
    Codec ID/Hint                            : MP3
    Duration                                 : 1h 6mn
    Bit rate mode                            : Constant
    Bit rate                                 : 128 Kbps
    Channel(s)                               : 2 channels
    Sampling rate                            : 48.0 KHz
    Compression mode                         : Lossy
    Stream size                              : 60.8 MiB (8%)
    Alignment                                : Aligned on interleaves
    Writing library                          : LAME3.98.2



    0 0
  • 05/06/15--04:25: Sensory Couple E11 450p LIMO
  • Original Post: Sensory Couple E11 450p LIMO


    Details
    Title: 냄새를 보는 소녀 / A Girl Who Sees Smells
    Genre: Romance
    Episodes:
    Broadcast network: SBS
    Broadcast period: 2015-Apr-01 to 2015-Jun-??
    Air time: Wednesday & Thursday 22:00
    Original Soundtrack: A Girl Who Sees Smells OST
    Synopsis
    Three years ago, a man lost his younger sister in the "Bar Code" murder case, since then he lost his senses. A girl miraculously survived the "Bar code" murder case, since then she has lost her memory. But she has also gained the ability to see smells.

    Cast
    Main Cast
    Park Yoo Chun as Choi Moo Gak
    Shin Se Kyung as Oh Cho Rim
    Nam Goong Min as Kwon Jae Hee
    Yoon Jin Seo as Yeom Mi




    Code
    Video
    ID                                       : 0
    Format                                   : AVC
    Format/Info                              : Advanced Video Codec
    Format profile                           : High@L5.1
    Format settings, CABAC                   : Yes
    Format settings, ReFrames                : 4 frames
    Codec ID                                 : H264
    Bit rate                                 : 1 500 Kbps
    Width                                    : 800 pixels
    Height                                   : 450 pixels
    Display aspect ratio                     : 16:9
    Frame rate mode                          : Variable
    Frame rate                               : 29.970 fps
    Color space                              : YUV
    Chroma subsampling                       : 4:2:0
    Bit depth                                : 8 bits
    Scan type                                : Progressive
    Bits/(Pixel*Frame)                       : 0.139
    Stream size                              : 686 MiB (88%)
    Writing library                          : x264 core 112

    Audio
    ID                                       : 1
    Format                                   : MPEG Audio
    Format version                           : Version 1
    Format profile                           : Layer 3
    Mode                                     : Joint stereo
    Mode extension                           : MS Stereo
    Codec ID                                 : 55
    Codec ID/Hint                            : MP3
    Bit rate mode                            : Constant
    Bit rate                                 : 192 Kbps
    Channel(s)                               : 2 channels
    Sampling rate                            : 48.0 KHz
    Compression mode                         : Lossy
    Stream size                              : 88.3 MiB (11%)
    Alignment                                : Aligned on interleaves
    Interleave, duration                     : 24 ms (0.72 video frame)
    Writing library                          : LAME3.98.2
    Language                                 : Korean



    0 0
  • 05/06/15--04:25: Sensory Couple E11 720p LIMO
  • Original Post: Sensory Couple E11 720p LIMO


    Details
    Title: 냄새를 보는 소녀 / A Girl Who Sees Smells
    Genre: Romance
    Episodes:
    Broadcast network: SBS
    Broadcast period: 2015-Apr-01 to 2015-Jun-??
    Air time: Wednesday & Thursday 22:00
    Original Soundtrack: A Girl Who Sees Smells OST
    Synopsis
    Three years ago, a man lost his younger sister in the "Bar Code" murder case, since then he lost his senses. A girl miraculously survived the "Bar code" murder case, since then she has lost her memory. But she has also gained the ability to see smells.

    Cast
    Main Cast
    Park Yoo Chun as Choi Moo Gak
    Shin Se Kyung as Oh Cho Rim
    Nam Goong Min as Kwon Jae Hee
    Yoon Jin Seo as Yeom Mi




    Code
    Video
    ID                               : 0
    Format                           : AVC
    Format/Info                      : Advanced Video Codec
    Format profile                   : High@L5.1
    Format settings, CABAC           : Yes
    Format settings, ReFrames        : 4 frames
    Codec ID                         : H264
    Duration                         : 1h 4mn
    Bit rate                         : 3 000 Kbps
    Width                            : 1 280 pixels
    Height                           : 720 pixels
    Display aspect ratio             : 16:9
    Frame rate mode                  : Variable
    Frame rate                       : 29.970 fps
    Color space                      : YUV
    Chroma subsampling               : 4:2:0
    Bit depth                        : 8 bits
    Scan type                        : Progressive
    Bits/(Pixel*Frame)               : 0.109
    Stream size                      : 1.35 GiB (94%)
    Writing library                  : x264 core 112
    Encoding settings                : cabac=1 / ref=3 / deblock=1:-1:-1 / analyse=0x3:0x113 / me=hex / subme=6 / psy=1 / psy_rd=1.00:1.00 / mixed_ref=1 / me_range=16 / chroma_me=1 / trellis=1 / 8x8dct=1 / cqm=0 / deadzone=21,11 / fast_pskip=0 / chroma_qp_offset=-4 / threads=12 / sliced_threads=0 / nr=0 / decimate=1 / interlaced=0 / constrained_intra=0 / bframes=3 / b_pyramid=2 / b_adapt=1 / b_bias=1 / direct=3 / weightb=1 / open_gop=0 / weightp=2 / keyint=299 / keyint_min=25 / scenecut=1 / intra_refresh=0 / rc_lookahead=40 / rc=abr / mbtree=1 / bitrate=3000 / ratetol=1.0 / qcomp=0.60 / qpmin=10 / qpmax=51 / qpstep=4 / ip_ratio=1.40 / aq=1:1.00

    Audio
    ID                               : 1
    Format                           : MPEG Audio
    Format version                   : Version 1
    Format profile                   : Layer 3
    Mode                             : Joint stereo
    Mode extension                   : MS Stereo
    Codec ID                         : 55
    Codec ID/Hint                    : MP3
    Duration                         : 1h 4mn
    Bit rate mode                    : Constant
    Bit rate                         : 192 Kbps
    Channel(s)                       : 2 channels
    Sampling rate                    : 48.0 KHz
    Stream size                      : 88.0 MiB (6%)
    Alignment                        : Split accross interleaves
    Interleave, duration             : 33 ms (1.00 video frame)
    Interleave, preload duration     : 500 ms
    Writing library                  : LAME3.98.2



    0 0
  • 05/06/15--04:25: Unkind Women E21 XVID LIMO
  • Original Post: Unkind Women E21 XVID LIMO


    Details
    Title: 착하지 않은 여자들 / Chakhaji Anheun Yeojadeul
    Also known as: Unkind Women
    Genre: Family, drama, romance
    Episodes: 24
    Broadcast network: KBS2
    Broadcast period: 2015-Feb-25 to 2015-???-??
    Air time: Wednesday & Thursday 22:00
    Original Soundtrack: Unkind Ladies OST
    Synopsis
    This drama features the women of three generations and people around them.

    Ma Ri grows up as a good teacher of this generation where there is no true mentor. Hyun Sook, who has been a troublemaker, realizes the love and support of her family. Kang Soon Ok regards herself as unlucky, but later on realizes how happy she has been.

    How can you hold up when your life gets tough? You will figure it out by holding up day by day, just like these women in the drama.

    Source: KBS World

    Cast
    Main Cast
    Kim Hye Ja as Kang Soon Ok
    Chae Si Ra as Kim Hyun Sook
    Do Ji Won as Kim Hyun Jung
    Lee Ha Na as Jung Ma Ri




    Code
    Video
    ID                                       : 0
    Format                                   : MPEG-4 Visual
    Format profile                           : Advanced Simple@L5
    Format settings, BVOP                    : No
    Format settings, QPel                    : No
    Format settings, GMC                     : No warppoints
    Format settings, Matrix                  : Default (MPEG)
    Codec ID                                 : XVID
    Codec ID/Hint                            : XviD
    Duration                                 : 1h 6mn
    Bit rate                                 : 1 391 Kbps
    Width                                    : 624 pixels
    Height                                   : 352 pixels
    Display aspect ratio                     : 16:9
    Frame rate                               : 29.970 fps
    Color space                              : YUV
    Chroma subsampling                       : 4:2:0
    Bit depth                                : 8 bits
    Scan type                                : Progressive
    Compression mode                         : Lossy
    Bits/(Pixel*Frame)                       : 0.211
    Stream size                              : 660 MiB (87%)
    Writing library                          : XviD 1.2.1 (UTC 2008-12-04)

    Audio
    ID                                       : 1
    Format                                   : MPEG Audio
    Format version                           : Version 1
    Format profile                           : Layer 3
    Mode                                     : Joint stereo
    Mode extension                           : MS Stereo
    Codec ID                                 : 55
    Codec ID/Hint                            : MP3
    Duration                                 : 1h 6mn
    Bit rate mode                            : Constant
    Bit rate                                 : 128 Kbps
    Channel(s)                               : 2 channels
    Sampling rate                            : 48.0 KHz
    Compression mode                         : Lossy
    Stream size                              : 60.8 MiB (8%)
    Alignment                                : Aligned on interleaves
    Writing library                          : LAME3.98.2



    0 0
  • 05/06/15--04:25: Unkind Women E21 450p LIMO
  • Original Post: Unkind Women E21 450p LIMO


    Details
    Title: 착하지 않은 여자들 / Chakhaji Anheun Yeojadeul
    Also known as: Unkind Women
    Genre: Family, drama, romance
    Episodes: 24
    Broadcast network: KBS2
    Broadcast period: 2015-Feb-25 to 2015-???-??
    Air time: Wednesday & Thursday 22:00
    Original Soundtrack: Unkind Ladies OST
    Synopsis
    This drama features the women of three generations and people around them.

    Ma Ri grows up as a good teacher of this generation where there is no true mentor. Hyun Sook, who has been a troublemaker, realizes the love and support of her family. Kang Soon Ok regards herself as unlucky, but later on realizes how happy she has been.

    How can you hold up when your life gets tough? You will figure it out by holding up day by day, just like these women in the drama.

    Source: KBS World

    Cast
    Main Cast
    Kim Hye Ja as Kang Soon Ok
    Chae Si Ra as Kim Hyun Sook
    Do Ji Won as Kim Hyun Jung
    Lee Ha Na as Jung Ma Ri




    Code
    Video
    ID                                       : 0
    Format                                   : AVC
    Format/Info                              : Advanced Video Codec
    Format profile                           : High@L5.1
    Format settings, CABAC                   : Yes
    Format settings, ReFrames                : 4 frames
    Codec ID                                 : H264
    Bit rate                                 : 1 500 Kbps
    Width                                    : 800 pixels
    Height                                   : 450 pixels
    Display aspect ratio                     : 16:9
    Frame rate mode                          : Variable
    Frame rate                               : 29.970 fps
    Color space                              : YUV
    Chroma subsampling                       : 4:2:0
    Bit depth                                : 8 bits
    Scan type                                : Progressive
    Bits/(Pixel*Frame)                       : 0.139
    Stream size                              : 686 MiB (88%)
    Writing library                          : x264 core 112

    Audio
    ID                                       : 1
    Format                                   : MPEG Audio
    Format version                           : Version 1
    Format profile                           : Layer 3
    Mode                                     : Joint stereo
    Mode extension                           : MS Stereo
    Codec ID                                 : 55
    Codec ID/Hint                            : MP3
    Bit rate mode                            : Constant
    Bit rate                                 : 192 Kbps
    Channel(s)                               : 2 channels
    Sampling rate                            : 48.0 KHz
    Compression mode                         : Lossy
    Stream size                              : 88.3 MiB (11%)
    Alignment                                : Aligned on interleaves
    Interleave, duration                     : 24 ms (0.72 video frame)
    Writing library                          : LAME3.98.2
    Language                                 : Korean



    0 0
  • 05/06/15--04:25: Unkind Women E21 720p LIMO
  • Original Post: Unkind Women E21 720p LIMO


    Details
    Title: 착하지 않은 여자들 / Chakhaji Anheun Yeojadeul
    Also known as: Unkind Women
    Genre: Family, drama, romance
    Episodes: 24
    Broadcast network: KBS2
    Broadcast period: 2015-Feb-25 to 2015-???-??
    Air time: Wednesday & Thursday 22:00
    Original Soundtrack: Unkind Ladies OST
    Synopsis
    This drama features the women of three generations and people around them.

    Ma Ri grows up as a good teacher of this generation where there is no true mentor. Hyun Sook, who has been a troublemaker, realizes the love and support of her family. Kang Soon Ok regards herself as unlucky, but later on realizes how happy she has been.

    How can you hold up when your life gets tough? You will figure it out by holding up day by day, just like these women in the drama.

    Source: KBS World

    Cast
    Main Cast
    Kim Hye Ja as Kang Soon Ok
    Chae Si Ra as Kim Hyun Sook
    Do Ji Won as Kim Hyun Jung
    Lee Ha Na as Jung Ma Ri




    Code
    Video
    ID                               : 0
    Format                           : AVC
    Format/Info                      : Advanced Video Codec
    Format profile                   : High@L5.1
    Format settings, CABAC           : Yes
    Format settings, ReFrames        : 4 frames
    Codec ID                         : H264
    Duration                         : 1h 4mn
    Bit rate                         : 3 000 Kbps
    Width                            : 1 280 pixels
    Height                           : 720 pixels
    Display aspect ratio             : 16:9
    Frame rate mode                  : Variable
    Frame rate                       : 29.970 fps
    Color space                      : YUV
    Chroma subsampling               : 4:2:0
    Bit depth                        : 8 bits
    Scan type                        : Progressive
    Bits/(Pixel*Frame)               : 0.109
    Stream size                      : 1.35 GiB (94%)
    Writing library                  : x264 core 112
    Encoding settings                : cabac=1 / ref=3 / deblock=1:-1:-1 / analyse=0x3:0x113 / me=hex / subme=6 / psy=1 / psy_rd=1.00:1.00 / mixed_ref=1 / me_range=16 / chroma_me=1 / trellis=1 / 8x8dct=1 / cqm=0 / deadzone=21,11 / fast_pskip=0 / chroma_qp_offset=-4 / threads=12 / sliced_threads=0 / nr=0 / decimate=1 / interlaced=0 / constrained_intra=0 / bframes=3 / b_pyramid=2 / b_adapt=1 / b_bias=1 / direct=3 / weightb=1 / open_gop=0 / weightp=2 / keyint=299 / keyint_min=25 / scenecut=1 / intra_refresh=0 / rc_lookahead=40 / rc=abr / mbtree=1 / bitrate=3000 / ratetol=1.0 / qcomp=0.60 / qpmin=10 / qpmax=51 / qpstep=4 / ip_ratio=1.40 / aq=1:1.00

    Audio
    ID                               : 1
    Format                           : MPEG Audio
    Format version                   : Version 1
    Format profile                   : Layer 3
    Mode                             : Joint stereo
    Mode extension                   : MS Stereo
    Codec ID                         : 55
    Codec ID/Hint                    : MP3
    Duration                         : 1h 4mn
    Bit rate mode                    : Constant
    Bit rate                         : 192 Kbps
    Channel(s)                       : 2 channels
    Sampling rate                    : 48.0 KHz
    Stream size                      : 88.0 MiB (6%)
    Alignment                        : Split accross interleaves
    Interleave, duration             : 33 ms (1.00 video frame)
    Interleave, preload duration     : 500 ms
    Writing library                  : LAME3.98.2



    0 0
  • 05/06/15--07:04: Twenty 2015.H264.AAC-Unknown
  • Original Post: Twenty 2015.H264.AAC-Unknown





    Detail:
    Title: Twenty
    Genre: Youth / Friends / Comedy / Drama / Coming of Age
    Release Date: March 25, 2015
    Runtime: 115 min
    Director: Lee Byeong-Hun
    Rating: 6.5/10 from 20 users
    Country: South Korea
    Language: Korean
    Subtitles:No Subtitles

    Synopsis:
    Chi-Ho (Kim Woo-Bin), Dong-Woo (Lee Joon-Ho) and Gyung-Jae (Kang Ha-Neul) have been best friends since high school. Now, they are all 20-year-olds.

    Chi-Ho has a girlfriend, So-Min (Jung So-Min), but he only thinks about wooing other women. An accident leads Chi-Ho to spend time with aspiring actress Eun-Hye (Jung Joo-Yeon).

    Dong-Woo hopes to work as a comic artist, but his family's poor financial situation has Dong-Woo juggling several part-time jobs. So-Hee (Lee Yoo-Bi) is the younger sister of Gyung-Jae and she just adores Dong-Woo.

    Gyung-Jae is a freshman in college. He hopes to land a job with a large corporation. Gyung-Jae then meets an upperclassman, Jin-Joo (Min Hyo-Rin), who takes an interest in him and he falls in love with.

    Cast:
    Kim Woo-Bin Lee Joon-Ho Kang Ha-Neul   Jung So-Min Jung Joo-Yeon Lee Yoo-Bi Min Hyo-Rin








    Code

    Video
    ID                                       : 0
    Format                                   : AVC
    Format/Info                              : Advanced Video Codec
    Format profile                           : Baseline@L3.1
    Format settings, CABAC                   : No
    Format settings, ReFrames                : 1 frame
    Codec ID                                 : H264
    Duration                                 : 1h 55mn
    Bit rate                                 : 4 019 Kbps
    Width                                    : 1 280 pixels
    Height                                   : 720 pixels
    Display aspect ratio                     : 16:9
    Frame rate mode                          : Variable
    Frame rate                               : 24.000 fps
    Color space                              : YUV
    Chroma subsampling                       : 4:2:0
    Bit depth                                : 8 bits
    Scan type                                : Progressive
    Bits/(Pixel*Frame)                       : 0.182
    Stream size                              : 3.24 GiB (96%)

    Audio
    ID                                       : 1
    Format                                   : AAC
    Format/Info                              : Advanced Audio Codec
    Format profile                           : LC
    Codec ID                                 : FF
    Duration                                 : 1h 55mn
    Bit rate                                 : 320 Kbps
    Channel(s)                               : 2 channels
    Channel positions                        : Front: L R
    Sampling rate                            : 44.1 KHz
    Compression mode                         : Lossy
    Stream size                              : 115 MiB (3%)
    Alignment                                : Aligned on interleaves
    Interleave, duration                     : 23 ms (0.56 video frame)



    0 0

    Original Post: Linda Linda Linda 2005 720p WEB-DL Nobuhiro Yamashita



    Linda Linda Linda

    AKA:リンダ リンダ リンダ
    IMDb:http://www.imdb.com/title/tt0468795
    AsianWiki:http://asianwiki.com/Linda_Linda_Linda
    Review:http://www.midnighteye.com/reviews/linda-linda-linda/

    Director: Nobuhiro Yamashita
    Writers: Kosuke Mukai, Wakako Miyashita, Nobuhiro Yamashita
    Genre: Drama / Music
    Release Date: 23 July 2005
    Runtime: 114 min
    Country: Japan
    Language: Japanese
    Subtitles: English
    Source: iTunes (Many thanks to mirevich @ PTP for this WEB-DL)

    Synopsis: Linda Linda Linda tells the story of a group of girls who decide to put together a band for their school festival. Two days before they are to play the festival, the guitarist and singer quits the band. The remaining members must figure out what to do or risk cancelling. So they decide to enlist a Korean foreign exchange student to head the band, despite her not being fluent in Japanese.

    Uploader's Comments: I usually only upload my own encodes here but felt like making an exception in this case. The WEB-DL is definitely superior to the DVD in all areas except for one, it has plenty of compression artifacts. You can probably tell from the screens.

    Well, anyways, the film is endlessly re-watchable for me so I'm really grateful to mirevich for sharing this. Thanks also goes to the member that invited me (you know who you are smile1.gif).

    MediaInfo
    Spoiler:show
    General
    Unique ID                                : 255003678652334264772954924010177454029 (0xBFD7EC0C6C0148AA89FE51C0BAAE5FCD)
    Complete name                            : Linda.Linda.Linda.2005.iTunes.720p.mkv
    Format                                   : Matroska
    Format version                           : Version 4 / Version 2
    File size                                : 3.33 GiB
    Duration                                 : 1h 54mn
    Overall bit rate                         : 4 154 Kbps
    Movie name                               : Linda Linda Linda (2005)
    Encoded date                             : UTC 2015-03-16 12:23:35
    Writing application                      : mkvmerge v7.6.0 ('Garden of Dreams') 64bit built on Feb  8 2015 13:04:34
    Writing library                          : libebml v1.3.1 + libmatroska v1.4.2
    DURATION                                 : 01:54:20.194000000
    NUMBER_OF_FRAMES                         : 1065
    NUMBER_OF_BYTES                          : 24245
    _STATISTICS_WRITING_APP                  : mkvmerge v7.6.0 ('Garden of Dreams') 64bit built on Feb  8 2015 13:04:34
    _STATISTICS_WRITING_DATE_UTC             : 2015-03-16 12:23:35
    _STATISTICS_TAGS                         : BPS DURATION NUMBER_OF_FRAMES NUMBER_OF_BYTES

    Video
    ID                                       : 2
    Format                                   : AVC
    Format/Info                              : Advanced Video Codec
    Format profile                           : High@L3.1
    Format settings, CABAC                   : No
    Format settings, ReFrames                : 2 frames
    Codec ID                                 : V_MPEG4/ISO/AVC
    Duration                                 : 1h 54mn
    Width                                    : 1 280 pixels
    Height                                   : 674 pixels
    Display aspect ratio                     : 1.899
    Frame rate mode                          : Constant
    Frame rate                               : 23.976 fps
    Color space                              : YUV
    Chroma subsampling                       : 4:2:0
    Bit depth                                : 8 bits
    Scan type                                : Progressive
    Language                                 : Japanese
    Default                                  : Yes
    Forced                                   : No
    Color primaries                          : BT.709
    Transfer characteristics                 : BT.709
    Matrix coefficients                      : BT.709

    Audio
    ID                                       : 1
    Format                                   : AAC
    Format/Info                              : Advanced Audio Codec
    Format profile                           : LC
    Codec ID                                 : A_AAC
    Duration                                 : 1h 54mn
    Channel(s)                               : 2 channels
    Channel positions                        : Front: L R
    Sampling rate                            : 48.0 KHz
    Compression mode                         : Lossy
    Language                                 : Japanese
    Default                                  : Yes
    Forced                                   : No

    Text
    ID                                       : 3
    Format                                   : UTF-8
    Codec ID                                 : S_TEXT/UTF8
    Codec ID/Info                            : UTF-8 Plain Text
    Language                                 : English
    Default                                  : Yes
    Forced                                   : No

    Menu
    00:00:00.000                             : ja:ꫣ莼韣莋돣芰
    00:10:03.000                             : ja:뷣莳闣芓臣莐돣莉蓣芓ꫣ膄
    00:20:49.000                             : ja:该讕
    00:31:55.000                             : ja:蟥貖귥袝
    00:41:15.000                             : ja:뇥꒜껦ꂡ
    00:52:04.000                             : ja:뗣莩돣莘
    01:04:13.000                             : ja:胤몺跣芊껣芹蛣莼
    01:17:47.000                             : ja:뗣膮뿣膟
    01:32:42.000                             : ja:鴠剏䍋⁆䕓呉噁
    01:43:32.000                             : ja:釣莼ꧣ莳黣芦ꃣ膧駣肂
    01:51:27.000                             : ja:꣣莳解莭볣莫




    0 0

    Original Post: TVB Limelight Years E06 HDTV 720p-TVBDO



    If you like my upload, please press the "Thank You" buttoncool2.gif

    English Title: Limelight Years
    Chinese Title:華麗轉身
    Network: TVB
    Release Date: April 27, 2015
    Episodes: 20
    Country: Hong Kong
    Audio: Cantonese (AC-3 6 Channels)
    Subtitles: English (.srt embedded)
    Genre: Modern
    Cast: Liza Wang, Damion Lau, Alex Fong, Linda Chung, Eliza Sum, Jonathan Wong, Jacqueline Wong, Michelle Yim (Guest Star)

    Synopsis: There is darkness behind the limelight. After recovering from a long-term sickness, retiring singer Wah Fong Ying (Liza Wang) has come to realize that she has failed to live a fulfilling life. With two failed marriages and strained relationships with her three children, Fong Ying is much lonelier than she admits. Summoning up all her courage, Fong Ying flies to Taiwan to mend her broken relationship with her oldest daughter. During this time, she comes across Hong Kong photographer Law Ben (Damian Lau), who is in Taiwan to fulfill his late wife’s (Michelle Yim) wish of returning to her ancestral home. Sparks fly when the extraordinary meets the ordinary. Both Fong Ying and Ben find their strength as they quietly support each other.

    Encouraged by Ben, Fong Ying decides to perform one last time in a goodbye concert for her close friends and family, but her youngest daughter Tong Yan (Eliza Sam) reacts coldly to the invitation. Nonetheless, Fong Ying remains committed to her last concert and hires a new assistant Szeto Dik Dik (Linda Chung) and a new creative director, Song Sheung Hang (Alex Fong). Dik Dik and Sheung Han initially struggle to get along due to past misunderstandings, but they eventually cultivate a deep relationship. Just as Fong Ying starts to find the light again, she is once again attacked by darkness. While Sheung Hang was preparing a special issue to promote Fong Ying’s concert, he discovers an ugly secret that Fong Ying has been keeping for many years. Dik Dik finds out that Fong Ying and her uncle were involved in the past. Ben is also starting to have hallucinations…








    If you like my upload, please press the "Thank You" buttoncool2.gif


    Code

    General
    Unique ID                                : 177553330345741052617503847978931518039 (0x8593870E6CBC2933A7D2FAC91286FA57)
    Complete name                            : Limelight.Years.E06.HDTV.720p-TVBDO.mkv
    Format                                   : Matroska
    Format version                           : Version 4 / Version 2
    File size                                : 1.67 GiB
    Duration                                 : 44mn 27s
    Overall bit rate                         : 5 387 Kbps
    Movie name                               : @TVBDO
    Encoded date                             : UTC 2015-05-06 19:10:30
    Writing application                      : mkvmerge v7.8.0 ('River Man') 64bit built on Mar 27 2015 16:31:37
    Writing library                          : Lavf56.31.100
    DURATION                                 : 00:41:32.875000000
    NUMBER_OF_FRAMES                         : 676
    NUMBER_OF_BYTES                          : 28802
    _STATISTICS_WRITING_APP                  : mkvmerge v7.8.0 ('River Man') 64bit built on Mar 27 2015 16:31:37
    _STATISTICS_WRITING_DATE_UTC             : 2015-05-06 19:10:30
    _STATISTICS_TAGS                         : BPS DURATION NUMBER_OF_FRAMES NUMBER_OF_BYTES

    Video
    ID                                       : 2
    Format                                   : AVC
    Format/Info                              : Advanced Video Codec
    Format profile                           : High@L3.1
    Format settings, CABAC                   : Yes
    Format settings, ReFrames                : 4 frames
    Codec ID                                 : V_MPEG4/ISO/AVC
    Duration                                 : 44mn 27s
    Bit rate                                 : 5 000 Kbps
    Width                                    : 1 280 pixels
    Height                                   : 720 pixels
    Display aspect ratio                     : 16:9
    Frame rate mode                          : Variable
    Frame rate                               : 25.000 fps
    Color space                              : YUV
    Chroma subsampling                       : 4:2:0
    Bit depth                                : 8 bits
    Scan type                                : Progressive
    Bits/(Pixel*Frame)                       : 0.217
    Stream size                              : 1.52 GiB (91%)
    Writing library                          : x264 core 146 r2538 121396c
    Encoding settings                        : cabac=1 / ref=3 / deblock=1:0:0 / analyse=0x3:0x113 / me=hex / subme=6 / psy=1 / psy_rd=1.00:0.00 / mixed_ref=1 / me_range=16 / chroma_me=1 / trellis=1 / 8x8dct=1 / cqm=0 / deadzone=21,11 / fast_pskip=1 / chroma_qp_offset=-2 / threads=8 / lookahead_threads=1 / sliced_threads=0 / nr=0 / decimate=1 / interlaced=0 / bluray_compat=0 / constrained_intra=0 / bframes=3 / b_pyramid=2 / b_adapt=1 / b_bias=0 / direct=1 / weightb=1 / open_gop=0 / weightp=2 / keyint=250 / keyint_min=25 / scenecut=40 / intra_refresh=0 / rc_lookahead=40 / rc=2pass / mbtree=1 / bitrate=5000 / ratetol=1.0 / qcomp=0.60 / qpmin=10 / qpmax=51 / qpstep=4 / cplxblur=20.0 / qblur=0.5 / ip_ratio=1.41 / aq=1:1.00
    Default                                  : Yes
    Forced                                   : No
    DURATION                                 : 00:44:27.728000000
    NUMBER_OF_FRAMES                         : 83366
    NUMBER_OF_BYTES                          : 128050176
    _STATISTICS_WRITING_APP                  : mkvmerge v7.8.0 ('River Man') 64bit built on Mar 27 2015 16:31:37
    _STATISTICS_WRITING_DATE_UTC             : 2015-05-06 19:10:30
    _STATISTICS_TAGS                         : BPS DURATION NUMBER_OF_FRAMES NUMBER_OF_BYTES

    Audio
    ID                                       : 3
    Format                                   : AC-3
    Format/Info                              : Audio Coding 3
    Mode extension                           : CM (complete main)
    Format settings, Endianness              : Big
    Codec ID                                 : A_AC3
    Duration                                 : 44mn 27s
    Bit rate mode                            : Constant
    Bit rate                                 : 384 Kbps
    Channel(s)                               : 6 channels
    Channel positions                        : Front: L C R, Side: L R, LFE
    Sampling rate                            : 48.0 KHz
    Bit depth                                : 16 bits
    Compression mode                         : Lossy
    Stream size                              : 122 MiB (7%)
    Default                                  : Yes
    Forced                                   : No

    Text
    ID                                       : 1
    Format                                   : UTF-8
    Codec ID                                 : S_TEXT/UTF8
    Codec ID/Info                            : UTF-8 Plain Text
    Writing library                          : Lavc56.35.101 libx264
    Language                                 : English
    Default                                  : Yes
    Forced                                   : No
    DURATION                                 : 00:44:27.760000000
    NUMBER_OF_FRAMES                         : 66694
    NUMBER_OF_BYTES                          : 1667610213
    _STATISTICS_WRITING_APP                  : mkvmerge v7.8.0 ('River Man') 64bit built on Mar 27 2015 16:31:37
    _STATISTICS_WRITING_DATE_UTC             : 2015-05-06 19:10:30
    _STATISTICS_TAGS                         : BPS DURATION NUMBER_OF_FRAMES NUMBER_OF_BYTES



    0 0

    Original Post: Kabukimono Keiji EP02 720p HDTV x264 AAC-DoA



    https://jdramas.wordpress.com/2015/04/25/kabukimono-keiji/


    Title: Kabukimono Keiji
    Genre: jidaigeki
    Number of Episodes: 11
    Broadcaster NHK
    Air date: 04/09/2015 - 06/18/2015
    Air time: Thursday, 20:00
    Subtitles: None - [url=][/url]
    RAW credit to DoA


    Cast
    Spoiler:show

       Fuji Tatsuya as Maeda Keiji
       Nakamura Aoi as Maeda Shinkurou
       Nishiuchi Mariya as Maeda Sano
       Kudo Asuka as Yasuda Katsunoshin
       Enami Kyoko as Maeda Mitsu
       Aoyama Noriko as Maeda Hana
       Dan Mitsu as Shizuku
       Yoo Min as Yukiyo
       Tabata Tomoko as Take
       Maeda Beverly as Izumi-kyoku
       Kakuda Nobuaki as Kitagawa Jiuemon
       Ibu Masato as Tentoku Osho
       Hino Shohei as Matayoshi


    Synopsis
    Spoiler:show

    1608 (Keichou 13) was the year Tokugawa Ieyasu won the Battle of Sekigahara. Under Ieyasu’s reign the Uesugis had their vast 1,200,000 koku holdings in Aizu drastically curtailed to 300,000 koku in Yonezawa, Dewa Province. Many vassals give up on the future and leave the Uesugis. In the midst of this, Maeda Keiji continues to remain in Yonezawa and chooses to live with people trying to cope with difficult times. Over 60, he lives in a shabby, secluded hut and contemplates the “right time”. On the other hand, his son, Shinkuro, objects to him being fond of drinking and absorbed in cultural pursuits such as poetry, painting and calligraphy, and nothing like the brave general he is famed to be with the rumours of the Tokugawa plotting the demise of the Uesugis. However, Keiji “performs” when it comes to the crunch. Although he has considered retirement, he is willing to sacrifice himself in order to protect the Uesugis. Shinkuro is gradually fascinated by his magnanimity and his way of life. Keiji is in no hurry to hand over the reins of the family to Shinkuro. Furthermore, Keiji’s daughter, Sano, comes from the Maedas of Kaga to bring her father back and both Shinkuro and Sano are shocked to learn of the existence of a sibling for the first time. In the midst of this, Kitagawa Jiemon a wandering samurai who once fought with Keiji, challenges him to a duel.


    Mediainfo
    Spoiler:show

    Code
    Format                                   : Matroska
    Format version                           : Version 4 / Version 2
    File size                                : 894 MiB
    Duration                                 : 42mn 59s
    Overall bit rate                         : 2 907 Kbps
    Encoded date                             : UTC 2015-04-30 11:17:37
    Writing application                      : mkvmerge v7.0.0 ('Where We Going') 32bit built on Jun  9 2014 15:08:34
    Writing library                          : libebml v1.3.0 + libmatroska v1.4.1
    DURATION                                 : 00:42:59.797000000
    NUMBER_OF_FRAMES                         : 120928
    NUMBER_OF_BYTES                          : 45349081
    _STATISTICS_WRITING_APP                  : mkvmerge v7.0.0 ('Where We Going') 32bit built on Jun  9 2014 15:08:34
    _STATISTICS_WRITING_DATE_UTC             : 2015-04-30 11:17:37
    _STATISTICS_TAGS                         : BPS DURATION NUMBER_OF_FRAMES NUMBER_OF_BYTES

    Video
    ID                                       : 1
    Format                                   : AVC
    Format/Info                              : Advanced Video Codec
    Format profile                           : High@L4.1
    Format settings, CABAC                   : Yes
    Format settings, ReFrames                : 9 frames
    Codec ID                                 : V_MPEG4/ISO/AVC
    Duration                                 : 42mn 59s
    Width                                    : 1 280 pixels
    Height                                   : 720 pixels
    Display aspect ratio                     : 16:9
    Frame rate mode                          : Constant
    Frame rate                               : 29.970 fps
    Color space                              : YUV
    Chroma subsampling                       : 4:2:0
    Bit depth                                : 8 bits
    Scan type                                : Progressive
    Writing library                          : x264 core 146 r2538 121396c
    Encoding settings                        : cabac=1 / ref=9 / deblock=1:-3:-3 / analyse=0x3:0x133 / me=umh / subme=10 / psy=1 / psy_rd=1.00:0.00 / mixed_ref=1 / me_range=48 / chroma_me=1 / trellis=2 / 8x8dct=1 / cqm=0 / deadzone=21,11 / fast_pskip=0 / chroma_qp_offset=-2 / threads=12 / lookahead_threads=2 / sliced_threads=0 / nr=0 / decimate=1 / interlaced=0 / bluray_compat=0 / constrained_intra=0 / bframes=8 / b_pyramid=2 / b_adapt=2 / b_bias=0 / direct=3 / weightb=1 / open_gop=0 / weightp=2 / keyint=300 / keyint_min=29 / scenecut=40 / intra_refresh=0 / rc_lookahead=60 / rc=crf / mbtree=1 / crf=18.0 / qcomp=0.60 / qpmin=0 / qpmax=69 / qpstep=4 / ip_ratio=1.40 / aq=1:1.00
    Language                                 : English
    Default                                  : Yes
    Forced                                   : No
    DURATION                                 : 00:42:59.877000000
    NUMBER_OF_FRAMES                         : 77319
    NUMBER_OF_BYTES                          : 891164891
    _STATISTICS_WRITING_APP                  : mkvmerge v7.0.0 ('Where We Going') 32bit built on Jun  9 2014 15:08:34
    _STATISTICS_WRITING_DATE_UTC             : 2015-04-30 11:17:37
    _STATISTICS_TAGS                         : BPS DURATION NUMBER_OF_FRAMES NUMBER_OF_BYTES

    Audio
    ID                                       : 2
    Format                                   : AAC
    Format/Info                              : Advanced Audio Codec
    Format profile                           : LC
    Codec ID                                 : A_AAC
    Duration                                 : 42mn 59s
    Channel(s)                               : 2 channels
    Channel positions                        : Front: L R
    Sampling rate                            : 48.0 KHz
    Compression mode                         : Lossy
    Delay relative to video                  : 9ms
    Default                                  : Yes
    Forced                                   : No





    0 0

    Original Post: Twilight.Saya.in.Sasara.2014.JAP.DVDRip.x264.AC3-zdzdz [No Eng Sub]

    Twilight: Saya in Sasara


    Japanese Ttle: TWILIGHT ささらさや
    Romaji: Twilight Sasara Saya


    Year: 2014
    Country: Japan
    Director: Yoshihiro Fukagawa
    Writer: Tomoko Kano (novel), Yukiko Yamamuro, Yoshihiro Fukagawa
    Genre: Drama / Fantasy
    Runtime: 114 min
    Language: Japanese
    Subtitles:
    Japanese
    IMDB:http://www.imdb.com/title/tt3684490/
    Release Date: November 8, 2014


    Cast:



    Synopsis/ Plot:
    Saya (Yui Aragaki) is a young widow mother. Her husband Yutaro (Yo Oizumi) died in an accident. Yutaro abandoned his wealthy family to marry Saya. To protect her baby, she goes to the town of Sasara where her aunt lived. Her aunt passed her house down to Saya. Saya and her baby settles down there, but she has difficulties dealing with her situation. At this time, her dead husband Yutaro borrows other people's bodies to help Saya, but Yutaro's family tries to take her baby away.
     


    File/Video Technical Info

    VIDEO
    File Type: mkv
    Video Codec: x264
    Video Format: 720x388
    Aspect Ratio: 1.85:1
    Video Bitrate: 1367 kbps
    Video Frame Rate: 23.976 fps
    File Source: DVD

    AUDIO
    Audio Codec: AC3 (Ch. 6 - 48000Hz)
    Audio Bitrate: 448 kbps


    Details
    Spoiler:show

    Code
    Format                      : Matroska
    Format version              : Version 4 / Version 2
    File size                   : 1.46 GiB
    Duration                    : 1h 55mn
    Overall bit rate            : 1 819 Kbps
    Encoded date                : UTC 2015-05-06 22:56:51
    Writing application         : mkvmerge v7.8.0 ('River Man') 64bit built on Mar 27 2015 16:31:37
    Writing library             : libebml v1.3.1 + libmatroska v1.4.2
    DURATION                    : 01:54:39.163000000
    NUMBER_OF_FRAMES            : 1333
    NUMBER_OF_BYTES             : 1962397
    _STATISTICS_WRITING_APP     : mkvmerge v7.8.0 ('River Man') 64bit built on Mar 27 2015 16:31:37
    _STATISTICS_WRITING_DATE_UT : 2015-05-06 22:56:51
    _STATISTICS_TAGS            : BPS DURATION NUMBER_OF_FRAMES NUMBER_OF_BYTES

    Video
    ID                          : 1
    Format                      : AVC
    Format/Info                 : Advanced Video Codec
    Format profile              : High@L5.1
    Format settings, CABAC      : Yes
    Format settings, ReFrames   : 11 frames
    Codec ID                    : V_MPEG4/ISO/AVC
    Duration                    : 1h 55mn
    Bit rate                    : 1 367 Kbps
    Width                       : 720 pixels
    Height                      : 388 pixels
    Display aspect ratio        : 1.85:1
    Frame rate mode             : Constant
    Frame rate                  : 23.976 fps
    Color space                 : YUV
    Chroma subsampling          : 4:2:0
    Bit depth                   : 8 bits
    Scan type                   : Progressive
    Bits/(Pixel*Frame)          : 0.204
    Stream size                 : 1.07 GiB (73%)
    Title                       : Encoded by zdzdz
    Writing library             : x264 core 146 r2538 121396c
    Encoding settings           : cabac=1 / ref=11 / deblock=1:-1:-1 / analyse=0x3:0x133 / me=umh / subme=11 / psy=1 / psy_rd=1.00:0.00 / mixed_ref=1 / me_range=32 / chroma_me=1 / trellis=2 / 8x8dct=1 / cqm=0 / deadzone=21,11 / fast_pskip=1 / chroma_qp_offset=-2 / threads=3 / lookahead_threads=1 / sliced_threads=0 / nr=0 / decimate=1 / interlaced=0 / bluray_compat=0 / constrained_intra=0 / bframes=10 / b_pyramid=2 / b_adapt=2 / b_bias=5 / direct=3 / weightb=1 / open_gop=0 / weightp=2 / keyint=240 / keyint_min=23 / scenecut=40 / intra_refresh=0 / rc_lookahead=40 / rc=2pass / mbtree=1 / bitrate=1367 / ratetol=1.0 / qcomp=0.60 / qpmin=0 / qpmax=69 / qpstep=4 / cplxblur=20.0 / qblur=0.5 / vbv_maxrate=240000 / vbv_bufsize=240000 / nal_hrd=none / filler=0 / ip_ratio=1.40 / aq=2:0.80
    Language                    : Japanese
    Default                     : Yes
    Forced                      : No
    DURATION                    : 01:55:17.911000000
    NUMBER_OF_FRAMES            : 165864
    NUMBER_OF_BYTES             : 1181889849
    _STATISTICS_WRITING_APP     : mkvmerge v7.8.0 ('River Man') 64bit built on Mar 27 2015 16:31:37
    _STATISTICS_WRITING_DATE_UT : 2015-05-06 22:56:51
    _STATISTICS_TAGS            : BPS DURATION NUMBER_OF_FRAMES NUMBER_OF_BYTES

    Audio
    ID                          : 2
    Format                      : AC-3
    Format/Info                 : Audio Coding 3
    Mode extension              : CM (complete main)
    Format settings, Endianness : Big
    Codec ID                    : A_AC3
    Duration                    : 1h 55mn
    Bit rate mode               : Constant
    Bit rate                    : 448 Kbps
    Channel(s)                  : 6 channels
    Channel positions           : Front: L C R, Side: L R, LFE
    Sampling rate               : 48.0 KHz
    Compression mode            : Lossy
    Stream size                 : 369 MiB (25%)
    Title                       : AC3
    Language                    : Japanese
    Default                     : Yes
    Forced                      : No






    Sceencaps



    REFERENCES

    Official Site: http://wwws.warnerbros.co.jp/twilight-sasara/index.html
    Wiki: [url]http://asianwiki.com/Twilight:_Saya_in_Sasara[/url]

    Movie Trailer:


    0 0

    Original Post: 64 EP01 720p HDTV x264 AAC-DoA



    http://wiki.d-addicts.com/64
    https://jdramas.wordpress.com/2015/04/19/64/
    http://thetvdb.com/?tab=series&id=293166&lid=7


    Title (romaji): 64
    Format: Renzoku
    Genre: Mystery, suspense
    Episodes: 5
    Broadcast network: NHK
    Broadcast period: 2015-Apr-18 to 2015-May-16
    Air time: Saturday 21:00
    Subtitles: None - [url=/][/url]
    RAW credit to DoA


    Cast

       Pierre Taki
       Kimura Yoshino
       Iriyama Anna (入山杏奈)
       Arai Hirofumi
       Nagaoka Takuya (永岡卓也)
       Yamamoto Mizuki
       Nagayama Kento
       Tatsumi Tomoaki (辰巳智秋)
       Umefune Ariei (梅舟惟永)
       Abe Shohei (阿部翔平)
       Kitaro
       Takahashi Kazuya
       Hagiwara Masato
       Mizusawa Shingo (水澤紳吾)
       Nakamura Yuko (中村優子)
       Kokontei Kikunojo (古今亭菊之丞)
       Hira Takehiro
       Ono Ryo
       Yoshida Eisaku
       Nakahara Takeo
       Shibata Kyohei
       Murakami Jun
       Saito Tomoko (斉藤とも子)
       Ando Tamae
       Sato Naoko (佐藤直子)
       Danta Yasunori


    Synopsis

    While the public relations office of D Prefectural Police is having a confrontation with the correspondents' club, over the issue of the anonymity of perpetrators, it is decided that a Tokyo Metropolitan Police Department director will inspect the home of the family of the victim in "64", an important unsolved case with its statute of limitation about to run out one week later. The kidnapping and murder of Shoko-chan which took place in just 7 days in 1989 (Showa 64) was the worst in D Prefectural Police's history. The family of the deceased decline the director's visit to offer condolences. A gag order is imposed on those involved in 64 such as the investigators at the time. An iron curtain between the Criminal Investigations Department and the Police Affairs Department. A mysterious memo. Then a new kidnapping that happens right before the director's inspection, is a exact copycat of 64. -- Jdrama Weblog


    Mediainfo
    Spoiler:show

    Code
    Format                                   : Matroska
    Format version                           : Version 4 / Version 2
    File size                                : 1.31 GiB
    Duration                                 : 57mn 59s
    Overall bit rate                         : 3 234 Kbps
    Encoded date                             : UTC 2015-04-24 13:36:44
    Writing application                      : mkvmerge v7.0.0 ('Where We Going') 32bit built on Jun  9 2014 15:08:34
    Writing library                          : libebml v1.3.0 + libmatroska v1.4.1
    DURATION                                 : 00:57:59.871000000
    NUMBER_OF_FRAMES                         : 163119
    NUMBER_OF_BYTES                          : 61170649
    _STATISTICS_WRITING_APP                  : mkvmerge v7.0.0 ('Where We Going') 32bit built on Jun  9 2014 15:08:34
    _STATISTICS_WRITING_DATE_UTC             : 2015-04-24 13:36:44
    _STATISTICS_TAGS                         : BPS DURATION NUMBER_OF_FRAMES NUMBER_OF_BYTES

    Video
    ID                                       : 1
    Format                                   : AVC
    Format/Info                              : Advanced Video Codec
    Format profile                           : High@L4.1
    Format settings, CABAC                   : Yes
    Format settings, ReFrames                : 9 frames
    Codec ID                                 : V_MPEG4/ISO/AVC
    Duration                                 : 57mn 59s
    Width                                    : 1 280 pixels
    Height                                   : 720 pixels
    Display aspect ratio                     : 16:9
    Frame rate mode                          : Constant
    Frame rate                               : 29.970 fps
    Color space                              : YUV
    Chroma subsampling                       : 4:2:0
    Bit depth                                : 8 bits
    Scan type                                : Progressive
    Writing library                          : x264 core 146 r2538 121396c
    Encoding settings                        : cabac=1 / ref=9 / deblock=1:-3:-3 / analyse=0x3:0x133 / me=umh / subme=10 / psy=1 / psy_rd=1.00:0.00 / mixed_ref=1 / me_range=48 / chroma_me=1 / trellis=2 / 8x8dct=1 / cqm=0 / deadzone=21,11 / fast_pskip=0 / chroma_qp_offset=-2 / threads=12 / lookahead_threads=2 / sliced_threads=0 / nr=0 / decimate=1 / interlaced=0 / bluray_compat=0 / constrained_intra=0 / bframes=8 / b_pyramid=2 / b_adapt=2 / b_bias=0 / direct=3 / weightb=1 / open_gop=0 / weightp=2 / keyint=300 / keyint_min=29 / scenecut=40 / intra_refresh=0 / rc_lookahead=60 / rc=crf / mbtree=1 / crf=18.0 / qcomp=0.60 / qpmin=0 / qpmax=69 / qpstep=4 / ip_ratio=1.40 / aq=1:1.00
    Language                                 : English
    Default                                  : Yes
    Forced                                   : No
    DURATION                                 : 00:57:59.909000000
    NUMBER_OF_FRAMES                         : 104293
    NUMBER_OF_BYTES                          : 1344242661
    _STATISTICS_WRITING_APP                  : mkvmerge v7.0.0 ('Where We Going') 32bit built on Jun  9 2014 15:08:34
    _STATISTICS_WRITING_DATE_UTC             : 2015-04-24 13:36:44
    _STATISTICS_TAGS                         : BPS DURATION NUMBER_OF_FRAMES NUMBER_OF_BYTES

    Audio
    ID                                       : 2
    Format                                   : AAC
    Format/Info                              : Advanced Audio Codec
    Format profile                           : LC
    Codec ID                                 : A_AAC
    Duration                                 : 57mn 59s
    Channel(s)                               : 2 channels
    Channel positions                        : Front: L R
    Sampling rate                            : 48.0 KHz
    Compression mode                         : Lossy
    Delay relative to video                  : 8ms
    Default                                  : Yes
    Forced                                   : No





    0 0

    Original Post: Wild Heroes EP01 720p HDTV x264 AAC-DoA



    http://wiki.d-addicts.com/Wild_Heroes
    http://asianwiki.com/Wild_Heroes
    http://thetvdb.com/?tab=series&id=292904


    Title (English): Wild Heroes
    Format: Renzoku
    Genre: Action
    Episodes: TBD
    Broadcast network: NTV
    Broadcast period: 2015-Apr-19 start
    Air time: Sunday 22:30
    Theme song: Kimi ga Ita kara by Crystal Kay
    Subtitles: None - [url=/][/url]
    RAW credit to DoA


    Cast

       TAKAHIRO as Segawa Kiichi
       Aoyagi Sho
       Iwata Takanori
       Nogae Shuhei (野替愁平)
       Yagi Masayasu (八木将康)
       Sato Taiki (佐藤大樹)
       Kuroki Keiji (黒木啓司)
       Sakurada Hiyori (桜田ひより) as Hikari
       Mizusawa Elena
       Hasegawa Hatsunori
       Asaka Mayumi
       Tobita Hikari (飛田光里)
       Kusamura Reiko
       Sakai Miki
       Nakamura Shizuka
       Ninomiya Ai (二宮愛)
       Kazuki Saya
       Hirata Kaoru
       Tsukamoto Takashi
       Naitou Takashi


    Synopsis

    A former delinquent, Segawa Kiichi (TAKAHIRO), happens to encounter a lonely 10-year-old girl, Hikari (Sakurada Hiyori), who looks like she is going to be killed by a gangster. He saves her by reflex, but does not get an answer when he asks what is going on. Because of that, he is mysteriously attacked time and again. With his own life in sudden danger, he calls on six friends (Aoyagi Sho, Iwata Takanori, Sato Taiki, Nogae Shuhei, Yagi Masayasu, Kuroki Keiji) from his high school days as a delinquent. These enthusiastic, single-minded men band together to protect her to the end.


    Mediainfo
    Spoiler:show

    Code
    Format                                   : Matroska
    Format version                           : Version 4 / Version 2
    File size                                : 1.15 GiB
    Duration                                 : 1h 11mn
    Overall bit rate                         : 2 301 Kbps
    Encoded date                             : UTC 2015-04-24 13:37:29
    Writing application                      : mkvmerge v7.0.0 ('Where We Going') 32bit built on Jun  9 2014 15:08:34
    Writing library                          : libebml v1.3.0 + libmatroska v1.4.1
    DURATION                                 : 01:11:42.165000000
    NUMBER_OF_FRAMES                         : 201664
    NUMBER_OF_BYTES                          : 101436972
    _STATISTICS_WRITING_APP                  : mkvmerge v7.0.0 ('Where We Going') 32bit built on Jun  9 2014 15:08:34
    _STATISTICS_WRITING_DATE_UTC             : 2015-04-24 13:37:29
    _STATISTICS_TAGS                         : BPS DURATION NUMBER_OF_FRAMES NUMBER_OF_BYTES

    Video
    ID                                       : 1
    Format                                   : AVC
    Format/Info                              : Advanced Video Codec
    Format profile                           : High@L4.1
    Format settings, CABAC                   : Yes
    Format settings, ReFrames                : 9 frames
    Codec ID                                 : V_MPEG4/ISO/AVC
    Duration                                 : 1h 11mn
    Width                                    : 1 280 pixels
    Height                                   : 720 pixels
    Display aspect ratio                     : 16:9
    Frame rate mode                          : Constant
    Frame rate                               : 29.970 fps
    Color space                              : YUV
    Chroma subsampling                       : 4:2:0
    Bit depth                                : 8 bits
    Scan type                                : Progressive
    Writing library                          : x264 core 146 r2538 121396c
    Encoding settings                        : cabac=1 / ref=9 / deblock=1:-3:-3 / analyse=0x3:0x133 / me=umh / subme=10 / psy=1 / psy_rd=1.00:0.00 / mixed_ref=1 / me_range=48 / chroma_me=1 / trellis=2 / 8x8dct=1 / cqm=0 / deadzone=21,11 / fast_pskip=0 / chroma_qp_offset=-2 / threads=12 / lookahead_threads=2 / sliced_threads=0 / nr=0 / decimate=1 / interlaced=0 / bluray_compat=0 / constrained_intra=0 / bframes=8 / b_pyramid=2 / b_adapt=2 / b_bias=0 / direct=3 / weightb=1 / open_gop=0 / weightp=2 / keyint=300 / keyint_min=29 / scenecut=40 / intra_refresh=0 / rc_lookahead=60 / rc=crf / mbtree=1 / crf=19.0 / qcomp=0.60 / qpmin=0 / qpmax=69 / qpstep=4 / ip_ratio=1.40 / aq=1:1.00
    Language                                 : English
    Default                                  : Yes
    Forced                                   : No
    DURATION                                 : 01:11:42.498000000
    NUMBER_OF_FRAMES                         : 128946
    NUMBER_OF_BYTES                          : 1134708484
    _STATISTICS_WRITING_APP                  : mkvmerge v7.0.0 ('Where We Going') 32bit built on Jun  9 2014 15:08:34
    _STATISTICS_WRITING_DATE_UTC             : 2015-04-24 13:37:29
    _STATISTICS_TAGS                         : BPS DURATION NUMBER_OF_FRAMES NUMBER_OF_BYTES

    Audio
    ID                                       : 2
    Format                                   : AAC
    Format/Info                              : Advanced Audio Codec
    Format profile                           : LC
    Codec ID                                 : A_AAC
    Duration                                 : 1h 11mn
    Channel(s)                               : 2 channels
    Channel positions                        : Front: L R
    Sampling rate                            : 48.0 KHz
    Compression mode                         : Lossy
    Delay relative to video                  : 14ms
    Default                                  : Yes
    Forced                                   : No





older | 1 | .... | 1334 | 1335 | (Page 1336) | 1337 | 1338 | .... | 1405 | newer