Are you the publisher? Claim or contact us about this channel


Embed this content in your HTML

Search

Report adult content:

click to rate:

Account: (login)

More Channels


Showcase


Channel Catalog


Channel Description:

Asia Torrents RSS Feed

older | 1 | .... | 1336 | 1337 | (Page 1338) | 1339 | 1340 | .... | 1405 | newer

    0 0

    Original Post: Wild Heroes EP02 720p HDTV x264 AAC-DoA



    http://wiki.d-addicts.com/Wild_Heroes
    http://asianwiki.com/Wild_Heroes
    http://thetvdb.com/?tab=series&id=292904


    Title (English): Wild Heroes
    Format: Renzoku
    Genre: Action
    Episodes: TBD
    Broadcast network: NTV
    Broadcast period: 2015-Apr-19 start
    Air time: Sunday 22:30
    Theme song: Kimi ga Ita kara by Crystal Kay
    Subtitles: None - [url=/][/url]
    RAW credit to DoA


    Cast
    Spoiler:show


       TAKAHIRO as Segawa Kiichi
       Aoyagi Sho
       Iwata Takanori
       Nogae Shuhei (野替愁平)
       Yagi Masayasu (八木将康)
       Sato Taiki (佐藤大樹)
       Kuroki Keiji (黒木啓司)
       Sakurada Hiyori (桜田ひより) as Hikari
       Mizusawa Elena
       Hasegawa Hatsunori
       Asaka Mayumi
       Tobita Hikari (飛田光里)
       Kusamura Reiko
       Sakai Miki
       Nakamura Shizuka
       Ninomiya Ai (二宮愛)
       Kazuki Saya
       Hirata Kaoru
       Tsukamoto Takashi
       Naitou Takashi


    Synopsis
    Spoiler:show

    A former delinquent, Segawa Kiichi (TAKAHIRO), happens to encounter a lonely 10-year-old girl, Hikari (Sakurada Hiyori), who looks like she is going to be killed by a gangster. He saves her by reflex, but does not get an answer when he asks what is going on. Because of that, he is mysteriously attacked time and again. With his own life in sudden danger, he calls on six friends (Aoyagi Sho, Iwata Takanori, Sato Taiki, Nogae Shuhei, Yagi Masayasu, Kuroki Keiji) from his high school days as a delinquent. These enthusiastic, single-minded men band together to protect her to the end.


    Mediainfo
    Spoiler:show

    Code
    Format                                   : Matroska
    Format version                           : Version 4 / Version 2
    File size                                : 894 MiB
    Duration                                 : 46mn 24s
    Overall bit rate                         : 2 693 Kbps
    Encoded date                             : UTC 2015-04-30 11:13:48
    Writing application                      : mkvmerge v7.0.0 ('Where We Going') 32bit built on Jun  9 2014 15:08:34
    Writing library                          : libebml v1.3.0 + libmatroska v1.4.1
    DURATION                                 : 00:46:24.192000000
    NUMBER_OF_FRAMES                         : 130509
    NUMBER_OF_BYTES                          : 65646049
    _STATISTICS_WRITING_APP                  : mkvmerge v7.0.0 ('Where We Going') 32bit built on Jun  9 2014 15:08:34
    _STATISTICS_WRITING_DATE_UTC             : 2015-04-30 11:13:48
    _STATISTICS_TAGS                         : BPS DURATION NUMBER_OF_FRAMES NUMBER_OF_BYTES

    Video
    ID                                       : 1
    Format                                   : AVC
    Format/Info                              : Advanced Video Codec
    Format profile                           : High@L4.1
    Format settings, CABAC                   : Yes
    Format settings, ReFrames                : 9 frames
    Codec ID                                 : V_MPEG4/ISO/AVC
    Duration                                 : 46mn 24s
    Width                                    : 1 280 pixels
    Height                                   : 720 pixels
    Display aspect ratio                     : 16:9
    Frame rate mode                          : Constant
    Frame rate                               : 29.970 fps
    Color space                              : YUV
    Chroma subsampling                       : 4:2:0
    Bit depth                                : 8 bits
    Scan type                                : Progressive
    Writing library                          : x264 core 146 r2538 121396c
    Encoding settings                        : cabac=1 / ref=9 / deblock=1:-3:-3 / analyse=0x3:0x133 / me=umh / subme=10 / psy=1 / psy_rd=1.00:0.00 / mixed_ref=1 / me_range=48 / chroma_me=1 / trellis=2 / 8x8dct=1 / cqm=0 / deadzone=21,11 / fast_pskip=0 / chroma_qp_offset=-2 / threads=12 / lookahead_threads=2 / sliced_threads=0 / nr=0 / decimate=1 / interlaced=0 / bluray_compat=0 / constrained_intra=0 / bframes=8 / b_pyramid=2 / b_adapt=2 / b_bias=0 / direct=3 / weightb=1 / open_gop=0 / weightp=2 / keyint=300 / keyint_min=29 / scenecut=40 / intra_refresh=0 / rc_lookahead=60 / rc=crf / mbtree=1 / crf=19.0 / qcomp=0.60 / qpmin=0 / qpmax=69 / qpstep=4 / ip_ratio=1.40 / aq=1:1.00
    Language                                 : English
    Default                                  : Yes
    Forced                                   : No
    DURATION                                 : 00:46:24.581000000
    NUMBER_OF_FRAMES                         : 83454
    NUMBER_OF_BYTES                          : 870920121
    _STATISTICS_WRITING_APP                  : mkvmerge v7.0.0 ('Where We Going') 32bit built on Jun  9 2014 15:08:34
    _STATISTICS_WRITING_DATE_UTC             : 2015-04-30 11:13:48
    _STATISTICS_TAGS                         : BPS DURATION NUMBER_OF_FRAMES NUMBER_OF_BYTES

    Audio
    ID                                       : 2
    Format                                   : AAC
    Format/Info                              : Advanced Audio Codec
    Format profile                           : LC
    Codec ID                                 : A_AAC
    Duration                                 : 46mn 24s
    Channel(s)                               : 2 channels
    Channel positions                        : Front: L R
    Sampling rate                            : 48.0 KHz
    Compression mode                         : Lossy
    Delay relative to video                  : 11ms
    Default                                  : Yes
    Forced                                   : No





    0 0

    Original Post: The Good, The Bad, The Weird (2008) Korean Theatrical Cut 1080p BluRay x264 DTS

    The Good, The Bad, The Weird (Korean Theatrical Cut) 1080p



    Title: The Good, The Bad, The Weird (Korean Theatrical Cut)
    Revised romanization: Jo-eun nom nappeun nom isanghan nom
    Hangul: 좋은 놈, 나쁜 놈, 이상한 놈
    Year: 2008
    Director:  Jee-Woon Kim (as Kim Jee-woon)
    Release Date: 17 July 2008 (South Korea)
    Runtime: 136 minutes (Korean Theatrical Cut)
    Genre: Action, Adventure, Comedy, Western
    Languages: Korean
    Country: Korea
    Subtitles: English, Chinese, French, Hungarian, Japanese, Portuguese, Romanian, Spanish, Vietnamese
    Source: BluRay
    IMDB URL: http://www.imdb.com/title/tt0901487/?ref_=fn_al_tt_3
    Cast: Song Kang-ho, Lee Byung-hun, Jung Woo-sung


    NOTE: This cut of the film is 5 minutes longer than the more well-distributed international cut of the film. Here is the difference between the two cuts from IMDB:

    "After the release in Cannes the film got two final versions, a Korean and an international one. The international version is shorter (130 minutes) and has better pacing and the music changes slightly in some scenes. The main difference in the Korean version (135 minutes) is the ending"

    Synopsis: A guksu western. Three Korean gunslingers are in Manchuria circa World War II: Do-wan, an upright bounty hunter, Chang-yi, a thin-skinned and ruthless killer, and Tae-goo, a train robber with nine lives. Tae-goo finds a map he's convinced leads to buried treasure; Chang-yi wants it as well for less clear reasons. Do-wan tracks the map knowing it will bring him to Chang-yi, Tae-goo, and reward money. Occupying Japanese forces and their Manchurian collaborators also want the map, as does the Ghost Market Gang who hangs out at a thieves' bazaar. These enemies cross paths frequently and dead bodies pile up. Will anyone find the map's destination and survive to tell the tale?

    [screens]  







    Media Information:

    Code
    Video
    ID                                       : 1
    Format                                   : AVC
    Format/Info                              : Advanced Video Codec
    Format profile                           : High@L4.1
    Format settings, CABAC                   : Yes
    Format settings, ReFrames                : 5 frames
    Codec ID                                 : V_MPEG4/ISO/AVC
    Duration                                 : 2h 15mn
    Bit rate                                 : 10.4 Mbps
    Width                                    : 1 920 pixels
    Height                                   : 818 pixels
    Display aspect ratio                     : 2.35:1
    Frame rate mode                          : Constant
    Frame rate                               : 23.976 fps
    Color space                              : YUV
    Chroma subsampling                       : 4:2:0
    Bit depth                                : 8 bits
    Scan type                                : Progressive
    Bits/(Pixel*Frame)                       : 0.277
    Stream size                              : 9.84 GiB (86%)
    Title                                    : The Good, the Bad, the Weird 2008 Extended Blu-ray 1080p x264 DTS-HighCode

    Audio
    ID                                       : 2
    Format                                   : DTS
    Format/Info                              : Digital Theater Systems
    Format profile                           : ES
    Mode                                     : 16
    Format settings, Endianness              : Big
    Codec ID                                 : A_DTS
    Duration                                 : 2h 15mn
    Bit rate mode                            : Constant
    Bit rate                                 : 1 509 Kbps
    Channel(s)                               : 7 channels / 6 channels
    Channel positions                        : Front: L C R, Side: L R, Back: C, LFE / Front: L C R, Side: L R, LFE
    Sampling rate                            : 48.0 KHz
    Bit depth                                : 24 bits
    Compression mode                         : Lossy
    Stream size                              : 1.43 GiB (12%)
    Language                                 : Korean
    Default                                  : Yes
    Forced                                   : No



    https://www.youtube.com/watch?feature=player_embedded&v=8Zew2yWGDC8


    0 0

    Original Post: [Mini Album] ELSIE (Eunjung of T-ARA) – I'm good [1st Mini Album]



    http://en.wikipedia.org/wiki/Hahm_Eun-jung

    [EP] ELSIE (은정) – I’m Good
    Release Date: 2015.05.07
    Genre: R&B, Soul
    Language: Korean
    Bit Rate: MP3-320kbps
    credit to k2nblog

    Track List:

    01. 혼자가 편해졌어 (I’m good) – ELSIE (은정), 케이윌 (K.will)
    02. 눈물비
    03. Love Effect
    04. 혼자가 편해졌어 (Solo ver.)
    05. 혼자가 편해졌어 (Inst.)



    0 0

    Original Post: Kabukimono Keiji EP03 720p HDTV x264 AAC-DoA



    https://jdramas.wordpress.com/2015/04/25/kabukimono-keiji/


    Title: Kabukimono Keiji
    Genre: jidaigeki
    Number of Episodes: 11
    Broadcaster NHK
    Air date: 04/09/2015 - 06/18/2015
    Air time: Thursday, 20:00
    Subtitles: None - [url=][/url]
    RAW credit to DoA


    Cast
    Spoiler:show

       Fuji Tatsuya as Maeda Keiji
       Nakamura Aoi as Maeda Shinkurou
       Nishiuchi Mariya as Maeda Sano
       Kudo Asuka as Yasuda Katsunoshin
       Enami Kyoko as Maeda Mitsu
       Aoyama Noriko as Maeda Hana
       Dan Mitsu as Shizuku
       Yoo Min as Yukiyo
       Tabata Tomoko as Take
       Maeda Beverly as Izumi-kyoku
       Kakuda Nobuaki as Kitagawa Jiuemon
       Ibu Masato as Tentoku Osho
       Hino Shohei as Matayoshi


    Synopsis
    Spoiler:show

    1608 (Keichou 13) was the year Tokugawa Ieyasu won the Battle of Sekigahara. Under Ieyasu’s reign the Uesugis had their vast 1,200,000 koku holdings in Aizu drastically curtailed to 300,000 koku in Yonezawa, Dewa Province. Many vassals give up on the future and leave the Uesugis. In the midst of this, Maeda Keiji continues to remain in Yonezawa and chooses to live with people trying to cope with difficult times. Over 60, he lives in a shabby, secluded hut and contemplates the “right time”. On the other hand, his son, Shinkuro, objects to him being fond of drinking and absorbed in cultural pursuits such as poetry, painting and calligraphy, and nothing like the brave general he is famed to be with the rumours of the Tokugawa plotting the demise of the Uesugis. However, Keiji “performs” when it comes to the crunch. Although he has considered retirement, he is willing to sacrifice himself in order to protect the Uesugis. Shinkuro is gradually fascinated by his magnanimity and his way of life. Keiji is in no hurry to hand over the reins of the family to Shinkuro. Furthermore, Keiji’s daughter, Sano, comes from the Maedas of Kaga to bring her father back and both Shinkuro and Sano are shocked to learn of the existence of a sibling for the first time. In the midst of this, Kitagawa Jiemon a wandering samurai who once fought with Keiji, challenges him to a duel.


    Mediainfo
    Spoiler:show

    Code
    Format                                   : Matroska
    Format version                           : Version 4 / Version 2
    File size                                : 841 MiB
    Duration                                 : 42mn 59s
    Overall bit rate                         : 2 735 Kbps
    Encoded date                             : UTC 2015-04-30 11:18:43
    Writing application                      : mkvmerge v7.0.0 ('Where We Going') 32bit built on Jun  9 2014 15:08:34
    Writing library                          : libebml v1.3.0 + libmatroska v1.4.1
    DURATION                                 : 00:42:59.754000000
    NUMBER_OF_FRAMES                         : 120926
    NUMBER_OF_BYTES                          : 45348700
    _STATISTICS_WRITING_APP                  : mkvmerge v7.0.0 ('Where We Going') 32bit built on Jun  9 2014 15:08:34
    _STATISTICS_WRITING_DATE_UTC             : 2015-04-30 11:18:43
    _STATISTICS_TAGS                         : BPS DURATION NUMBER_OF_FRAMES NUMBER_OF_BYTES

    Video
    ID                                       : 1
    Format                                   : AVC
    Format/Info                              : Advanced Video Codec
    Format profile                           : High@L4.1
    Format settings, CABAC                   : Yes
    Format settings, ReFrames                : 9 frames
    Codec ID                                 : V_MPEG4/ISO/AVC
    Duration                                 : 42mn 59s
    Width                                    : 1 280 pixels
    Height                                   : 720 pixels
    Display aspect ratio                     : 16:9
    Frame rate mode                          : Constant
    Frame rate                               : 29.970 fps
    Color space                              : YUV
    Chroma subsampling                       : 4:2:0
    Bit depth                                : 8 bits
    Scan type                                : Progressive
    Writing library                          : x264 core 146 r2538 121396c
    Encoding settings                        : cabac=1 / ref=9 / deblock=1:-3:-3 / analyse=0x3:0x133 / me=umh / subme=10 / psy=1 / psy_rd=1.00:0.00 / mixed_ref=1 / me_range=48 / chroma_me=1 / trellis=2 / 8x8dct=1 / cqm=0 / deadzone=21,11 / fast_pskip=0 / chroma_qp_offset=-2 / threads=12 / lookahead_threads=2 / sliced_threads=0 / nr=0 / decimate=1 / interlaced=0 / bluray_compat=0 / constrained_intra=0 / bframes=8 / b_pyramid=2 / b_adapt=2 / b_bias=0 / direct=3 / weightb=1 / open_gop=0 / weightp=2 / keyint=300 / keyint_min=29 / scenecut=40 / intra_refresh=0 / rc_lookahead=60 / rc=crf / mbtree=1 / crf=18.0 / qcomp=0.60 / qpmin=0 / qpmax=69 / qpstep=4 / ip_ratio=1.40 / aq=1:1.00
    Language                                 : English
    Default                                  : Yes
    Forced                                   : No
    DURATION                                 : 00:42:59.877000000
    NUMBER_OF_FRAMES                         : 77319
    NUMBER_OF_BYTES                          : 835806803
    _STATISTICS_WRITING_APP                  : mkvmerge v7.0.0 ('Where We Going') 32bit built on Jun  9 2014 15:08:34
    _STATISTICS_WRITING_DATE_UTC             : 2015-04-30 11:18:43
    _STATISTICS_TAGS                         : BPS DURATION NUMBER_OF_FRAMES NUMBER_OF_BYTES

    Audio
    ID                                       : 2
    Format                                   : AAC
    Format/Info                              : Advanced Audio Codec
    Format profile                           : LC
    Codec ID                                 : A_AAC
    Duration                                 : 42mn 59s
    Channel(s)                               : 2 channels
    Channel positions                        : Front: L R
    Sampling rate                            : 48.0 KHz
    Compression mode                         : Lossy
    Delay relative to video                  : 8ms
    Default                                  : Yes
    Forced                                   : No





    0 0

    Original Post: Mitsuko.Delivers.2011.720p.WEB-DL.x264


    Mitsuko Delivers (2011)
    Romaji: Hara Ga Kore Nande
    Japanese: ハラがコレなんで
    Director: Yûya Ishii
    Release Date: November 5, 2011
    Genre: Comedy
    Country: Japan
    Language: Japanese
    Subtitles: English
    IMDb link: http://www.imdb.com/title/tt1897941/

    Cast:
    Riisa Naka - Mitsuko Hara
    Aoi Nakamura - Yoichi Kodama
    Ryo Ishibashi - Jiro Kodama
    Miyoko Inagawa - Kiyoshi
    Shiro Namiki - Yoshitaka Hara
    Miyako Takeuchi - Sanae Hara
    Momoka Oono - younger Mitsuko Hara
    Yoshimasa Kondo - Saito
    Yukijiro Hotaru - Kato
    Keiko Saito - cafe owner

    Plot:
    Mitsuko (Riisa Naka) is a young woman who believes everything will be okay and always tries to help those around her. One day, she met an American man and wanted to help him. They became involved in a relationship and she moved with him to California. A little later, her boyfriend left her and Mitsuko returned to Japan alone. Her parents, who run a pachinko parlor, still think Mitsuko is living happily in California.
    Now, Mitsuko is nine-months pregnant, unmarried and almost broke. She has to move out of her apartment. Yet, Mitsuko still believes everything will be okay. Mitsuko doesn't know where she will go, but she lays downs on a bench and watches where the wind blows. Mitsuko then knows where she will go. She'll visit an elderly woman who was her parents' landlord many years ago. Mitsuko will also see again the boy (Aoi Nakamura) that held a life-long crush on her.

    Media Info:
    Spoiler:show

    General
    Complete name               : Mitsuko.Delivers.2011.720p.WEB-DL.x264.mkv
    Format                      : Matroska
    Format version              : Version 4 / Version 2
    File size                   : 2.22 GiB
    Duration                    : 1h 48mn
    Overall bit rate            : 2 920 Kbps
    Encoded date                : UTC 2015-04-19 04:39:56
    Writing application         : mkvmerge v7.8.0 ('River Man') 64bit built on Mar 27 2015 16:31:37
    Writing library             : libebml v1.3.1 + libmatroska v1.4.2
    DURATION                    : 01:48:16.470000000
    NUMBER_OF_FRAMES            : 880
    NUMBER_OF_BYTES             : 22850
    _STATISTICS_WRITING_APP     : mkvmerge v7.8.0 ('River Man') 64bit built on Mar 27 2015 16:31:37
    _STATISTICS_WRITING_DATE_UT : 2015-04-19 04:39:56
    _STATISTICS_TAGS            : BPS DURATION NUMBER_OF_FRAMES NUMBER_OF_BYTES

    Video
    ID                          : 1
    Format                      : AVC
    Format/Info                 : Advanced Video Codec
    Format profile              : High@L3.1
    Format settings, CABAC      : Yes
    Format settings, ReFrames   : 5 frames
    Codec ID                    : V_MPEG4/ISO/AVC
    Width                       : 1 280 pixels
    Height                      : 720 pixels
    Display aspect ratio        : 16:9
    Frame rate mode             : Variable
    Color space                 : YUV
    Chroma subsampling          : 4:2:0
    Bit depth                   : 8 bits
    Scan type                   : Progressive
    Default                     : Yes
    Forced                      : No

    Audio
    ID                          : 2
    Format                      : AAC
    Format/Info                 : Advanced Audio Codec
    Format profile              : LC
    Codec ID                    : A_AAC
    Duration                    : 1h 48mn
    Channel(s)                  : 2 channels
    Channel positions           : Front: L R
    Sampling rate               : 48.0 KHz
    Compression mode            : Lossy
    Delay relative to video     : -104ms
    Title                       : Japanese 2.0
    Language                    : Japanese
    Default                     : Yes
    Forced                      : No

    Text
    ID                          : 3
    Format                      : UTF-8
    Codec ID                    : S_TEXT/UTF8
    Codec ID/Info               : UTF-8 Plain Text
    Title                       : English
    Language                    : English
    Default                     : Yes
    Forced                      : No

    I took the retail subs and delayed them by .362 seconds to sync with this version.















    0 0

    Original Post: Maids (2015) Complete 1080i DWBH



    Title: 하녀들 / Hanyeodeul
    Also known as: The Housemaids / The Servants
    Genre: Historical, thriller, action, romance
    Episodes: 20
    Broadcast network: JTBC
    Broadcast period: 2014-Dec-12 to 2015-Mar-28
    Air time: Friday & Saturday 21:45
    Original Soundtrack: Maids OST

    subtitles: none

    DWBH batch included ep13-14 reruns.

    For playback grab CCCP and madvr and configure madvr to deinterlace
    http://cccp-project.net/beta/
    http://www.videohelp.com/software/madvr


    Synopsis
    A historical drama about the lives, friendships, and love stories formed among the lowest class of servants and the nobles during early Joseon era.
    Gook In Yub was a former noble lady who became a slave after her family branded as traitors. She befriended fellow servants and among them was a stoic and secretive man named Moo Myung. They eventually fall in love with each other, but got entangled in political and class turmoils.

    Correlation chart


    Main Cast
    Jung Yoo Mi as Gook In Yub
    Oh Ji Ho as Moo Myung
    Kim Dong Wook as Kim Eun Gi
    Lee Shi Ah as Heo Yoon Ok

    Gook In Yub's family and servants
    Jun Noh Min as Gook Yoo
    Lee Cho Hee as Sa Wol Yi
    Im Hyun Sung as Poong Yi
    Ji Seung Hyun (지승현) as Duk Goo

    Kim Eun Gi's family
    Kim Gab Soo as Kim Chi Kwon
    Jin Hee Kyung as Lady Han

    Heo Yoon Ok's family and servants
    Park Chul Min as Heo Eung Cham
    Jun Mi Sun as Lady Yoon
    Lee Yi Kyung as Heo Yoon Seo
    Lee El as Lady Kang
    Jun So Min as Dan Ji
    Lee Yun Kyung as Dan Ji's mother
    Chae Gook Hee as Hae Sang
    Kim Jong Hoon (김종훈) as Dduk Soe
    Jun Soo Jin as Gae Ddong Yi
    Hoon Ki as Yong Joon
    Kim Hye Na as Ok Yi

    Others
    Ahn Nae Sang as Lee Bang Won, later King Tae Jong
    Lee Do Kyung as Lee Sung Gye, later King Tae Jo
    Lee Chae Young as Ga Hee Ah
    Uhm Tae Goo (엄태구) as Chi Bok
    Yang Seung Pil as Ba Woo

    Production Credits
    Production Company: Drama House
    Director: Jo Hyun Tak (조현탁)
    Screenwriter: Jo Hyun Kyung (조현경)










    Code
    Complete name               : Maids 20150126 E01 CATV H264 AC-3 DWBH.TS
    Format                      : MPEG-TS
    File size                   : 1.16 GiB
    Duration                    : 23mn 50s
    Overall bit rate mode       : Variable
    Overall bit rate            : 6 976 Kbps

    Video
    ID                          : 8080 (0x1F90)
    Menu ID                     : 1 (0x1)
    Format                      : AVC
    Format/Info                 : Advanced Video Codec
    Format profile              : Main@L4.0
    Format settings, CABAC      : Yes
    Format settings, ReFrames   : 2 frames
    Format settings, GOP        : M=1, N=16
    Codec ID                    : 27
    Duration                    : 23mn 50s
    Bit rate                    : 6 243 Kbps
    Width                       : 1 920 pixels
    Height                      : 1 080 pixels
    Display aspect ratio        : 16:9
    Frame rate                  : 29.970 fps
    Standard                    : Component
    Color space                 : YUV
    Chroma subsampling          : 4:2:0
    Bit depth                   : 8 bits
    Scan type                   : Interlaced
    Scan order                  : Top Field First
    Bits/(Pixel*Frame)          : 0.100
    Stream size                 : 1.04 GiB (89%)
    Color primaries             : BT.709
    Transfer characteristics    : BT.709
    Matrix coefficients         : BT.709
    Color range                 : Limited

    Audio
    ID                          : 8081 (0x1F91)
    Menu ID                     : 1 (0x1)
    Format                      : AC-3
    Format/Info                 : Audio Coding 3
    Mode extension              : CM (complete main)
    Format settings, Endianness : Big
    Codec ID                    : 129
    Duration                    : 23mn 49s
    Bit rate mode               : Constant
    Bit rate                    : 384 Kbps
    Channel(s)                  : 6 channels
    Channel positions           : Front: L C R, Side: L R, LFE
    Sampling rate               : 48.0 KHz
    Bit depth                   : 16 bits
    Compression mode            : Lossy
    Delay relative to video     : -30ms
    Stream size                 : 65.5 MiB (6%)

    Text
    ID                          : 8080 (0x1F90)-1
    Menu ID                     : 1 (0x1)
    Format                      : EIA-708
    Muxing mode                 : SCTE 128 / DTVCC Transport
    Muxing mode, more info      : Muxed in Video #1
    Duration                    : 23mn 50s
    Bit rate mode               : Constant
    Stream size                 : 0.00 Byte (0%)



    0 0

    Original Post: Keizoku.The.Movie.2000.720p.WEB-DL.x264


    Keizoku: The Movie (2000)
    Alternative: Keizoku: Unsolved Mysteries – Beautiful Dreamer / Keizoku Unsolved Cases
    Romaji: Keizoku/eiga
    Japanese: ケイゾク
    Director: Yukihiko Tsutsumi
    Release Date: March 4, 2000
    Genre: Crime / Mystery
    Country: Japan
    Language: Japanese
    Subtitles: English
    IMDb link: http://www.imdb.com/title/tt0280829/

    Cast:
    Miki Nakatani - Jun Shibata
    Atsuro Watabe - Toru Mayama
    Shigeru Izumiya - Kunio Tsubosaka
    Raita Ryu - Kotaro Nonomura
    Sarina Suzuki - Aya Kido
    Yu Tokui - Akio Kondo
    Rie Minemura - Natsuki Imai
    Koyuki
    Eisei Amamoto
    Inuko Inuyama
    David Ito
    Pinko Izumi
    Hairi Katagiri
    Kera
    Katsuyuki Murai
    Katsuhisa Namase
    Nanako Okochi
    Toshiya Sakai
    Tomorowo Taguchi
    Masahiro Takagi
    Kenichi Yajima
    Mari Nishio

    Plot:
    "Keizoku," unfolds in the present, beginning in the dimly lit basement office of the Metropolitan Police Office's Criminal Investigations Section One, which is charged with pursuing "pending" (keizoku) investigations -- i.e., cases that everyone else has given up on.

    The section chief, Nonomura (Raita Ryu), is a horny old goat who is willing to give all of his lump-sum retirement allowance to his termagant of a wife so he can marry his loose-socked under-age sweetie.

    Nonomura's dreams of erotic bliss are shattered, however, when his superiors decide to replace him, 10 days before his retirement, with a woman half his age named Jun Shibata (Miki Nakatani), who may have a Todai degree and a genius IQ, but is a ditz and a klutz with no street smarts or fashion sense. As if this weren't insult enough, his superiors lower his retirement allowance -- and his wife won't accept a discount.

    Nonomura and his problems suddenly drop off the screen, however, with the appearance of an ethereal young woman called Nanami Kirishima (Koyuki). Nanami is anxious to solve the mystery surrounding the deaths of her mother and her father, a wealthy developer, who perished in a shipwreck 15 years ago.

    At the time the police suspected that one or more of the seven survivors might have had a hand in it, but lacked proof -- and so put the cases in their "pending" file. Now Nanami has invited the survivors to a reunion on the tiny island she calls home and, conveniently, they have all accepted. Won't the police help her narrow the list of suspects and nail the perpetrator(s)? Shibata and Mayama (Atsuro Watabe), a tough, short-fused cop who has less than the highest respect for his new boss, agree to go along on this unconventional ride.

    The suspects, among whom are a snarling yakuza, a fat, drunken architect and a crass middle-aged female tarento, are cardboard cut-outs that would fit comfortably into a Clue game, while Nanami's island, with its pseudo-Gothic castle and its various colorful legends, are lifted from the more lurid horror manga.

    Media Info:
    Spoiler:show

    General
    Complete name               : Keizoku.The.Movie.2000.720p.WEB-DL.x264.mkv
    Format                      : Matroska
    Format version              : Version 4 / Version 2
    File size                   : 1.25 GiB
    Duration                    : 1h 59mn
    Overall bit rate            : 1 496 Kbps
    Encoded date                : UTC 2015-05-08 17:35:46
    Writing application         : mkvmerge v7.8.0 ('River Man') 64bit built on Mar 27 2015 16:31:37
    Writing library             : libebml v1.3.1 + libmatroska v1.4.2
    DURATION                    : 01:54:31.155000000
    NUMBER_OF_FRAMES            : 1183
    NUMBER_OF_BYTES             : 42927
    _STATISTICS_WRITING_APP     : mkvmerge v7.8.0 ('River Man') 64bit built on Mar 27 2015 16:31:37
    _STATISTICS_WRITING_DATE_UT : 2015-05-08 17:35:46
    _STATISTICS_TAGS            : BPS DURATION NUMBER_OF_FRAMES NUMBER_OF_BYTES

    Video
    ID                          : 1
    Format                      : AVC
    Format/Info                 : Advanced Video Codec
    Format profile              : High@L3.1
    Format settings, CABAC      : Yes
    Format settings, ReFrames   : 5 frames
    Codec ID                    : V_MPEG4/ISO/AVC
    Width                       : 1 280 pixels
    Height                      : 720 pixels
    Display aspect ratio        : 16:9
    Frame rate mode             : Variable
    Color space                 : YUV
    Chroma subsampling          : 4:2:0
    Bit depth                   : 8 bits
    Scan type                   : Progressive
    Default                     : Yes
    Forced                      : No

    Audio
    ID                          : 2
    Format                      : AAC
    Format/Info                 : Advanced Audio Codec
    Format profile              : LC
    Codec ID                    : A_AAC
    Duration                    : 1h 59mn
    Channel(s)                  : 2 channels
    Channel positions           : Front: L R
    Sampling rate               : 48.0 KHz
    Compression mode            : Lossy
    Delay relative to video     : -30ms
    Title                       : Japanese 2.0
    Language                    : Japanese
    Default                     : Yes
    Forced                      : No

    Text
    ID                          : 3
    Format                      : UTF-8
    Codec ID                    : S_TEXT/UTF8
    Codec ID/Info               : UTF-8 Plain Text
    Title                       : English
    Language                    : English
    Default                     : Yes
    Forced                      : No

    I took the retail subs and delayed them by 4.931 seconds to sync with this version. I also did a lot of line breaking and other edits.














    0 0

    Original Post: Sweet.Little.Lies.2010.720p.WEB-DL.x264


    Sweet Little Lies (2010)
    Romaji: Suitoritoruraizu
    Japanese: スイートリトルライズ
    Director: Hitoshi Yazaki
    Release Date: March 13, 2010
    Genre: Drama
    Country: Japan
    Language: Japanese
    Subtitles: English
    IMDb link: http://www.imdb.com/title/tt1603395/

    Cast:
    Miki Nakatani - Ruriko Iwamoto
    Nao Omori - Satoshi Iwamoto
    Chizuru Ikewaki - Shiho Miura
    Juichi Kobayashi - Haruo Tsugawa
    Yuko Oshima - Aya Iwamoto
    Sakura Ando - Miyako
    Mei Kurokawa - Tomiko Hujii
    Akiko Kazami - Kimie

    Plot:
    Underneath the veneer of orderly lives, frozen smiles and awkward averted glances, SWEET LITTLE LIES is a cold-as-steel clinical study of a couple. Married for three years, the couple keeps up the apparently tender rituals of newlyweds, but all is not as bright and beautiful as it would seem. Miki Nakatani, “the best Japanese actress of her generation” (Mark Schilling, Japan Times) plays the emotionally and sexually starved wife in Hitoshi Yazaki’s anti-melodramatic chronicle of the disintegration of a marriage. Even the most seasoned viewers will be struck by the menacing calm of Yazaki’s compositions, and his unveiling of lives made from lies.

    Media Info:
    Spoiler:show

    General
    Complete name               : Sweet.Little.Lies.2010.720p.WEB-DL.x264.mkv
    Format                      : Matroska
    Format version              : Version 4 / Version 2
    File size                   : 2.38 GiB
    Duration                    : 1h 57mn
    Overall bit rate            : 2 908 Kbps
    Encoded date                : UTC 2015-04-19 04:42:26
    Writing application         : mkvmerge v7.8.0 ('River Man') 64bit built on Mar 27 2015 16:31:37
    Writing library             : libebml v1.3.1 + libmatroska v1.4.2
    DURATION                    : 01:52:51.960000000
    NUMBER_OF_FRAMES            : 761
    NUMBER_OF_BYTES             : 18422
    _STATISTICS_WRITING_APP     : mkvmerge v7.8.0 ('River Man') 64bit built on Mar 27 2015 16:31:37
    _STATISTICS_WRITING_DATE_UT : 2015-04-19 04:42:26
    _STATISTICS_TAGS            : BPS DURATION NUMBER_OF_FRAMES NUMBER_OF_BYTES

    Video
    ID                          : 1
    Format                      : AVC
    Format/Info                 : Advanced Video Codec
    Format profile              : High@L3.1
    Format settings, CABAC      : Yes
    Format settings, ReFrames   : 5 frames
    Codec ID                    : V_MPEG4/ISO/AVC
    Width                       : 1 280 pixels
    Height                      : 720 pixels
    Display aspect ratio        : 16:9
    Frame rate mode             : Variable
    Color space                 : YUV
    Chroma subsampling          : 4:2:0
    Bit depth                   : 8 bits
    Scan type                   : Progressive
    Default                     : Yes
    Forced                      : No

    Audio
    ID                          : 2
    Format                      : AAC
    Format/Info                 : Advanced Audio Codec
    Format profile              : LC
    Codec ID                    : A_AAC
    Duration                    : 1h 57mn
    Channel(s)                  : 2 channels
    Channel positions           : Front: L R
    Sampling rate               : 48.0 KHz
    Compression mode            : Lossy
    Delay relative to video     : -104ms
    Title                       : Japanese 2.0
    Language                    : Japanese
    Default                     : Yes
    Forced                      : No

    Text
    ID                          : 3
    Format                      : UTF-8
    Codec ID                    : S_TEXT/UTF8
    Codec ID/Info               : UTF-8 Plain Text
    Title                       : English
    Language                    : English
    Default                     : Yes
    Forced                      : No

    "English translation by Linda Hoaglund. Subtitle timing, editing and additions for this version by famitsu1. Special thanks to ikeda69"














    0 0

    Original Post: Mother Game EP03 720p HDTV x264 AAC-DoA



    http://wiki.d-addicts.com/Mother_Game
    http://asianwiki.com/Mother_Game
    http://thetvdb.com/?tab=series&id=293381&lid=7

    Title (English): Mother Game
    Also known as: The Mother Class
    Tagline: 彼女たちの階級 / Kanojotachi no Kaikyuu
    Format: Renzoku
    Genre: Family
    Episodes: TBD
    Broadcast network: TBS
    Broadcast period: 2015-Apr-14 start
    Air time: Tuesday 22:00
    Theme song: Beautiful by Superfly
    Subtitles: English - Yukkuri Subs
    RAW credit to DoA


    Cast

    Kanbara Family

       Kimura Fumino as Kanbara Kiko
       Ryu Raita as Kanbara Tetsuji
       Yamamoto Ayumu (横山歩) as Kanbara Haruto

    Odadera Family

       Dan Rei as Odadera Marie
       Igarashi Hinata (五十嵐陽向) as Odadera Makoto

    Yano Family

       Hasegawa Kyoko as Yano Satoko
       Hasegawa Kiyo (長谷川稀世) as Yano Shizuko
       Sakurai Hijiri as Yano Masaki
       Kanon as Yano Reina
       Watanabe Reika (渡邊れいら) as Yano Erina
       Oe Yusei (大江優成) as Yano Yuuki

    Kamiya Family

       Kanjiya Shihori as Kamiya Yuki
       Shinoda Mitsuyoshi as Kamiya Kyoji
       Goto Yuira (後藤由依良) as Kamiya Sakurako

    Goto Family

       Adachi Yumi as Goto Midori
       Maruyama Tomomi as Goto Rika
       Yazaki Yusa (矢崎由紗) as Goto Shuhei

    Others

       Muroi Shigeru as Naraoka Fumi
       Seto Koji as Naraoka Shinnosuke
       Okada Yoshinori as Kashiyama Hidenori
       Emi Kurara as Yamakawa Mamiko
       Tominaga Saori (富永沙織) as Tsunoda Kayo
       Kamiji Yusuke as Isoyama Takumi
       Tanaka Naoki as Member of staff
       Toyohara Kosuke as Mysterious Man
       Shibukawa Kiyohiko (渋川清彦) as Kashiwagi Kunpei


    Synopsis

    Kanbara Kiko is a poor single mother whose 5-year-old son, Haruto, gets admitted to a prestigious kindergarten in an unexpected turn of events. One Haruto's first day of school, high-end cars are backed up in front of the kindergarten’s front gate. Mothers swagger on high heels within the compound and carry luxury brand bags. Although Kiko is shocked by the reality of this kindergarten where she is out of her element, she expresses her feelings directly to the mothers who regard her as an enemy. With her vivacity and compassion, she starts to change the thinking and establish new bonds with these rigid women living in a completely different world and generation. -- Jdrama Weblog


    Mediainfo
    Spoiler:show

    Code
    Format                                   : Matroska
    Format version                           : Version 4 / Version 2
    File size                                : 1.05 GiB
    Duration                                 : 46mn 29s
    Overall bit rate                         : 3 242 Kbps
    Movie name                               : マザー・ゲーム~彼女たちの階級~ #03 720p HDTV x264 AAC-DoA
    Encoded date                             : UTC 2015-04-29 04:25:16
    Writing application                      : mkvmerge v7.8.0 ('River Man') 64bit built on Mar 27 2015 16:31:37
    Writing library                          : libebml v1.3.1 + libmatroska v1.4.2
    DURATION                                 : 00:46:29.589000000
    NUMBER_OF_FRAMES                         : 130762
    NUMBER_OF_BYTES                          : 65773248
    _STATISTICS_WRITING_APP                  : mkvmerge v7.8.0 ('River Man') 64bit built on Mar 27 2015 16:31:37
    _STATISTICS_WRITING_DATE_UTC             : 2015-04-29 04:25:16
    _STATISTICS_TAGS                         : BPS DURATION NUMBER_OF_FRAMES NUMBER_OF_BYTES

    Video
    ID                                       : 1
    Format                                   : AVC
    Format/Info                              : Advanced Video Codec
    Format profile                           : High@L4.1
    Format settings, CABAC                   : Yes
    Format settings, ReFrames                : 9 frames
    Codec ID                                 : V_MPEG4/ISO/AVC
    Duration                                 : 46mn 29s
    Width                                    : 1 280 pixels
    Height                                   : 720 pixels
    Display aspect ratio                     : 16:9
    Frame rate mode                          : Constant
    Frame rate                               : 29.970 fps
    Color space                              : YUV
    Chroma subsampling                       : 4:2:0
    Bit depth                                : 8 bits
    Scan type                                : Progressive
    Title                                    : Encode by DoA
    Writing library                          : x264 core 130 r2273 b3065e6
    Encoding settings                        : cabac=1 / ref=9 / deblock=1:-2:-2 / analyse=0x3:0x133 / me=umh / subme=10 / psy=1 / psy_rd=1.00:0.15 / mixed_ref=1 / me_range=48 / chroma_me=1 / trellis=2 / 8x8dct=1 / cqm=0 / deadzone=21,11 / fast_pskip=0 / chroma_qp_offset=-3 / threads=12 / lookahead_threads=2 / sliced_threads=0 / nr=0 / decimate=1 / interlaced=0 / bluray_compat=0 / constrained_intra=0 / bframes=8 / b_pyramid=2 / b_adapt=2 / b_bias=0 / direct=3 / weightb=1 / open_gop=0 / weightp=2 / keyint=300 / keyint_min=29 / scenecut=40 / intra_refresh=0 / rc_lookahead=60 / rc=crf / mbtree=1 / crf=17.5 / qcomp=0.60 / qpmin=0 / qpmax=69 / qpstep=4 / ip_ratio=1.40 / aq=1:1.00
    Language                                 : Japanese
    Default                                  : Yes
    Forced                                   : No
    DURATION                                 : 00:46:29.887000000
    NUMBER_OF_FRAMES                         : 83613
    NUMBER_OF_BYTES                          : 1063797955
    _STATISTICS_WRITING_APP                  : mkvmerge v7.8.0 ('River Man') 64bit built on Mar 27 2015 16:31:37
    _STATISTICS_WRITING_DATE_UTC             : 2015-04-29 04:25:16
    _STATISTICS_TAGS                         : BPS DURATION NUMBER_OF_FRAMES NUMBER_OF_BYTES

    Audio
    ID                                       : 2
    Format                                   : AAC
    Format/Info                              : Advanced Audio Codec
    Format profile                           : LC
    Codec ID                                 : A_AAC
    Duration                                 : 46mn 29s
    Channel(s)                               : 2 channels
    Channel positions                        : Front: L R
    Sampling rate                            : 48.0 KHz
    Compression mode                         : Lossy
    Delay relative to video                  : 2ms
    Language                                 : Japanese
    Default                                  : Yes
    Forced                                   : No

    Menu
    00:00:00.000                             : ja:マザー・ゲーム~彼女たちの階級~ #03 Part 1
    00:04:02.875                             : ja:オープニング
    00:04:29.902                             : ja:マザー・ゲーム~彼女たちの階級~ #03 Part 2
    00:19:43.949                             : ja:マザー・ゲーム~彼女たちの階級~ #03 Part 3
    00:28:27.939                             : ja:マザー・ゲーム~彼女たちの階級~ #03 Part 4
    00:36:07.932                             : ja:マザー・ゲーム~彼女たちの階級~ #03 Part 5
    00:46:14.938                             : ja:次回予告





    0 0

    Original Post: Evil.Woman 2014 720p KOR.HDRip.X264-SEDONAIHD





    Detail:
    Title: Evil.Woman
    Genre: Adult, Drama
    Release Date: 20 November 2014
    Runtime: 73 minutes
    Country: Japan
    Language: Japanese
    Subtitles:Korean Hardcoded

    Synopsis:
    While a large amount of debt Jin Mai room salon is married and working in Tokyo at the end of a marriage dont give a‘ll pay debts from Cantabria meeting as guests live in the farmhouse. Cantabria sincere and a man of means, but my will to feel a drag on rural life, has a relationship with the neighborhood boys take turns between the husband went out to work. One day, in preparation for the decanter is kept aware of the fact that my anger is going to lock her away in a warehouse. The injured while trapped in a warehouse Mai is also killing people.

    Cast:
    Mizuki Hoshina








    Code

    Video
    ID                                       : 1
    Format                                   : AVC
    Format/Info                              : Advanced Video Codec
    Format profile                           : High@L4.1
    Format settings, CABAC                   : Yes
    Format settings, ReFrames                : 4 frames
    Codec ID                                 : avc1
    Codec ID/Info                            : Advanced Video Coding
    Duration                                 : 1h 13mn
    Bit rate                                 : 4 096 Kbps
    Width                                    : 1 280 pixels
    Height                                   : 720 pixels
    Display aspect ratio                     : 16:9
    Frame rate mode                          : Constant
    Frame rate                               : 29.970 fps
    Color space                              : YUV
    Chroma subsampling                       : 4:2:0
    Bit depth                                : 8 bits
    Scan type                                : Progressive
    Bits/(Pixel*Frame)                       : 0.148
    Stream size                              : 2.07 GiB (93%)
    Writing library                          : x264 core 120 r2164 da19765
    Encoding settings                        : cabac=1 / ref=3 / deblock=1:0:0 / analyse=0x3:0x113 / me=hex / subme=7 / psy=1 / psy_rd=1.00:0.00 / mixed_ref=1 / me_range=16 / chroma_me=1 / trellis=1 / 8x8dct=1 / cqm=0 / deadzone=21,11 / fast_pskip=1 / chroma_qp_offset=-2 / threads=6 / sliced_threads=0 / nr=0 / decimate=1 / interlaced=0 / bluray_compat=0 / constrained_intra=0 / bframes=3 / b_pyramid=2 / b_adapt=1 / b_bias=0 / direct=1 / weightb=1 / open_gop=0 / weightp=2 / keyint=250 / keyint_min=25 / scenecut=40 / intra_refresh=0 / rc_lookahead=40 / rc=abr / mbtree=1 / bitrate=4096 / ratetol=1.0 / qcomp=0.60 / qpmin=0 / qpmax=69 / qpstep=4 / ip_ratio=1.40 / aq=1:1.00

    Audio
    ID                                       : 2
    Format                                   : AAC
    Format/Info                              : Advanced Audio Codec
    Format profile                           : LC
    Codec ID                                 : 40
    Duration                                 : 1h 13mn
    Bit rate mode                            : Variable
    Bit rate                                 : 288 Kbps
    Maximum bit rate                         : 320 Kbps
    Channel(s)                               : 2 channels
    Channel positions                        : Front: L R
    Sampling rate                            : 48.0 KHz
    Compression mode                         : Lossy
    Delay relative to video                  : -200ms
    Stream size                              : 152 MiB (7%)



    0 0

    Original Post: Clown of a Salesman.2014.HDRip.720p-Unknown





    Detail:
    Title: Clown of a Salesman
    Genre: Drama
    Release Date: April 23, 2015
    Runtime: 1h 44mn
    Director: Jo Chi-Un
    Country: South Korea
    Language: Korean
    Subtitles:No Subtitles

    Synopsis:
    Il-Bum (Kim In-Kwon) falls behind on his loans and finds himself unable to get a decent job. He has to pay his daughter's hospital bills and begins to work at a place that sells health food and supplements. He tries to make his customers, mostly older women, happy. One day, an elderly woman named Ok-Nim comes into the store. Ok-Nim lives alone and her son is a prosecutor.

    Cast:
    Kim In-Kwon - Il-Bum
    Park Chul-Min - Chul-Joong
    Lee Ju-Sil - Ok-Nim








    Code

    Video
    ID                                       : 0
    Format                                   : AVC
    Format/Info                              : Advanced Video Codec
    Format profile                           : Baseline@L3.1
    Format settings, CABAC                   : No
    Format settings, ReFrames                : 1 frame
    Codec ID                                 : H264
    Duration                                 : 1h 44mn
    Bit rate                                 : 3 779 Kbps
    Width                                    : 1 280 pixels
    Height                                   : 720 pixels
    Display aspect ratio                     : 16:9
    Frame rate mode                          : Variable
    Frame rate                               : 24.000 fps
    Color space                              : YUV
    Chroma subsampling                       : 4:2:0
    Bit depth                                : 8 bits
    Scan type                                : Progressive
    Bits/(Pixel*Frame)                       : 0.171
    Stream size                              : 2.77 GiB (96%)

    Audio
    ID                                       : 1
    Format                                   : MPEG Audio
    Format version                           : Version 1
    Format profile                           : Layer 3
    Mode                                     : Joint stereo
    Mode extension                           : MS Stereo
    Codec ID                                 : 55
    Codec ID/Hint                            : MP3
    Duration                                 : 1h 44mn
    Bit rate mode                            : Constant
    Bit rate                                 : 128 Kbps
    Channel(s)                               : 2 channels
    Sampling rate                            : 44.1 KHz
    Compression mode                         : Lossy
    Stream size                              : 95.9 MiB (3%)
    Alignment                                : Aligned on interleaves
    Interleave, duration                     : 26 ms (0.63 video frame)
    Writing library                          : LAME3.98.2



    0 0

    Original Post: Tatakau! Shoten Girl EP04 720p HDTV x264 AAC-DoA



    http://wiki.d-addicts.com/Tatakau!_Shoten_Girl
    http://asianwiki.com/Tatakau!_Shoten_Girl

    Title (romaji): Tatakau! Shoten Girl
    Also known as: Fight! Bookstore Girl
    Format: Renzoku
    Genre: Occupational, romance
    Episodes: TBD
    Broadcast network: Fuji TV / KTV
    Broadcast period: 2015-Apr-14 start
    Air time: Tuesday 22:00
    Theme song: Deai no Tsuzuki by Watanabe Mayu
    Insert song: Girlfriend by SOLIDEMO
    Subtitles: English - Chiizujin
    RAW credit to DoA


    Cast

       Watanabe Mayu as Kitamura Aki
       Inamori Izumi as Nishioka Riko
       Chiba Yudai as Mita Takahiko
       Daito Shunsuke as Obata Nobumitsu
       Suzuki Chinami as Hagiwara Mami
       Inoo Kei as Kusaka Keiichiro
       Makita Sports as Yarabe Mamoru
       Kinoshita Hoka as Nojima Takanori
       Hamada Mari as Ozaki Shiho
       Inoue Jun as Nishioka Tatsuto
       Tanabe Seiichi as Tashiro Toshiyuki


    Synopsis

    Pegasus Bookstore is going through hard times due to competition from internet bookstores. Kitamura Aki and Nishioka Riko are employees at Pegasus Bookstore. Aki is 23 years old. She has a strong will and freewheeling personality. She places her job and dreams above marriage. Riko is a 40-year-old single woman. She is the vice-manager at the bookstore. She has pride in her work. The two women have completely different personalities.


    Mediainfo
    Spoiler:show

    Code
    Format                                   : Matroska
    Format version                           : Version 4 / Version 2
    File size                                : 1 009 MiB
    Duration                                 : 46mn 24s
    Overall bit rate                         : 3 039 Kbps
    Encoded date                             : UTC 2015-05-06 00:00:36
    Writing application                      : mkvmerge v7.6.0 ('Garden of Dreams') 64bit built on Feb  8 2015 13:04:34
    Writing library                          : libebml v1.3.1 + libmatroska v1.4.2
    DURATION                                 : 00:46:24.981000000
    NUMBER_OF_FRAMES                         : 130546
    NUMBER_OF_BYTES                          : 65664638
    _STATISTICS_WRITING_APP                  : mkvmerge v7.6.0 ('Garden of Dreams') 64bit built on Feb  8 2015 13:04:34
    _STATISTICS_WRITING_DATE_UTC             : 2015-05-06 00:00:36
    _STATISTICS_TAGS                         : BPS DURATION NUMBER_OF_FRAMES NUMBER_OF_BYTES

    Video
    ID                                       : 1
    Format                                   : AVC
    Format/Info                              : Advanced Video Codec
    Format profile                           : High@L4.1
    Format settings, CABAC                   : Yes
    Format settings, ReFrames                : 9 frames
    Codec ID                                 : V_MPEG4/ISO/AVC
    Duration                                 : 46mn 24s
    Width                                    : 1 280 pixels
    Height                                   : 720 pixels
    Display aspect ratio                     : 16:9
    Frame rate mode                          : Constant
    Frame rate                               : 29.970 fps
    Color space                              : YUV
    Chroma subsampling                       : 4:2:0
    Bit depth                                : 8 bits
    Scan type                                : Progressive
    Title                                    : DoA Encoder
    Writing library                          : x264 core 146 r2538 121396c
    Encoding settings                        : cabac=1 / ref=9 / deblock=1:-2:-2 / analyse=0x3:0x133 / me=umh / subme=10 / psy=1 / psy_rd=1.00:0.15 / mixed_ref=1 / me_range=48 / chroma_me=1 / trellis=2 / 8x8dct=1 / cqm=0 / deadzone=21,11 / fast_pskip=0 / chroma_qp_offset=-3 / threads=12 / lookahead_threads=2 / sliced_threads=0 / nr=0 / decimate=1 / interlaced=0 / bluray_compat=0 / constrained_intra=0 / bframes=8 / b_pyramid=2 / b_adapt=2 / b_bias=0 / direct=3 / weightb=1 / open_gop=0 / weightp=2 / keyint=300 / keyint_min=29 / scenecut=40 / intra_refresh=0 / rc_lookahead=60 / rc=crf / mbtree=1 / crf=17.5 / qcomp=0.60 / qpmin=0 / qpmax=69 / qpstep=4 / ip_ratio=1.40 / aq=1:1.00
    Language                                 : English
    Default                                  : Yes
    Forced                                   : No
    DURATION                                 : 00:46:24.948000000
    NUMBER_OF_FRAMES                         : 83465
    NUMBER_OF_BYTES                          : 991462534
    _STATISTICS_WRITING_APP                  : mkvmerge v7.6.0 ('Garden of Dreams') 64bit built on Feb  8 2015 13:04:34
    _STATISTICS_WRITING_DATE_UTC             : 2015-05-06 00:00:36
    _STATISTICS_TAGS                         : BPS DURATION NUMBER_OF_FRAMES NUMBER_OF_BYTES

    Audio
    ID                                       : 2
    Format                                   : AAC
    Format/Info                              : Advanced Audio Codec
    Format profile                           : LC
    Codec ID                                 : A_AAC
    Duration                                 : 46mn 24s
    Channel(s)                               : 2 channels
    Channel positions                        : Front: L R
    Sampling rate                            : 48.0 KHz
    Compression mode                         : Lossy
    Delay relative to video                  : 5ms
    Default                                  : Yes
    Forced                                   : No





    0 0

    Original Post: Lost and Love.2015.1080p.WEB-DL.x264.AAC-SeeHD





    Detail:
    Title: Lost and Love
    Genre: Drama
    Release Date: 20 March 2015
    Runtime: 90 min
    Director: Peng Sanyuan
    Country: China, Hong Kong
    Language: Mandarin
    Subtitles:Chinese Hardcoded

    Synopsis:
    Lost and Love is a heartbreaking but inspiring story about a Chinese farmer who spends fourteen years searching for his son who had been abducted at age two. Along the way he encounters a young man who had himself been abducted as a small child and they form a special bond as they help each other search for their lost loved ones.

    Cast:
    Andy Lau
    Jing Boran
    Sandra Ng
    Tony Leung Ka-Fai
    Ni Jingyang
    Cya Liu
    Wang Zhifei








    Code

    Video
    ID                                       : 1
    Format                                   : AVC
    Format/Info                              : Advanced Video Codec
    Format profile                           : High@L4.0
    Format settings, CABAC                   : Yes
    Format settings, ReFrames                : 4 frames
    Codec ID                                 : avc1
    Codec ID/Info                            : Advanced Video Coding
    Duration                                 : 1h 43mn
    Bit rate                                 : 3 028 Kbps
    Maximum bit rate                         : 11.9 Mbps
    Width                                    : 1 920 pixels
    Height                                   : 816 pixels
    Display aspect ratio                     : 2.35:1
    Frame rate mode                          : Variable
    Frame rate                               : 25.000 fps
    Minimum frame rate                       : 24.671 fps
    Maximum frame rate                       : 25.112 fps
    Color space                              : YUV
    Chroma subsampling                       : 4:2:0
    Bit depth                                : 8 bits
    Scan type                                : Progressive
    Bits/(Pixel*Frame)                       : 0.077
    Stream size                              : 2.20 GiB (96%)
    Writing library                          : Provided by x264  :: H.264/MPEG-4 AVC codec -V 1.6.08
    Encoded date                             : UTC 2015-05-07 09:43:49
    Tagged date                              : UTC 2015-05-07 10:43:15
    Color primaries                          : BT.709-5, BT.1361, IEC 61966-2-4, SMPTE RP177
    Transfer characteristics                 : BT.709-5, BT.1361
    Matrix coefficients                      : BT.709-5, BT.1361, IEC 61966-2-4 709, SMPTE RP177

    Audio
    ID                                       : 2
    Format                                   : AAC
    Format/Info                              : Advanced Audio Codec
    Format profile                           : LC
    Codec ID                                 : 40
    Duration                                 : 1h 43mn
    Bit rate mode                            : Variable
    Bit rate                                 : 128 Kbps
    Maximum bit rate                         : 135 Kbps
    Channel(s)                               : 2 channels
    Channel positions                        : Front: L R
    Sampling rate                            : 44.1 KHz
    Compression mode                         : Lossy
    Delay relative to video                  : -12s 0ms
    Stream size                              : 95.1 MiB (4%)
    Encoded date                             : UTC 2015-05-07 10:43:13
    Tagged date                              : UTC 2015-05-07 10:43:15



    0 0

    Original Post: [performance] 4MINUTE ~ Crazy [collection][HDTV][1080p]

    4MINUTE:http://en.wikipedia.org/wiki/4Minute

    Special thanks: kpop24hrs.com



    MediaInfo
    Spoiler:show

    Code

    General
    File name                      : [150211] 4MINUTE - Crazy (MBC Music Show Champion).ts
    Format                         : MPEG-TS
    File size                      : 404 MiB
    Duration                       : 3mn 13s
    Overall bit rate mode          : Variable
    Overall bit rate               : 17.5 Mbps

    Video
    ID                             : 256 (0x100)
    Menu ID                        : 1 (0x1)
    Format                         : MPEG Video
    Format version                 : Version 2
    Format profile                 : Main@High
    Format settings, BVOP          : No
    Format settings, Matrix        : Default
    Format settings, GOP           : N=29
    Codec ID                       : 2
    Duration                       : 3mn 13s
    Bit rate mode                  : Variable
    Bit rate                       : 16.5 Mbps
    Width                          : 1 920 pixels
    Height                         : 1 080 pixels
    Display aspect ratio           : 16:9
    Frame rate                     : 29.970 fps
    Color space                    : YUV
    Chroma subsampling             : 4:2:0
    Bit depth                      : 8 bits
    Scan type                      : Progressive
    Compression mode               : Lossy
    Bits/(Pixel*Frame)             : 0.265
    Time code of first frame       : 00:00:00:00
    Time code source               : Group of pictures header
    GOP, Open/Closed               : Open
    Stream size                    : 379 MiB (94%)
    GOP, Open/Closed of first fram : Closed

    Audio
    ID                             : 257 (0x101)
    Menu ID                        : 1 (0x1)
    Format                         : AC-3
    Format/Info                    : Audio Coding 3
    Mode extension                 : CM (complete main)
    Format settings, Endianness    : Big
    Codec ID                       : 6
    Duration                       : 3mn 12s
    Bit rate mode                  : Constant
    Bit rate                       : 128 Kbps
    Channel(s)                     : 2 channels
    Channel positions              : Front: L R
    Sampling rate                  : 48.0 KHz
    Bit depth                      : 16 bits
    Compression mode               : Lossy
    Delay relative to video        : 1s 100ms
    Stream size                    : 2.93 MiB (1%)
    Language                       : Korean
    Language, more info            : Clean effects



    0 0

    Original Post: Jing Bi Rok 징비록 (2015) E08 HDTV H264 720p WITH



    Title: Jing Bi Rok 징비록 / The Jingbirok: A Memoir of Imjin War 징비록 (懲毖錄): 임진왜란 피로 쓴 교훈
    Revised romanization: Jingbirok: Imjinwaeran Piro Sseun Gyohoon
    Runtime: around 55 min/ep
    Broadcast period: 2015-Feb-14 to 2015-???-??
    Genre: Daeha drama, historical, political, action
    Language: Korean
    Country: South Korea
    Episodes: 50
    Broadcast network: KBS1
    Subtitle: English  softsub by DarkSmurfSub

    Synopsis
    Based on the memoir "Jibirok," written in 1604 by scholar Ryu Seong-Ryong. The memoir covers Ryu Seong-Ryong's experiences from 1592-1598 during the Japanese invasion of Joseon era South Korea, the story of what happened at Jojeong between the Japanese Invasion and the Battle of Noryang where General Lee Soon-sin was killed

    Cast   
    Kim Sang Joong as Seo Ae Ryu Sung Ryong
    Kim Tae Woo as King Seon Jo
    Im Dong Jin as Oh Eum Yoon Doo Soo
    Sun Dong Hyuk (선동혁) as Song Kang Jung Chul
    Choi Chul Ho as Baek Sa Lee Hang Bok
    Park Ji Il as Goo Bong Song Ik Pil
    Kim Hyo Won (김효원) as Woo Gye Sung Hon
    Kim Jong Soo (김종수) as Woo Song Dang Hwang Yoon Gil
    Kang In Ki (강인기) as Joong Bong Jo Hun

    Director: Kim Sang Hwi, Kim Young Jo (김영조)
    Sceenwriter: Jung Hyung Soo, Jung Ji Yun (정지연)

    Video: MPEG4 Video (H264) 1280x720 29.97fps 2224kbps [V: h264 constrained baseline L3.1, yuv420p, 1280x720, 2224 kb/s]
    Audio: AAC 48000Hz stereo 256kbps [A: aac lc, 48000 Hz, stereo, 256 kb/s]

    Media Info
    Spoiler:show

    Code
    General
    Complete name                  : Jing Bi Rok 징비록.E08.150308.HDTV.H264.720p-WITH.mp4
    Format                         : MPEG-4
    Format profile                 : Base Media
    Codec ID                       : isom
    File size                      : 961 MiB
    Duration                       : 54mn 8s
    Overall bit rate mode          : Variable
    Overall bit rate               : 2 483 Kbps
    Encoded date                   : UTC 2015-03-08 13:40:34
    Tagged date                    : UTC 2015-03-08 13:40:34

    Video
    ID                             : 1
    Format                         : AVC
    Format/Info                    : Advanced Video Codec
    Format profile                 : Baseline@L3.1
    Format settings, CABAC         : No
    Format settings, ReFrames      : 3 frames
    Codec ID                       : avc1
    Codec ID/Info                  : Advanced Video Coding
    Duration                       : 54mn 8s
    Bit rate                       : 2 200 Kbps
    Maximum bit rate               : 6 730 Kbps
    Width                          : 1 280 pixels
    Height                         : 720 pixels
    Display aspect ratio           : 16:9
    Frame rate mode                : Constant
    Frame rate                     : 29.970 fps
    Color space                    : YUV
    Chroma subsampling             : 4:2:0
    Bit depth                      : 8 bits
    Scan type                      : Progressive
    Bits/(Pixel*Frame)             : 0.080
    Stream size                    : 861 MiB (90%)
    Writing library                : x264 core 128 r2216 198a7ea
    Encoding settings              : cabac=0 / ref=3 / deblock=1:0:0 / analyse=0x1:0x111 / me=hex / subme=7 / psy=1 / psy_rd=1.00:0.00 / mixed_ref=1 / me_range=16 / chroma_me=1 / trellis=1 / 8x8dct=0 / cqm=0 / deadzone=21,11 / fast_pskip=1 / chroma_qp_offset=-2 / threads=12 / lookahead_threads=2 / sliced_threads=0 / nr=0 / decimate=1 / interlaced=0 / bluray_compat=0 / constrained_intra=0 / bframes=0 / weightp=0 / keyint=250 / keyint_min=25 / scenecut=40 / intra_refresh=0 / rc_lookahead=40 / rc=abr / mbtree=1 / bitrate=2200 / ratetol=1.0 / qcomp=0.60 / qpmin=0 / qpmax=69 / qpstep=4 / vbv_maxrate=50000 / vbv_bufsize=50000 / nal_hrd=none / ip_ratio=1.40 / aq=1:1.00
    Encoded date                   : UTC 2015-03-08 13:10:08
    Tagged date                    : UTC 2015-03-08 13:40:36

    Audio
    ID                             : 2
    Format                         : AAC
    Format/Info                    : Advanced Audio Codec
    Format profile                 : LC
    Codec ID                       : 40
    Duration                       : 54mn 8s
    Bit rate mode                  : Variable
    Bit rate                       : 256 Kbps
    Maximum bit rate               : 262 Kbps
    Channel(s)                     : 2 channels
    Channel positions              : Front: L R
    Sampling rate                  : 48.0 KHz
    Compression mode               : Lossy
    Stream size                    : 99.1 MiB (10%)
    Encoded date                   : UTC 2015-03-08 13:40:35
    Tagged date                    : UTC 2015-03-08 13:40:36





    0 0

    Original Post: Jing Bi Rok 징비록 (2015) E08 HDTV XviD WITH



    Title: Jing Bi Rok 징비록 / The Jingbirok: A Memoir of Imjin War 징비록 (懲毖錄): 임진왜란 피로 쓴 교훈
    Revised romanization: Jingbirok: Imjinwaeran Piro Sseun Gyohoon
    Runtime: around 55 min/ep
    Broadcast period: 2015-Feb-14 to 2015-???-??
    Genre: Daeha drama, historical, political, action
    Language: Korean
    Country: South Korea
    Episodes: 50
    Broadcast network: KBS1
    Subtitle: English  softsub by DarkSmurfSub

    Synopsis
    Based on the memoir "Jibirok," written in 1604 by scholar Ryu Seong-Ryong. The memoir covers Ryu Seong-Ryong's experiences from 1592-1598 during the Japanese invasion of Joseon era South Korea, the story of what happened at Jojeong between the Japanese Invasion and the Battle of Noryang where General Lee Soon-sin was killed

    Cast   
    Kim Sang Joong as Seo Ae Ryu Sung Ryong
    Kim Tae Woo as King Seon Jo
    Im Dong Jin as Oh Eum Yoon Doo Soo
    Sun Dong Hyuk (선동혁) as Song Kang Jung Chul
    Choi Chul Ho as Baek Sa Lee Hang Bok
    Park Ji Il as Goo Bong Song Ik Pil
    Kim Hyo Won (김효원) as Woo Gye Sung Hon
    Kim Jong Soo (김종수) as Woo Song Dang Hwang Yoon Gil
    Kang In Ki (강인기) as Joong Bong Jo Hun

    Director: Kim Sang Hwi, Kim Young Jo (김영조)
    Sceenwriter: Jung Hyung Soo, Jung Ji Yun (정지연)

    Video: Xvid 640x352 29.97fps 1238kbps [V: mpeg4 advanced simple profile, yuv420p, 640x352, 1238 kb/s]
    Audio: MP3 48000Hz stereo 128kbps [A: mp3, 48000 Hz, stereo, 128 kb/s]

    Media Info
    Spoiler:show

    Code

    General
    Complete name                  : Jing Bi Rok 징비록.E08.150308.HDTV.XviD-WITH.avi
    Format                         : AVI
    Format/Info                    : Audio Video Interleave
    File size                      : 534 MiB
    Duration                       : 54mn 8s
    Overall bit rate               : 1 379 Kbps
    Writing application            : VirtualDubMod 1.5.10.2 (build 2540/release)
    Writing library                : VirtualDubMod build 2540/release

    Video
    ID                             : 0
    Format                         : MPEG-4 Visual
    Format profile                 : Advanced Simple@L5
    Format settings, BVOP          : 2
    Format settings, QPel          : No
    Format settings, GMC           : No warppoints
    Format settings, Matrix        : Default (H.263)
    Muxing mode                    : Packed bitstream
    Codec ID                       : XVID
    Codec ID/Hint                  : XviD
    Duration                       : 54mn 8s
    Bit rate                       : 1 239 Kbps
    Width                          : 640 pixels
    Height                         : 352 pixels
    Display aspect ratio           : 16:9
    Frame rate                     : 29.970 fps
    Color space                    : YUV
    Chroma subsampling             : 4:2:0
    Bit depth                      : 8 bits
    Scan type                      : Progressive
    Compression mode               : Lossy
    Bits/(Pixel*Frame)             : 0.183
    Stream size                    : 480 MiB (90%)
    Writing library                : XviD 58

    Audio
    ID                             : 1
    Format                         : MPEG Audio
    Format version                 : Version 1
    Format profile                 : Layer 3
    Mode                           : Joint stereo
    Mode extension                 : MS Stereo
    Codec ID                       : 55
    Codec ID/Hint                  : MP3
    Duration                       : 54mn 8s
    Bit rate mode                  : Constant
    Bit rate                       : 128 Kbps
    Channel(s)                     : 2 channels
    Sampling rate                  : 48.0 KHz
    Compression mode               : Lossy
    Stream size                    : 49.6 MiB (9%)
    Alignment                      : Aligned on interleaves
    Interleave, duration           : 33 ms (1.00 video frame)
    Interleave, preload duration   : 504 ms
    Writing library                : LAME3.98.4





    0 0

    Original Post: God of Gamblers II 1991 720p BluRay x264-WiKi





    Detail:
    Title: God of Gamblers II
    Genre: Action, Comedy
    Release Date: 13 December 1990
    Runtime: 99 min
    Director: Wong Jing
    Rating: 6.9/10 from 1,409 users
    Country: Hong Kong
    Language: Mandarin, Cantonese
    Subtitles:Chinese

    Synopsis:
    In this movie, down on his luck, Sing (Stephen Chow), seeks out the God of Gamblers, in hopes of becoming his disciple. Unfortunately, the God of Gamblers is unreachable and out of the country, last heard to be in Brazil, and Michael Chan, the Knight of Gamblers (Andy Lau) replaces the God of Gamblers. When a phony attempts to impersonate the Knight of Gamblers in a huge scam, it's up to the real Knight and Saint of Gamblers to team up and defeat their formidable challenger. The film combines intricate action sequences with sharp comedic timing.

    Cast:
    Andy Lau
    Stephen Chow
    Monica Chan
    Ng Man-tat
    Sharla Cheung
    Charles Heung








    Code

    Video
    ID                                       : 1
    Format                                   : AVC
    Format/Info                              : Advanced Video Codec
    Format profile                           : High@L4.1
    Format settings, CABAC                   : Yes
    Format settings, ReFrames                : 9 frames
    Codec ID                                 : V_MPEG4/ISO/AVC
    Duration                                 : 1h 44mn
    Bit rate                                 : 9 840 Kbps
    Width                                    : 1 280 pixels
    Height                                   : 720 pixels
    Display aspect ratio                     : 16:9
    Frame rate                               : 24.000 fps
    Color space                              : YUV
    Chroma subsampling                       : 4:2:0
    Bit depth                                : 8 bits
    Scan type                                : Progressive
    Bits/(Pixel*Frame)                       : 0.445
    Stream size                              : 7.04 GiB (89%)
    Writing library                          : x264 core 129 r2245+704+36 8e61944 tMod+MixAQ [8-bit@4:2:0 X86_64]
    Encoding settings                        : cabac=1 / ref=9 / deblock=1:-3:-3 / analyse=0x3:0x133 / me=umh / subme=11 / psy=1 / fade_compensate=0.00 / psy_rd=1.05:0.10 / mixed_ref=1 / me_range=32 / chroma_me=1 / trellis=2 / 8x8dct=1 / cqm=0 / deadzone=21,11 / fast_pskip=0 / chroma_qp_offset=-3 / threads=18 / lookahead_threads=3 / sliced_threads=0 / nr=0 / decimate=0 / interlaced=0 / bluray_compat=0 / constrained_intra=0 / fgo=0 / bframes=8 / b_pyramid=2 / b_adapt=2 / b_bias=0 / direct=3 / weightb=1 / open_gop=0 / weightp=2 / keyint=250 / keyint_min=24 / scenecut=40 / intra_refresh=0 / rc_lookahead=120 / rc=2pass / mbtree=1 / bitrate=9840 / ratetol=1.0 / qcomp=0.65 / qpmin=0 / qpmax=69 / qpstep=4 / cplxblur=20.0 / qblur=0.5 / ip_ratio=1.40 / aq=1 / aq-strength=0.60 / aq-sensitivity=10.00 / aq-ifactor=1.00 / aq-pfactor=1.00 / aq-bfactor=1.00 / aq2=0
    Language                                 : Chinese
    Default                                  : Yes
    Forced                                   : No
    Matrix coefficients                      : BT.709-5, BT.1361, IEC 61966-2-4 709, SMPTE RP177

    Audio #1
    ID                                       : 2
    Format                                   : AC-3
    Format/Info                              : Audio Coding 3
    Mode extension                           : CM (complete main)
    Format settings, Endianness              : Big
    Codec ID                                 : A_AC3
    Duration                                 : 1h 44mn
    Bit rate mode                            : Constant
    Bit rate                                 : 640 Kbps
    Channel(s)                               : 6 channels
    Channel positions                        : Front: L C R, Side: L R, LFE
    Sampling rate                            : 48.0 KHz
    Bit depth                                : 16 bits
    Compression mode                         : Lossy
    Stream size                              : 480 MiB (6%)
    Title                                    : Cantonese
    Language                                 : Chinese
    Default                                  : Yes
    Forced                                   : No

    Audio #2
    ID                                       : 3
    Format                                   : AC-3
    Format/Info                              : Audio Coding 3
    Mode extension                           : CM (complete main)
    Format settings, Endianness              : Big
    Codec ID                                 : A_AC3
    Duration                                 : 1h 44mn
    Bit rate mode                            : Constant
    Bit rate                                 : 384 Kbps
    Channel(s)                               : 2 channels
    Channel positions                        : Front: L R
    Sampling rate                            : 48.0 KHz
    Bit depth                                : 16 bits
    Compression mode                         : Lossy
    Stream size                              : 288 MiB (4%)
    Title                                    : Mandarin
    Language                                 : Chinese
    Default                                  : No
    Forced                                   : No

    Text #1
    ID                                       : 4
    Format                                   : UTF-8
    Codec ID                                 : S_TEXT/UTF8
    Codec ID/Info                            : UTF-8 Plain Text
    Title                                    : Simplified
    Language                                 : Chinese
    Default                                  : Yes
    Forced                                   : No

    Text #2
    ID                                       : 5
    Format                                   : UTF-8
    Codec ID                                 : S_TEXT/UTF8
    Codec ID/Info                            : UTF-8 Plain Text
    Title                                    : Traditional
    Language                                 : Chinese
    Default                                  : No
    Forced                                   : No



    0 0

    Original Post: God of Gamblers III Back to Shanghai 1991 720p BluRay x264-WiKi





    Detail:
    Title: God of Gamblers III Back to Shanghai
    Genre: Comedy, Fantasy
    Release Date: 21 August 1991
    Runtime: 116 minutes
    Director: Wong Jing
    Rating: 6.7/10 from 1,117 users
    Country: Hong Kong
    Language: Mandarin, Cantonese
    Subtitles:Chinese, English

    Synopsis:
    Tai Kun, the Devil of Gamblers seeks revenge on Chow Sing Cho, the Saint of Gamblers, but a mishap sends them both and Sing‘s uncle back to Japanese-occupied Shanghai in 1937, where Sing meets his yet-to-meet grandparents and finds himself caught in a battle between two warring gamblers.







    Cast:
    Stephen Chow
    Ray Lui
    Ng Man-Tat
    Gong Li
    Sandra Ng


    Code

    Video
    ID                                       : 1
    Format                                   : AVC
    Format/Info                              : Advanced Video Codec
    Format profile                           : High@L4.1
    Format settings, CABAC                   : Yes
    Format settings, ReFrames                : 9 frames
    Codec ID                                 : V_MPEG4/ISO/AVC
    Duration                                 : 1h 56mn
    Bit rate                                 : 9 500 Kbps
    Width                                    : 1 280 pixels
    Height                                   : 720 pixels
    Display aspect ratio                     : 16:9
    Frame rate                               : 24.000 fps
    Color space                              : YUV
    Chroma subsampling                       : 4:2:0
    Bit depth                                : 8 bits
    Scan type                                : Progressive
    Bits/(Pixel*Frame)                       : 0.430
    Stream size                              : 7.56 GiB (88%)
    Writing library                          : x264 core 142 r2431+42 c69a006 tMod [8-bit@all X86_64]
    Encoding settings                        : cabac=1 / ref=9 / deblock=1:-3:-3 / analyse=0x3:0x133 / me=umh / subme=11 / psy=1 / fade_compensate=0.00 / psy_rd=1.05:0.10 / mixed_ref=1 / me_range=32 / chroma_me=1 / trellis=2 / 8x8dct=1 / cqm=0 / deadzone=21,11 / fast_pskip=0 / chroma_qp_offset=-3 / threads=12 / lookahead_threads=2 / sliced_threads=0 / nr=0 / decimate=0 / interlaced=0 / bluray_compat=0 / constrained_intra=0 / fgo=0 / bframes=8 / b_pyramid=2 / b_adapt=2 / b_bias=0 / direct=3 / weightb=1 / open_gop=0 / weightp=2 / keyint=250 / keyint_min=24 / scenecut=40 / intra_refresh=0 / rc_lookahead=120 / rc=2pass / mbtree=1 / bitrate=9500 / ratetol=1.0 / qcomp=0.65 / qpmin=0:0:0 / qpmax=69:69:69 / qpstep=4 / cplxblur=20.0 / qblur=0.5 / ip_ratio=1.40 / aq=1:0.60 / aq-sensitivity=10.00 / aq-factor=1.00:1.00:1.00 / aq2=0 / aq3=0
    Language                                 : Chinese
    Default                                  : Yes
    Forced                                   : No
    Matrix coefficients                      : BT.709-5, BT.1361, IEC 61966-2-4 709, SMPTE RP177

    Audio #1
    ID                                       : 2
    Format                                   : AC-3
    Format/Info                              : Audio Coding 3
    Mode extension                           : CM (complete main)
    Format settings, Endianness              : Big
    Codec ID                                 : A_AC3
    Duration                                 : 1h 56mn
    Bit rate mode                            : Constant
    Bit rate                                 : 640 Kbps
    Channel(s)                               : 6 channels
    Channel positions                        : Front: L C R, Side: L R, LFE
    Sampling rate                            : 48.0 KHz
    Bit depth                                : 16 bits
    Compression mode                         : Lossy
    Stream size                              : 534 MiB (6%)
    Title                                    : Cantonese
    Language                                 : Chinese
    Default                                  : Yes
    Forced                                   : No

    Audio #2
    ID                                       : 3
    Format                                   : AC-3
    Format/Info                              : Audio Coding 3
    Mode extension                           : CM (complete main)
    Format settings, Endianness              : Big
    Codec ID                                 : A_AC3
    Duration                                 : 1h 56mn
    Bit rate mode                            : Constant
    Bit rate                                 : 384 Kbps
    Channel(s)                               : 2 channels
    Channel positions                        : Front: L R
    Sampling rate                            : 48.0 KHz
    Bit depth                                : 16 bits
    Compression mode                         : Lossy
    Stream size                              : 320 MiB (4%)
    Title                                    : Mandarin
    Language                                 : Chinese
    Default                                  : No
    Forced                                   : No

    Text #1
    ID                                       : 4
    Format                                   : UTF-8
    Codec ID                                 : S_TEXT/UTF8
    Codec ID/Info                            : UTF-8 Plain Text
    Title                                    : CHT
    Language                                 : Chinese
    Default                                  : No
    Forced                                   : No

    Text #2
    ID                                       : 5
    Format                                   : UTF-8
    Codec ID                                 : S_TEXT/UTF8
    Codec ID/Info                            : UTF-8 Plain Text
    Language                                 : English
    Default                                  : No
    Forced                                   : No



    0 0

    Original Post: Midnight Garage 2015 1080p WEB-DL x264 AC3-SeeHD





    Detail:
    Title: Midnight Garage
    Genre: Drama, Horror
    Release Date: 3 April 2015
    Runtime: 91 min
    Director: Zhou Yaowu
    Country: China
    Language: Mandarin
    Subtitles:Chinese Hardcoded

    Synopsis:
    (Google Translated)
    Luo Kun (Alex Fong) is the center of downtown Kowloon, Hong Kong's underground garage security, responsible for night duty, entry shortly after the death of a colleague after another hell, and sometimes panic. All the signs are pointing to garage central "Mortuary parking, stop those who die," the strange spaces, as long as people in this parking rumors, there ...... until one day the murder occurred, the beautiful young white-collar Lisa (Yoon So-yi ornaments) accidentally the car here, a death game began a countdown ......

    Cast:
    Alex Fong Lik-Sun, Yoon So-Yi, Gordon Lam, Tse Kwan-Ho, Rita Bai, Zhao Chengbin








    Code

    Video
    ID                                       : 1
    Format                                   : AVC
    Format/Info                              : Advanced Video Codec
    Format profile                           : High@L4.0
    Format settings, CABAC                   : Yes
    Format settings, ReFrames                : 4 frames
    Codec ID                                 : V_MPEG4/ISO/AVC
    Duration                                 : 1h 23mn
    Bit rate                                 : 3 045 Kbps
    Width                                    : 1 920 pixels
    Height                                   : 816 pixels
    Display aspect ratio                     : 2.35:1
    Frame rate                               : 25.000 fps
    Original frame rate                      : 24.000 fps
    Color space                              : YUV
    Chroma subsampling                       : 4:2:0
    Bit depth                                : 8 bits
    Scan type                                : Progressive
    Bits/(Pixel*Frame)                       : 0.078
    Stream size                              : 1.78 GiB (81%)
    Writing library                          : Provided by x264  :: H.264/MPEG-4 AVC codec -V 1.6.08
    Default                                  : Yes
    Forced                                   : No
    Color primaries                          : BT.709-5, BT.1361, IEC 61966-2-4, SMPTE RP177
    Transfer characteristics                 : BT.709-5, BT.1361
    Matrix coefficients                      : BT.709-5, BT.1361, IEC 61966-2-4 709, SMPTE RP177

    Audio
    ID                                       : 2
    Format                                   : AC-3
    Format/Info                              : Audio Coding 3
    Mode extension                           : CM (complete main)
    Format settings, Endianness              : Big
    Codec ID                                 : A_AC3
    Duration                                 : 1h 23mn
    Bit rate mode                            : Constant
    Bit rate                                 : 640 Kbps
    Channel(s)                               : 2 channels
    Channel positions                        : Front: L R
    Sampling rate                            : 44.1 KHz
    Bit depth                                : 16 bits
    Compression mode                         : Lossy
    Stream size                              : 382 MiB (17%)
    Default                                  : Yes
    Forced                                   : No



    0 0
  • 05/08/15--21:31: I'm Home ep04 480p
  • Original Post: I'm Home ep04 480p



    http://wiki.d-addicts.com/I%27m_Home_%28TV_Asahi%29
    http://asianwiki.com/I%27m_Home

    Title: アイムホーム
    Title (English): I'm home
    Format: Renzoku
    Genre: Family mystery
    Broadcast network: TV Asahi
    Episodes: TBD
    Broadcast period: 2015-Apr-16 start
    Air time: Thursday 21:00
    Language: Japanese
    Country: Japan
    Subtitles: English here: Watanuki and Chiyoko Fansub
    RAW credit to furransu

    Cast
       Kimura Takuya as Ieji Hisashi
       Ueto Aya as Ieji Megumi
       Mizuno Miki as Nozawa Kaoru
       Tanaka Kei as Honjo Tsuyoshi
       Suzuki Kosuke as Watanuki Shinji
       Yoshimoto Miyu as Takanashi Yua
       Ino Manabu (猪野学) as Hifumi Tsutomu
       Anami Atsuko as Isami Yoko
       Nomaguchi Toru as Iwashita Noboru
       Yano Masato as Tokura Shingo
       Takahashi Rai (高橋來) as Ieji Yoshio
       Yamaguchi Mayu (山口まゆ) as Nozawa Subaru
       Arai Hirofumi as Kuroki Jin
       Mitsuishi Ken as Todoroki Haruki
       Watanabe Ikkei as Teshigawara Yosuke
       Oikawa Mitsuhiro as Tsukuba Yoshiaki
       Nishida Toshiyuki as Kozukue Yukio

    Synopsis
    Ieji Hisashi, a salaryman who works for a securities company, has a fuzzy memory of the recent five years because of an accident at his job posting. His wife of five years, Megumi and their 4-year-old son seem to wear masks. He can neither tell their facial expressions nor their emotions. He also struggles about his love for them. On the other hand, Ieji feels an attachment to his ex-wife, whom he divorced five years ago, and their daughter. What sort of days did he have in those five years which are a blank to him? Ieji sets out on a journey to find his past self with a mysterious bunch of 10 keys that he has. He becomes aware that he was a cold, career-minded man before the accident, and the persona that is gradually revealed is beyond the imagination of his present kindhearted self.

    General
    Complete name                  : I'm Home ep04 (848x480 x264).mp4
    Format                         : MPEG-4
    Format profile                 : Base Media
    Codec ID                       : isom
    File size                      : 267 MiB
    Duration                       : 46mn 56s
    Overall bit rate mode          : Variable
    Overall bit rate               : 794 Kbps

    Video
    ID                             : 1
    Format                         : AVC
    Format/Info                    : Advanced Video Codec
    Format profile                 : High@L4.1
    Format settings, CABAC         : Yes
    Format settings, ReFrames      : 4 frames
    Codec ID                       : avc1
    Codec ID/Info                  : Advanced Video Coding
    Duration                       : 46mn 56s
    Bit rate                       : 661 Kbps
    Maximum bit rate               : 2 725 Kbps
    Width                          : 848 pixels
    Height                         : 480 pixels
    Display aspect ratio           : 16:9
    Frame rate mode                : Constant
    Frame rate                     : 29.970 fps
    Color space                    : YUV
    Chroma subsampling             : 4:2:0
    Bit depth                      : 8 bits
    Scan type                      : Progressive
    Bits/(Pixel*Frame)             : 0.054
    Stream size                    : 222 MiB (83%)

    Audio
    ID                             : 2
    Format                         : AAC
    Format/Info                    : Advanced Audio Codec
    Format profile                 : LC
    Codec ID                       : 40
    Duration                       : 46mn 56s
    Bit rate mode                  : Variable
    Bit rate                       : 128 Kbps
    Maximum bit rate               : 133 Kbps
    Channel count                  : 2 channels
    Channel positions              : Front: L R
    Sampling rate                  : 48.0 KHz
    Compression mode               : Lossy
    Stream size                    : 43.0 MiB (16%)



older | 1 | .... | 1336 | 1337 | (Page 1338) | 1339 | 1340 | .... | 1405 | newer