Are you the publisher? Claim or contact us about this channel


Embed this content in your HTML

Search

Report adult content:

click to rate:

Account: (login)

More Channels


Showcase


Channel Catalog


Channel Description:

Asia Torrents RSS Feed

older | 1 | .... | 1337 | 1338 | (Page 1339) | 1340 | 1341 | .... | 1405 | newer

    0 0

    Original Post: Ishitachi no Renai Jijou ep05 480p



    http://wiki.d-addicts.com/Ishitachi_no_Renai_Jijou
    http://asianwiki.com/Ishitachi_no_Renai_Jijou

    Title: 医師たちの恋愛事情
    Title (romaji): Ishitachi no Renai Jijou
    Also known as: Doctors' Affairs
    Format: Renzoku
    Genre: Romance, medical
    Episodes: TBD
    Broadcast network: Fuji TV
    Broadcast period: 2015-Apr-09 start
    Air time: Thursday 22:00
    Theme song: Don't be love by Shishido Kavka
    Language: Japanese
    Country: Japan
    Subtitles: will be added when available
    RAW credit to furransu

    Cast
       Saito Takumi as Morita Haruki
       Ishida Yuriko as Kondo Chizuru
       Aibu Saki as Kawai Nana
       Hirayama Hiroyuki as Takahashi Sotaro
       Miyake Hiroki as Oone Ryota
       Ihara Tsuyoshi as Nishi Yusuke
       Itaya Yuka as Ichikawa Tomoko
       Namase Katsuhisa as Watanabe Mikio

    Synopsis
    Morita Haruki is a surgeon who only thinks about saving patients 24 hours a day, every day. A compassionate man with a strong sense of justice, he pushes back against the university hospital system which prioritises profit and power. However, he has forgotten how to love because he has put work before romance and his hectic job. Haruki takes a position at a university hospital out of a desire to hone his skills as a surgeon. But it is a place where all sorts of desires swirl. He meets Kondo Chizuru, a surgeon who is his senior, here. Chizuru has been very wrapped up in her work and is now past marriageable age. He gets attracted to her little by little.

    General
    Complete name                  : Ishitachi no Renai Jijou ep05 (848x480 x264).mp4
    Format                         : MPEG-4
    Format profile                 : Base Media
    Codec ID                       : isom
    File size                      : 315 MiB
    Duration                       : 46mn 24s
    Overall bit rate mode          : Variable
    Overall bit rate               : 949 Kbps

    Video
    ID                             : 1
    Format                         : AVC
    Format/Info                    : Advanced Video Codec
    Format profile                 : High@L4.1
    Format settings, CABAC         : Yes
    Format settings, ReFrames      : 4 frames
    Codec ID                       : avc1
    Codec ID/Info                  : Advanced Video Coding
    Duration                       : 46mn 24s
    Bit rate                       : 816 Kbps
    Maximum bit rate               : 5 009 Kbps
    Width                          : 848 pixels
    Height                         : 480 pixels
    Display aspect ratio           : 16:9
    Frame rate mode                : Constant
    Frame rate                     : 29.970 fps
    Color space                    : YUV
    Chroma subsampling             : 4:2:0
    Bit depth                      : 8 bits
    Scan type                      : Progressive
    Bits/(Pixel*Frame)             : 0.067
    Stream size                    : 271 MiB (86%)

    Audio
    ID                             : 2
    Format                         : AAC
    Format/Info                    : Advanced Audio Codec
    Format profile                 : LC
    Codec ID                       : 40
    Duration                       : 46mn 23s
    Bit rate mode                  : Variable
    Bit rate                       : 128 Kbps
    Maximum bit rate               : 134 Kbps
    Channel count                  : 2 channels
    Channel positions              : Front: L R
    Sampling rate                  : 48.0 KHz
    Compression mode               : Lossy
    Stream size                    : 42.5 MiB (13%)



    0 0

    Original Post: Yokoso, Wagaya e EP04 720p HDTV x264 AAC-DoA



    http://wiki.d-addicts.com/Yokoso,_Wagaya_e
    http://asianwiki.com/Welcome_to_Our_Home
    http://thetvdb.com/?tab=series&id=294674&lid=7

    Title (romaji): Yokoso, Wagaya e
    Format: Renzoku
    Genre: Family, suspense drama
    Episodes: TBA
    Broadcast network: Fuji TV
    Broadcast period: 2015-April-13 start
    Air time: Monday 21:00
    Theme song: Aozora no Shita, Kimi no Tonari by Arashi
    Subtitles: English - Menimi
    RAW credit to DoA


    Cast

       Aiba Masaki as Kurata Kenta
       Sawajiri Erika as Kandori Asuka
       Arimura Kasumi as Kurata Nana
       Minami Kaho as Kurata Keiko
       Terao Akira as Kurata Taichi
       Fujii Ryusei
       Adachi Rika
       Takada Junji
       Sato Jiro
       Takenaka Naoto
       Yamaguchi Sayaka
       Tanaka Mirie (田中美麗)
       Horiuchi Keiko
       Mashima Hidekazu


    Synopsis

    Kurata Kenta lives with his father, Taichi, his mother, Keiko, and his younger sister, Nana in an isolated home in the suburbs. He works as an unpopular commercial designer. Kenta possesses a timid personality, which he picked up from his father. Kenta doesn't like his father.

    One day, while waiting for the train, Kenta warns a man who pushed a woman and cut in line. Kenta is surprised that he spoke out with his normally timid personality. After that incident, Kenta's family home is targeted by an unknown person with flowers from their garden being pulled out and the seat of a bicycle being torn. Also, Kenta's younger sister Nana is stalked by her ex-boyfriend.

    Kenta and his family try to find out who is responsible.


    Mediainfo
    Spoiler:show

    Code
    Format                                   : Matroska
    Format version                           : Version 4 / Version 2
    File size                                : 953 MiB
    Duration                                 : 46mn 24s
    Overall bit rate                         : 2 869 Kbps
    Movie name                               : ようこそ、わが家へ 第4話
    Encoded by                               : 愛衣ちゃん大勝利 。゚( ゚இωஇ゚)゚。
    Encoded date                             : UTC 2015-05-06 13:27:45
    Writing application                      : mkvmerge v7.6.0 ('Garden of Dreams') 64bit built on Feb  9 2015 20:32:11
    Writing library                          : libebml v1.3.1 + libmatroska v1.4.2
    DATE_RECORDED                            : JST 2015-05-04 20:59:06
    TITLE                                    : ようこそ、わが家へ 第4話
    TITLE/Url                                : http://www.fujitv.co.jp/wagayae/story/index.html
    SUBTITLE                                 : ストーカー最接近!!遂に家族の反撃が始まる
    WRITTEN_BY                               : 黒岩勉
    DIRECTOR                                 : 中江功
    ACTOR                                    : 有村架純
    ACTOR/CHARACTER                          : 倉田 七菜
    COMMENT                                  : ルートスフィア
    ENCODER_SETTINGS                         : wine avs-mt/avs2yuv.exe wagayae.avs - | x264 -
    ENCODER_SETTINGS/AviSynth                : qtgmc(preset = 'slower').selecteven.lanczosresize
    DURATION                                 : 00:46:24.917000000
    NUMBER_OF_FRAMES                         : 130543
    NUMBER_OF_BYTES                          : 65663129
    _STATISTICS_WRITING_APP                  : mkvmerge v7.6.0 ('Garden of Dreams') 64bit built on Feb  9 2015 20:32:11
    _STATISTICS_WRITING_DATE_UTC             : 2015-05-06 13:27:45
    _STATISTICS_TAGS                         : BPS DURATION NUMBER_OF_FRAMES NUMBER_OF_BYTES

    Video
    ID                                       : 1
    Format                                   : AVC
    Format/Info                              : Advanced Video Codec
    Format profile                           : High@L4
    Format settings, CABAC                   : Yes
    Format settings, ReFrames                : 6 frames
    Codec ID                                 : V_MPEG4/ISO/AVC
    Duration                                 : 46mn 24s
    Width                                    : 1 280 pixels
    Height                                   : 720 pixels
    Display aspect ratio                     : 16:9
    Frame rate mode                          : Constant
    Frame rate                               : 29.970 fps
    Color space                              : YUV
    Chroma subsampling                       : 4:2:0
    Bit depth                                : 8 bits
    Scan type                                : Progressive
    Writing library                          : x264 core 146 r2538 121396c
    Encoding settings                        : cabac=1 / ref=6 / deblock=1:-3:-3 / analyse=0x3:0x133 / me=umh / subme=11 / psy=1 / psy_rd=1.00:0.15 / mixed_ref=1 / me_range=24 / chroma_me=1 / trellis=2 / 8x8dct=1 / cqm=0 / deadzone=21,11 / fast_pskip=1 / chroma_qp_offset=-3 / threads=12 / lookahead_threads=1 / sliced_threads=0 / nr=0 / decimate=1 / interlaced=0 / bluray_compat=0 / constrained_intra=0 / bframes=5 / b_pyramid=2 / b_adapt=2 / b_bias=0 / direct=3 / weightb=1 / open_gop=0 / weightp=2 / keyint=300 / keyint_min=30 / scenecut=40 / intra_refresh=0 / rc_lookahead=60 / rc=crf / mbtree=1 / crf=18.0 / qcomp=0.60 / qpmin=0 / qpmax=69 / qpstep=4 / ip_ratio=1.40 / aq=1:1.00
    Language                                 : Japanese
    Default                                  : Yes
    Forced                                   : No
    DURATION                                 : 00:46:24.915000000
    NUMBER_OF_FRAMES                         : 83464
    NUMBER_OF_BYTES                          : 932203749
    _STATISTICS_WRITING_APP                  : mkvmerge v7.6.0 ('Garden of Dreams') 64bit built on Feb  9 2015 20:32:11
    _STATISTICS_WRITING_DATE_UTC             : 2015-05-06 13:27:45
    _STATISTICS_TAGS                         : BPS DURATION NUMBER_OF_FRAMES NUMBER_OF_BYTES

    Audio
    ID                                       : 2
    Format                                   : AAC
    Format/Info                              : Advanced Audio Codec
    Format profile                           : LC
    Codec ID                                 : A_AAC
    Duration                                 : 46mn 24s
    Channel(s)                               : 2 channels
    Channel positions                        : Front: L R
    Sampling rate                            : 48.0 KHz
    Compression mode                         : Lossy
    Delay relative to video                  : 10ms
    Language                                 : Japanese
    Default                                  : Yes
    Forced                                   : No

    Menu
    00:00:00.000                             : ja:Part A
    00:13:43.989                             : ja:Part B
    00:21:36.962                             : ja:Part C
    00:26:57.949                             : ja:Part D
    00:33:59.937                             : ja:Part E





    0 0

    Original Post: Couple Breaking (2007) SDTV XviD Complete FreeGo^^


    Title:커플브레이킹 / Couple Breaking
    Genre: Romance
    Episodes: 4
    Broadcast network: CGV
    Broadcast period: 2007-Sep-27 to 2007-Sep-28
    Air time: Sunday 11:00
    Subtitles:NONE (http://www.dramafever.com/drama/208/Couple_Breaking/)

    Synopsis
    Park Han Byul and Park Kwang Hyun star in this bubbly drama about a committed couple who realize they might not belong together at all. Jung Suk (Park Kwang Hyun) and Yeo Kyung (Park Han Byul) have been dating for years. Jung Suk is uncultured and poor, while Yeo Kyung is polished and rich. After realizing they aren’t as happy as they thought, each begins to stray towards new prospects. Can true love overcome a comfortable habit? Couple Breaking is a light-hearted four-episode romp about romantic switcheroos. (Source: dramafever)

    Cast
    Park Kwang Hyun as Lee Jeong-seok
    Park Han Byul as Han Yeo-kyeong
    Kim Ji Suk as Lee Jeong-jae
    Jung Da Hye as Kim Hye-yeong
    Han Si Yoon
    Jo Dal Hwan as Oh Min-soo
    Hong Ji Young as Park Sin-ae

    Production: Olive Nine
    Director: Kim Sang Rae
    Screenwriter: Lee Jin Hwa

    Warning!
    Sexual references, sexual humour, censored nude scene.




    Code
    Video
    ID                          : 0
    Format                      : MPEG-4 Visual
    Format profile              : Simple@L1
    Format settings, BVOP       : No
    Format settings, QPel       : No
    Format settings, GMC        : No warppoints
    Format settings, Matrix     : Default (H.263)
    Codec ID                    : XVID
    Codec ID/Hint               : XviD
    Duration                    : 45mn 57s
    Bit rate                    : 1 990 Kbps
    Width                       : 704 pixels
    Height                      : 480 pixels
    Display aspect ratio        : 3:2
    Frame rate                  : 29.970 fps
    Standard                    : NTSC
    Color space                 : YUV
    Chroma subsampling          : 4:2:0
    Bit depth                   : 8 bits
    Scan type                   : Progressive
    Compression mode            : Lossy
    Bits/(Pixel*Frame)          : 0.196
    Stream size                 : 654 MiB (93%)
    Writing library             : Lavc51.40.4

    Audio
    ID                          : 1
    Format                      : MPEG Audio
    Format version              : Version 1
    Format profile              : Layer 3
    Mode                        : Joint stereo
    Mode extension              : MS Stereo
    Codec ID                    : 55
    Codec ID/Hint               : MP3
    Duration                    : 45mn 57s
    Bit rate mode               : Constant
    Bit rate                    : 128 Kbps
    Channel(s)                  : 2 channels
    Sampling rate               : 48.0 KHz
    Compression mode            : Lossy
    Stream size                 : 42.1 MiB (6%)
    Alignment                   : Split accross interleaves
    Interleave, duration        : 33 ms (1.00 video frame)
    Interleave, preload duratio : 500 ms



    0 0

    Original Post: Daddy’s Sorry (2011) SDTV XviD Complete SCREAM


    Title:아버지가 미안하다 / Daddy’s Sorry
    Also known as: Dad Says I am Sorry
    Genre: Family
    Episodes: 3
    Broadcast network: CSTV
    Broadcast period: 2012-Jan-23 to 2012-Jan-25
    Air time: Monday, Tuesday, Wednesday 21:40
    Subtitles:http://chingufansubs.blogspot.hu/2012/02/daddys-sorry.html

    Synopsis
    This short drama stars two actors from 2011’s sageuk sensation The Princess’s Man ~ Kim Young Chul and Lee Min Woo. A drama about the hidden pain and the meaning of family in today's generation, told through deliveryman Yong-man, his wife and their children. Released for the 2012 Lunar New Year holiday, "Daddy's Sorry" is a heart-tugging character piece focusing on family relationships.

    Cast
    Km Young Chul as Yong Man
    Lee Young Eun as Kyung Ae
    Lee Min Woo as Dong Sik
    Park Shi Eun as Hye Ri
    Heo Young Ran as Hee Kyeong
    Yang Hee Kyung as Soon Joo
    Shin Eun Jung as Hee Sook
    Jung Joon as Dong Soo
    Yoon Da Hoon as Young Hoon

    Director: Kwon Hyuk Chan
    Screenwriter: Kim Soo Hyun

    Warning!
    Original video (episode 1) have got some glitch.




    Code
    Video
    ID                          : 0
    Format                      : MPEG-4 Visual
    Format profile              : Advanced Simple@L5
    Format settings, BVOP       : 2
    Format settings, QPel       : No
    Format settings, GMC        : No warppoints
    Format settings, Matrix     : Default (H.263)
    Muxing mode                 : Packed bitstream
    Codec ID                    : XVID
    Codec ID/Hint               : XviD
    Duration                    : 54mn 20s
    Bit rate                    : 1 499 Kbps
    Width                       : 624 pixels
    Height                      : 352 pixels
    Display aspect ratio        : 16:9
    Frame rate                  : 29.970 fps
    Color space                 : YUV
    Chroma subsampling          : 4:2:0
    Bit depth                   : 8 bits
    Scan type                   : Progressive
    Compression mode            : Lossy
    Bits/(Pixel*Frame)          : 0.228
    Stream size                 : 583 MiB (91%)
    Writing library             : XviD 61

    Audio
    ID                          : 1
    Format                      : MPEG Audio
    Format version              : Version 1
    Format profile              : Layer 3
    Mode                        : Joint stereo
    Mode extension              : MS Stereo
    Codec ID                    : 55
    Codec ID/Hint               : MP3
    Duration                    : 54mn 20s
    Bit rate mode               : Constant
    Bit rate                    : 128 Kbps
    Channel(s)                  : 2 channels
    Sampling rate               : 44.1 KHz
    Compression mode            : Lossy
    Stream size                 : 49.8 MiB (8%)
    Alignment                   : Aligned on interleaves
    Interleave, duration        : 26 ms (0.78 video frame)
    Writing library             : LAME3.98.2



    0 0

    Original Post: Make A Woman Cry E07 720p LIMO


    Details
    Title: 여자를 울려 / Yeojareul Woolryeo
    Also known as: Let the Woman Cry
    Genre: Family, drama, romance
    Episodes: 50
    Broadcast network: MBC
    Broadcast period: 2015-Apr-18 to 2015-???-??
    Air time: Saturday & Sunday 20:45
    Original Soundtrack: Make a Woman Cry OST

    Synopsis
    Jung Duk In was a former detective who resigned after her son died. She then opens a food stall in front of her son's school to preserves the memory of him and to protects the other students. Along the way she will struggle to forgive people who were responsible for her son's death.

    Cast

    Main Cast
    Kim Jung Eun as Jung Duk In
    Song Chang Ui as Kang Jin Woo
    Lee Soon Jae as Kang Tae Hwan
    Ha Hee Ra as Na Eun Soo
    Oh Dae Gyu as Kang Jin Myung
    Lee Tae Ran as Choi Hong Ran




    Code
    Video
    ID                             : 1
    Format                         : AVC
    Format/Info                    : Advanced Video Codec
    Format profile                 : High@L5.1
    Format settings, CABAC         : Yes
    Format settings, ReFrames      : 4 frames
    Codec ID                       : V_MPEG4/ISO/AVC
    Duration                       : 1h 24mn
    Bit rate                       : 887 Kbps
    Nominal bit rate               : 2 496 Kbps
    Width                          : 1 280 pixels
    Height                         : 720 pixels
    Display aspect ratio           : 16:9
    Frame rate mode                : Constant
    Frame rate                     : 29.970 fps
    Color space                    : YUV
    Chroma subsampling             : 4:2:0
    Bit depth                      : 8 bits
    Scan type                      : Progressive
    Bits/(Pixel*Frame)             : 0.032
    Stream size                    : 535 MiB (68%)
    Writing library                : x264 core 130 r2273 b3065e6
    Encoding settings              : cabac=1 / ref=3 / deblock=1:0:0 / analyse=0x3:0x113 / me=hex / subme=7 / psy=1 / psy_rd=1.00:0.00 / mixed_ref=1 / me_range=16 / chroma_me=1 / trellis=1 / 8x8dct=1 / cqm=0 / deadzone=21,11 / fast_pskip=1 / chroma_qp_offset=-2 / threads=1 / lookahead_threads=1 / sliced_threads=0 / nr=0 / decimate=1 / interlaced=0 / bluray_compat=0 / constrained_intra=0 / bframes=3 / b_pyramid=2 / b_adapt=1 / b_bias=0 / direct=1 / weightb=1 / open_gop=0 / weightp=2 / keyint=300 / keyint_min=29 / scenecut=40 / intra_refresh=0 / rc_lookahead=40 / rc=2pass / mbtree=1 / bitrate=2496 / ratetol=1.0 / qcomp=0.60 / qpmin=0 / qpmax=69 / qpstep=4 / cplxblur=20.0 / qblur=0.5 / vbv_maxrate=300000 / vbv_bufsize=300000 / nal_hrd=none / ip_ratio=1.40 / aq=1:1.00
    Default                        : Yes
    Forced                         : No

    Audio
    ID                             : 2
    Format                         : AC-3
    Format/Info                    : Audio Coding 3
    Mode extension                 : CM (complete main)
    Format settings, Endianness    : Big
    Codec ID                       : A_AC3
    Duration                       : 1h 24mn
    Bit rate mode                  : Constant
    Bit rate                       : 384 Kbps
    Channel(s)                     : 2 channels
    Channel positions              : Front: L R
    Sampling rate                  : 44.1 KHz
    Bit depth                      : 16 bits
    Compression mode               : Lossy
    Stream size                    : 232 MiB (30%)
    Language                       : Korean
    Default                        : Yes
    Forced                         : No



    0 0

    Original Post: Ex-Girlfriend's Club E02 XVID WITH


    Details
    Title: 구여친클럽 / Guyeochinkeulleob
    Genre: Romance, Comedy
    Episodes: TBA
    Broadcast network: tvN
    Broadcast period: 2015-May-8 to TBA
    Air time: Friday & Saturday 20:30
    Original Soundtrack: Ex-Girlfriend Club OST
    Synopsis
    The story centered around a famous webtoon writer named Bang Myung Soo (Byun Yo Han) that write webtoon based on his past relationship with all his ex-girlfriends. Kim Soo Jin (Song Ji Hyo) is a producer who is assigned to make his webtoon into a movie.

    Cast
    Song Ji Hyo as Kim Soo Jin (32)
    Byun Yo Han as Bang Myung Soo (32)
    Lee Yoon Ji as Jang Hwa Young (31, Myung Soo's first love)
    Jang Ji Eun (장지은) as Na Ji Ah (34, Myung Soo's second love)
    Ryu Hwa Young as Ra Ra (27, Myung Soo's third love)




    Code
    Video
    ID                                       : 0
    Format                                   : MPEG-4 Visual
    Format profile                           : Advanced Simple@L5
    Format settings, BVOP                    : 2
    Format settings, QPel                    : No
    Format settings, GMC                     : No warppoints
    Format settings, Matrix                  : Default (H.263)
    Muxing mode                              : Packed bitstream
    Codec ID                                 : XVID
    Codec ID/Hint                            : XviD
    Duration                                 : 58mn 22s
    Bit rate                                 : 1 239 Kbps
    Width                                    : 640 pixels
    Height                                   : 352 pixels
    Display aspect ratio                     : 16:9
    Frame rate                               : 29.970 fps
    Color space                              : YUV
    Chroma subsampling                       : 4:2:0
    Bit depth                                : 8 bits
    Scan type                                : Progressive
    Compression mode                         : Lossy
    Bits/(Pixel*Frame)                       : 0.184
    Stream size                              : 517 MiB (90%)
    Writing library                          : XviD 58

    Audio
    ID                                       : 1
    Format                                   : MPEG Audio
    Format version                           : Version 1
    Format profile                           : Layer 3
    Mode                                     : Joint stereo
    Mode extension                           : MS Stereo
    Codec ID                                 : 55
    Codec ID/Hint                            : MP3
    Duration                                 : 58mn 22s
    Bit rate mode                            : Constant
    Bit rate                                 : 128 Kbps
    Channel(s)                               : 2 channels
    Sampling rate                            : 48.0 KHz
    Compression mode                         : Lossy
    Stream size                              : 53.4 MiB (9%)
    Alignment                                : Aligned on interleaves
    Interleave, duration                     : 33 ms (1.00 video frame)
    Interleave, preload duration             : 504 ms



    0 0

    Original Post: Ex-Girlfriend's Club E02 720p WITH


    Details
    Title: 구여친클럽 / Guyeochinkeulleob
    Genre: Romance, Comedy
    Episodes: TBA
    Broadcast network: tvN
    Broadcast period: 2015-May-8 to TBA
    Air time: Friday & Saturday 20:30
    Original Soundtrack: Ex-Girlfriend Club OST
    Synopsis
    The story centered around a famous webtoon writer named Bang Myung Soo (Byun Yo Han) that write webtoon based on his past relationship with all his ex-girlfriends. Kim Soo Jin (Song Ji Hyo) is a producer who is assigned to make his webtoon into a movie.

    Cast
    Song Ji Hyo as Kim Soo Jin (32)
    Byun Yo Han as Bang Myung Soo (32)
    Lee Yoon Ji as Jang Hwa Young (31, Myung Soo's first love)
    Jang Ji Eun (장지은) as Na Ji Ah (34, Myung Soo's second love)
    Ryu Hwa Young as Ra Ra (27, Myung Soo's third love)




    Code
    Video
    ID                                       : 1
    Format                                   : AVC
    Format/Info                              : Advanced Video Codec
    Format profile                           : Baseline@L1.3
    Format settings, CABAC                   : No
    Format settings, ReFrames                : 1 frame
    Codec ID                                 : avc1
    Codec ID/Info                            : Advanced Video Coding
    Duration                                 : 58mn 22s
    Bit rate                                 : 2 200 Kbps
    Maximum bit rate                         : 5 302 Kbps
    Width                                    : 1 280 pixels
    Height                                   : 720 pixels
    Display aspect ratio                     : 16:9
    Frame rate mode                          : Constant
    Frame rate                               : 29.970 fps
    Color space                              : YUV
    Chroma subsampling                       : 4:2:0
    Bit depth                                : 8 bits
    Scan type                                : Progressive
    Bits/(Pixel*Frame)                       : 0.080
    Stream size                              : 922 MiB (90%)
    Writing library                          : x264 core 128 r2216 198a7ea
    Encoding settings                        : cabac=0 / ref=1 / deblock=1:0:0 / analyse=0x1:0x111 / me=hex / subme=7 / psy=1 / psy_rd=1.00:0.00 / mixed_ref=0 / me_range=16 / chroma_me=1 / trellis=1 / 8x8dct=0 / cqm=0 / deadzone=21,11 / fast_pskip=1 / chroma_qp_offset=-2 / threads=12 / lookahead_threads=2 / sliced_threads=0 / nr=0 / decimate=1 / interlaced=0 / bluray_compat=0 / constrained_intra=0 / bframes=0 / weightp=0 / keyint=250 / keyint_min=25 / scenecut=40 / intra_refresh=0 / rc_lookahead=40 / rc=abr / mbtree=1 / bitrate=2200 / ratetol=1.0 / qcomp=0.60 / qpmin=0 / qpmax=69 / qpstep=4 / vbv_maxrate=50000 / vbv_bufsize=50000 / nal_hrd=none / ip_ratio=1.40 / aq=1:1.00
    Encoded date                             : UTC 2015-05-08 12:47:49
    Tagged date                              : UTC 2015-05-08 12:52:53

    Audio
    ID                                       : 2
    Format                                   : AAC
    Format/Info                              : Advanced Audio Codec
    Format profile                           : LC
    Codec ID                                 : 40
    Duration                                 : 58mn 22s
    Bit rate mode                            : Variable
    Bit rate                                 : 256 Kbps
    Maximum bit rate                         : 262 Kbps
    Channel(s)                               : 2 channels
    Channel positions                        : Front: L R
    Sampling rate                            : 48.0 KHz
    Compression mode                         : Lossy
    Stream size                              : 107 MiB (10%)
    Encoded date                             : UTC 2015-05-08 12:52:48
    Tagged date                              : UTC 2015-05-08 12:52:53



    0 0

    Original Post: Divorce Lawyer in Love E07 XVID LIMO


    Details
    Title: 이혼변호사는 연애중 / Yihonbyunhosaneun Yeonaejoong
    Genre: Romance, comedy
    Episodes: 16
    Broadcast network: SBS
    Broadcast period: 2015-Apr-18 to 2015-TBA
    Air time: Saturday & Sunday 22:00
    Original Soundtrack: Divorce Lawyer in Love OST
    Synopsis
    Go Cheok Hee is a successful divorce lawyer who treated So Jung Woo terribly when he was her firm's office manager. The tables are turned when Cheok Hee loses her license and can no longer practice law and Jung Woo has become a successful lawyer. The two cross paths again when Cheok Hee becomes Jung Woo's office manager.

    Cast
    Jo Yeo Jung as Go Cheok Hee
    Lee Bit Na as young Go Cheok Hee
    Yun Woo Jin as So Jung Woo
    Shim Hyung Tak as Bong Min Kyu
    Wang Ji Won as Jo Soo Ah




    Code
    Video
    ID                                       : 0
    Format                                   : MPEG-4 Visual
    Format profile                           : Advanced Simple@L5
    Format settings, BVOP                    : No
    Format settings, QPel                    : No
    Format settings, GMC                     : No warppoints
    Format settings, Matrix                  : Default (MPEG)
    Codec ID                                 : XVID
    Codec ID/Hint                            : XviD
    Duration                                 : 1h 29mn
    Bit rate                                 : 1 388 Kbps
    Width                                    : 624 pixels
    Height                                   : 352 pixels
    Display aspect ratio                     : 16:9
    Frame rate                               : 29.970 fps
    Color space                              : YUV
    Chroma subsampling                       : 4:2:0
    Bit depth                                : 8 bits
    Scan type                                : Progressive
    Compression mode                         : Lossy
    Bits/(Pixel*Frame)                       : 0.211
    Stream size                              : 886 MiB (87%)
    Writing library                          : XviD 1.2.1 (UTC 2008-12-04)

    Audio
    ID                                       : 1
    Format                                   : MPEG Audio
    Format version                           : Version 1
    Format profile                           : Layer 3
    Mode                                     : Joint stereo
    Mode extension                           : MS Stereo
    Codec ID                                 : 55
    Codec ID/Hint                            : MP3
    Duration                                 : 1h 29mn
    Bit rate mode                            : Constant
    Bit rate                                 : 128 Kbps
    Channel(s)                               : 2 channels
    Sampling rate                            : 48.0 KHz
    Compression mode                         : Lossy
    Stream size                              : 81.7 MiB (8%)
    Alignment                                : Aligned on interleaves
    Writing library                          : LAME3.98.2



    0 0

    Original Post: Divorce Lawyer in Love E07 720p LIMO


    Details
    Title: 이혼변호사는 연애중 / Yihonbyunhosaneun Yeonaejoong
    Genre: Romance, comedy
    Episodes: 16
    Broadcast network: SBS
    Broadcast period: 2015-Apr-18 to 2015-TBA
    Air time: Saturday & Sunday 22:00
    Original Soundtrack: Divorce Lawyer in Love OST
    Synopsis
    Go Cheok Hee is a successful divorce lawyer who treated So Jung Woo terribly when he was her firm's office manager. The tables are turned when Cheok Hee loses her license and can no longer practice law and Jung Woo has become a successful lawyer. The two cross paths again when Cheok Hee becomes Jung Woo's office manager.

    Cast
    Jo Yeo Jung as Go Cheok Hee
    Lee Bit Na as young Go Cheok Hee
    Yun Woo Jin as So Jung Woo
    Shim Hyung Tak as Bong Min Kyu
    Wang Ji Won as Jo Soo Ah




    Code
    Video
    ID                             : 1
    Format                         : AVC
    Format/Info                    : Advanced Video Codec
    Format profile                 : High@L5.1
    Format settings, CABAC         : Yes
    Format settings, ReFrames      : 4 frames
    Codec ID                       : V_MPEG4/ISO/AVC
    Duration                       : 1h 24mn
    Bit rate                       : 887 Kbps
    Nominal bit rate               : 2 496 Kbps
    Width                          : 1 280 pixels
    Height                         : 720 pixels
    Display aspect ratio           : 16:9
    Frame rate mode                : Constant
    Frame rate                     : 29.970 fps
    Color space                    : YUV
    Chroma subsampling             : 4:2:0
    Bit depth                      : 8 bits
    Scan type                      : Progressive
    Bits/(Pixel*Frame)             : 0.032
    Stream size                    : 535 MiB (68%)
    Writing library                : x264 core 130 r2273 b3065e6
    Encoding settings              : cabac=1 / ref=3 / deblock=1:0:0 / analyse=0x3:0x113 / me=hex / subme=7 / psy=1 / psy_rd=1.00:0.00 / mixed_ref=1 / me_range=16 / chroma_me=1 / trellis=1 / 8x8dct=1 / cqm=0 / deadzone=21,11 / fast_pskip=1 / chroma_qp_offset=-2 / threads=1 / lookahead_threads=1 / sliced_threads=0 / nr=0 / decimate=1 / interlaced=0 / bluray_compat=0 / constrained_intra=0 / bframes=3 / b_pyramid=2 / b_adapt=1 / b_bias=0 / direct=1 / weightb=1 / open_gop=0 / weightp=2 / keyint=300 / keyint_min=29 / scenecut=40 / intra_refresh=0 / rc_lookahead=40 / rc=2pass / mbtree=1 / bitrate=2496 / ratetol=1.0 / qcomp=0.60 / qpmin=0 / qpmax=69 / qpstep=4 / cplxblur=20.0 / qblur=0.5 / vbv_maxrate=300000 / vbv_bufsize=300000 / nal_hrd=none / ip_ratio=1.40 / aq=1:1.00
    Default                        : Yes
    Forced                         : No

    Audio
    ID                             : 2
    Format                         : AC-3
    Format/Info                    : Audio Coding 3
    Mode extension                 : CM (complete main)
    Format settings, Endianness    : Big
    Codec ID                       : A_AC3
    Duration                       : 1h 24mn
    Bit rate mode                  : Constant
    Bit rate                       : 384 Kbps
    Channel(s)                     : 2 channels
    Channel positions              : Front: L R
    Sampling rate                  : 44.1 KHz
    Bit depth                      : 16 bits
    Compression mode               : Lossy
    Stream size                    : 232 MiB (30%)
    Language                       : Korean
    Default                        : Yes
    Forced                         : No



    0 0
  • 05/09/15--04:11: Queen's Flower E17 XVID LIMO
  • Original Post: Queen's Flower E17 XVID LIMO


    Details
    Title: 여왕의 꽃 / Yeowangeui Ggot
    Previously known as: 적도의 꽃 (Flower of the Equator)
    Genre: Melodrama
    Episodes: 50
    Broadcast network: MBC
    Broadcast period: 2015-Mar-14 to 2015-???-??
    Air time: Saturday & Sunday 21:55

    Synopsis
    Rena Jung (Kim Sung Ryung) is a beautiful, but ambitious star chef who hosts her own cooking show. Her husband, Park Min-Joon (Lee Jong Hyuk), is the first son of a family that runs a large company. Their relationship is not so good, but they try to show other people they are still in love.

    In the past, Rena Jung abandoned her daughter for a chance at success. Now, her daughter, Kang Yi Sol (Lee Sung Kyung) appears in front of her. Kang Yi Sol resents her mother for abandoning her.

    Park Jae Joon (Yoon Park) is the husband's younger brother. He is popular with women, but he is attracted to Kang Yi-Sol.

    Cast
    Kim Sung Ryung as Rena Jung / Jung Eun Hye
    Lee Sung Kyung as Kang Yi Sol
    Yoon Park as Park Jae Joon
    Lee Jong Hyuk as Park Min Joon




    Code
    Video
    ID                                       : 0
    Format                                   : MPEG-4 Visual
    Format profile                           : Advanced Simple@L5
    Format settings, BVOP                    : No
    Format settings, QPel                    : No
    Format settings, GMC                     : No warppoints
    Format settings, Matrix                  : Default (MPEG)
    Codec ID                                 : XVID
    Codec ID/Hint                            : XviD
    Duration                                 : 1h 29mn
    Bit rate                                 : 1 388 Kbps
    Width                                    : 624 pixels
    Height                                   : 352 pixels
    Display aspect ratio                     : 16:9
    Frame rate                               : 29.970 fps
    Color space                              : YUV
    Chroma subsampling                       : 4:2:0
    Bit depth                                : 8 bits
    Scan type                                : Progressive
    Compression mode                         : Lossy
    Bits/(Pixel*Frame)                       : 0.211
    Stream size                              : 886 MiB (87%)
    Writing library                          : XviD 1.2.1 (UTC 2008-12-04)

    Audio
    ID                                       : 1
    Format                                   : MPEG Audio
    Format version                           : Version 1
    Format profile                           : Layer 3
    Mode                                     : Joint stereo
    Mode extension                           : MS Stereo
    Codec ID                                 : 55
    Codec ID/Hint                            : MP3
    Duration                                 : 1h 29mn
    Bit rate mode                            : Constant
    Bit rate                                 : 128 Kbps
    Channel(s)                               : 2 channels
    Sampling rate                            : 48.0 KHz
    Compression mode                         : Lossy
    Stream size                              : 81.7 MiB (8%)
    Alignment                                : Aligned on interleaves
    Writing library                          : LAME3.98.2



    0 0
  • 05/09/15--04:11: Queen's Flower E17 720p LIMO
  • Original Post: Queen's Flower E17 720p LIMO


    Details
    Title: 여왕의 꽃 / Yeowangeui Ggot
    Previously known as: 적도의 꽃 (Flower of the Equator)
    Genre: Melodrama
    Episodes: 50
    Broadcast network: MBC
    Broadcast period: 2015-Mar-14 to 2015-???-??
    Air time: Saturday & Sunday 21:55

    Synopsis
    Rena Jung (Kim Sung Ryung) is a beautiful, but ambitious star chef who hosts her own cooking show. Her husband, Park Min-Joon (Lee Jong Hyuk), is the first son of a family that runs a large company. Their relationship is not so good, but they try to show other people they are still in love.

    In the past, Rena Jung abandoned her daughter for a chance at success. Now, her daughter, Kang Yi Sol (Lee Sung Kyung) appears in front of her. Kang Yi Sol resents her mother for abandoning her.

    Park Jae Joon (Yoon Park) is the husband's younger brother. He is popular with women, but he is attracted to Kang Yi-Sol.

    Cast
    Kim Sung Ryung as Rena Jung / Jung Eun Hye
    Lee Sung Kyung as Kang Yi Sol
    Yoon Park as Park Jae Joon
    Lee Jong Hyuk as Park Min Joon




    Code
    Video
    ID                             : 1
    Format                         : AVC
    Format/Info                    : Advanced Video Codec
    Format profile                 : High@L5.1
    Format settings, CABAC         : Yes
    Format settings, ReFrames      : 4 frames
    Codec ID                       : V_MPEG4/ISO/AVC
    Duration                       : 1h 24mn
    Bit rate                       : 887 Kbps
    Nominal bit rate               : 2 496 Kbps
    Width                          : 1 280 pixels
    Height                         : 720 pixels
    Display aspect ratio           : 16:9
    Frame rate mode                : Constant
    Frame rate                     : 29.970 fps
    Color space                    : YUV
    Chroma subsampling             : 4:2:0
    Bit depth                      : 8 bits
    Scan type                      : Progressive
    Bits/(Pixel*Frame)             : 0.032
    Stream size                    : 535 MiB (68%)
    Writing library                : x264 core 130 r2273 b3065e6
    Encoding settings              : cabac=1 / ref=3 / deblock=1:0:0 / analyse=0x3:0x113 / me=hex / subme=7 / psy=1 / psy_rd=1.00:0.00 / mixed_ref=1 / me_range=16 / chroma_me=1 / trellis=1 / 8x8dct=1 / cqm=0 / deadzone=21,11 / fast_pskip=1 / chroma_qp_offset=-2 / threads=1 / lookahead_threads=1 / sliced_threads=0 / nr=0 / decimate=1 / interlaced=0 / bluray_compat=0 / constrained_intra=0 / bframes=3 / b_pyramid=2 / b_adapt=1 / b_bias=0 / direct=1 / weightb=1 / open_gop=0 / weightp=2 / keyint=300 / keyint_min=29 / scenecut=40 / intra_refresh=0 / rc_lookahead=40 / rc=2pass / mbtree=1 / bitrate=2496 / ratetol=1.0 / qcomp=0.60 / qpmin=0 / qpmax=69 / qpstep=4 / cplxblur=20.0 / qblur=0.5 / vbv_maxrate=300000 / vbv_bufsize=300000 / nal_hrd=none / ip_ratio=1.40 / aq=1:1.00
    Default                        : Yes
    Forced                         : No

    Audio
    ID                             : 2
    Format                         : AC-3
    Format/Info                    : Audio Coding 3
    Mode extension                 : CM (complete main)
    Format settings, Endianness    : Big
    Codec ID                       : A_AC3
    Duration                       : 1h 24mn
    Bit rate mode                  : Constant
    Bit rate                       : 384 Kbps
    Channel(s)                     : 2 channels
    Channel positions              : Front: L R
    Sampling rate                  : 44.1 KHz
    Bit depth                      : 16 bits
    Compression mode               : Lossy
    Stream size                    : 232 MiB (30%)
    Language                       : Korean
    Default                        : Yes
    Forced                         : No



    0 0

    Original Post: Eye in the Sky - 2015 - (Dual Audio) HK-TVB Complete TV Drama Series

    Eye in the Sky - 2015 - (Dual Audio) HK-TVB Complete TV Drama Series c/w. English Subs.

    Title : 天眼
    English title: Eye in the Sky
    Also known as : Heaven's Eye
    Episodes: 20
    Year: 2015
    Producer: Dave Fong
    Genre: Action Police / Mystery / Suspense / Crime Thriller Drama
    Runtime: Above 41mins.
    Country: Hong Kong
    Language: Chinese (Cantonese or Mandarin) [Selectable]
    Subtitles: Traditional Chinese / English - Selectable
    Info Link :
    IMDb Link...............: Not Listed
    English Wiki Link......: http://en.wikipedia.org/wiki/Eye_in_the_Sky_%28TV_series%29
    Wiki.d-addicts Link..: http://wiki.d-addicts.com/Eye_In_The_Sky
    Jaynestars Link.......: http://www.jaynestars.com/tv-dramas/synopsis-of-tvbs-eye-in-the-sky/
    K-tvb.net................: http://k-tvb.net/new-series-eye-in-the-sky/

    Synopsis:
    Eye in the Sky also known as "Heaven's Eye" is a 2015 Hong Kong crime thriller television drama created and produced by TVB, starring Kevin Cheng, Tavia Yeung and Ruco Chan as the main leads, with Tony Hung, Samantha Ko and Rosina Lin in main supporting roles. Filming took place from May till August 2014. The drama began airing on Hong Kong's Jade and HD Jade channels March 2 till 27, 2015 every Monday through Friday during its 9:30-10:30 pm timeslot with a total of 20 episodes.
    Does the "eye in the sky" see everything? Is everything it sees really what it seems? CID detective Szeto Shun (Kevin Cheng) is forced to ask himself these questions when he's implicated in an arson case through surveillance footage that places someone who looks exactly like him at the scene of the crime. Although he's eventually acquitted, he loses his job, and subsequently becomes the head of security at the posh Y Suite Hotel.
    Private investigator Jan Ng (Tavia Yeung) has harbored a crush on Shun ever since witnessing him valiantly take down a criminal. She's happily surprised when he seemingly approaches her to help him tail someone. After a thrilling ordeal, the two have a one-night stand, but when she meets Shun again at the Y Suite Hotel, he insists that he's never met her.
    Y Suite Hotel security guard Cheng Nik Hang (Ruco Chan) seems to be the very definition of a nice, affable guy. In truth, he's a career criminal with past ties to Shun. Torn between his criminal life and starting over, Nik Hang slowly develops a friendship with Shun, and together, they investigate the arson case that cost Shun his job.

    Former regional crime unit officer SZETO SHUN (Kevin Cheng), who is suspected in connection to an alleged arson, has to resign from the police force and change his career to join a security company, where he encounters CHENG NIK-HANG (Ruco Chan). Although SHUN, the former elite cop, seems a bit aloof, he is very observant, and often recognizes rarely-known clues from surveillance videos to help solve criminal cases. NIK-HANG's thoughts and tenor of his ways are similar to SHUN's, and he is also excellent at work. Gradually, the two become good friends. Their supervisor KONG WUI-HOI (Lau Kong) also considers the two as his right-hand men until a private detective NG CHUN-NI (Tavia Yeung) appears. CHUN-NI mistakes SHUN for her old friend, triggering a dispute between the two. That makes SHUN reflect on the past event that he almost forgets about, which turns out to be involving the suspected arsonist. CHUN-NI, who is gifted with an eidetic memory, goes to probe into the matter together with SHUN and NIK-HANG. Unexpectedly, the closer they get to the full truth, the more intense the conflict between reason and law becomes. On top of that, the relationship among the three also undergoes a drastic change......

    Cast:
    Kevin Cheng
    Ruco Chan
    Tavia Yeung
    Tony Hung
    Samantha Ko
    Lin Xia Wei
    Cheung Wing Hong
    Wai Ka Hung
    Lau Kong
    Jade Leung
    Becky Lee
    Vivien Yeo
    Susan Tse
    Law Lok Lam
    Devily Leung
    Angelina Lo
    King Kong
    Henry Yue
    Suet Nei
    Celine Ma
    Fanny Yip
    Gogo Cheung
    Kelvin Chan
    Calvin Chan
    Lam King Kong
    Yeung Ching Wa

    Screenshots:


    File/Movie Technical Info:
    Source...............: DVD5 PAL

    Video:
    File Format.........: H.264/AVC Mastroska Version 1
    File Size.............: 21.24GB.
    Codec................: V_MPEG4/ISO/AVC
    Frame Rate........: 25fps
    Resolution...........: 720x408p
    Display AR...........: 16:9
    Video Bitrate........: Above 3000Kbps

    Audio:
    Audio Language......: Cantonese or Mandarin (Selectable)
    Format...................: MPEG2/4 Audio
    Codec....................: AAC (Advanced Audio Codec)
    Audio Bitrate.......... : 320 Kbps
    Channel(s)............. : AAC 48000Hz 2CH. Stereo [Audio]
    Sampling rate..........: 48.0 KHz

    Theme Song of Eye in the Sky:


    Uploader’s Comments:

    Coming Soon:
    Armed Reaction III (2001), Armed Reaction III (2004), Take My Word For IT - 2002, Seven Sisters - 2001 & Greed Mask - 2003


    0 0
  • 05/09/15--06:56: Fuben na Benriya ep05 480p
  • Original Post: Fuben na Benriya ep05 480p



    http://wiki.d-addicts.com/Fuben_na_Benriya
    http://asianwiki.com/Fuben_na_Benriya

    Title: 不便な便利屋
    Title (romaji): Fuben na Benriya
    Format: Renzoku
    Genre: Comedy
    Episodes: TBD
    Broadcast network: TV Tokyo
    Broadcast period: 2015-Apr-10 start
    Air time: Friday 24:12
    Theme song: The Place Has No Name by Straightener
    Language: Japanese
    Country: Japan
    Subtitles: English here: Monchi
    RAW credit tot furransu

    Cast
       Okada Masaki as Takeyama Jun
       Suzuki Kosuke as Matsui Hideo
       Endo Kenichi as Umemoto Soichi
       Moriyama Eiji (森山栄治)
       Triendl Reina
       Morisaka Hiroyuki (森崎博之)
       Sakuma Mio (さくまみお)
       Tanaka Yoji
       Inoue Takashi

    Guests
       Tokito Saburo (ep1)
       Otoo Takuma (ep1)
       Shiratori Kumiko (白鳥久美子) (ep1)
       Uchiyama Rina
       Kohinata Fumiyo
       Sato Megumi
       Suzuki Fuku
       Takei Ryosuke (竹井亮介)
       Tanaka Misako
       Yanagisawa Shingo
       Yamashita Rio

    Synopsis
    Matsui runs a benriya (odd jobs for hire) in a small nameless Hokkaido village. Umemoto has divorced 3 times. Screenwriter Takeyama (Masaki Okada) wants to go to Furano, but the bus to Furano becomes stranded due to a snowstorm. Takeyama stops at a bar to eat something, but at the bar he loses his wallet and cellphone. Takeyama is now obliged to stay in the small and nameless village. Matsui, Umemoto and Takeyama are now all at Matsui’s Benriya.

    General
    Complete name                  : Fuben na Benriya ep05 (848x480 x264).mp4
    Format                         : MPEG-4
    Format profile                 : Base Media
    Codec ID                       : isom
    File size                      : 213 MiB
    Duration                       : 29mn 8s
    Overall bit rate mode          : Variable
    Overall bit rate               : 1 020 Kbps

    Video
    ID                             : 1
    Format                         : AVC
    Format/Info                    : Advanced Video Codec
    Format profile                 : High@L4.1
    Format settings, CABAC         : Yes
    Format settings, ReFrames      : 4 frames
    Codec ID                       : avc1
    Codec ID/Info                  : Advanced Video Coding
    Duration                       : 29mn 7s
    Bit rate                       : 888 Kbps
    Maximum bit rate               : 4 380 Kbps
    Width                          : 848 pixels
    Height                         : 480 pixels
    Display aspect ratio           : 16:9
    Frame rate mode                : Constant
    Frame rate                     : 29.970 fps
    Color space                    : YUV
    Chroma subsampling             : 4:2:0
    Bit depth                      : 8 bits
    Scan type                      : Progressive
    Bits/(Pixel*Frame)             : 0.073
    Stream size                    : 185 MiB (87%)

    Audio
    ID                             : 2
    Format                         : AAC
    Format/Info                    : Advanced Audio Codec
    Format profile                 : LC
    Codec ID                       : 40
    Duration                       : 29mn 8s
    Bit rate mode                  : Variable
    Bit rate                       : 128 Kbps
    Maximum bit rate               : 135 Kbps
    Channel count                  : 2 channels
    Channel positions              : Front: L R
    Sampling rate                  : 48.0 KHz
    Compression mode               : Lossy



    0 0

    Original Post: Chosun Police Season 1 (2007) DVDrip XviD Complete GAiA


    Title:별순검 / Chosun Police Season 1
    Also knwon as: Chosun Police / Korean Traditional Scientific Investigators
    Genre: Period, mystery
    Episodes: 20
    Broadcast network: MBC (MBC DramaNet)
    Broadcast period: 2007-Oct-13 to 2007-Dec-15
    Air time: Saturday 23:00 (2 episodes in a row)
    Subtitles:NONE

    Synopsis
    The story revolves around criminal investigation and forensic procedures in the late Chosun era, following the activities of an undercover special task force that was established to counter the increasing number of crimes resulting from political turmoil in the period. Kang Seung Jo and Kim Kang Woo lead the team of elite investigators as they uncover the circumstances behind mysterious deaths and other crimes.

    Cast
    Ryu Seung Ryong as Kang Seung Jo
    Ohn Joo Wan as Kim Kang Woo
    Park Hyo Joo as Yeo Jin
    Ahn Nae Sang as Bae Bok Geun
    Kim Moo Yul as Oh Duk
    Ha Jae Sook as Neung Gum
    Lee Il Woong as Ryu Chi Kyung
    Jang Se Yoon as Yong Sun
    Hwang Eun Hye as Eun Ji
    Kwon Sung Hyun as Lee Kyung Sook
    Song Young Kyu as Song Shi Woon (ep6)
    Choi Min as Park Dal Goo
    Kim Chung
    Kim Min Kyu
    Jung Gyu Soo
    Seo Kap Sook
    Kim Bu Sun
    Kim Yong Sun
    Min Joon Hyun
    Kim Sung Oh
    Lee Mi So
    Min Ah Ryung
    Chae Bin
    Ban Min Jung

    Director: Producer: Lee Eun Woo (이은우)
    Director: Lee Seung Young (이승영), Kim Byung Soo
    Screenwriter: Hwang Hye Ryung (황혜령), Jung Yoon Jung (정윤정), Yang Jin Ah (양진아)

    Warning!
    Episode 4 SDTVrip. If you have got Chosun.Police.S01.E04.DVDRip.XviD-GAiA or original DVD, please upload it, and I reupload complete batch. Thank you!




    Code
    Video
    ID                          : 0
    Format                      : MPEG-4 Visual
    Format profile              : Advanced Simple@L5
    Format settings, BVOP       : 2
    Format settings, QPel       : No
    Format settings, GMC        : No warppoints
    Format settings, Matrix     : Default (H.263)
    Muxing mode                 : Packed bitstream
    Codec ID                    : XVID
    Codec ID/Hint               : XviD
    Duration                    : 1h 2mn
    Bit rate                    : 1 384 Kbps
    Width                       : 576 pixels
    Height                      : 432 pixels
    Display aspect ratio        : 4:3
    Frame rate                  : 29.970 fps
    Color space                 : YUV
    Chroma subsampling          : 4:2:0
    Bit depth                   : 8 bits
    Scan type                   : Progressive
    Compression mode            : Lossy
    Bits/(Pixel*Frame)          : 0.186
    Stream size                 : 621 MiB (89%)
    Writing library             : XviD 1.2.0.dev47 (UTC 2006-11-01)

    Audio
    ID                          : 1
    Format                      : MPEG Audio
    Format version              : Version 1
    Format profile              : Layer 3
    Codec ID                    : 55
    Codec ID/Hint               : MP3
    Duration                    : 1h 2mn
    Bit rate mode               : Variable
    Bit rate                    : 160 Kbps
    Minimum bit rate            : 160 Kbps
    Channel(s)                  : 2 channels
    Sampling rate               : 48.0 KHz
    Compression mode            : Lossy
    Stream size                 : 71.8 MiB (10%)
    Alignment                   : Aligned on interleaves
    Interleave, duration        : 24 ms (0.72 video frame)
    Interleave, preload duratio : 326 ms
    Writing library             : LAME3.90.
    Encoding settings           : -m s -V 5 -q 2 -lowpass 16.2 --vbr-new -b 160



    0 0

    Original Post: Kabukimono Keiji EP04 720p HDTV x264 AAC-DoA



    https://jdramas.wordpress.com/2015/04/25/kabukimono-keiji/


    Title: Kabukimono Keiji
    Genre: jidaigeki
    Number of Episodes: 11
    Broadcaster NHK
    Air date: 04/09/2015 - 06/18/2015
    Air time: Thursday, 20:00
    Subtitles: None - [url=][/url]
    RAW credit to DoA


    Cast
    Spoiler:show

       Fuji Tatsuya as Maeda Keiji
       Nakamura Aoi as Maeda Shinkurou
       Nishiuchi Mariya as Maeda Sano
       Kudo Asuka as Yasuda Katsunoshin
       Enami Kyoko as Maeda Mitsu
       Aoyama Noriko as Maeda Hana
       Dan Mitsu as Shizuku
       Yoo Min as Yukiyo
       Tabata Tomoko as Take
       Maeda Beverly as Izumi-kyoku
       Kakuda Nobuaki as Kitagawa Jiuemon
       Ibu Masato as Tentoku Osho
       Hino Shohei as Matayoshi


    Synopsis
    Spoiler:show

    1608 (Keichou 13) was the year Tokugawa Ieyasu won the Battle of Sekigahara. Under Ieyasu’s reign the Uesugis had their vast 1,200,000 koku holdings in Aizu drastically curtailed to 300,000 koku in Yonezawa, Dewa Province. Many vassals give up on the future and leave the Uesugis. In the midst of this, Maeda Keiji continues to remain in Yonezawa and chooses to live with people trying to cope with difficult times. Over 60, he lives in a shabby, secluded hut and contemplates the “right time”. On the other hand, his son, Shinkuro, objects to him being fond of drinking and absorbed in cultural pursuits such as poetry, painting and calligraphy, and nothing like the brave general he is famed to be with the rumours of the Tokugawa plotting the demise of the Uesugis. However, Keiji “performs” when it comes to the crunch. Although he has considered retirement, he is willing to sacrifice himself in order to protect the Uesugis. Shinkuro is gradually fascinated by his magnanimity and his way of life. Keiji is in no hurry to hand over the reins of the family to Shinkuro. Furthermore, Keiji’s daughter, Sano, comes from the Maedas of Kaga to bring her father back and both Shinkuro and Sano are shocked to learn of the existence of a sibling for the first time. In the midst of this, Kitagawa Jiemon a wandering samurai who once fought with Keiji, challenges him to a duel.


    Mediainfo
    Spoiler:show

    Code
    Format                                   : Matroska
    Format version                           : Version 4 / Version 2
    File size                                : 820 MiB
    Duration                                 : 42mn 59s
    Overall bit rate                         : 2 666 Kbps
    Encoded date                             : UTC 2015-05-05 09:23:40
    Writing application                      : mkvmerge v7.0.0 ('Where We Going') 32bit built on Jun  9 2014 15:08:34
    Writing library                          : libebml v1.3.0 + libmatroska v1.4.1
    DURATION                                 : 00:42:59.669000000
    NUMBER_OF_FRAMES                         : 120922
    NUMBER_OF_BYTES                          : 45345750
    _STATISTICS_WRITING_APP                  : mkvmerge v7.0.0 ('Where We Going') 32bit built on Jun  9 2014 15:08:34
    _STATISTICS_WRITING_DATE_UTC             : 2015-05-05 09:23:40
    _STATISTICS_TAGS                         : BPS DURATION NUMBER_OF_FRAMES NUMBER_OF_BYTES

    Video
    ID                                       : 1
    Format                                   : AVC
    Format/Info                              : Advanced Video Codec
    Format profile                           : High@L4.1
    Format settings, CABAC                   : Yes
    Format settings, ReFrames                : 9 frames
    Codec ID                                 : V_MPEG4/ISO/AVC
    Duration                                 : 42mn 59s
    Width                                    : 1 280 pixels
    Height                                   : 720 pixels
    Display aspect ratio                     : 16:9
    Frame rate mode                          : Constant
    Frame rate                               : 29.970 fps
    Color space                              : YUV
    Chroma subsampling                       : 4:2:0
    Bit depth                                : 8 bits
    Scan type                                : Progressive
    Writing library                          : x264 core 146 r2538 121396c
    Encoding settings                        : cabac=1 / ref=9 / deblock=1:-3:-3 / analyse=0x3:0x133 / me=umh / subme=10 / psy=1 / psy_rd=1.00:0.00 / mixed_ref=1 / me_range=48 / chroma_me=1 / trellis=2 / 8x8dct=1 / cqm=0 / deadzone=21,11 / fast_pskip=0 / chroma_qp_offset=-2 / threads=12 / lookahead_threads=2 / sliced_threads=0 / nr=0 / decimate=1 / interlaced=0 / bluray_compat=0 / constrained_intra=0 / bframes=8 / b_pyramid=2 / b_adapt=2 / b_bias=0 / direct=3 / weightb=1 / open_gop=0 / weightp=2 / keyint=300 / keyint_min=29 / scenecut=40 / intra_refresh=0 / rc_lookahead=60 / rc=crf / mbtree=1 / crf=18.0 / qcomp=0.60 / qpmin=0 / qpmax=69 / qpstep=4 / ip_ratio=1.40 / aq=1:1.00
    Language                                 : English
    Default                                  : Yes
    Forced                                   : No
    DURATION                                 : 00:42:59.844000000
    NUMBER_OF_FRAMES                         : 77318
    NUMBER_OF_BYTES                          : 813612931
    _STATISTICS_WRITING_APP                  : mkvmerge v7.0.0 ('Where We Going') 32bit built on Jun  9 2014 15:08:34
    _STATISTICS_WRITING_DATE_UTC             : 2015-05-05 09:23:40
    _STATISTICS_TAGS                         : BPS DURATION NUMBER_OF_FRAMES NUMBER_OF_BYTES

    Audio
    ID                                       : 2
    Format                                   : AAC
    Format/Info                              : Advanced Audio Codec
    Format profile                           : LC
    Codec ID                                 : A_AAC
    Duration                                 : 42mn 59s
    Channel(s)                               : 2 channels
    Channel positions                        : Front: L R
    Sampling rate                            : 48.0 KHz
    Compression mode                         : Lossy
    Delay relative to video                  : 13ms
    Default                                  : Yes
    Forced                                   : No





    0 0

    Original Post: Mother Game EP04 720p HDTV x264 AAC-DoA



    http://wiki.d-addicts.com/Mother_Game
    http://asianwiki.com/Mother_Game
    http://thetvdb.com/?tab=series&id=293381&lid=7

    Title (English): Mother Game
    Also known as: The Mother Class
    Tagline: 彼女たちの階級 / Kanojotachi no Kaikyuu
    Format: Renzoku
    Genre: Family
    Episodes: TBD
    Broadcast network: TBS
    Broadcast period: 2015-Apr-14 start
    Air time: Tuesday 22:00
    Theme song: Beautiful by Superfly
    Subtitles: English - Yukkuri Subs
    RAW credit to DoA


    Cast

    Kanbara Family

       Kimura Fumino as Kanbara Kiko
       Ryu Raita as Kanbara Tetsuji
       Yamamoto Ayumu (横山歩) as Kanbara Haruto

    Odadera Family

       Dan Rei as Odadera Marie
       Igarashi Hinata (五十嵐陽向) as Odadera Makoto

    Yano Family

       Hasegawa Kyoko as Yano Satoko
       Hasegawa Kiyo (長谷川稀世) as Yano Shizuko
       Sakurai Hijiri as Yano Masaki
       Kanon as Yano Reina
       Watanabe Reika (渡邊れいら) as Yano Erina
       Oe Yusei (大江優成) as Yano Yuuki

    Kamiya Family

       Kanjiya Shihori as Kamiya Yuki
       Shinoda Mitsuyoshi as Kamiya Kyoji
       Goto Yuira (後藤由依良) as Kamiya Sakurako

    Goto Family

       Adachi Yumi as Goto Midori
       Maruyama Tomomi as Goto Rika
       Yazaki Yusa (矢崎由紗) as Goto Shuhei

    Others

       Muroi Shigeru as Naraoka Fumi
       Seto Koji as Naraoka Shinnosuke
       Okada Yoshinori as Kashiyama Hidenori
       Emi Kurara as Yamakawa Mamiko
       Tominaga Saori (富永沙織) as Tsunoda Kayo
       Kamiji Yusuke as Isoyama Takumi
       Tanaka Naoki as Member of staff
       Toyohara Kosuke as Mysterious Man
       Shibukawa Kiyohiko (渋川清彦) as Kashiwagi Kunpei


    Synopsis

    Kanbara Kiko is a poor single mother whose 5-year-old son, Haruto, gets admitted to a prestigious kindergarten in an unexpected turn of events. One Haruto's first day of school, high-end cars are backed up in front of the kindergarten’s front gate. Mothers swagger on high heels within the compound and carry luxury brand bags. Although Kiko is shocked by the reality of this kindergarten where she is out of her element, she expresses her feelings directly to the mothers who regard her as an enemy. With her vivacity and compassion, she starts to change the thinking and establish new bonds with these rigid women living in a completely different world and generation. -- Jdrama Weblog


    Mediainfo
    Spoiler:show

    Code
    Format                                   : Matroska
    Format version                           : Version 4 / Version 2
    File size                                : 1.06 GiB
    Duration                                 : 46mn 29s
    Overall bit rate                         : 3 255 Kbps
    Movie name                               : マザー・ゲーム~彼女たちの階級~ #04 720p HDTV x264 AAC-DoA
    Encoded date                             : UTC 2015-05-06 10:35:38
    Writing application                      : mkvmerge v7.8.0 ('River Man') 64bit built on Mar 27 2015 16:31:37
    Writing library                          : libebml v1.3.1 + libmatroska v1.4.2
    DURATION                                 : 00:46:29.760000000
    NUMBER_OF_FRAMES                         : 130770
    NUMBER_OF_BYTES                          : 65777284
    _STATISTICS_WRITING_APP                  : mkvmerge v7.8.0 ('River Man') 64bit built on Mar 27 2015 16:31:37
    _STATISTICS_WRITING_DATE_UTC             : 2015-05-06 10:35:38
    _STATISTICS_TAGS                         : BPS DURATION NUMBER_OF_FRAMES NUMBER_OF_BYTES

    Video
    ID                                       : 1
    Format                                   : AVC
    Format/Info                              : Advanced Video Codec
    Format profile                           : High@L4.1
    Format settings, CABAC                   : Yes
    Format settings, ReFrames                : 9 frames
    Codec ID                                 : V_MPEG4/ISO/AVC
    Duration                                 : 46mn 29s
    Width                                    : 1 280 pixels
    Height                                   : 720 pixels
    Display aspect ratio                     : 16:9
    Frame rate mode                          : Constant
    Frame rate                               : 29.970 fps
    Color space                              : YUV
    Chroma subsampling                       : 4:2:0
    Bit depth                                : 8 bits
    Scan type                                : Progressive
    Title                                    : Encode by DoA
    Writing library                          : x264 core 130 r2273 b3065e6
    Encoding settings                        : cabac=1 / ref=9 / deblock=1:-2:-2 / analyse=0x3:0x133 / me=umh / subme=10 / psy=1 / psy_rd=1.00:0.15 / mixed_ref=1 / me_range=48 / chroma_me=1 / trellis=2 / 8x8dct=1 / cqm=0 / deadzone=21,11 / fast_pskip=0 / chroma_qp_offset=-3 / threads=12 / lookahead_threads=2 / sliced_threads=0 / nr=0 / decimate=1 / interlaced=0 / bluray_compat=0 / constrained_intra=0 / bframes=8 / b_pyramid=2 / b_adapt=2 / b_bias=0 / direct=3 / weightb=1 / open_gop=0 / weightp=2 / keyint=300 / keyint_min=29 / scenecut=40 / intra_refresh=0 / rc_lookahead=60 / rc=crf / mbtree=1 / crf=17.5 / qcomp=0.60 / qpmin=0 / qpmax=69 / qpstep=4 / ip_ratio=1.40 / aq=1:1.00
    Language                                 : Japanese
    Default                                  : Yes
    Forced                                   : No
    DURATION                                 : 00:46:29.920000000
    NUMBER_OF_FRAMES                         : 83614
    NUMBER_OF_BYTES                          : 1068498695
    _STATISTICS_WRITING_APP                  : mkvmerge v7.8.0 ('River Man') 64bit built on Mar 27 2015 16:31:37
    _STATISTICS_WRITING_DATE_UTC             : 2015-05-06 10:35:38
    _STATISTICS_TAGS                         : BPS DURATION NUMBER_OF_FRAMES NUMBER_OF_BYTES

    Audio
    ID                                       : 2
    Format                                   : AAC
    Format/Info                              : Advanced Audio Codec
    Format profile                           : LC
    Codec ID                                 : A_AAC
    Duration                                 : 46mn 29s
    Channel(s)                               : 2 channels
    Channel positions                        : Front: L R
    Sampling rate                            : 48.0 KHz
    Compression mode                         : Lossy
    Delay relative to video                  : 11ms
    Language                                 : Japanese
    Default                                  : Yes
    Forced                                   : No

    Menu
    00:00:00.000                             : ja:マザー・ゲーム~彼女たちの階級~ #04 Part 1
    00:08:45.791                             : ja:オープニング
    00:09:09.348                             : ja:マザー・ゲーム~彼女たちの階級~ #04 Part 2
    00:17:24.943                             : ja:マザー・ゲーム~彼女たちの階級~ #04 Part 3
    00:22:27.946                             : ja:マザー・ゲーム~彼女たちの階級~ #04 Part 4
    00:31:03.928                             : ja:マザー・ゲーム~彼女たちの階級~ #04 Part 5
    00:46:14.972                             : ja:次回予告





    0 0

    Original Post: God of Gamblers 1989 Blu-ray 1080p AVC DTS-HD MA 5.1



    Detail:
    Title: God of Gamblers
    Genre: Action, Comedy, Drama
    Release Date: 14 December 1989 (Hong Kong)
    Runtime: 126 min
    Director: Wong Jing
    Rating: 7.5/10 from 2,879 users
    Country: Hong Kong
    Language: Cantonese, Mandarin
    Subtitles: English, Chinese T/S
    imdb: http://www.imdb.com/title/tt0097244/

    Synopsis:
    Do San (the God of gamblers) is a legendary gambler helped by his supernatural abilities. He undertakes to help a friend pay a debt by beating his friend‘s advisory at the card table. Despite being assigned a bodyguard Do San has a freak accident which leaves him with partial memory loss and at a mental stage of a child. The small time hustler Knife, his side-kick and his girl friend, being responsible for the accident takes care of the retarded Do San. After some time they discover that he has not lost all of his powers and takes him on a round at the local gambling halls. After being chased by both Knife‘s loan-shark and enemies closer to the home of Do San, a final showdown at the card tables may take place.

    DISC INFO:

    Disc Title: God of Gamblers 1989 Blu-ray 1080p AVC DTS-HD MA 5.1
    Disc Size: 23,118,028,644 bytes
    Protection: AACS
    BD-Java: No
    BDInfo: 0.5.8

    PLAYLIST REPORT:

    Name: 00001.MPLS
    Length: 2:06:19.166 (h:m:s.ms)
    Size: 22,435,282,944 bytes
    Total Bitrate: 23.68 Mbps

    VIDEO:

    Codec Bitrate Description
    ----- ------- -----------
    MPEG-4 AVC Video 20000 kbps 1080p / 24 fps / 16:9 / High Profile 4.1

    AUDIO:

    Codec Language Bitrate Description
    ----- -------- ------- -----------
    DTS-HD Master Audio Chinese 1873 kbps 5.1 / 48 kHz / 1873 kbps / 16-bit (DTS Core: 5.1 / 48 kHz / 1509 kbps / 16-bit)
    Dolby Digital Audio Chinese 384 kbps 2.0 / 48 kHz / 384 kbps

    SUBTITLES:

    Codec Language Bitrate Description
    ----- -------- ------- -----------
    Presentation Graphics Chinese 36.285 kbps
    Presentation Graphics Chinese 35.570 kbps
    Presentation Graphics English 27.822 kbps




    0 0

    Original Post: Law of the Jungle with Friends E160 720p WITH (Ep. 7 Indochina)



    Hangul: 정글의 법칙
    Genre: Variety Show
    Language: Korean
    Country: South Korea
    Subtitles: No Subtitles

    Cast: Kim Byun-man, Ryu Dam, Son Ho-jun, Raymon Kim, Kim Jong-min, Lim Ji-yeon, Park Hyung-sik, Seo In-guk, Jang Su-won, Lee Sung-jae

    Synopsis:

    Law of the Jungle

    Law of the Jungle (Korean: 정글의 법칙) is a South Korean reality-documentary show on SBS. It was first aired on October 21, 2011. This show is a hybrid of reality-variety television, natural documentaries, and human drama; a new concept of programming.[1] The cast of celebrities travel to primitive, natural places to survive on their own and experience life with local tribes and people.[2] Originally airing at the Friday 11:05 pm KST time slot, the program was switched into Good Sunday for its second season beginning May 6, 2012, airing before Running Man at the 5:00 pm time slot, replacing K-pop Star Season 1.[3] With the return of K-pop Star Season 2 to Good Sunday, the program returned to Friday nights but airing at 10:00 pm instead beginning November 16, 2012.[4] Originally airing as Kim Byung-man's Law of the Jungle (Korean: 김병만의 정글의 법칙) after the creator and "clan leader" Kim Byung-man, "Kim Byung-man's" was dropped from the title beginning in Season 3.

    Special editions of the program air as well featuring a different cast not in the regular time slot. Law of the Jungle W (W for Women) features an all-female cast and generally airs during the Seollal and Chuseok holidays.[5] Law of the Jungle K (K for Kids) features celebrities with their children, and has aired as a Seollal special in 2013.


    Code
    General
    Format                                   : MPEG-4
    Format profile                           : Base Media
    Codec ID                                 : isom
    File size                                : 1.16 GiB
    Duration                                 : 1h 7mn
    Overall bit rate mode                    : Variable
    Overall bit rate                         : 2 455 Kbps

    Video
    ID                                       : 1
    Format                                   : AVC
    Format/Info                              : Advanced Video Codec
    Format profile                           : Baseline@L1.3
    Format settings, CABAC                   : No
    Format settings, ReFrames                : 1 frame
    Codec ID                                 : avc1
    Codec ID/Info                            : Advanced Video Coding
    Duration                                 : 1h 7mn
    Bit rate                                 : 2 200 Kbps
    Maximum bit rate                         : 11.8 Mbps
    Width                                    : 1 280 pixels
    Height                                   : 720 pixels
    Display aspect ratio                     : 16:9
    Frame rate mode                          : Constant
    Frame rate                               : 29.970 fps
    Color space                              : YUV
    Chroma subsampling                       : 4:2:0
    Bit depth                                : 8 bits
    Scan type                                : Progressive
    Bits/(Pixel*Frame)                       : 0.080
    Stream size                              : 1.04 GiB (89%)
    Writing library                          : x264 core 128 r2216 198a7ea
    Encoding settings                        : cabac=0 / ref=1 / deblock=1:0:0 / analyse=0x1:0x111 / me=hex / subme=7 / psy=1 / psy_rd=1.00:0.00 / mixed_ref=0 / me_range=16 / chroma_me=1 / trellis=1 / 8x8dct=0 / cqm=0 / deadzone=21,11 / fast_pskip=1 / chroma_qp_offset=-2 / threads=12 / lookahead_threads=2 / sliced_threads=0 / nr=0 / decimate=1 / interlaced=0 / bluray_compat=0 / constrained_intra=0 / bframes=0 / weightp=0 / keyint=250 / keyint_min=25 / scenecut=40 / intra_refresh=0 / rc_lookahead=40 / rc=abr / mbtree=1 / bitrate=2200 / ratetol=1.0 / qcomp=0.60 / qpmin=0 / qpmax=69 / qpstep=4 / vbv_maxrate=50000 / vbv_bufsize=50000 / nal_hrd=none / ip_ratio=1.40 / aq=1:1.00

    Audio
    ID                                       : 2
    Format                                   : AAC
    Format/Info                              : Advanced Audio Codec
    Format profile                           : LC
    Codec ID                                 : 40
    Duration                                 : 1h 7mn
    Bit rate mode                            : Variable
    Bit rate                                 : 256 Kbps
    Maximum bit rate                         : 264 Kbps
    Channel(s)                               : 2 channels
    Channel positions                        : Front: L R
    Sampling rate                            : 48.0 KHz
    Compression mode                         : Lossy
    Stream size                              : 124 MiB (10%)







    *Please PM me if there is something wrong, Don't ask for subtitle. smile1.gif

    Don't try to HIT AND RUN. Don't forget to seed minimum at least 1.5.. Sharing is GOOD


    0 0

    Original Post: 64 EP03 720p HDTV x264 AAC-DoA



    http://wiki.d-addicts.com/64
    https://jdramas.wordpress.com/2015/04/19/64/
    http://thetvdb.com/?tab=series&id=293166&lid=7


    Title (romaji): 64
    Format: Renzoku
    Genre: Mystery, suspense
    Episodes: 5
    Broadcast network: NHK
    Broadcast period: 2015-Apr-18 to 2015-May-16
    Air time: Saturday 21:00
    Subtitles: None - [url=/][/url]
    RAW credit to DoA


    Cast

       Pierre Taki
       Kimura Yoshino
       Iriyama Anna (入山杏奈)
       Arai Hirofumi
       Nagaoka Takuya (永岡卓也)
       Yamamoto Mizuki
       Nagayama Kento
       Tatsumi Tomoaki (辰巳智秋)
       Umefune Ariei (梅舟惟永)
       Abe Shohei (阿部翔平)
       Kitaro
       Takahashi Kazuya
       Hagiwara Masato
       Mizusawa Shingo (水澤紳吾)
       Nakamura Yuko (中村優子)
       Kokontei Kikunojo (古今亭菊之丞)
       Hira Takehiro
       Ono Ryo
       Yoshida Eisaku
       Nakahara Takeo
       Shibata Kyohei
       Murakami Jun
       Saito Tomoko (斉藤とも子)
       Ando Tamae
       Sato Naoko (佐藤直子)
       Danta Yasunori


    Synopsis

    While the public relations office of D Prefectural Police is having a confrontation with the correspondents' club, over the issue of the anonymity of perpetrators, it is decided that a Tokyo Metropolitan Police Department director will inspect the home of the family of the victim in "64", an important unsolved case with its statute of limitation about to run out one week later. The kidnapping and murder of Shoko-chan which took place in just 7 days in 1989 (Showa 64) was the worst in D Prefectural Police's history. The family of the deceased decline the director's visit to offer condolences. A gag order is imposed on those involved in 64 such as the investigators at the time. An iron curtain between the Criminal Investigations Department and the Police Affairs Department. A mysterious memo. Then a new kidnapping that happens right before the director's inspection, is a exact copycat of 64. -- Jdrama Weblog


    Mediainfo
    Spoiler:show

    Code
    Format                                   : Matroska
    Format version                           : Version 4 / Version 2
    File size                                : 965 MiB
    Duration                                 : 57mn 59s
    Overall bit rate                         : 2 327 Kbps
    Encoded date                             : UTC 2015-05-05 09:21:03
    Writing application                      : mkvmerge v7.0.0 ('Where We Going') 32bit built on Jun  9 2014 15:08:34
    Writing library                          : libebml v1.3.0 + libmatroska v1.4.1
    DURATION                                 : 00:57:59.871000000
    NUMBER_OF_FRAMES                         : 163119
    NUMBER_OF_BYTES                          : 61170777
    _STATISTICS_WRITING_APP                  : mkvmerge v7.0.0 ('Where We Going') 32bit built on Jun  9 2014 15:08:34
    _STATISTICS_WRITING_DATE_UTC             : 2015-05-05 09:21:03
    _STATISTICS_TAGS                         : BPS DURATION NUMBER_OF_FRAMES NUMBER_OF_BYTES

    Video
    ID                                       : 1
    Format                                   : AVC
    Format/Info                              : Advanced Video Codec
    Format profile                           : High@L4.1
    Format settings, CABAC                   : Yes
    Format settings, ReFrames                : 9 frames
    Codec ID                                 : V_MPEG4/ISO/AVC
    Duration                                 : 57mn 59s
    Width                                    : 1 280 pixels
    Height                                   : 720 pixels
    Display aspect ratio                     : 16:9
    Frame rate mode                          : Constant
    Frame rate                               : 29.970 fps
    Color space                              : YUV
    Chroma subsampling                       : 4:2:0
    Bit depth                                : 8 bits
    Scan type                                : Progressive
    Writing library                          : x264 core 146 r2538 121396c
    Encoding settings                        : cabac=1 / ref=9 / deblock=1:-3:-3 / analyse=0x3:0x133 / me=umh / subme=10 / psy=1 / psy_rd=1.00:0.00 / mixed_ref=1 / me_range=48 / chroma_me=1 / trellis=2 / 8x8dct=1 / cqm=0 / deadzone=21,11 / fast_pskip=0 / chroma_qp_offset=-2 / threads=12 / lookahead_threads=2 / sliced_threads=0 / nr=0 / decimate=1 / interlaced=0 / bluray_compat=0 / constrained_intra=0 / bframes=8 / b_pyramid=2 / b_adapt=2 / b_bias=0 / direct=3 / weightb=1 / open_gop=0 / weightp=2 / keyint=300 / keyint_min=29 / scenecut=40 / intra_refresh=0 / rc_lookahead=60 / rc=crf / mbtree=1 / crf=18.0 / qcomp=0.60 / qpmin=0 / qpmax=69 / qpstep=4 / ip_ratio=1.40 / aq=1:1.00
    Language                                 : English
    Default                                  : Yes
    Forced                                   : No
    DURATION                                 : 00:57:59.909000000
    NUMBER_OF_FRAMES                         : 104293
    NUMBER_OF_BYTES                          : 949746423
    _STATISTICS_WRITING_APP                  : mkvmerge v7.0.0 ('Where We Going') 32bit built on Jun  9 2014 15:08:34
    _STATISTICS_WRITING_DATE_UTC             : 2015-05-05 09:21:03
    _STATISTICS_TAGS                         : BPS DURATION NUMBER_OF_FRAMES NUMBER_OF_BYTES

    Audio
    ID                                       : 2
    Format                                   : AAC
    Format/Info                              : Advanced Audio Codec
    Format profile                           : LC
    Codec ID                                 : A_AAC
    Duration                                 : 57mn 59s
    Channel(s)                               : 2 channels
    Channel positions                        : Front: L R
    Sampling rate                            : 48.0 KHz
    Compression mode                         : Lossy
    Delay relative to video                  : 11ms
    Default                                  : Yes
    Forced                                   : No





    0 0

    Original Post: Wolf Totem 2015 720p BluRay x264-WiKi





    Detail:
    Title: Wolf Totem
    Genre: Adventure
    Release Date: 19 February 2015
    Runtime: 121 min
    Director: Jean-Jacques Annaud
    Rating: 7.0/10 from 144 users
    Country: China
    Language: Mandarin
    Subtitles:Chinese

    Synopsis:
    In 1967, a young Beijing student, Chen Zhen, is sent to live among the nomadic herdsmen of Inner Mongolia. Caught between the advance of civilization from the south and the nomads' traditional enemies - the marauding wolves - to the north; humans and animals, residents and invaders alike, struggle to find their true place in the world.

    Cast:
    Shaofeng Feng, Shawn Dou, Ankhnyam Rachaa








    Code

    Video
    ID                                       : 1
    Format                                   : AVC
    Format/Info                              : Advanced Video Codec
    Format profile                           : High@L4.1
    Format settings, CABAC                   : Yes
    Format settings, ReFrames                : 11 frames
    Codec ID                                 : V_MPEG4/ISO/AVC
    Duration                                 : 2h 1mn
    Bit rate                                 : 5 806 Kbps
    Width                                    : 1 280 pixels
    Height                                   : 572 pixels
    Display aspect ratio                     : 2.25:1
    Frame rate                               : 24.000 fps
    Color space                              : YUV
    Chroma subsampling                       : 4:2:0
    Bit depth                                : 8 bits
    Scan type                                : Progressive
    Bits/(Pixel*Frame)                       : 0.330
    Stream size                              : 4.80 GiB (88%)
    Writing library                          : x264 core 129 r2245+704+36 8e61944 tMod+MixAQ [8-bit@4:2:0 X86_64]
    Encoding settings                        : cabac=1 / ref=11 / deblock=1:-3:-3 / analyse=0x3:0x133 / me=umh / subme=11 / psy=1 / fade_compensate=0.00 / psy_rd=1.05:0.10 / mixed_ref=1 / me_range=32 / chroma_me=1 / trellis=2 / 8x8dct=1 / cqm=0 / deadzone=21,11 / fast_pskip=0 / chroma_qp_offset=-3 / threads=18 / lookahead_threads=3 / sliced_threads=0 / nr=0 / decimate=0 / interlaced=0 / bluray_compat=0 / constrained_intra=0 / fgo=0 / bframes=10 / b_pyramid=2 / b_adapt=2 / b_bias=0 / direct=3 / weightb=1 / open_gop=0 / weightp=2 / keyint=250 / keyint_min=24 / scenecut=40 / intra_refresh=0 / rc_lookahead=80 / rc=2pass / mbtree=1 / bitrate=5806 / ratetol=1.0 / qcomp=0.70 / qpmin=0 / qpmax=69 / qpstep=4 / cplxblur=20.0 / qblur=0.5 / ip_ratio=1.40 / aq=3 / aq-strength=0.85 / aq-sensitivity=10.00 / aq-ifactor=1.00 / aq-pfactor=1.00 / aq-bfactor=1.00 / aq2=0
    Language                                 : Chinese
    Default                                  : Yes
    Forced                                   : No
    Matrix coefficients                      : BT.709-5, BT.1361, IEC 61966-2-4 709, SMPTE RP177

    Audio
    ID                                       : 2
    Format                                   : AC-3
    Format/Info                              : Audio Coding 3
    Mode extension                           : CM (complete main)
    Format settings, Endianness              : Big
    Codec ID                                 : A_AC3
    Duration                                 : 2h 1mn
    Bit rate mode                            : Constant
    Bit rate                                 : 640 Kbps
    Channel(s)                               : 6 channels
    Channel positions                        : Front: L C R, Side: L R, LFE
    Sampling rate                            : 48.0 KHz
    Bit depth                                : 16 bits
    Compression mode                         : Lossy
    Stream size                              : 555 MiB (10%)
    Language                                 : Chinese
    Default                                  : Yes
    Forced                                   : No

    Text #1
    ID                                       : 3
    Format                                   : UTF-8
    Codec ID                                 : S_TEXT/UTF8
    Codec ID/Info                            : UTF-8 Plain Text
    Title                                    : Simplified
    Language                                 : Chinese
    Default                                  : Yes
    Forced                                   : No

    Text #2
    ID                                       : 4
    Format                                   : UTF-8
    Codec ID                                 : S_TEXT/UTF8
    Codec ID/Info                            : UTF-8 Plain Text
    Title                                    : Traditional
    Language                                 : Chinese
    Default                                  : No
    Forced                                   : No



older | 1 | .... | 1337 | 1338 | (Page 1339) | 1340 | 1341 | .... | 1405 | newer