Are you the publisher? Claim or contact us about this channel


Embed this content in your HTML

Search

Report adult content:

click to rate:

Account: (login)

More Channels


Showcase


Channel Catalog


Channel Description:

Asia Torrents RSS Feed

older | 1 | .... | 1338 | 1339 | (Page 1340) | 1341 | 1342 | .... | 1405 | newer

    0 0

    Original Post: The Wife‘s Lies Complete 720P HDTV x264-NGB





    Detail:
    Title: The Wife‘s Lies
    Genre: Romance, family, Romance
    Release Date: 29, 2015 to Mar 31, 2015
    Episodes: 53
    Director: Dong Li
    Country: CHina
    Language: Mandarin
    Subtitles:Chinese Hardcoded

    Synopsis:
    This drama will tell the story of a father who separates with his daughter, their love, hate and reconciliation. Seo Yeong is a tough woman who tries to escape the harsh life of poverty with a strong passion to gain success, overcome her lower status and rise in society. On the road to fulfill her dream, She cuts ties with her poor family and incompetent father who still love his daughter despite her bitterness.







    Cast:
    Jia Qing as Li Xia Xi 李夏曦
    Zhang Xiao Long (张晓龙) as Jiang Yi Bin 江一斌
    Wang Zi as Li Dong Xu 李冬旭
    Xu Lu as Sun Jia Yuan 孙佳媛
    Chen Meng Chen (沈夢辰) as Jiang Yi Shan 江一姗
    Li Mao (李茂) as Jiang Yi Ming 江一明
    Li Tian Zhu as Li Guo Liang 李国良

    Related Drama :
    My Daughter Seoyoung


    Code

    Video
    ID                                       : 1
    Format                                   : AVC
    Format/Info                              : Advanced Video Codec
    Format profile                           : High@L4.1
    Format settings, CABAC                   : Yes
    Format settings, ReFrames                : 5 frames
    Codec ID                                 : V_MPEG4/ISO/AVC
    Duration                                 : 9mn 0s
    Bit rate                                 : 4 500 Kbps
    Width                                    : 1 280 pixels
    Height                                   : 720 pixels
    Display aspect ratio                     : 16:9
    Frame rate                               : 24.000 fps
    Color space                              : YUV
    Chroma subsampling                       : 4:2:0
    Bit depth                                : 8 bits
    Scan type                                : Progressive
    Bits/(Pixel*Frame)                       : 0.203
    Stream size                              : 284 MiB (91%)
    Writing library                          : x264 core 133 r2334 a3ac64b
    Encoding settings                        : cabac=1 / ref=5 / deblock=1:-3:-3 / analyse=0x3:0x113 / me=umh / subme=9 / psy=1 / psy_rd=1.00:0.00 / mixed_ref=1 / me_range=16 / chroma_me=1 / trellis=1 / 8x8dct=1 / cqm=0 / deadzone=21,11 / fast_pskip=0 / chroma_qp_offset=-2 / threads=12 / lookahead_threads=1 / sliced_threads=0 / nr=0 / decimate=1 / interlaced=0 / bluray_compat=0 / constrained_intra=0 / bframes=3 / b_pyramid=2 / b_adapt=2 / b_bias=0 / direct=3 / weightb=1 / open_gop=0 / weightp=2 / keyint=250 / keyint_min=23 / scenecut=40 / intra_refresh=0 / rc_lookahead=50 / rc=2pass / mbtree=1 / bitrate=4500 / ratetol=1.0 / qcomp=0.70 / qpmin=0 / qpmax=69 / qpstep=4 / cplxblur=20.0 / qblur=0.5 / vbv_maxrate=14000 / vbv_bufsize=14000 / nal_hrd=none / ip_ratio=1.40 / aq=1:1.00
    Language                                 : English
    Default                                  : Yes
    Forced                                   : No

    Audio
    ID                                       : 2
    Format                                   : AC-3
    Format/Info                              : Audio Coding 3
    Mode extension                           : CM (complete main)
    Format settings, Endianness              : Big
    Codec ID                                 : A_AC3
    Duration                                 : 9mn 0s
    Bit rate mode                            : Constant
    Bit rate                                 : 320 Kbps
    Channel(s)                               : 6 channels
    Channel positions                        : Front: L C R, Side: L R, LFE
    Sampling rate                            : 48.0 KHz
    Bit depth                                : 16 bits
    Compression mode                         : Lossy
    Stream size                              : 20.6 MiB (7%)
    Language                                 : English
    Default                                  : Yes
    Forced                                   : No



    0 0

    Original Post: Run Brother S02 EP04 HDTV 720P X264 [Mandarin Hard Sub]

    [Season 02]

                                                                                           

    Chinese title: 奔跑吧兄弟 / Bēnpǎo ba xiōngdì Season 02
    English title: Run Brother Season 02
    Genre: Variety
    Production Company: Zhejiang Satellite TV & SBS
    Official Broadcast Date: April 17, 2015
    Broadcast Days: Fridays
    Related Show: Running Man
    Episode: 4 / 12
    Country: China
    Language: Mandarin
    Subtitles: Mandarin Hardsubs
    English Subtitles: None atm


    click here Run Brother + Special Episode (2014) [Season 01 Complete]

    http://thetvdb.com/?tab=series&id=287357&lid=7
    click here wikipedia

    Synopsis
    The chinese version of the popular Korean variety show Running Man. They invite guests to compete in a race with different challenges to crown a winner.

    Hosts
    Spoiler:show








    mediainfo
    Spoiler:show

    Code

    Complete name               : Run Brother.奔跑吧兄弟.第二季.S02E04.HD720P.X264.AAC.Mandarin.CHS.Mp4Ba.mp4
    Format                      : MPEG-4
    Format profile              : Base Media
    Codec ID                    : isom
    File size                   : 2.42 GiB
    Duration                    : 1h 49mn
    Overall bit rate mode       : Variable
    Overall bit rate            : 3 176 Kbps
    Encoded date                : UTC 2015-05-08 11:21:38
    Tagged date                 : UTC 2015-05-08 11:21:38

    Video
    ID                          : 1
    Format                      : AVC
    Format/Info                 : Advanced Video Codec
    Format profile              : High@L4.1
    Format settings, CABAC      : Yes
    Format settings, ReFrames   : 5 frames
    Codec ID                    : avc1
    Codec ID/Info               : Advanced Video Coding
    Duration                    : 1h 49mn
    Bit rate                    : 3 000 Kbps
    Maximum bit rate            : 13.0 Mbps
    Width                       : 1 280 pixels
    Height                      : 720 pixels
    Display aspect ratio        : 16:9
    Frame rate mode             : Constant
    Frame rate                  : 25.000 fps
    Color space                 : YUV
    Chroma subsampling          : 4:2:0
    Bit depth                   : 8 bits
    Scan type                   : Progressive
    Bits/(Pixel*Frame)          : 0.130
    Stream size                 : 2.27 GiB (94%)
    Writing library             : x264 core 142 r2431+42 c69a006 tMod [8-bit@all X86_64]
    Encoding settings           : cabac=1 / ref=5 / deblock=1:-2:-2 / analyse=0x3:0x133 / me=umh / subme=7 / psy=1 / fade_compensate=0.00 / psy_rd=1.10:0.00 / mixed_ref=1 / me_range=16 / chroma_me=1 / trellis=1 / 8x8dct=1 / cqm=0 / deadzone=21,11 / fast_pskip=0 / chroma_qp_offset=-2 / threads=12 / lookahead_threads=2 / sliced_threads=0 / nr=0 / decimate=0 / interlaced=0 / bluray_compat=0 / constrained_intra=0 / fgo=0 / bframes=3 / b_pyramid=2 / b_adapt=2 / b_bias=0 / direct=3 / weightb=1 / open_gop=0 / weightp=2 / keyint=240 / keyint_min=24 / scenecut=40 / intra_refresh=0 / rc_lookahead=120 / rc=abr / mbtree=1 / bitrate=3000 / ratetol=1.0 / qcomp=0.70 / qpmin=0:0:0 / qpmax=69:69:69 / qpstep=4 / ip_ratio=1.10 / aq=1:0.90 / aq-sensitivity=10.00 / aq-factor=1.00:1.00:1.00 / aq2=0 / aq3=0
    Encoded date                : UTC 2015-05-08 11:21:38
    Tagged date                 : UTC 2015-05-08 11:30:52

    Audio
    ID                          : 2
    Format                      : AAC
    Format/Info                 : Advanced Audio Codec
    Format profile              : LC
    Codec ID                    : 40
    Duration                    : 1h 49mn
    Bit rate mode               : Variable
    Bit rate                    : 192 Kbps
    Maximum bit rate            : 264 Kbps
    Channel(s)                  : 2 channels
    Channel positions           : Front: L R
    Sampling rate               : 48.0 KHz
    Compression mode            : Lossy
    Stream size                 : 150 MiB (6%)
    Encoded date                : UTC 2015-05-08 11:26:57
    Tagged date                 : UTC 2015-05-08 11:30:52



    Screenshots
    Spoiler:show


    0 0

    Original Post: Chosun Police Season 2 (2008) HDTV XviD Complete BiiT-CHD-RYU


    Title:별순검 시즌2 / Chosun Police Season 2
    Also knwon as: Chosun Police 2 / Korean Traditional Scientific Investigators Season 2
    Genre: Period, mystery
    Episodes: 20
    Broadcast network: MBC (MBC DramaNet)
    Broadcast period: 2008-Oct-04 to 2008-Dec-06
    Air time: Saturday 23:00
    Subtitles:NONE

    Synopsis
    The second season is set in even more turbulent times than the first; during the reign of Emperor Gojong, a period where every aspect of Joseon, from financial, military, and economic to the culture was spurred towards modernization. The chaos and confusion resulting from these rapid changes form the background for the crimes that occur, forcing the Byul Soon Geom to be reformed in order to investigate them. The team is led by Jin Moo Young and Han Da Kyung, two people with deep scars and burdens from their past.

    Cast
    Lee Jong Hyuk as Jin Moo Young
    Joo Min Soo as young Moo Young
    Lee Chung Ah as Han Da Kyung
    Yoon Jung Eun as young Han Da Kyung
    Park Kwang Hyun as Sun Woo Hyun
    Park Won Sang as Ji Dae Han
    Jang Young Nam as Cho Seol
    Han Soo Yun as Yoo Yi
    Kim Min Ha (김민하) as young Yoo Yi
    No Young Kook as Choi Eun Hyul
    Jun Soo Kyung as Mae Hwa
    Jang Se Yoon as Park Ok Sun
    Jung Gook Bin as Bong Soon Gum
    Kim Min Soo (김민수) as Ra Soon Gum
    Choi Hyung Do (최형도) as Yong Pal
    Ahn Ah Reum (안아름) as gisaeng
    Kim Moo Yul as Oh Duk
    Lee Il Woong as Ryu Chi Kyung
    Ha Jae Sook as Neung Gum
    Lee Ji Eun as Hyo Sun (Ji Dae Han's daughter)
    Jun Hee Sun (전희선) as Ji Dae Han's second daughter
    Nam So Yeon (남소연) as Han Shi Eun
    Kim Tae Ho (김태호) as Seo In Hoo (cameo, ep3)
    Choi Won Tae as young Tae Shik (cameo, ep17)
    Lee Chang as Na Boon Do (cameo, ep19)
    Kim Yong Sun
    Kim Bu Sun
    Lee Mi So
    Jung Gyu Soo
    Kim Chung
    Seo Kap Sook
    Kim Min Gyu (김민규)
    Kim Young Ae

    Director: Producer: Lee Eun Woo (이은우)
    Director: Shin Seung Yub (신승엽), Kim Byung Soo
    Screenwriter: Jung Yoon Jung (정윤정), Hwang Hye Ryung (황혜령)

    Warning!
    Various video quality!
    BiiT - HDTV (800x448)
    RYU - CATV (640x480)
    CHD - HDTV (624x352)
    Episode 19 only TVRIP (640x480)!
    If you have got Episode 19 better version or can you replace CATV to HDTV, please upload it, and I reupload complete batch. Thank you!



    BiiT version:

    Code
    Video
    ID                          : 0
    Format                      : MPEG-4 Visual
    Format profile              : Advanced Simple@L5
    Format settings, BVOP       : 2
    Format settings, QPel       : No
    Format settings, GMC        : No warppoints
    Format settings, Matrix     : Default (MPEG)
    Muxing mode                 : Packed bitstream
    Codec ID                    : XVID
    Codec ID/Hint               : XviD
    Duration                    : 59mn 33s
    Bit rate                    : 1 442 Kbps
    Width                       : 800 pixels
    Height                      : 448 pixels
    Display aspect ratio        : 16:9
    Frame rate                  : 29.970 fps
    Color space                 : YUV
    Chroma subsampling          : 4:2:0
    Bit depth                   : 8 bits
    Scan type                   : Progressive
    Compression mode            : Lossy
    Bits/(Pixel*Frame)          : 0.134
    Stream size                 : 614 MiB (88%)
    Writing library             : XviD 1.2.0.dev47 (UTC 2006-11-01)

    Audio
    ID                          : 1
    Format                      : AC-3
    Format/Info                 : Audio Coding 3
    Format profile              : Dolby Digital
    Mode extension              : CM (complete main)
    Format settings, Endianness : Big
    Codec ID                    : 2000
    Duration                    : 59mn 32s
    Bit rate mode               : Constant
    Bit rate                    : 192 Kbps
    Channel(s)                  : 2 channels
    Channel positions           : Front: L R
    Sampling rate               : 48.0 KHz
    Compression mode            : Lossy
    Delay relative to video     : 4ms
    Stream size                 : 81.8 MiB (12%)
    Alignment                   : Split accross interleaves
    Interleave, duration        : 33 ms (1.00 video frame)
    Interleave, preload duratio : 500 ms


    RYU version:

    Code
    Video
    ID                          : 0
    Format                      : MPEG-4 Visual
    Format profile              : Simple@L1
    Format settings, BVOP       : No
    Format settings, QPel       : No
    Format settings, GMC        : No warppoints
    Format settings, Matrix     : Default (H.263)
    Codec ID                    : DIVX
    Codec ID/Info               : Project Mayo
    Codec ID/Hint               : DivX 4
    Duration                    : 1h 3mn
    Bit rate                    : 1 414 Kbps
    Width                       : 640 pixels
    Height                      : 480 pixels
    Display aspect ratio        : 4:3
    Frame rate                  : 29.970 fps
    Color space                 : YUV
    Chroma subsampling          : 4:2:0
    Bit depth                   : 8 bits
    Scan type                   : Progressive
    Compression mode            : Lossy
    Bits/(Pixel*Frame)          : 0.154
    Stream size                 : 638 MiB (91%)
    Writing library             : Lavc51.46.0

    Audio
    ID                          : 1
    Format                      : MPEG Audio
    Format version              : Version 1
    Format profile              : Layer 3
    Mode                        : Joint stereo
    Mode extension              : MS Stereo
    Codec ID                    : 55
    Codec ID/Hint               : MP3
    Duration                    : 1h 3mn
    Bit rate mode               : Constant
    Bit rate                    : 128 Kbps
    Channel(s)                  : 2 channels
    Sampling rate               : 44.1 KHz
    Compression mode            : Lossy
    Stream size                 : 57.7 MiB (8%)
    Alignment                   : Aligned on interleaves
    Interleave, duration        : 26 ms (0.78 video frame)


    CHD version:

    Code
    Video
    ID                          : 0
    Format                      : MPEG-4 Visual
    Format profile              : Advanced Simple@L5
    Format settings, BVOP       : No
    Format settings, QPel       : No
    Format settings, GMC        : No warppoints
    Format settings, Matrix     : Default (H.263)
    Codec ID                    : XVID
    Codec ID/Hint               : XviD
    Duration                    : 1h 1mn
    Bit rate                    : 1 421 Kbps
    Width                       : 624 pixels
    Height                      : 352 pixels
    Display aspect ratio        : 16:9
    Frame rate                  : 29.970 fps
    Color space                 : YUV
    Chroma subsampling          : 4:2:0
    Bit depth                   : 8 bits
    Scan type                   : Progressive
    Compression mode            : Lossy
    Bits/(Pixel*Frame)          : 0.216
    Stream size                 : 625 MiB (89%)
    Writing library             : XviD 1.2.0.dev47 (UTC 2006-11-01)

    Audio
    ID                          : 1
    Format                      : MPEG Audio
    Format version              : Version 1
    Format profile              : Layer 3
    Mode                        : Joint stereo
    Mode extension              : MS Stereo
    Codec ID                    : 55
    Codec ID/Hint               : MP3
    Duration                    : 1h 1mn
    Bit rate mode               : Variable
    Bit rate                    : 160 Kbps
    Nominal bit rate            : 169 Kbps
    Channel(s)                  : 2 channels
    Sampling rate               : 48.0 KHz
    Compression mode            : Lossy
    Stream size                 : 70.2 MiB (10%)
    Alignment                   : Aligned on interleaves
    Interleave, duration        : 24 ms (0.72 video frame)
    Interleave, preload duratio : 533 ms
    Writing library             : LAME3.97b
    Encoding settings           : -m j -V 4 -q 3 -lowpass 17.5 --abr 169


    Only Episode 19:

    Code
    Video
    ID                          : 2
    Format                      : WMV1
    Codec ID                    : WMV1
    Codec ID/Info               : Windows Media Video 7
    Description of the codec    : Windows Media Video V7
    Duration                    : 1h 7mn
    Bit rate mode               : Constant
    Bit rate                    : 1 368 Kbps
    Width                       : 640 pixels
    Height                      : 480 pixels
    Display aspect ratio        : 4:3
    Frame rate                  : 29.970 fps
    Nominal frame rate          : 30.000 fps
    Bit depth                   : 8 bits
    Bits/(Pixel*Frame)          : 0.149
    Stream size                 : 660 MiB (91%)

    Audio
    ID                          : 1
    Format                      : WMA
    Format version              : Version 2
    Codec ID                    : 161
    Codec ID/Info               : Windows Media Audio
    Description of the codec    : Windows Media Audio 9.2 - 128 kbps, 44 kHz, stereo (A/V) 1-pass CBR
    Duration                    : 1h 7mn
    Bit rate mode               : Constant
    Bit rate                    : 128 Kbps
    Channel(s)                  : 2 channels
    Sampling rate               : 44.1 KHz
    Bit depth                   : 16 bits
    Stream size                 : 61.8 MiB (9%)



    0 0

    Original Post: A Taxing Woman (Marusa no Onna) [1987] BDrip 768p



    Title: A Taxing Woman

    Original Title: Marusa no Onna
    Director: Juzo Itami
    Release Date: 7 February 1987
    Runtime: 2h 7m
    Genre: Comedy, Drama
    Language: Japanese
    Country: Japan
    Subtitles: English, Japanese

    IMDB URL:http://www.imdb.com/title/tt0093502/


    Cast:

    Nobuko Miyamoto as Ryoko Itakura
    Tsutomu Yamazaki as Hideki Gondo
    Masahiko Tsugawa as Hanamura
    Mariko Okada as Mitsuko Sugino
    Daisuke Yamashita as Taro Gondo
    Shinsuke Ashida as Kihachiro Ninagawa
    Yasuo Daichi as Ijuuin


    Synopsis / Plot:

    When can tax inspectors make you laugh? In "A Taxing Woman," it is possible. Ryoko is a divorced mother who also works for the Japanese Revenue Service. She, with the freckles and page-boy hair cut, is a workaholic, steadfast and incorruptible in her duties (You can sort of understand why many people evade their taxes while watching this film.). Her one stumbling block is Hideki Gondo, an expert on tax evading. A business man that runs hotels, he uses scams and works with underworld figures, bankers and political figures to keep his money. He's also a fool for love (he has 2 mistresses and a common law wife), and a devoted father. When the 2 meet, it becomes a comedic battle. There's sexual tension between them but the question is: will he be able to keep his money hidden from her? Will she be able to get his money from him?

    Screenshots:





























    Media Info:


    Code
    Format                                   : Matroska
    Format version                           : Version 2
    File size                                : 5.37 GiB
    Duration                                 : 2h 7mn
    Overall bit rate mode                    : Variable
    Overall bit rate                         : 6 029 Kbps
    Encoded date                             : UTC 2015-05-03 13:03:14
    Writing application                      : mkvmerge v4.4.0 ('Die Wiederkehr') gebaut am Oct 31 2010 21:52:48
    Writing library                          : libebml v1.0.0 + libmatroska v1.0.0

    Video
    ID                                       : 1
    Format                                   : AVC
    Format/Info                              : Advanced Video Codec
    Format profile                           : High@L4.1
    Format settings, CABAC                   : Yes
    Format settings, ReFrames                : 8 frames
    Muxing mode                              : Header stripping
    Codec ID                                 : V_MPEG4/ISO/AVC
    Duration                                 : 2h 7mn
    Nominal bit rate                         : 5 500 Kbps
    Width                                    : 1 024 pixels
    Height                                   : 768 pixels
    Display aspect ratio                     : 4:3
    Frame rate mode                          : Constant
    Frame rate                               : 23.976 fps
    Color space                              : YUV
    Chroma subsampling                       : 4:2:0
    Bit depth                                : 8 bits
    Scan type                                : Progressive
    Bits/(Pixel*Frame)                       : 0.292
    Writing library                          : x264 core 130 r2274bm c832fe9
    Encoding settings                        : cabac=1 / ref=8 / deblock=1:-1:-1 / analyse=0x3:0x133 / me=umh / subme=9 / psy=1 / psy_rd=1.00:0.15 / mixed_ref=1 / me_range=16 / chroma_me=1 / trellis=2 / 8x8dct=1 / cqm=0 / deadzone=21,11 / fast_pskip=1 / chroma_qp_offset=-3 / threads=12 / lookahead_threads=1 / sliced_threads=0 / nr=0 / decimate=1 / interlaced=0 / bluray_compat=0 / constrained_intra=0 / bframes=3 / b_pyramid=2 / b_adapt=2 / b_bias=0 / direct=3 / weightb=1 / open_gop=0 / weightp=2 / keyint=250 / keyint_min=23 / scenecut=40 / intra_refresh=0 / rc_lookahead=60 / rc=2pass / mbtree=1 / bitrate=5500 / ratetol=1.0 / qcomp=0.60 / qpmin=0 / qpmax=69 / qpstep=4 / cplxblur=20.0 / qblur=0.5 / ip_ratio=1.40 / aq=1:1.00
    Language                                 : Japanese
    Default                                  : Yes
    Forced                                   : No

    Audio
    ID                                       : 2
    Format                                   : FLAC
    Format/Info                              : Free Lossless Audio Codec
    Codec ID                                 : A_FLAC
    Duration                                 : 2h 7mn
    Bit rate mode                            : Variable
    Channel(s)                               : 2 channels
    Sampling rate                            : 48.0 KHz
    Bit depth                                : 16 bits
    Writing library                          : libFLAC 1.3.0 (UTC 2013-05-26)
    Language                                 : Japanese
    Default                                  : Yes
    Forced                                   : No

    Text #1
    ID                                       : 3
    Format                                   : ASS
    Codec ID                                 : S_TEXT/ASS
    Codec ID/Info                            : Advanced Sub Station Alpha
    Compression mode                         : Lossless
    Title                                    : English - Styled
    Language                                 : English
    Default                                  : Yes
    Forced                                   : Yes

    Text #2
    ID                                       : 4
    Format                                   : UTF-8
    Codec ID                                 : S_TEXT/UTF8
    Codec ID/Info                            : UTF-8 Plain Text
    Title                                    : English - Unstyled
    Language                                 : English
    Default                                  : No
    Forced                                   : No

    Text #3
    ID                                       : 5
    Format                                   : VobSub
    Muxing mode                              : zlib
    Codec ID                                 : S_VOBSUB
    Codec ID/Info                            : The same subtitle format used on DVDs
    Title                                    : Japanese
    Language                                 : Japanese
    Default                                  : No
    Forced                                   : No

    Menu
    00:00:00.000                             : ja:Chapter 01
    00:10:04.979                             : ja:Chapter 02
    00:14:07.513                             : ja:Chapter 03
    00:18:02.831                             : ja:Chapter 04
    00:29:35.899                             : ja:Chapter 05
    00:30:57.564                             : ja:Chapter 06
    00:35:35.591                             : ja:Chapter 07
    00:37:52.436                             : ja:Chapter 08
    00:43:25.019                             : ja:Chapter 09
    00:48:38.123                             : ja:Chapter 10
    01:01:36.901                             : ja:Chapter 11
    01:10:49.453                             : ja:Chapter 12
    01:15:21.558                             : ja:Chapter 13
    01:28:36.352                             : ja:Chapter 14
    01:42:19.967                             : ja:Chapter 15
    01:58:06.537                             : ja:Chapter 16
    02:07:25.054                             : ja:Chapter 17







    0 0

    Original Post: Bluebird's House E24 720p LIMO


    Details
    Title: 파랑새의 집 / Parangsaeui Jib
    Also known as: Bluebird's Nest
    Genre: Family, human, romance, comedy
    Episodes: 50
    Broadcast network: KBS2
    Broadcast period: 2015-Feb-21 to 2015-???-??
    Air time: Saturday & Sunday Night 19:55
    Original Soundtrack: Bluebird's House OST
    Synopsis
    A drama that tells the story of strong bond between the members of a family even though they are not blood-related. This drama also portrays the hope of parents toward their children's success and how difficult for fresh university graduates to get respectable and well-paid jobs.

    Cast
    Main Cast
    Lee Joon Hyuk as Kim Ji Wan (29)
    Chae Soo Bin as Han Eun Soo (24)
    Lee Sang Yeob as Jang Hyun Do (28)
    Kyung Soo Jin as Kang Young Joo (25)
    Kim Ji Wan's family
    Choi Myung Gil as Han Sun Hee (55)
    Jung Jae Soon as Lee Jin Yi (70)
    Jang Hyun Do's family
    Chun Ho Jin as Jang Tae Soo (55)
    Lee Hye Sook as Jung Soo Kyung (52)
    Kang Young Joo's family
    Song Ok Sook as Oh Min Ja (55)
    Jung Won Joong as Kang Jae Chul (53)
    Others
    Uhm Hyun Kyung as Seo Mi Ji (29)
    Nam Kyung Eup as Shin Young Hwan (50)




    Code
    Video
    ID                             : 1
    Format                         : AVC
    Format/Info                    : Advanced Video Codec
    Format profile                 : High@L5.1
    Format settings, CABAC         : Yes
    Format settings, ReFrames      : 4 frames
    Codec ID                       : V_MPEG4/ISO/AVC
    Duration                       : 1h 24mn
    Bit rate                       : 887 Kbps
    Nominal bit rate               : 2 496 Kbps
    Width                          : 1 280 pixels
    Height                         : 720 pixels
    Display aspect ratio           : 16:9
    Frame rate mode                : Constant
    Frame rate                     : 29.970 fps
    Color space                    : YUV
    Chroma subsampling             : 4:2:0
    Bit depth                      : 8 bits
    Scan type                      : Progressive
    Bits/(Pixel*Frame)             : 0.032
    Stream size                    : 535 MiB (68%)
    Writing library                : x264 core 130 r2273 b3065e6
    Encoding settings              : cabac=1 / ref=3 / deblock=1:0:0 / analyse=0x3:0x113 / me=hex / subme=7 / psy=1 / psy_rd=1.00:0.00 / mixed_ref=1 / me_range=16 / chroma_me=1 / trellis=1 / 8x8dct=1 / cqm=0 / deadzone=21,11 / fast_pskip=1 / chroma_qp_offset=-2 / threads=1 / lookahead_threads=1 / sliced_threads=0 / nr=0 / decimate=1 / interlaced=0 / bluray_compat=0 / constrained_intra=0 / bframes=3 / b_pyramid=2 / b_adapt=1 / b_bias=0 / direct=1 / weightb=1 / open_gop=0 / weightp=2 / keyint=300 / keyint_min=29 / scenecut=40 / intra_refresh=0 / rc_lookahead=40 / rc=2pass / mbtree=1 / bitrate=2496 / ratetol=1.0 / qcomp=0.60 / qpmin=0 / qpmax=69 / qpstep=4 / cplxblur=20.0 / qblur=0.5 / vbv_maxrate=300000 / vbv_bufsize=300000 / nal_hrd=none / ip_ratio=1.40 / aq=1:1.00
    Default                        : Yes
    Forced                         : No

    Audio
    ID                             : 2
    Format                         : AC-3
    Format/Info                    : Audio Coding 3
    Mode extension                 : CM (complete main)
    Format settings, Endianness    : Big
    Codec ID                       : A_AC3
    Duration                       : 1h 24mn
    Bit rate mode                  : Constant
    Bit rate                       : 384 Kbps
    Channel(s)                     : 2 channels
    Channel positions              : Front: L R
    Sampling rate                  : 44.1 KHz
    Bit depth                      : 16 bits
    Compression mode               : Lossy
    Stream size                    : 232 MiB (30%)
    Language                       : Korean
    Default                        : Yes
    Forced                         : No



    0 0

    Original Post: Make A Woman Cry E08 XVID LIMO


    Details
    Title: 여자를 울려 / Yeojareul Woolryeo
    Also known as: Let the Woman Cry
    Genre: Family, drama, romance
    Episodes: 50
    Broadcast network: MBC
    Broadcast period: 2015-Apr-18 to 2015-???-??
    Air time: Saturday & Sunday 20:45
    Original Soundtrack: Make a Woman Cry OST

    Synopsis
    Jung Duk In was a former detective who resigned after her son died. She then opens a food stall in front of her son's school to preserves the memory of him and to protects the other students. Along the way she will struggle to forgive people who were responsible for her son's death.

    Cast

    Main Cast
    Kim Jung Eun as Jung Duk In
    Song Chang Ui as Kang Jin Woo
    Lee Soon Jae as Kang Tae Hwan
    Ha Hee Ra as Na Eun Soo
    Oh Dae Gyu as Kang Jin Myung
    Lee Tae Ran as Choi Hong Ran




    Code
    Video
    ID                                       : 0
    Format                                   : MPEG-4 Visual
    Format profile                           : Advanced Simple@L5
    Format settings, BVOP                    : No
    Format settings, QPel                    : No
    Format settings, GMC                     : No warppoints
    Format settings, Matrix                  : Default (MPEG)
    Codec ID                                 : XVID
    Codec ID/Hint                            : XviD
    Duration                                 : 1h 29mn
    Bit rate                                 : 1 388 Kbps
    Width                                    : 624 pixels
    Height                                   : 352 pixels
    Display aspect ratio                     : 16:9
    Frame rate                               : 29.970 fps
    Color space                              : YUV
    Chroma subsampling                       : 4:2:0
    Bit depth                                : 8 bits
    Scan type                                : Progressive
    Compression mode                         : Lossy
    Bits/(Pixel*Frame)                       : 0.211
    Stream size                              : 886 MiB (87%)
    Writing library                          : XviD 1.2.1 (UTC 2008-12-04)

    Audio
    ID                                       : 1
    Format                                   : MPEG Audio
    Format version                           : Version 1
    Format profile                           : Layer 3
    Mode                                     : Joint stereo
    Mode extension                           : MS Stereo
    Codec ID                                 : 55
    Codec ID/Hint                            : MP3
    Duration                                 : 1h 29mn
    Bit rate mode                            : Constant
    Bit rate                                 : 128 Kbps
    Channel(s)                               : 2 channels
    Sampling rate                            : 48.0 KHz
    Compression mode                         : Lossy
    Stream size                              : 81.7 MiB (8%)
    Alignment                                : Aligned on interleaves
    Writing library                          : LAME3.98.2



    0 0

    Original Post: Make A Woman Cry E08 720p LIMO


    Details
    Title: 여자를 울려 / Yeojareul Woolryeo
    Also known as: Let the Woman Cry
    Genre: Family, drama, romance
    Episodes: 50
    Broadcast network: MBC
    Broadcast period: 2015-Apr-18 to 2015-???-??
    Air time: Saturday & Sunday 20:45
    Original Soundtrack: Make a Woman Cry OST

    Synopsis
    Jung Duk In was a former detective who resigned after her son died. She then opens a food stall in front of her son's school to preserves the memory of him and to protects the other students. Along the way she will struggle to forgive people who were responsible for her son's death.

    Cast

    Main Cast
    Kim Jung Eun as Jung Duk In
    Song Chang Ui as Kang Jin Woo
    Lee Soon Jae as Kang Tae Hwan
    Ha Hee Ra as Na Eun Soo
    Oh Dae Gyu as Kang Jin Myung
    Lee Tae Ran as Choi Hong Ran




    Code
    Video
    ID                             : 1
    Format                         : AVC
    Format/Info                    : Advanced Video Codec
    Format profile                 : High@L5.1
    Format settings, CABAC         : Yes
    Format settings, ReFrames      : 4 frames
    Codec ID                       : V_MPEG4/ISO/AVC
    Duration                       : 1h 24mn
    Bit rate                       : 887 Kbps
    Nominal bit rate               : 2 496 Kbps
    Width                          : 1 280 pixels
    Height                         : 720 pixels
    Display aspect ratio           : 16:9
    Frame rate mode                : Constant
    Frame rate                     : 29.970 fps
    Color space                    : YUV
    Chroma subsampling             : 4:2:0
    Bit depth                      : 8 bits
    Scan type                      : Progressive
    Bits/(Pixel*Frame)             : 0.032
    Stream size                    : 535 MiB (68%)
    Writing library                : x264 core 130 r2273 b3065e6
    Encoding settings              : cabac=1 / ref=3 / deblock=1:0:0 / analyse=0x3:0x113 / me=hex / subme=7 / psy=1 / psy_rd=1.00:0.00 / mixed_ref=1 / me_range=16 / chroma_me=1 / trellis=1 / 8x8dct=1 / cqm=0 / deadzone=21,11 / fast_pskip=1 / chroma_qp_offset=-2 / threads=1 / lookahead_threads=1 / sliced_threads=0 / nr=0 / decimate=1 / interlaced=0 / bluray_compat=0 / constrained_intra=0 / bframes=3 / b_pyramid=2 / b_adapt=1 / b_bias=0 / direct=1 / weightb=1 / open_gop=0 / weightp=2 / keyint=300 / keyint_min=29 / scenecut=40 / intra_refresh=0 / rc_lookahead=40 / rc=2pass / mbtree=1 / bitrate=2496 / ratetol=1.0 / qcomp=0.60 / qpmin=0 / qpmax=69 / qpstep=4 / cplxblur=20.0 / qblur=0.5 / vbv_maxrate=300000 / vbv_bufsize=300000 / nal_hrd=none / ip_ratio=1.40 / aq=1:1.00
    Default                        : Yes
    Forced                         : No

    Audio
    ID                             : 2
    Format                         : AC-3
    Format/Info                    : Audio Coding 3
    Mode extension                 : CM (complete main)
    Format settings, Endianness    : Big
    Codec ID                       : A_AC3
    Duration                       : 1h 24mn
    Bit rate mode                  : Constant
    Bit rate                       : 384 Kbps
    Channel(s)                     : 2 channels
    Channel positions              : Front: L R
    Sampling rate                  : 44.1 KHz
    Bit depth                      : 16 bits
    Compression mode               : Lossy
    Stream size                    : 232 MiB (30%)
    Language                       : Korean
    Default                        : Yes
    Forced                         : No



    0 0

    Original Post: Divorce Lawyer in Love E08 XVID LIMO


    Details
    Title: 이혼변호사는 연애중 / Yihonbyunhosaneun Yeonaejoong
    Genre: Romance, comedy
    Episodes: 16
    Broadcast network: SBS
    Broadcast period: 2015-Apr-18 to 2015-TBA
    Air time: Saturday & Sunday 22:00
    Original Soundtrack: Divorce Lawyer in Love OST
    Synopsis
    Go Cheok Hee is a successful divorce lawyer who treated So Jung Woo terribly when he was her firm's office manager. The tables are turned when Cheok Hee loses her license and can no longer practice law and Jung Woo has become a successful lawyer. The two cross paths again when Cheok Hee becomes Jung Woo's office manager.

    Cast
    Jo Yeo Jung as Go Cheok Hee
    Lee Bit Na as young Go Cheok Hee
    Yun Woo Jin as So Jung Woo
    Shim Hyung Tak as Bong Min Kyu
    Wang Ji Won as Jo Soo Ah




    Code
    Video
    ID                                       : 0
    Format                                   : MPEG-4 Visual
    Format profile                           : Advanced Simple@L5
    Format settings, BVOP                    : No
    Format settings, QPel                    : No
    Format settings, GMC                     : No warppoints
    Format settings, Matrix                  : Default (MPEG)
    Codec ID                                 : XVID
    Codec ID/Hint                            : XviD
    Duration                                 : 1h 29mn
    Bit rate                                 : 1 388 Kbps
    Width                                    : 624 pixels
    Height                                   : 352 pixels
    Display aspect ratio                     : 16:9
    Frame rate                               : 29.970 fps
    Color space                              : YUV
    Chroma subsampling                       : 4:2:0
    Bit depth                                : 8 bits
    Scan type                                : Progressive
    Compression mode                         : Lossy
    Bits/(Pixel*Frame)                       : 0.211
    Stream size                              : 886 MiB (87%)
    Writing library                          : XviD 1.2.1 (UTC 2008-12-04)

    Audio
    ID                                       : 1
    Format                                   : MPEG Audio
    Format version                           : Version 1
    Format profile                           : Layer 3
    Mode                                     : Joint stereo
    Mode extension                           : MS Stereo
    Codec ID                                 : 55
    Codec ID/Hint                            : MP3
    Duration                                 : 1h 29mn
    Bit rate mode                            : Constant
    Bit rate                                 : 128 Kbps
    Channel(s)                               : 2 channels
    Sampling rate                            : 48.0 KHz
    Compression mode                         : Lossy
    Stream size                              : 81.7 MiB (8%)
    Alignment                                : Aligned on interleaves
    Writing library                          : LAME3.98.2



    0 0

    Original Post: Divorce Lawyer in Love E08 720p LIMO


    Details
    Title: 이혼변호사는 연애중 / Yihonbyunhosaneun Yeonaejoong
    Genre: Romance, comedy
    Episodes: 16
    Broadcast network: SBS
    Broadcast period: 2015-Apr-18 to 2015-TBA
    Air time: Saturday & Sunday 22:00
    Original Soundtrack: Divorce Lawyer in Love OST
    Synopsis
    Go Cheok Hee is a successful divorce lawyer who treated So Jung Woo terribly when he was her firm's office manager. The tables are turned when Cheok Hee loses her license and can no longer practice law and Jung Woo has become a successful lawyer. The two cross paths again when Cheok Hee becomes Jung Woo's office manager.

    Cast
    Jo Yeo Jung as Go Cheok Hee
    Lee Bit Na as young Go Cheok Hee
    Yun Woo Jin as So Jung Woo
    Shim Hyung Tak as Bong Min Kyu
    Wang Ji Won as Jo Soo Ah




    Code
    Video
    ID                             : 1
    Format                         : AVC
    Format/Info                    : Advanced Video Codec
    Format profile                 : High@L5.1
    Format settings, CABAC         : Yes
    Format settings, ReFrames      : 4 frames
    Codec ID                       : V_MPEG4/ISO/AVC
    Duration                       : 1h 24mn
    Bit rate                       : 887 Kbps
    Nominal bit rate               : 2 496 Kbps
    Width                          : 1 280 pixels
    Height                         : 720 pixels
    Display aspect ratio           : 16:9
    Frame rate mode                : Constant
    Frame rate                     : 29.970 fps
    Color space                    : YUV
    Chroma subsampling             : 4:2:0
    Bit depth                      : 8 bits
    Scan type                      : Progressive
    Bits/(Pixel*Frame)             : 0.032
    Stream size                    : 535 MiB (68%)
    Writing library                : x264 core 130 r2273 b3065e6
    Encoding settings              : cabac=1 / ref=3 / deblock=1:0:0 / analyse=0x3:0x113 / me=hex / subme=7 / psy=1 / psy_rd=1.00:0.00 / mixed_ref=1 / me_range=16 / chroma_me=1 / trellis=1 / 8x8dct=1 / cqm=0 / deadzone=21,11 / fast_pskip=1 / chroma_qp_offset=-2 / threads=1 / lookahead_threads=1 / sliced_threads=0 / nr=0 / decimate=1 / interlaced=0 / bluray_compat=0 / constrained_intra=0 / bframes=3 / b_pyramid=2 / b_adapt=1 / b_bias=0 / direct=1 / weightb=1 / open_gop=0 / weightp=2 / keyint=300 / keyint_min=29 / scenecut=40 / intra_refresh=0 / rc_lookahead=40 / rc=2pass / mbtree=1 / bitrate=2496 / ratetol=1.0 / qcomp=0.60 / qpmin=0 / qpmax=69 / qpstep=4 / cplxblur=20.0 / qblur=0.5 / vbv_maxrate=300000 / vbv_bufsize=300000 / nal_hrd=none / ip_ratio=1.40 / aq=1:1.00
    Default                        : Yes
    Forced                         : No

    Audio
    ID                             : 2
    Format                         : AC-3
    Format/Info                    : Audio Coding 3
    Mode extension                 : CM (complete main)
    Format settings, Endianness    : Big
    Codec ID                       : A_AC3
    Duration                       : 1h 24mn
    Bit rate mode                  : Constant
    Bit rate                       : 384 Kbps
    Channel(s)                     : 2 channels
    Channel positions              : Front: L R
    Sampling rate                  : 44.1 KHz
    Bit depth                      : 16 bits
    Compression mode               : Lossy
    Stream size                    : 232 MiB (30%)
    Language                       : Korean
    Default                        : Yes
    Forced                         : No



    0 0
  • 05/10/15--04:53: Queen's Flower E18 XVID LIMO
  • Original Post: Queen's Flower E18 XVID LIMO


    Details
    Title: 여왕의 꽃 / Yeowangeui Ggot
    Previously known as: 적도의 꽃 (Flower of the Equator)
    Genre: Melodrama
    Episodes: 50
    Broadcast network: MBC
    Broadcast period: 2015-Mar-14 to 2015-???-??
    Air time: Saturday & Sunday 21:55

    Synopsis
    Rena Jung (Kim Sung Ryung) is a beautiful, but ambitious star chef who hosts her own cooking show. Her husband, Park Min-Joon (Lee Jong Hyuk), is the first son of a family that runs a large company. Their relationship is not so good, but they try to show other people they are still in love.

    In the past, Rena Jung abandoned her daughter for a chance at success. Now, her daughter, Kang Yi Sol (Lee Sung Kyung) appears in front of her. Kang Yi Sol resents her mother for abandoning her.

    Park Jae Joon (Yoon Park) is the husband's younger brother. He is popular with women, but he is attracted to Kang Yi-Sol.

    Cast
    Kim Sung Ryung as Rena Jung / Jung Eun Hye
    Lee Sung Kyung as Kang Yi Sol
    Yoon Park as Park Jae Joon
    Lee Jong Hyuk as Park Min Joon




    Code
    Video
    ID                                       : 0
    Format                                   : MPEG-4 Visual
    Format profile                           : Advanced Simple@L5
    Format settings, BVOP                    : No
    Format settings, QPel                    : No
    Format settings, GMC                     : No warppoints
    Format settings, Matrix                  : Default (MPEG)
    Codec ID                                 : XVID
    Codec ID/Hint                            : XviD
    Duration                                 : 1h 29mn
    Bit rate                                 : 1 388 Kbps
    Width                                    : 624 pixels
    Height                                   : 352 pixels
    Display aspect ratio                     : 16:9
    Frame rate                               : 29.970 fps
    Color space                              : YUV
    Chroma subsampling                       : 4:2:0
    Bit depth                                : 8 bits
    Scan type                                : Progressive
    Compression mode                         : Lossy
    Bits/(Pixel*Frame)                       : 0.211
    Stream size                              : 886 MiB (87%)
    Writing library                          : XviD 1.2.1 (UTC 2008-12-04)

    Audio
    ID                                       : 1
    Format                                   : MPEG Audio
    Format version                           : Version 1
    Format profile                           : Layer 3
    Mode                                     : Joint stereo
    Mode extension                           : MS Stereo
    Codec ID                                 : 55
    Codec ID/Hint                            : MP3
    Duration                                 : 1h 29mn
    Bit rate mode                            : Constant
    Bit rate                                 : 128 Kbps
    Channel(s)                               : 2 channels
    Sampling rate                            : 48.0 KHz
    Compression mode                         : Lossy
    Stream size                              : 81.7 MiB (8%)
    Alignment                                : Aligned on interleaves
    Writing library                          : LAME3.98.2



    0 0
  • 05/10/15--04:53: Queen's Flower E18 720p LIMO
  • Original Post: Queen's Flower E18 720p LIMO


    Details
    Title: 여왕의 꽃 / Yeowangeui Ggot
    Previously known as: 적도의 꽃 (Flower of the Equator)
    Genre: Melodrama
    Episodes: 50
    Broadcast network: MBC
    Broadcast period: 2015-Mar-14 to 2015-???-??
    Air time: Saturday & Sunday 21:55

    Synopsis
    Rena Jung (Kim Sung Ryung) is a beautiful, but ambitious star chef who hosts her own cooking show. Her husband, Park Min-Joon (Lee Jong Hyuk), is the first son of a family that runs a large company. Their relationship is not so good, but they try to show other people they are still in love.

    In the past, Rena Jung abandoned her daughter for a chance at success. Now, her daughter, Kang Yi Sol (Lee Sung Kyung) appears in front of her. Kang Yi Sol resents her mother for abandoning her.

    Park Jae Joon (Yoon Park) is the husband's younger brother. He is popular with women, but he is attracted to Kang Yi-Sol.

    Cast
    Kim Sung Ryung as Rena Jung / Jung Eun Hye
    Lee Sung Kyung as Kang Yi Sol
    Yoon Park as Park Jae Joon
    Lee Jong Hyuk as Park Min Joon




    Code
    Video
    ID                             : 1
    Format                         : AVC
    Format/Info                    : Advanced Video Codec
    Format profile                 : High@L5.1
    Format settings, CABAC         : Yes
    Format settings, ReFrames      : 4 frames
    Codec ID                       : V_MPEG4/ISO/AVC
    Duration                       : 1h 24mn
    Bit rate                       : 887 Kbps
    Nominal bit rate               : 2 496 Kbps
    Width                          : 1 280 pixels
    Height                         : 720 pixels
    Display aspect ratio           : 16:9
    Frame rate mode                : Constant
    Frame rate                     : 29.970 fps
    Color space                    : YUV
    Chroma subsampling             : 4:2:0
    Bit depth                      : 8 bits
    Scan type                      : Progressive
    Bits/(Pixel*Frame)             : 0.032
    Stream size                    : 535 MiB (68%)
    Writing library                : x264 core 130 r2273 b3065e6
    Encoding settings              : cabac=1 / ref=3 / deblock=1:0:0 / analyse=0x3:0x113 / me=hex / subme=7 / psy=1 / psy_rd=1.00:0.00 / mixed_ref=1 / me_range=16 / chroma_me=1 / trellis=1 / 8x8dct=1 / cqm=0 / deadzone=21,11 / fast_pskip=1 / chroma_qp_offset=-2 / threads=1 / lookahead_threads=1 / sliced_threads=0 / nr=0 / decimate=1 / interlaced=0 / bluray_compat=0 / constrained_intra=0 / bframes=3 / b_pyramid=2 / b_adapt=1 / b_bias=0 / direct=1 / weightb=1 / open_gop=0 / weightp=2 / keyint=300 / keyint_min=29 / scenecut=40 / intra_refresh=0 / rc_lookahead=40 / rc=2pass / mbtree=1 / bitrate=2496 / ratetol=1.0 / qcomp=0.60 / qpmin=0 / qpmax=69 / qpstep=4 / cplxblur=20.0 / qblur=0.5 / vbv_maxrate=300000 / vbv_bufsize=300000 / nal_hrd=none / ip_ratio=1.40 / aq=1:1.00
    Default                        : Yes
    Forced                         : No

    Audio
    ID                             : 2
    Format                         : AC-3
    Format/Info                    : Audio Coding 3
    Mode extension                 : CM (complete main)
    Format settings, Endianness    : Big
    Codec ID                       : A_AC3
    Duration                       : 1h 24mn
    Bit rate mode                  : Constant
    Bit rate                       : 384 Kbps
    Channel(s)                     : 2 channels
    Channel positions              : Front: L R
    Sampling rate                  : 44.1 KHz
    Bit depth                      : 16 bits
    Compression mode               : Lossy
    Stream size                    : 232 MiB (30%)
    Language                       : Korean
    Default                        : Yes
    Forced                         : No



    0 0

    Original Post: [Mini Album] Kim Sung Kyu (INFINITE) – 27 [2nd Mini Album]



    http://en.wikipedia.org/wiki/Kim_Sung-kyu

    [EP] 김성규 (Kim Sung Kyu) – 2nd Mini Album '27'
    Release Date: 2015.05.11
    Genre: Rock
    Language: Korean
    Bit Rate: MP3-320kbps
    credit to k2nblog

    Over two years since his last solo effort, Infinite’s Kim Sung Kyu is releasing his second mini-album 27. Like with his first album, Sung Kyu pursues a modern rock sound and he has the support of Nell’s Kim Jong Wan, who is producing the entire album. 27 includes “The Answer,” Kontrol and “Daydream” featuring Tablo and Kim Jong Wan.

    Track List:

    01. 27
    02. 너여야만 해 (The Answer)
    03. Alive
    04. Kontrol
    05. Daydream (Feat. Borderline: TABLO & JW)
    06. 답가 (Feat. 박윤하)



    0 0

    Original Post: Algernon ni Hanataba o ep05 480p



    http://wiki.d-addicts.com/Algernon_ni_Hanataba_wo_%282015%29
    http://asianwiki.com/Flowers_for_Algernon_%28Japanese_Drama%29

    Title: アルジャーノンに花束を
    Title (romaji): Algernon ni Hanataba wo
    Also known as: Flowers for Algernon
    Format: Renzoku
    Genre: Drama
    Episodes: TBD
    Broadcast network: TBS
    Broadcast period: 2015-Apr-10 start
    Air time: Friday 22:00
    Related TV shows: Algernon ni Hanataba wo (Fuji TV, 2002), Hello, God (KBS2, 2006)
    Language: Japanese
    Country: Japan
    Subtitles: English here: areea-chan
    RAW credit to furransu

    Cast
       Yamashita Tomohisa as Shiratori Sakuto
       Kuriyama Chiaki as Mochizuki Haruka
       Kubota Masataka as Yanagawa Ryuichi
       Kudo Asuka (工藤阿須加)
       Kikuchi Fuma
       Tanimura Mitsuki
       Oomasa Aya
       Kaai Gamon
       Ishida Issei
       Kusakari Tamiyo
       Nakahara Takeo (special appearance)
       Hagiwara Masato
       Ishimaru Kanji as Hachisuka Daigo

    Synopsis
    Shiratori Sakuto is 28, but has the intelligence of a 6-year-old boy. He works for Dream Flower Service, a flower distribution centre which provides employment for problem youth. One day, he and a colleague, Yanagawa Ryuichi, delivers a rose bouquet to the apartment building where Mochizuki Haruka lives. Because Haruka does not know that the deliveryman is mentally challenged, she is shocked by his response and tries to call the police. Haruka works for a brain physiology research centre where Professor Hachisuka Daigo has been studying the improvement of mental performance. He has succeeded in lab experiments on a white mouse called Algernon. Sakuto is transformed into a genius through surgery. But Algernon's new intelligence begins to fade, and he dies. Sakuto realises that his genius, too, is destined to leave him.

    General
    Complete name                  : Algernon ni Hanataba o ep05 (848x480 x264).mp4
    Format                         : MPEG-4
    Format profile                 : Base Media
    Codec ID                       : isom
    File size                      : 334 MiB
    Duration                       : 46mn 34s
    Overall bit rate mode          : Variable
    Overall bit rate               : 1 003 Kbps

    Video
    ID                             : 1
    Format                         : AVC
    Format/Info                    : Advanced Video Codec
    Format profile                 : High@L4.1
    Format settings, CABAC         : Yes
    Format settings, ReFrames      : 4 frames
    Codec ID                       : avc1
    Codec ID/Info                  : Advanced Video Coding
    Duration                       : 46mn 34s
    Bit rate                       : 871 Kbps
    Maximum bit rate               : 6 534 Kbps
    Width                          : 848 pixels
    Height                         : 480 pixels
    Display aspect ratio           : 16:9
    Frame rate mode                : Constant
    Frame rate                     : 29.970 fps
    Color space                    : YUV
    Chroma subsampling             : 4:2:0
    Bit depth                      : 8 bits
    Scan type                      : Progressive
    Bits/(Pixel*Frame)             : 0.071
    Stream size                    : 290 MiB (87%)

    Audio
    ID                             : 2
    Format                         : AAC
    Format/Info                    : Advanced Audio Codec
    Format profile                 : LC
    Codec ID                       : 40
    Duration                       : 46mn 34s
    Bit rate mode                  : Variable
    Bit rate                       : 128 Kbps
    Maximum bit rate               : 134 Kbps
    Channel count                  : 2 channels
    Channel positions              : Front: L R
    Sampling rate                  : 48.0 KHz
    Compression mode               : Lossy



    0 0

    Original Post: [Mini Album] ROMEO – The Romeo [1st Mini Album]



    로미오 (ROMEO) – Romeo 1st EP The Romeo
    Release Date: 2015.05.07
    Genre: Ballad, Dance
    Language: Korean
    Bit Rate: MP3-320kbps
    credit to k2nblog

    Track List:

    01. Smile
    02. 예쁘니까 (Lovesick)
    03. 데이지 (Daisy)
    04. 너의 목소리



    0 0

    Original Post: [Mini Album] Heart B – Remember [1st Mini Album]



    하트비 – 하트비 1st Mini Album – Remember
    Release Date: 2015.05.06
    Genre: Ballad
    Language: Korean
    Bit Rate: MP3-320kbps
    credit to k2nblog

    Track List:

    01. 밥 한공기
    02. 널 사랑해 말하면
    03. Promise U
    04. 선택해줘 (Mini Ver.)
    05. 혼잣말 (With Zia)
    06. 밥 한공기 (Inst.)



    0 0

    Original Post: Kokoro ga Pokitto ne EP05 720p HDTV x264 AAC DoA



    http://wiki.d-addicts.com/Kokoro_ga_Pokitto_ne
    http://thetvdb.com/?tab=series&id=294579

    Title (romaji): Kokoro ga Pokitto ne
    Also known as: Crazy for Me
    Format: Renzoku
    Genre: Love comedy
    Episodes: TBD
    Broadcast network: Fuji TV
    Broadcast period: 2015-Apr-08 start
    Air time: Wednesday 22:00
    Theme song: SUN by Hoshino Gen
    Subtitles: English
    RAW credit to DoA


    Cast

    Abe Sadao as Kojima Haruta
    Mizuhara Kiko as Hayama Miyako
    Fujiki Naohito as Otake Shin
    Yamaguchi Tomoko as Kamoda Shizuka
    Tokunaga Eri as Itoyama Fumi
    Yamashita Rio as Makino Eriko
    Nagase Tasuku
    Ikezu Shoko
    Yamanishi Atsushi (山西惇)


    Synopsis

    Set in Tokyo, the story follows Kojima Haruta, a 40-year-old man who hits the rock bottom as he fell mentally ill which led him to lose his job, family, and even a place to live. After a certain turn of events, Haruta encounters Otake Shin, the owner of an antique furniture shop who takes Haruta in and hires him as a furniture repairman in the shop. Touched by such kindness, Haruta promised himself to try to put his life back together but kept himself isolated in order to avoid any additional stress being created. However, things suddenly starts to change as Haruta encounters Hayama Miyako, a 26-year-old woman who has a tendency to become overly dependent and extremely obsessed with a man she falls in love with... -- Fuji TV


    Mediainfo
    Spoiler:show

    Code
    Format                                   : Matroska
    Format version                           : Version 4 / Version 2
    File size                                : 1.34 GiB
    Duration                                 : 46mn 24s
    Overall bit rate                         : 4 121 Kbps
    Movie name                               : 心がポキッとね 第5回 720p HDTV x264 AAC-DoA
    Encoded date                             : UTC 2015-05-07 04:43:22
    Writing application                      : mkvmerge v7.8.0 ('River Man') 64bit built on Mar 27 2015 16:31:37
    Writing library                          : libebml v1.3.1 + libmatroska v1.4.2
    DURATION                                 : 00:46:24.896000000
    NUMBER_OF_FRAMES                         : 130542
    NUMBER_OF_BYTES                          : 65662626
    _STATISTICS_WRITING_APP                  : mkvmerge v7.8.0 ('River Man') 64bit built on Mar 27 2015 16:31:37
    _STATISTICS_WRITING_DATE_UTC             : 2015-05-07 04:43:22
    _STATISTICS_TAGS                         : BPS DURATION NUMBER_OF_FRAMES NUMBER_OF_BYTES

    Video
    ID                                       : 1
    Format                                   : AVC
    Format/Info                              : Advanced Video Codec
    Format profile                           : High@L4.1
    Format settings, CABAC                   : Yes
    Format settings, ReFrames                : 9 frames
    Codec ID                                 : V_MPEG4/ISO/AVC
    Duration                                 : 46mn 24s
    Width                                    : 1 280 pixels
    Height                                   : 720 pixels
    Display aspect ratio                     : 16:9
    Frame rate mode                          : Constant
    Frame rate                               : 29.970 fps
    Color space                              : YUV
    Chroma subsampling                       : 4:2:0
    Bit depth                                : 8 bits
    Scan type                                : Progressive
    Title                                    : Encode by TTG-DoA
    Writing library                          : x264 core 146 r2538 121396c
    Encoding settings                        : cabac=1 / ref=9 / deblock=1:-2:-2 / analyse=0x3:0x133 / me=umh / subme=10 / psy=1 / psy_rd=1.00:0.15 / mixed_ref=1 / me_range=48 / chroma_me=1 / trellis=2 / 8x8dct=1 / cqm=0 / deadzone=21,11 / fast_pskip=0 / chroma_qp_offset=-3 / threads=12 / lookahead_threads=2 / sliced_threads=0 / nr=0 / decimate=1 / interlaced=0 / bluray_compat=0 / constrained_intra=0 / bframes=8 / b_pyramid=2 / b_adapt=2 / b_bias=0 / direct=3 / weightb=1 / open_gop=0 / weightp=2 / keyint=300 / keyint_min=29 / scenecut=40 / intra_refresh=0 / rc_lookahead=60 / rc=crf / mbtree=1 / crf=18.2 / qcomp=0.60 / qpmin=0 / qpmax=69 / qpstep=4 / ip_ratio=1.40 / aq=1:1.00
    Language                                 : Japanese
    Default                                  : Yes
    Forced                                   : No
    _STATISTICS_WRITING_APP                  : mkvmerge v7.8.0 ('River Man') 64bit built on Mar 27 2015 16:31:37
    _STATISTICS_WRITING_DATE_UTC             : 2015-05-07 04:43:22
    _STATISTICS_TAGS                         : BPS DURATION NUMBER_OF_FRAMES NUMBER_OF_BYTES
    DURATION                                 : 00:46:24.915000000
    NUMBER_OF_FRAMES                         : 83464
    NUMBER_OF_BYTES                          : 1367968470

    Audio
    ID                                       : 2
    Format                                   : AAC
    Format/Info                              : Advanced Audio Codec
    Format profile                           : LC
    Codec ID                                 : A_AAC
    Duration                                 : 46mn 24s
    Channel(s)                               : 2 channels
    Channel positions                        : Front: L R
    Sampling rate                            : 48.0 KHz
    Compression mode                         : Lossy
    Language                                 : Japanese
    Default                                  : Yes
    Forced                                   : No

    Menu
    00:00:00.000                             : ja:Chapter 01
    00:09:41.981                             : ja:Chapter 02
    00:27:10.962                             : ja:Chapter 03
    00:30:51.950                             : ja:Chapter 04
    00:36:42.934                             : ja:Chapter 05





    0 0

    Original Post: Dr. Rintaro EP04 720p HDTV x264 AAC-DoA



    http://wiki.d-addicts.com/Dr._Rintaro
    http://asianwiki.com/Dr._Rintaro
    http://thetvdb.com/?tab=series&id=293875&lid=7

    Title (romaji): Dr. Rintaro
    Format: Renzoku
    Genre: Medical
    Episodes: TBD
    Broadcast network: NTV
    Broadcast period: 2015-Apr-15 start
    Air time: Wednesday 22:00
    Subtitles: English - torachan2006
    RAW credit to DoA


    Cast

       Sakai Masato as Hino Rintaro
       Aoi Yu as Yumeno
       Kichise Michiko as Mizushima Yuriko
       Uchida Yuki as Kiryuu Kaoru
       Takanashi Rin as Kawakami Yoko
       Takahashi Issei as Fukuhara Daisaku
       Matobu Sei as Yabe Machiko
       Nakanishi Miho (中西美帆) as Koyume
       Yo Kimiko as Masuda Ikumi
       Endo Kenichi as Araki Shigeto
       Sakai Wakana as Nakahata Madoka
       Nagatsuka Keishi (長塚圭史) as Miyagawa Takahiro
       Matsushige Yutaka as Hasumi Eisuke
       Ishibashi Renji as Ike Masayuki
       Takahata Atsuko as Aizawa Ruriko
       Kohinata Fumiyo as Ennouji Kazuo


    Synopsis

    His name is Hino Rintaro. He listens closely to the aching hearts of people and relieves them of their pain. He is published and makes television appearances. The number of people waiting to receive his consultation continues to grow. Despite his achievements, Dr. Rintaro falls short in one department: love. He even dismisses it by saying “Falling in love is just like a passing mental illness.” One day, during a meal with the president of the university, Rintaro meets a woman. Her name is Yumeno, a highly sought-after geisha in Shimbashi. Little did Rintaro know that this encounter would drastically change his life. -- NTV


    Mediainfo
    Spoiler:show

    Code
    Format                                   : Matroska
    Format version                           : Version 4 / Version 2
    File size                                : 840 MiB
    Duration                                 : 51mn 19s
    Overall bit rate                         : 2 287 Kbps
    Encoded date                             : UTC 2015-05-07 15:14:24
    Writing application                      : mkvmerge v7.6.0 ('Garden of Dreams') 64bit built on Feb  8 2015 13:04:34
    Writing library                          : libebml v1.3.1 + libmatroska v1.4.2
    DURATION                                 : 00:51:19.851000000
    NUMBER_OF_FRAMES                         : 144368
    NUMBER_OF_BYTES                          : 72617104
    _STATISTICS_WRITING_APP                  : mkvmerge v7.6.0 ('Garden of Dreams') 64bit built on Feb  8 2015 13:04:34
    _STATISTICS_WRITING_DATE_UTC             : 2015-05-07 15:14:24
    _STATISTICS_TAGS                         : BPS DURATION NUMBER_OF_FRAMES NUMBER_OF_BYTES

    Video
    ID                                       : 1
    Format                                   : AVC
    Format/Info                              : Advanced Video Codec
    Format profile                           : High@L4.1
    Format settings, CABAC                   : Yes
    Format settings, ReFrames                : 9 frames
    Codec ID                                 : V_MPEG4/ISO/AVC
    Duration                                 : 51mn 19s
    Width                                    : 1 280 pixels
    Height                                   : 720 pixels
    Display aspect ratio                     : 16:9
    Frame rate mode                          : Constant
    Frame rate                               : 29.970 fps
    Color space                              : YUV
    Chroma subsampling                       : 4:2:0
    Bit depth                                : 8 bits
    Scan type                                : Progressive
    Title                                    : DoA encoder
    Writing library                          : x264 core 146 r2538 121396c
    Encoding settings                        : cabac=1 / ref=9 / deblock=1:-2:-2 / analyse=0x3:0x133 / me=umh / subme=10 / psy=1 / psy_rd=1.00:0.15 / mixed_ref=1 / me_range=48 / chroma_me=1 / trellis=2 / 8x8dct=1 / cqm=0 / deadzone=21,11 / fast_pskip=0 / chroma_qp_offset=-3 / threads=12 / lookahead_threads=2 / sliced_threads=0 / nr=0 / decimate=1 / interlaced=0 / bluray_compat=0 / constrained_intra=0 / bframes=8 / b_pyramid=2 / b_adapt=2 / b_bias=0 / direct=3 / weightb=1 / open_gop=0 / weightp=2 / keyint=300 / keyint_min=29 / scenecut=40 / intra_refresh=0 / rc_lookahead=60 / rc=crf / mbtree=1 / crf=17.0 / qcomp=0.60 / qpmin=0 / qpmax=69 / qpstep=4 / ip_ratio=1.40 / aq=1:1.00
    Language                                 : English
    Default                                  : Yes
    Forced                                   : No
    DURATION                                 : 00:51:19.910000000
    NUMBER_OF_FRAMES                         : 92305
    NUMBER_OF_BYTES                          : 806801957
    _STATISTICS_WRITING_APP                  : mkvmerge v7.6.0 ('Garden of Dreams') 64bit built on Feb  8 2015 13:04:34
    _STATISTICS_WRITING_DATE_UTC             : 2015-05-07 15:14:24
    _STATISTICS_TAGS                         : BPS DURATION NUMBER_OF_FRAMES NUMBER_OF_BYTES

    Audio
    ID                                       : 2
    Format                                   : AAC
    Format/Info                              : Advanced Audio Codec
    Format profile                           : LC
    Codec ID                                 : A_AAC
    Duration                                 : 51mn 19s
    Channel(s)                               : 2 channels
    Channel positions                        : Front: L R
    Sampling rate                            : 48.0 KHz
    Compression mode                         : Lossy
    Delay relative to video                  : 17ms
    Default                                  : Yes
    Forced                                   : No





    0 0

    Original Post: King of Mask Singer E06 720p WITH



    Hangul: 복면가왕
    Genre: Variety Show
    Language: Korean
    Country: South Korea
    Subtitles: No Subtitles

    Cast:
    11 Celebrity Judges + 1 Main MC:
    - Kim Sung Joo - Main MC (Dad, Where Are We Going?)
    - Kim Gura - Sub MC (JTBC War of Words, MBC Radio Star, Quiz to Change the World)
    - So Yi Hyun - Sub MC (Heartstrings, Cheongdamdong Alice, Three Days)
    - B1A4 Sandeul
    - Kim Hyung Seok (Music Producer - Kim Gunmo, Baby Vox, Jo Sung Mo, etc)
    - Ji Sang Ryeol (X-Man, 1 Night 2 Days)
    - Hwang Seok Jung (Lost in Love, Hello Schoolgirl)
    - Kim Jung Nam (Turbo 1995-97)
    - ZE:A Kwanghee
    - Shin Bong Sun (Heroes, Happy Together)
    - Yoo Sang Moo (Gag Concert, Comedy Big League, I Am a Man)
    - Girl's Day Yura


    When you have to compete with only your voice, who will be the last singer standing? “King of Mask Singer” is a South Korean variety show where the participants compete against each other wearing masks to hide their true identities. The contestants may be famous singers or stars who have always aspired to sing – but they all have one thing in common. They must all compete with their vocals alone because no one will know their true identities until the very end! Enjoy these highlight clips from the popular variety show, featuring MCs Kim Sung Joo and Kim Goo Ra.

    Format of the Show:
    - 11 Celebrity Judges and 88 Audience Voters = 99 Votes
    - All singers initially are masked.
    - Round 1: Duet with 2 members, 99 Voters will choose which of the 2 contestants sang better.
    - Round 2 + 3: Each contestant sings their own song.
    - Loser in each vote gets their identity revealed, and is eliminated.
    - Final Winner stays unknown to the audience and judges, but revealed at the end of the broadcast to the viewers.


    Code

    General
    Format                                   : MPEG-4
    Format profile                           : Base Media
    Codec ID                                 : isom
    File size                                : 1.37 GiB
    Duration                                 : 1h 19mn
    Overall bit rate mode                    : Variable
    Overall bit rate                         : 2 472 Kbps
    Encoded date                             : UTC 2015-04-05 09:20:13
    Tagged date                              : UTC 2015-04-05 09:20:13

    Video
    ID                                       : 1
    Format                                   : AVC
    Format/Info                              : Advanced Video Codec
    Format profile                           : Baseline@L1.3
    Format settings, CABAC                   : No
    Format settings, ReFrames                : 1 frame
    Codec ID                                 : avc1
    Codec ID/Info                            : Advanced Video Coding
    Duration                                 : 1h 19mn
    Bit rate                                 : 2 200 Kbps
    Maximum bit rate                         : 10.6 Mbps
    Width                                    : 1 280 pixels
    Height                                   : 720 pixels
    Display aspect ratio                     : 16:9
    Frame rate mode                          : Constant
    Frame rate                               : 29.970 fps
    Color space                              : YUV
    Chroma subsampling                       : 4:2:0
    Bit depth                                : 8 bits
    Scan type                                : Progressive
    Bits/(Pixel*Frame)                       : 0.080
    Stream size                              : 1.22 GiB (90%)
    Writing library                          : x264 core 128 r2216 198a7ea
    Encoding settings                        : cabac=0 / ref=1 / deblock=1:0:0 / analyse=0x1:0x111 / me=hex / subme=7 / psy=1 / psy_rd=1.00:0.00 / mixed_ref=0 / me_range=16 / chroma_me=1 / trellis=1 / 8x8dct=0 / cqm=0 / deadzone=21,11 / fast_pskip=1 / chroma_qp_offset=-2 / threads=12 / lookahead_threads=2 / sliced_threads=0 / nr=0 / decimate=1 / interlaced=0 / bluray_compat=0 / constrained_intra=0 / bframes=0 / weightp=0 / keyint=250 / keyint_min=25 / scenecut=40 / intra_refresh=0 / rc_lookahead=40 / rc=abr / mbtree=1 / bitrate=2200 / ratetol=1.0 / qcomp=0.60 / qpmin=0 / qpmax=69 / qpstep=4 / vbv_maxrate=50000 / vbv_bufsize=50000 / nal_hrd=none / ip_ratio=1.40 / aq=1:1.00
    Encoded date                             : UTC 2015-04-05 08:16:02
    Tagged date                              : UTC 2015-04-05 09:20:16

    Audio
    ID                                       : 2
    Format                                   : AAC
    Format/Info                              : Advanced Audio Codec
    Format profile                           : LC
    Codec ID                                 : 40
    Duration                                 : 1h 19mn
    Bit rate mode                            : Variable
    Bit rate                                 : 256 Kbps
    Maximum bit rate                         : 262 Kbps
    Channel(s)                               : 2 channels
    Channel positions                        : Front: L R
    Sampling rate                            : 48.0 KHz
    Compression mode                         : Lossy
    Stream size                              : 145 MiB (10%)
    Encoded date                             : UTC 2015-04-05 09:20:13
    Tagged date                              : UTC 2015-04-05 09:20:16







    *Please PM me if there is something wrong, Don't ask for subtitle. smile1.gif

    Don't try to HIT AND RUN. Don't forget to seed minimum at least 1.5.. Please always seed, since I will not re-upload If it already deleted on my seedbox.



    0 0
  • 05/10/15--13:50: Scapegoat 720p DoA Complete
  • Original Post: Scapegoat 720p DoA Complete



    http://wiki.d-addicts.com/Scapegoat
    http://asianwiki.com/Scapegoat_%28Japanese_Drama%29
    http://thetvdb.com/?tab=series&id=293072&lid=7

    Title (English): Scapegoat
    Format: Renzoku
    Genre: Political, suspense
    Episodes: 4
    Broadcast network: WOWOW
    Broadcast period: 2015-Apr-12 to 2015-May-03
    Air time: Sunday 22:00
    Theme song: Prayer by Hirahara Ayaka
    Subtitles: None
    RAW credit to DoA


    Cast

       Kuroki Hitomi as Misaki Koko
       Ishimaru Kanji as Yagisawa Shun
       Sasaki Nozomi as Misaki Mayu
       Yamaguchi Sayaka as Akimoto Tsukasa
       Koichi Mantaro as Yamashita Takumi
       Aijima Kazuyuki as Amami Toshiro
       Mitsuishi Ken as Higuchi Daigo
       Jinbo Satoshi as Tasaki Keigo
       Kobayashi Takashi as Misaki Nobuaki
       Nishioka Tokuma as Ozeki Shiro
       Furuya Ikko as Yamashiro Taizo


    Synopsis

    Misaki Koko, a university professor, receives a phone call out of the blue from her former boyfriend, Yagisawa Shun, who is now an executive officer of a television network. Yagisawa has been asked by Yamashiro Taizo, the leader of Meisei Party, to introduce Koko. Yamashiro intends to bring Koko in as a civilian cabinet minister with the aim of regaining political control in the next general election. Hiroko has kept a distance from politicians because of a past feud with her father. She hesitates, not able to give Yamashiro a reply. However, several days later, an article announcing her appointment appears in the newspapers. This is Yamashiro's strategy to draw her in. Unable to back out, Koko decides to enter politics with the support of her husband, Nobuaki. However, right after she takes office, she is faced with an unprecedented crisis. Will she be able to survive? -- Jdrama Weblog (edited)


    Mediainfo
    Spoiler:show

    Code
    Format                                   : Matroska
    Format version                           : Version 4 / Version 2
    File size                                : 897 MiB
    Duration                                 : 54mn 25s
    Overall bit rate                         : 2 305 Kbps
    Encoded date                             : UTC 2015-04-16 03:06:50
    Writing application                      : mkvmerge v7.8.0 ('River Man') 32bit built on Mar 27 2015 16:18:02
    Writing library                          : libebml v1.3.1 + libmatroska v1.4.2
    DURATION                                 : 00:54:25.002000000
    NUMBER_OF_FRAMES                         : 153047
    NUMBER_OF_BYTES                          : 76982641
    _STATISTICS_WRITING_APP                  : mkvmerge v7.8.0 ('River Man') 32bit built on Mar 27 2015 16:18:02
    _STATISTICS_WRITING_DATE_UTC             : 2015-04-16 03:06:50
    _STATISTICS_TAGS                         : BPS DURATION NUMBER_OF_FRAMES NUMBER_OF_BYTES

    Video
    ID                                       : 1
    Format                                   : AVC
    Format/Info                              : Advanced Video Codec
    Format profile                           : High@L4.1
    Format settings, CABAC                   : Yes
    Format settings, ReFrames                : 8 frames
    Codec ID                                 : V_MPEG4/ISO/AVC
    Duration                                 : 54mn 25s
    Width                                    : 1 280 pixels
    Height                                   : 720 pixels
    Display aspect ratio                     : 16:9
    Frame rate mode                          : Constant
    Frame rate                               : 23.976 fps
    Original frame rate                      : 29.970 fps
    Color space                              : YUV
    Chroma subsampling                       : 4:2:0
    Bit depth                                : 8 bits
    Scan type                                : Progressive
    Writing library                          : x264 core 146 r2538 121396c
    Encoding settings                        : cabac=1 / ref=8 / deblock=1:-3:-3 / analyse=0x3:0x133 / me=umh / subme=9 / psy=1 / psy_rd=1.00:0.00 / mixed_ref=1 / me_range=16 / chroma_me=1 / trellis=2 / 8x8dct=1 / cqm=0 / deadzone=21,11 / fast_pskip=1 / chroma_qp_offset=-2 / threads=6 / lookahead_threads=1 / sliced_threads=0 / nr=0 / decimate=1 / interlaced=0 / bluray_compat=0 / constrained_intra=0 / bframes=8 / b_pyramid=2 / b_adapt=2 / b_bias=0 / direct=3 / weightb=1 / open_gop=0 / weightp=2 / keyint=300 / keyint_min=29 / scenecut=40 / intra_refresh=0 / rc_lookahead=60 / rc=crf / mbtree=1 / crf=18.0 / qcomp=0.60 / qpmin=0 / qpmax=69 / qpstep=4 / ip_ratio=1.40 / aq=1:1.00
    Language                                 : English
    Default                                  : Yes
    Forced                                   : No
    DURATION                                 : 00:54:24.961000000
    NUMBER_OF_FRAMES                         : 78880
    NUMBER_OF_BYTES                          : 862732052
    _STATISTICS_WRITING_APP                  : mkvmerge v7.8.0 ('River Man') 32bit built on Mar 27 2015 16:18:02
    _STATISTICS_WRITING_DATE_UTC             : 2015-04-16 03:06:50
    _STATISTICS_TAGS                         : BPS DURATION NUMBER_OF_FRAMES NUMBER_OF_BYTES

    Audio
    ID                                       : 2
    Format                                   : AAC
    Format/Info                              : Advanced Audio Codec
    Format profile                           : LC
    Codec ID                                 : A_AAC
    Duration                                 : 54mn 25s
    Channel(s)                               : 2 channels
    Channel positions                        : Front: L R
    Sampling rate                            : 48.0 KHz
    Compression mode                         : Lossy
    Default                                  : Yes
    Forced                                   : No







    0 0

    Original Post: Yoon Mi Rae – Who Are You – School 2015 OST Part.3



    t 윤미래 – 후아유 – 학교 2015 OST Part 3
    Release Date: 2015.05.11
    Genre: OST
    Language: Korean
    Bit Rate: MP3-320kbps
    credit to hulkpop

    Track List:

    01. 너의 얘길 들어줄게
    02. 너의 얘길 들어줄게 (Inst.)



older | 1 | .... | 1338 | 1339 | (Page 1340) | 1341 | 1342 | .... | 1405 | newer