Are you the publisher? Claim or contact us about this channel


Embed this content in your HTML

Search

Report adult content:

click to rate:

Account: (login)

More Channels


Showcase


Channel Catalog


Channel Description:

Asia Torrents RSS Feed

older | 1 | .... | 1339 | 1340 | (Page 1341) | 1342 | 1343 | .... | 1405 | newer

    0 0

    Original Post: Epitone Project – Divorce Lawyer in Love OST Part.3



    에피톤 프로젝트 – 이혼변호사는 연애중 (SBS 주말드라마) OST – Part.3
    Release Date: 2015.05.11
    Genre: OST
    Language: Korean
    Bit Rate: MP3-320kbps
    credit to hulkpop

    Track List:

    01. 낯선, 새벽
    02. 낯선, 새벽 (Inst.)



    0 0

    Original Post: Various Artists – Blood OST



    Various Artists – 블러드 OST (Blood OST)
    Release Date: 2015.05.11
    Genre: OST
    Bit rate: MP3-320K
    credit to hulkpop

    Track List:

    01. Olny One – 티파니
    02. Be Alright – 송하예
    03. I Can’t Stop Loving you – 하현우 (국카스텐)
    04. Cell (Feat. 타루, 진현) – MC 메타
    05. 한 사람만 사랑합니다 – 비비안
    06. 블러드
    07. 뱀파이어의 사랑
    08. Evil
    09. Dream
    10. 생명선
    11. The Legend
    12. 누군가의 아픔
    13. 사랑과 구원
    14. 열정이 된 슬픔
    15. Vampire vs Vampire
    16. Survivor
    17. Wake Up
    18. Game of Death



    0 0

    Original Post: I'm.Home.EP04.720p.HDTV.x264.AAC



    http://wiki.d-addicts.com/I%27m_Home_%28TV_Asahi%29
    http://asianwiki.com/I%27m_Home

    Title: アイムホーム
    Title (English): I'm home
    Format: Renzoku
    Genre: Family mystery
    Broadcast network: TV Asahi
    Episodes: TBD
    Broadcast period: 2015-Apr-16 start
    Air time: Thursday 21:00
    Language: Japanese
    Country: Japan
    Subtitles: English here: Watanuki and Chiyoko Fansub

    Cast
       Kimura Takuya as Ieji Hisashi
       Ueto Aya as Ieji Megumi
       Mizuno Miki as Nozawa Kaoru
       Tanaka Kei as Honjo Tsuyoshi
       Suzuki Kosuke as Watanuki Shinji
       Yoshimoto Miyu as Takanashi Yua
       Ino Manabu (猪野学) as Hifumi Tsutomu
       Anami Atsuko as Isami Yoko
       Nomaguchi Toru as Iwashita Noboru
       Yano Masato as Tokura Shingo
       Takahashi Rai (高橋來) as Ieji Yoshio
       Yamaguchi Mayu (山口まゆ) as Nozawa Subaru
       Arai Hirofumi as Kuroki Jin
       Mitsuishi Ken as Todoroki Haruki
       Watanabe Ikkei as Teshigawara Yosuke
       Oikawa Mitsuhiro as Tsukuba Yoshiaki
       Nishida Toshiyuki as Kozukue Yukio

    Synopsis
    Ieji Hisashi, a salaryman who works for a securities company, has a fuzzy memory of the recent five years because of an accident at his job posting. His wife of five years, Megumi and their 4-year-old son seem to wear masks. He can neither tell their facial expressions nor their emotions. He also struggles about his love for them. On the other hand, Ieji feels an attachment to his ex-wife, whom he divorced five years ago, and their daughter. What sort of days did he have in those five years which are a blank to him? Ieji sets out on a journey to find his past self with a mysterious bunch of 10 keys that he has. He becomes aware that he was a cold, career-minded man before the accident, and the persona that is gradually revealed is beyond the imagination of his present kindhearted self.

    General
    Complete name                  : I'm.Home.EP04.720p.HDTV.x264.AAC.mp4
    Format                         : MPEG-4
    Format profile                 : Base Media / Version 2
    Codec ID                       : mp42
    File size                      : 663 MiB
    Duration                       : 47mn 14s
    Overall bit rate mode          : Variable
    Overall bit rate               : 1 962 Kbps

    Video
    ID                             : 1
    Format                         : AVC
    Format/Info                    : Advanced Video Codec
    Format profile                 : High@L4.1
    Format settings, CABAC         : Yes
    Format settings, ReFrames      : 4 frames
    Codec ID                       : avc1
    Codec ID/Info                  : Advanced Video Coding
    Duration                       : 47mn 14s
    Bit rate                       : 1 825 Kbps
    Width                          : 1 280 pixels
    Height                         : 720 pixels
    Display aspect ratio           : 16:9
    Frame rate mode                : Constant
    Frame rate                     : 29.970 fps
    Standard                       : Component
    Color space                    : YUV
    Chroma subsampling             : 4:2:0
    Bit depth                      : 8 bits
    Scan type                      : Progressive
    Bits/(Pixel*Frame)             : 0.066
    Stream size                    : 617 MiB (93%)

    Audio
    ID                             : 2
    Format                         : AAC
    Format/Info                    : Advanced Audio Codec
    Format profile                 : LC
    Codec ID                       : 40
    Duration                       : 47mn 14s
    Bit rate mode                  : Variable
    Bit rate                       : 132 Kbps
    Maximum bit rate               : 576 Kbps
    Channel(s)                     : 2 channels
    Channel positions              : Front: L R
    Sampling rate                  : 48.0 KHz
    Compression mode               : Lossy



    0 0

    Original Post: Renai Jidai EP06 720p HDTV x264 AAC DoA



    http://asianwiki.com/Renai_Jidai
    http://wiki.d-addicts.com/Renai_Jidai
    http://thetvdb.com/?tab=series&id=294567&lid=7

    Title (romaji): Renai Jidai
    Format: Renzoku
    Genre: Romance
    Episodes: TBD
    Broadcast network: NTV / YTV
    Broadcast period: 2015-Apr-02 start
    Air time: Thursday 23:59
    Theme song: Arigatou Forever... by Nishiuchi Mariya
    Subtitles: English - sakotea
    RAW credit to DoA

     
    Cast

       Higa Manami as Eto Haru
       Mitsushima Shinnosuke as Hayase Riichiro
       Satsukawa Aimi as Ogasawara Kasumi
       Fuchikami Yasushi (淵上泰史) as Nagatomi Shohei
       Nakao Akiyoshi as Kaieda Mamoru
       Eguchi Noriko as Aramaki Sayuri
       Matsukawa Akari (松川星) as Eto Shizuka
       Yokoyama Mei (横山芽生) as Ogasawara Aya
       Oishi Goro as Eto Ginichi
       Kashii Yu as Oda Tamiko
       Sato Ryuta as Kitajima Ryuichi


    Synopsis

    Haru Eto (Manami Higa) works at a sports gym and Riichiro Hayase (Shinnosuke Mitsushima) works at a book store. After a fateful meeting, they eventually marry, but, due to a reason, they divorce only a year and a half later. Even after their divorce, the couple continue to see each other. On their wedding anniversary they have dinner together. Due to a petty quarrel, they begin to search for a potential spouse for each other.

    Mediainfo
    Spoiler:show

    Code
    Format                                   : Matroska
    Format version                           : Version 4 / Version 2
    File size                                : 845 MiB
    Duration                                 : 43mn 14s
    Overall bit rate                         : 2 731 Kbps
    Movie name                               : 恋愛時代 #06 720p HDTV x264 AAC-DoA
    Encoded date                             : UTC 2015-05-08 10:37:39
    Writing application                      : mkvmerge v7.8.0 ('River Man') 64bit built on Mar 27 2015 16:31:37
    Writing library                          : libebml v1.3.1 + libmatroska v1.4.2
    DURATION                                 : 00:43:14.027000000
    NUMBER_OF_FRAMES                         : 121595
    NUMBER_OF_BYTES                          : 61162247
    _STATISTICS_WRITING_APP                  : mkvmerge v7.8.0 ('River Man') 64bit built on Mar 27 2015 16:31:37
    _STATISTICS_WRITING_DATE_UTC             : 2015-05-08 10:37:39
    _STATISTICS_TAGS                         : BPS DURATION NUMBER_OF_FRAMES NUMBER_OF_BYTES

    Video
    ID                                       : 1
    Format                                   : AVC
    Format/Info                              : Advanced Video Codec
    Format profile                           : High@L4.1
    Format settings, CABAC                   : Yes
    Format settings, ReFrames                : 9 frames
    Codec ID                                 : V_MPEG4/ISO/AVC
    Duration                                 : 43mn 14s
    Width                                    : 1 280 pixels
    Height                                   : 720 pixels
    Display aspect ratio                     : 16:9
    Frame rate mode                          : Constant
    Frame rate                               : 29.970 fps
    Color space                              : YUV
    Chroma subsampling                       : 4:2:0
    Bit depth                                : 8 bits
    Scan type                                : Progressive
    Title                                    : Encode by DoA
    Writing library                          : x264 core 130 r2273 b3065e6
    Encoding settings                        : cabac=1 / ref=9 / deblock=1:-2:-2 / analyse=0x3:0x133 / me=umh / subme=10 / psy=1 / psy_rd=1.00:0.15 / mixed_ref=1 / me_range=48 / chroma_me=1 / trellis=2 / 8x8dct=1 / cqm=0 / deadzone=21,11 / fast_pskip=0 / chroma_qp_offset=-3 / threads=12 / lookahead_threads=2 / sliced_threads=0 / nr=0 / decimate=1 / interlaced=0 / bluray_compat=0 / constrained_intra=0 / bframes=8 / b_pyramid=2 / b_adapt=2 / b_bias=0 / direct=3 / weightb=1 / open_gop=0 / weightp=2 / keyint=300 / keyint_min=29 / scenecut=40 / intra_refresh=0 / rc_lookahead=60 / rc=crf / mbtree=1 / crf=18.0 / qcomp=0.60 / qpmin=0 / qpmax=69 / qpstep=4 / ip_ratio=1.40 / aq=1:1.00
    Language                                 : Japanese
    Default                                  : Yes
    Forced                                   : No
    DURATION                                 : 00:43:14.425000000
    NUMBER_OF_FRAMES                         : 77755
    NUMBER_OF_BYTES                          : 823585200
    _STATISTICS_WRITING_APP                  : mkvmerge v7.8.0 ('River Man') 64bit built on Mar 27 2015 16:31:37
    _STATISTICS_WRITING_DATE_UTC             : 2015-05-08 10:37:39
    _STATISTICS_TAGS                         : BPS DURATION NUMBER_OF_FRAMES NUMBER_OF_BYTES

    Audio
    ID                                       : 2
    Format                                   : AAC
    Format/Info                              : Advanced Audio Codec
    Format profile                           : LC
    Codec ID                                 : A_AAC
    Duration                                 : 43mn 14s
    Channel(s)                               : 2 channels
    Channel positions                        : Front: L R
    Sampling rate                            : 48.0 KHz
    Compression mode                         : Lossy
    Delay relative to video                  : 11ms
    Language                                 : Japanese
    Default                                  : Yes
    Forced                                   : No

    Menu
    00:00:00.000                             : ja:恋愛時代 #06 Part 1
    00:04:21.928                             : ja:オープニング
    00:04:33.940                             : ja:恋愛時代 #06 Part 2
    00:22:01.953                             : ja:提供
    00:22:06.892                             : ja:恋愛時代 #06 Part 3
    00:28:35.780                             : ja:恋愛時代 #06 Part 4
    00:33:20.665                             : ja:恋愛時代 #06 Part 5
    00:39:25.496                             : ja:恋愛時代 #06 Part 6
    00:42:54.505                             : ja:次回予告





    0 0

    Original Post: Tennou no Ryouriban ep03 480p



    http://asianwiki.com/Tenno_no_Ryoriban

    Title: The Emperor's Cook
    Romaji: Tenno no Ryoriban
    Japanese: 天皇の料理番
    Genre: Historical, Human Drama
    Director: Yuichiro Hirakawa, Shingo Okamoto
    Writer: Hisahide Sugimori (novel), Yoshiko Morishita
    Network: TBS
    Episodes: TBA
    Release Date: 2015-Apr-26 start
    Runtime: Sundays 21:00
    Theme song: Yume Miru Hito (Dreamer) by Sada Masashi
    Language: Japanese
    Country: Japan
    Subtitles: English here: subie06
    RAW credit to furransu

    Cast
       Takeru Satoh - Tokuzo Akiyama
       Haru Kuroki - Toshiko Takahama
       Kenta Kiritani - Shintaro Matsui
       Tasuku Emoto - Tatsuyoshi Yamagami
       Saki Takaoka - Ume Morita
       Gajiro Sato - Sennosuke Morita
       Sei Ashina - Kayano
       Ryu Morioka - Kurasaburo Akiyama
       Anna Ishibashi - Koshi Takahama
       Yoshiyuki Tsubokura - Okumura
       Jinta Nishizawa - Masashi Sasaki
       Daisuke Kuroda - Araki
       Takeshi Onishi - Sekiguchi
       Mamoru Watanabe - Sugiyama
       Hirotaka Ookuma - Fujita
       Yuji Kido - Suzuki
       Ryohei Suzuki - Shutaro Akiyama
       Tetsuya Takeda - Shogo
       Hideaki Ito - Yukichi Tanabe
       Yumi Asou - Okichi (restaurant owner)
       Masaya Kato - Takeshiro Ioki
       Yojin Hino - Kinnosuke Takahama
       Satoko Oshima - Harugo Takahama
       Jun Miho - Fuki Akiyama
       Tetta Sugimoto - Shuzo Akiyama
       Kaoru Kobayashi - Usami
       Satoko Oshima
       Hiromi Go - Shin'ichirō Awano

    Synopsis
    Tokuzo Akiyama (Takeru Satoh) is a young man living in a rural area. One day, he eats cutlet. That experience leads him to become a cook for western style food. He first goes to Tokyo and then Paris, France to learn about the culinary arts. Fighting against discrimination and prejudice, he becomes a chef at the Hotel Ritz in Paris, France. At the age of 26, he becomes the chef for the Emperor of Japan.

    In 1904, at New Year's, the Akiyama family in Fukui prefecture were full of hope except for one thing. Shuzo (Tetta Sugimoto) worries that his second son, Tokuzo (Takeru Satoh) just quits things too easily unlike the first son, Shutaro (Ryohei Suzuki). The worried father arranges his son to marry Toshiko (Haru Kuroki) of the Takahama family who runs a seaweed merchant. One day, newly-married Tokuzo encounters Sergeant Tanabe (Hideaki Ito) of the Sabae Regiment while delivering seaweed. Tokuzo has a piece of freshly-fried cutlet offered by Tanabe and is struck by the overwhelming taste. ~ TBS

    General
    Complete name                  : Tennou no Ryouriban ep03 (848x480 x264).mp4
    Format                         : MPEG-4
    Format profile                 : Base Media
    Codec ID                       : isom
    File size                      : 334 MiB
    Duration                       : 54mn 38s
    Overall bit rate mode          : Variable
    Overall bit rate               : 854 Kbps

    Video
    ID                             : 1
    Format                         : AVC
    Format/Info                    : Advanced Video Codec
    Format profile                 : High@L4.1
    Format settings, CABAC         : Yes
    Format settings, ReFrames      : 4 frames
    Codec ID                       : avc1
    Codec ID/Info                  : Advanced Video Coding
    Duration                       : 54mn 38s
    Bit rate                       : 721 Kbps
    Maximum bit rate               : 4 893 Kbps
    Width                          : 848 pixels
    Height                         : 480 pixels
    Display aspect ratio           : 16:9
    Frame rate mode                : Constant
    Frame rate                     : 29.970 fps
    Color space                    : YUV
    Chroma subsampling             : 4:2:0
    Bit depth                      : 8 bits
    Scan type                      : Progressive
    Bits/(Pixel*Frame)             : 0.059
    Stream size                    : 282 MiB (84%)

    Audio
    ID                             : 2
    Format                         : AAC
    Format/Info                    : Advanced Audio Codec
    Format profile                 : LC
    Codec ID                       : 40
    Duration                       : 54mn 38s
    Bit rate mode                  : Variable
    Bit rate                       : 128 Kbps
    Maximum bit rate               : 137 Kbps
    Channel count                  : 2 channels
    Channel positions              : Front: L R
    Sampling rate                  : 48.0 KHz
    Compression mode               : Lossy



    0 0

    Original Post: [Album] BoA – Kiss My Lips [8th Album]



    http://en.wikipedia.org/wiki/BoA

    보아 (BoA) – Kiss My Lips – The 8th Album
    Release Date: 2015.05.12
    Genre: Dance Pop
    Language: Korean, English
    Bit Rate: MP3-320kbps
    credit to k2nblog

    BoA is back! Nearly three years since Only One, the diva returns with her eighth Korean album Kiss My Lips. Celebrating her 15th anniversary this year, BoA shows how much she’s matured musically over the years with an album that covers different genres and showcases her songwriting efforts. Besides the title song Kiss My Lips, the album includes BoA’s sweet, self-penned pop number Who Are You featuring Gaeko.

    Track List:

    01. Kiss My Lips
    02. Who Are You (Feat. 개코)
    03. Smash
    04. Shattered
    05. Fox
    06. Double Jack (Feat. 에디킴)
    07. Home
    08. Clockwork
    09. Love and Hate
    10. Green Light
    11. Hello
    12. Blah



    0 0

    Original Post: TVB Limelight Years E07 HDTV 720p-TVBDO



    If you like my upload, please press the "Thank You" buttoncool2.gif

    English Title: Limelight Years
    Chinese Title:華麗轉身
    Network: TVB
    Release Date: April 27, 2015
    Episodes: 20
    Country: Hong Kong
    Audio: Cantonese (AC-3 6 Channels)
    Subtitles: English (.srt embedded)
    Genre: Modern
    Cast: Liza Wang, Damion Lau, Alex Fong, Linda Chung, Eliza Sum, Jonathan Wong, Jacqueline Wong, Michelle Yim (Guest Star)

    Synopsis: There is darkness behind the limelight. After recovering from a long-term sickness, retiring singer Wah Fong Ying (Liza Wang) has come to realize that she has failed to live a fulfilling life. With two failed marriages and strained relationships with her three children, Fong Ying is much lonelier than she admits. Summoning up all her courage, Fong Ying flies to Taiwan to mend her broken relationship with her oldest daughter. During this time, she comes across Hong Kong photographer Law Ben (Damian Lau), who is in Taiwan to fulfill his late wife’s (Michelle Yim) wish of returning to her ancestral home. Sparks fly when the extraordinary meets the ordinary. Both Fong Ying and Ben find their strength as they quietly support each other.

    Encouraged by Ben, Fong Ying decides to perform one last time in a goodbye concert for her close friends and family, but her youngest daughter Tong Yan (Eliza Sam) reacts coldly to the invitation. Nonetheless, Fong Ying remains committed to her last concert and hires a new assistant Szeto Dik Dik (Linda Chung) and a new creative director, Song Sheung Hang (Alex Fong). Dik Dik and Sheung Han initially struggle to get along due to past misunderstandings, but they eventually cultivate a deep relationship. Just as Fong Ying starts to find the light again, she is once again attacked by darkness. While Sheung Hang was preparing a special issue to promote Fong Ying’s concert, he discovers an ugly secret that Fong Ying has been keeping for many years. Dik Dik finds out that Fong Ying and her uncle were involved in the past. Ben is also starting to have hallucinations…






    If you like my upload, please press the "Thank You" buttoncool2.gif


    Code

    General
    Unique ID                   : 212042715955714215003400853367274245257 (0x9F85F10DAB6756E5AC164B69B3F28C89)
    Complete name               : Limelight.Years.E07.HDTV.720p-TVBDO.mkv
    Format                      : Matroska
    Format version              : Version 4 / Version 2
    File size                   : 1.67 GiB
    Duration                    : 44mn 21s
    Overall bit rate            : 5 386 Kbps
    Movie name                  : @TVBDO
    Encoded date                : UTC 2015-05-06 18:48:45
    Writing application         : mkvmerge v7.8.0 ('River Man') 64bit built on Mar 27 2015 16:31:37
    Writing library             : Lavf56.31.100
    DURATION                    : 00:42:48.953000000
    NUMBER_OF_FRAMES            : 660
    NUMBER_OF_BYTES             : 28995
    _STATISTICS_WRITING_APP     : mkvmerge v7.8.0 ('River Man') 64bit built on Mar 27 2015 16:31:37
    _STATISTICS_WRITING_DATE_UT : 2015-05-06 18:48:45
    _STATISTICS_TAGS            : BPS DURATION NUMBER_OF_FRAMES NUMBER_OF_BYTES

    Video
    ID                          : 2
    Format                      : AVC
    Format/Info                 : Advanced Video Codec
    Format profile              : High@L3.1
    Format settings, CABAC      : Yes
    Format settings, ReFrames   : 4 frames
    Codec ID                    : V_MPEG4/ISO/AVC
    Duration                    : 44mn 21s
    Bit rate                    : 5 000 Kbps
    Width                       : 1 280 pixels
    Height                      : 720 pixels
    Display aspect ratio        : 16:9
    Frame rate mode             : Constant
    Frame rate                  : 25.000 fps
    Color space                 : YUV
    Chroma subsampling          : 4:2:0
    Bit depth                   : 8 bits
    Scan type                   : Progressive
    Bits/(Pixel*Frame)          : 0.217
    Stream size                 : 1.52 GiB (91%)
    Writing library             : x264 core 146 r2538 121396c
    Encoding settings           : cabac=1 / ref=3 / deblock=1:0:0 / analyse=0x3:0x113 / me=hex / subme=6 / psy=1 / psy_rd=1.00:0.00 / mixed_ref=1 / me_range=16 / chroma_me=1 / trellis=1 / 8x8dct=1 / cqm=0 / deadzone=21,11 / fast_pskip=1 / chroma_qp_offset=-2 / threads=8 / lookahead_threads=1 / sliced_threads=0 / nr=0 / decimate=1 / interlaced=0 / bluray_compat=0 / constrained_intra=0 / bframes=3 / b_pyramid=2 / b_adapt=1 / b_bias=0 / direct=1 / weightb=1 / open_gop=0 / weightp=2 / keyint=250 / keyint_min=25 / scenecut=40 / intra_refresh=0 / rc_lookahead=40 / rc=2pass / mbtree=1 / bitrate=5000 / ratetol=1.0 / qcomp=0.60 / qpmin=10 / qpmax=51 / qpstep=4 / cplxblur=20.0 / qblur=0.5 / ip_ratio=1.41 / aq=1:1.00
    Default                     : Yes
    Forced                      : No
    DURATION                    : 00:44:21.105000000
    NUMBER_OF_FRAMES            : 83159
    NUMBER_OF_BYTES             : 127732224
    _STATISTICS_WRITING_APP     : mkvmerge v7.8.0 ('River Man') 64bit built on Mar 27 2015 16:31:37
    _STATISTICS_WRITING_DATE_UT : 2015-05-06 18:48:45
    _STATISTICS_TAGS            : BPS DURATION NUMBER_OF_FRAMES NUMBER_OF_BYTES

    Audio
    ID                          : 3
    Format                      : AC-3
    Format/Info                 : Audio Coding 3
    Mode extension              : CM (complete main)
    Format settings, Endianness : Big
    Codec ID                    : A_AC3
    Duration                    : 44mn 21s
    Bit rate mode               : Constant
    Bit rate                    : 384 Kbps
    Channel(s)                  : 6 channels
    Channel positions           : Front: L C R, Side: L R, LFE
    Sampling rate               : 48.0 KHz
    Bit depth                   : 16 bits
    Compression mode            : Lossy
    Delay relative to video     : -40ms
    Stream size                 : 122 MiB (7%)
    Default                     : Yes
    Forced                      : No

    Text
    ID                          : 1
    Format                      : UTF-8
    Codec ID                    : S_TEXT/UTF8
    Codec ID/Info               : UTF-8 Plain Text
    Writing library             : Lavc56.35.101 libx264
    Language                    : English
    Default                     : Yes
    Forced                      : No
    DURATION                    : 00:44:21.120000000
    NUMBER_OF_FRAMES            : 66528
    NUMBER_OF_BYTES             : 1663372204
    _STATISTICS_WRITING_APP     : mkvmerge v7.8.0 ('River Man') 64bit built on Mar 27 2015 16:31:37
    _STATISTICS_WRITING_DATE_UT : 2015-05-06 18:48:45
    _STATISTICS_TAGS            : BPS DURATION NUMBER_OF_FRAMES NUMBER_OF_BYTES



    0 0

    Original Post: Falling in Love With Soon Jung E11 XVID WITH


    Drama: Fall in Love with Soon-Jung (literal title)
    Revised romanization: Soonjunge Banhada
    Hangul: 순정에 반하다
    Director: Ji Yeong-Su
    Writer: Yoo Hee-Gyung
    Network: JTBC
    Episodes:
    Release Date: April 3, 2015 --
    Runtime: Fridays & Saturdays 21:50
    Language: Korean
    Country: South Korea

    Plot
    After his uncle's unjust takeover of the family company, Kang Min Ho (Jung Kyung Ho) grows up to be a successful, if not cynical investor who only cares about money. But when he undergoes a sudden heart transplant surgery, Min Ho literally has a change of heart when he inherits a warm and compassionate heart. In the midst of seeing the world anew, including falling for the kind Kim Soon Jung (Kim So Yeon), Min Ho must mitigate his newfound personality with the demands of his cutthroat career.




    Code
    Video
    ID                                       : 0
    Format                                   : MPEG-4 Visual
    Format profile                           : Advanced Simple@L5
    Format settings, BVOP                    : No
    Format settings, QPel                    : No
    Format settings, GMC                     : No warppoints
    Format settings, Matrix                  : Default (MPEG)
    Codec ID                                 : XVID
    Codec ID/Hint                            : XviD
    Bit rate                                 : 1 391 Kbps
    Width                                    : 624 pixels
    Height                                   : 352 pixels
    Display aspect ratio                     : 16:9
    Frame rate                               : 29.970 fps
    Color space                              : YUV
    Chroma subsampling                       : 4:2:0
    Bit depth                                : 8 bits
    Scan type                                : Progressive
    Compression mode                         : Lossy
    Bits/(Pixel*Frame)                       : 0.211
    Stream size                              : 660 MiB (87%)
    Writing library                          : XviD 1.2.1 (UTC 2008-12-04)

    Audio
    ID                                       : 1
    Format                                   : MPEG Audio
    Format version                           : Version 1
    Format profile                           : Layer 3
    Mode                                     : Joint stereo
    Mode extension                           : MS Stereo
    Codec ID                                 : 55
    Codec ID/Hint                            : MP3
    Bit rate mode                            : Constant
    Bit rate                                 : 128 Kbps
    Channel(s)                               : 2 channels
    Sampling rate                            : 48.0 KHz
    Compression mode                         : Lossy
    Stream size                              : 60.8 MiB (8%)
    Alignment                                : Aligned on interleaves
    Writing library                          : LAME3.98.2



    0 0

    Original Post: Falling in Love With Soon Jung E11 720p WITH


    Drama: Fall in Love with Soon-Jung (literal title)
    Revised romanization: Soonjunge Banhada
    Hangul: 순정에 반하다
    Director: Ji Yeong-Su
    Writer: Yoo Hee-Gyung
    Network: JTBC
    Episodes:
    Release Date: April 3, 2015 --
    Runtime: Fridays & Saturdays 21:50
    Language: Korean
    Country: South Korea

    Plot
    After his uncle's unjust takeover of the family company, Kang Min Ho (Jung Kyung Ho) grows up to be a successful, if not cynical investor who only cares about money. But when he undergoes a sudden heart transplant surgery, Min Ho literally has a change of heart when he inherits a warm and compassionate heart. In the midst of seeing the world anew, including falling for the kind Kim Soon Jung (Kim So Yeon), Min Ho must mitigate his newfound personality with the demands of his cutthroat career.




    Code
    Video
    ID                                       : 0
    Format                                   : AVC
    Format/Info                              : Advanced Video Codec
    Format profile                           : Baseline@L3.1
    Format settings, CABAC                   : No
    Format settings, ReFrames                : 1 frame
    Codec ID                                 : H264
    Bit rate                                 : 3 017 Kbps
    Width                                    : 1 280 pixels
    Height                                   : 720 pixels
    Display aspect ratio                     : 16:9
    Frame rate mode                          : Variable
    Frame rate                               : 29.970 fps
    Color space                              : YUV
    Chroma subsampling                       : 4:2:0
    Bit depth                                : 8 bits
    Scan type                                : Progressive
    Bits/(Pixel*Frame)                       : 0.109

    Audio
    ID                                       : 1
    Format                                   : MPEG Audio
    Format version                           : Version 1
    Format profile                           : Layer 3
    Mode                                     : Joint stereo
    Mode extension                           : MS Stereo
    Codec ID                                 : 55
    Codec ID/Hint                            : MP3
    Bit rate mode                            : Constant
    Bit rate                                 : 128 Kbps
    Channel(s)                               : 2 channels
    Sampling rate                            : 44.1 KHz
    Compression mode                         : Lossy
    Stream size                              : 62.1 MiB (4%)
    Alignment                                : Aligned on interleaves
    Interleave, duration                     : 26 ms (0.78 video frame)
    Writing library                          : LAME3.98.2

    http://


    0 0

    Original Post: My Unfortunate Boyfriend E09 720p



    Drama: My Unfortunate Boyfriend (literal title)
    Revised romanization: Naui Yoogamseureowoon Namjachingoo
    Hangul: 나의 유감스러운 남자친구
    Director: Nam Ki-Hoon
    Writer: Lee Jae-Yoon
    Network: MBC Drama
    Episodes: 16
    Release Date: April 10 - May 30, 2015
    Runtime: Fri & Sat 20:00
    Language: Korean
    Country: South Korea

    Plot

    Yoo Ji Na (Yang Jin Sung) is a budding career woman who has absolutely no issues with lying to get what she wants. But when she falls for the innocent and naive Yoon Tae Woon (No Min Woo), who is truthful to a fault, their budding romance becomes a liability for Ji Na's cutthroat corporate job. Can these unlikely lovers stay true to themselves and manage to stay together?

    Cast

    No Min-Woo - Yoon Tae-Woon
    Yang Jin-Sung - Yoo Ji-Na
    Yoon Hak - Hee-Chul
    Kwak Ji-Min - Hye-Mi
    Kim Eun-Jung - Julia
    Kim Byeong-Se
    Yun Ju-Sang
    Kim Jin-Geun
    Kil Yong-Woo
    Park Jin-Joo
    Lee Yong-Joo




    Code

    Video
    ID                             : 0
    Format                         : AVC
    Format/Info                    : Advanced Video Codec
    Format profile                 : High@L4.1
    Format settings, CABAC         : Yes
    Format settings, ReFrames      : 3 frames
    Codec ID                       : H264
    Duration                       : 48mn 59s
    Bit rate                       : 2 518 Kbps
    Width                          : 1 280 pixels
    Height                         : 720 pixels
    Display aspect ratio           : 16:9
    Frame rate                     : 29.970 fps
    Color space                    : YUV
    Chroma subsampling             : 4:2:0
    Bit depth                      : 8 bits
    Scan type                      : Progressive
    Bits/(Pixel*Frame)             : 0.091
    Stream size                    : 882 MiB (93%)

    Audio
    ID                             : 1
    Format                         : MPEG Audio
    Format version                 : Version 1
    Format profile                 : Layer 3
    Mode                           : Joint stereo
    Codec ID                       : 55
    Codec ID/Hint                  : MP3
    Duration                       : 48mn 59s
    Bit rate mode                  : Constant
    Bit rate                       : 192 Kbps
    Channel(s)                     : 2 channels
    Sampling rate                  : 48.0 KHz
    Compression mode               : Lossy
    Delay relative to video        : 11ms
    Stream size                    : 67.3 MiB (7%)
    Alignment                      : Split accross interleaves
    Interleave, duration           : 33 ms (1.00 video frame)
    Interleave, preload duration   : 500 ms




    0 0

    Original Post: Falling in Love With Soon Jung E12 XVID WITH


    Drama: Fall in Love with Soon-Jung (literal title)
    Revised romanization: Soonjunge Banhada
    Hangul: 순정에 반하다
    Director: Ji Yeong-Su
    Writer: Yoo Hee-Gyung
    Network: JTBC
    Episodes:
    Release Date: April 3, 2015 --
    Runtime: Fridays & Saturdays 21:50
    Language: Korean
    Country: South Korea

    Plot
    After his uncle's unjust takeover of the family company, Kang Min Ho (Jung Kyung Ho) grows up to be a successful, if not cynical investor who only cares about money. But when he undergoes a sudden heart transplant surgery, Min Ho literally has a change of heart when he inherits a warm and compassionate heart. In the midst of seeing the world anew, including falling for the kind Kim Soon Jung (Kim So Yeon), Min Ho must mitigate his newfound personality with the demands of his cutthroat career.




    Code
    Video
    ID                                       : 0
    Format                                   : MPEG-4 Visual
    Format profile                           : Advanced Simple@L5
    Format settings, BVOP                    : No
    Format settings, QPel                    : No
    Format settings, GMC                     : No warppoints
    Format settings, Matrix                  : Default (MPEG)
    Codec ID                                 : XVID
    Codec ID/Hint                            : XviD
    Bit rate                                 : 1 391 Kbps
    Width                                    : 624 pixels
    Height                                   : 352 pixels
    Display aspect ratio                     : 16:9
    Frame rate                               : 29.970 fps
    Color space                              : YUV
    Chroma subsampling                       : 4:2:0
    Bit depth                                : 8 bits
    Scan type                                : Progressive
    Compression mode                         : Lossy
    Bits/(Pixel*Frame)                       : 0.211
    Stream size                              : 660 MiB (87%)
    Writing library                          : XviD 1.2.1 (UTC 2008-12-04)

    Audio
    ID                                       : 1
    Format                                   : MPEG Audio
    Format version                           : Version 1
    Format profile                           : Layer 3
    Mode                                     : Joint stereo
    Mode extension                           : MS Stereo
    Codec ID                                 : 55
    Codec ID/Hint                            : MP3
    Bit rate mode                            : Constant
    Bit rate                                 : 128 Kbps
    Channel(s)                               : 2 channels
    Sampling rate                            : 48.0 KHz
    Compression mode                         : Lossy
    Stream size                              : 60.8 MiB (8%)
    Alignment                                : Aligned on interleaves
    Writing library                          : LAME3.98.2



    0 0

    Original Post: Falling in Love With Soon Jung E12 720p WITH


    Drama: Fall in Love with Soon-Jung (literal title)
    Revised romanization: Soonjunge Banhada
    Hangul: 순정에 반하다
    Director: Ji Yeong-Su
    Writer: Yoo Hee-Gyung
    Network: JTBC
    Episodes:
    Release Date: April 3, 2015 --
    Runtime: Fridays & Saturdays 21:50
    Language: Korean
    Country: South Korea

    Plot
    After his uncle's unjust takeover of the family company, Kang Min Ho (Jung Kyung Ho) grows up to be a successful, if not cynical investor who only cares about money. But when he undergoes a sudden heart transplant surgery, Min Ho literally has a change of heart when he inherits a warm and compassionate heart. In the midst of seeing the world anew, including falling for the kind Kim Soon Jung (Kim So Yeon), Min Ho must mitigate his newfound personality with the demands of his cutthroat career.




    Code
    Video
    ID                                       : 0
    Format                                   : AVC
    Format/Info                              : Advanced Video Codec
    Format profile                           : Baseline@L3.1
    Format settings, CABAC                   : No
    Format settings, ReFrames                : 1 frame
    Codec ID                                 : H264
    Bit rate                                 : 3 017 Kbps
    Width                                    : 1 280 pixels
    Height                                   : 720 pixels
    Display aspect ratio                     : 16:9
    Frame rate mode                          : Variable
    Frame rate                               : 29.970 fps
    Color space                              : YUV
    Chroma subsampling                       : 4:2:0
    Bit depth                                : 8 bits
    Scan type                                : Progressive
    Bits/(Pixel*Frame)                       : 0.109

    Audio
    ID                                       : 1
    Format                                   : MPEG Audio
    Format version                           : Version 1
    Format profile                           : Layer 3
    Mode                                     : Joint stereo
    Mode extension                           : MS Stereo
    Codec ID                                 : 55
    Codec ID/Hint                            : MP3
    Bit rate mode                            : Constant
    Bit rate                                 : 128 Kbps
    Channel(s)                               : 2 channels
    Sampling rate                            : 44.1 KHz
    Compression mode                         : Lossy
    Stream size                              : 62.1 MiB (4%)
    Alignment                                : Aligned on interleaves
    Interleave, duration                     : 26 ms (0.78 video frame)
    Writing library                          : LAME3.98.2

    http://


    0 0

    Original Post: Law of the Jungle (2011-2012) Complete Season 01 - HANrel



    Season 1 of Law of the Jungle aired Friday nights at 11:05 pm from October 21, 2011 to January 13, 2012.

    subtitles: none

    Namibia
    Title: Kim Byung-man's Law of the Jungle
    Theme: Survival and Coexistence
    Location: Namibia, Africa
    Members: Kim Byung-man, Ricky Kim, Hwang Kwang-hee (ZE:A), Ryu Dam
    Airdate: October 21 - December 2, 2011

    Papua
    Title: Kim Byung-man's Law of the Jungle
    Theme: Jungle Road
    Location: Papua, Indonesia, Southeast Asia
    Members: Kim Byung-man, Ricky Kim, Hwang Kwang-hee (ZE:A), Noh Woo-jin, Kim Kwang-kyu, Tae-mi
    Airdate: December 9, 2011 - January 13, 2012
    Notes: Kim Kwang-kyu suffered a decline in health during the trip and returned to Korea early. Hwang Kwang-hee replaces him midway.














    Code
    Complete name                            : Kim.Byung-man's.Law of.the.Jungle.E01.111021.HDTV.X264.720p-HANrel.avi
    Format                                   : AVI
    Format/Info                              : Audio Video Interleave
    File size                                : 1.15 GiB
    Duration                                 : 1h 0mn
    Overall bit rate                         : 2 701 Kbps
    Mastered date                            : 2011-10-22

    Video
    ID                                       : 0
    Format                                   : AVC
    Format/Info                              : Advanced Video Codec
    Format profile                           : High@L5.1
    Format settings, CABAC                   : Yes
    Format settings, ReFrames                : 2 frames
    Codec ID                                 : H264
    Duration                                 : 1h 0mn
    Bit rate                                 : 2 500 Kbps
    Width                                    : 1 280 pixels
    Height                                   : 720 pixels
    Display aspect ratio                     : 16:9
    Frame rate                               : 29.970 fps
    Color space                              : YUV
    Chroma subsampling                       : 4:2:0
    Bit depth                                : 8 bits
    Scan type                                : Progressive
    Bits/(Pixel*Frame)                       : 0.091
    Stream size                              : 1.06 GiB (92%)

    Audio
    ID                                       : 1
    Format                                   : AC-3
    Format/Info                              : Audio Coding 3
    Mode extension                           : CM (complete main)
    Format settings, Endianness              : Big
    Codec ID                                 : 2000
    Duration                                 : 1h 0mn
    Bit rate mode                            : Constant
    Bit rate                                 : 192 Kbps
    Channel count                            : 2 channels
    Channel positions                        : Front: L R
    Sampling rate                            : 48.0 KHz
    Bit depth                                : 16 bits
    Compression mode                         : Lossy
    Stream size                              : 83.4 MiB (7%)
    Alignment                                : Aligned on interleaves
    Interleave, duration                     : 33 ms (1.00 video frame)
    Interleave, preload duration             : 512 ms



    0 0

    Original Post: Someone Like You (2015) [Ongoing] ENG SUB E18 720p



    Details:
    Chinese title: 聽見幸福 / Tīngjiàn xìngfú
    English title: Someone Like You
    Genre: Melodrama, Modern, Romance
    Episodes: 20
    Director: Chén Róng Huī
    Broadcast Period: January 11, 2015 - May 24, 2015
    Broadcast Day: Sundays
    Replacing: Say Again Yes I Do/I Do 2 再說一次我願意
    IMBD: None
    http://thetvdb.com/index.php?tab=series&id=292420

    Cast:
    KingOne Wang
    Lorene Ren (Rong Rong)
    Wei-lian
    Katie Chen
    Sean Lee
    Miao Ke-Li
    Alex Dǒng
    Darren (Guest Star)
    Hsieh Chi-Wen (Guest Star)
    Yao Yuan-Hao (Guest Star)
    Coke Lee (Guest Star)
    Bii (Guest Star)


    Synopsis
    :

    A man loses everything in one day in a tragic car accident. Fang Zhan Cheng (Kingone Wang) lost his fiancée, Liang Luo Han (Kirsten Ren), but he also lost his own eyesight. Devastated by the loss of his fiancée, Zhan Cheng is inconsolable and even refuses a corneal transplant that could restore his vision. But his life takes an unexpected turn when Wang Yu Xi (Kirsten Ren), who looks exactly like his fiancée, is hired to become Zhan Cheng’s day nurse. Another young woman, Xu Ya Ti (Nita Lei), receives Luo Han’s heart in a transplant and begins to exhibit many of Luo Han’s mannerisms and personality. Caught between a woman who looks exactly like his beloved dead fiancée and another woman who behaves just like her, what will Zhan Cheng do? “Someone Like You” is a 2015 Taiwanese drama series directed by Chen Rong Hui..







    Video Codec

    Code
    Video
    ID                                       : 1
    Format                                   : AVC
    Format/Info                              : Advanced Video Codec
    Format profile                           : Main@L3.1
    Format settings, CABAC                   : Yes
    Format settings, ReFrames                : 4 frames
    Codec ID                                 : V_MPEG4/ISO/AVC
    Duration                                 : 1h 14mn
    Width                                    : 1 280 pixels
    Height                                   : 720 pixels
    Display aspect ratio                     : 16:9
    Frame rate mode                          : Constant
    Frame rate                               : 29.970 fps
    Color space                              : YUV
    Chroma subsampling                       : 4:2:0
    Bit depth                                : 8 bits
    Scan type                                : Progressive
    Writing library                          : x264 core 138 r2 9e941d1
    Encoding settings                        : cabac=1 / ref=1 / deblock=1:0:0 / analyse=0x1:0 / me=dia / subme=2 / psy=1 / psy_rd=1.00:0.00 / mixed_ref=0 / me_range=16 / chroma_me=1 / trellis=0 / 8x8dct=0 / cqm=0 / deadzone=21,11 / fast_pskip=1 / chroma_qp_offset=0 / threads=12 / lookahead_threads=4 / sliced_threads=0 / nr=0 / decimate=1 / interlaced=0 / bluray_compat=0 / constrained_intra=0 / bframes=3 / b_pyramid=2 / b_adapt=1 / b_bias=0 / direct=1 / weightb=1 / open_gop=0 / weightp=2 / keyint=300 / keyint_min=29 / scenecut=40 / intra_refresh=0 / rc_lookahead=40 / rc=crf / mbtree=1 / crf=23.0 / qcomp=0.60 / qpmin=0 / qpmax=69 / qpstep=4 / ip_ratio=1.40 / aq=1:1.00
    Default                                  : Yes
    Forced                                   : No

    Audio
    ID                                       : 2
    Format                                   : AAC
    Format/Info                              : Advanced Audio Codec
    Format profile                           : LC
    Codec ID                                 : A_AAC
    Duration                                 : 1h 14mn
    Channel(s)                               : 2 channels
    Channel positions                        : Front: L R
    Sampling rate                            : 48.0 KHz
    Compression mode                         : Lossy
    Default                                  : Yes
    Forced                                   : No




    0 0

    Original Post: Yamegoku EP04 720p HDTV x264 AAC DoA



    http://wiki.d-addicts.com/Yamegoku
    http://asianwiki.com/Yamegoku
    http://thetvdb.com/?tab=series&id=293272&lid=7

    Title (romaji): Yamegoku
    Tagline: ヤクザやめて頂きます / Yakuza Yamete Itadakimasu
    Format: Renzoku
    Genre: Detective
    Episodes: TBD
    Broadcast network: TBS
    Broadcast period: 2015-Apr-16 start
    Air time: Thursday 21:00
    Theme song: Sekai wa Owaranai by Thinking Dogs
    Subtitles: None
    RAW credit to DoA


    Cast

       Oshima Yuko as Nagamitsu Bakushu
       Kitamura Kazuki as Mikajima Kakeru
       Katsuji Ryo as Sano Naomichi
       Honda Tsubasa as Nagamitsu Haruka
       Tanaka Tetsushi as Ishiyama Hakubun
       Shounozaki Ken as Tojo Ken
       Okada Kohki as Mizuhara Koki
       Yamaguchi Sayaka as Aridome Shoko
       Miyatake Mio as Nagamitsu Sakura
       Matsuoka Emiko as Mikajima Yuka
       Kamata Erena (鎌田英怜奈) as Mikajima Haru
       Yamaguchi Makiya as Tanigawa Eitoku
       Kim Sungrak (金すんら) as Mizuta Senichi
       Sakata Tadashi as Fujita Kiichiro
       Natori Yuko as Nagamitsu Yumiko (special appearance)
       Endo Kenichi as Tachibana Isao


    Synopsis

    Bakushu is an adviser in the "Clean Break Helpline" - a special unit in the Organized Crime Department at Tokyo Metropolitan Police which helps those who want to make a clean break from a gang group. Although she treats gang member clients like "scum", she goes far beyond her responsibility to help them quit the organization by getting a written agreement from the gang boss and finding jobs for them afterwards. Also, her colleague and a former detective at the Organized Crime Department - Mikajima Kakeru doesn't get along with Bakushu.

    One day "Clean Break Helpline" receives a call from a client. He is the leader of a gang group under the umbrella of a designated organized crime group "Kanto Kifune Gumi", and claims that he already made an apology to the boss of Kanto Kifune Gumi - Tachibana Isao. The client says that his group has got in trouble because of Bakushu... -- TBS


    Mediainfo
    Spoiler:show

    Code
    Format                                   : Matroska
    Format version                           : Version 4 / Version 2
    File size                                : 1.01 GiB
    Duration                                 : 46mn 44s
    Overall bit rate                         : 3 108 Kbps
    Encoded date                             : UTC 2015-05-08 12:42:58
    Writing application                      : mkvmerge v7.6.0 ('Garden of Dreams') 64bit built on Feb  8 2015 13:04:34
    Writing library                          : libebml v1.3.1 + libmatroska v1.4.2
    DURATION                                 : 00:46:44.928000000
    NUMBER_OF_FRAMES                         : 131481
    NUMBER_OF_BYTES                          : 66134943
    _STATISTICS_WRITING_APP                  : mkvmerge v7.6.0 ('Garden of Dreams') 64bit built on Feb  8 2015 13:04:34
    _STATISTICS_WRITING_DATE_UTC             : 2015-05-08 12:42:58
    _STATISTICS_TAGS                         : BPS DURATION NUMBER_OF_FRAMES NUMBER_OF_BYTES

    Video
    ID                                       : 1
    Format                                   : AVC
    Format/Info                              : Advanced Video Codec
    Format profile                           : High@L4.1
    Format settings, CABAC                   : Yes
    Format settings, ReFrames                : 9 frames
    Codec ID                                 : V_MPEG4/ISO/AVC
    Duration                                 : 46mn 44s
    Width                                    : 1 280 pixels
    Height                                   : 720 pixels
    Display aspect ratio                     : 16:9
    Frame rate mode                          : Constant
    Frame rate                               : 29.970 fps
    Color space                              : YUV
    Chroma subsampling                       : 4:2:0
    Bit depth                                : 8 bits
    Scan type                                : Progressive
    Title                                    : DoA encoder
    Writing library                          : x264 core 146 r2538 121396c
    Encoding settings                        : cabac=1 / ref=9 / deblock=1:-2:-2 / analyse=0x3:0x133 / me=umh / subme=10 / psy=1 / psy_rd=1.00:0.15 / mixed_ref=1 / me_range=48 / chroma_me=1 / trellis=2 / 8x8dct=1 / cqm=0 / deadzone=21,11 / fast_pskip=0 / chroma_qp_offset=-3 / threads=12 / lookahead_threads=2 / sliced_threads=0 / nr=0 / decimate=1 / interlaced=0 / bluray_compat=0 / constrained_intra=0 / bframes=8 / b_pyramid=2 / b_adapt=2 / b_bias=0 / direct=3 / weightb=1 / open_gop=0 / weightp=2 / keyint=300 / keyint_min=29 / scenecut=40 / intra_refresh=0 / rc_lookahead=60 / rc=crf / mbtree=1 / crf=18.0 / qcomp=0.60 / qpmin=0 / qpmax=69 / qpstep=4 / ip_ratio=1.40 / aq=1:1.00
    Language                                 : English
    Default                                  : Yes
    Forced                                   : No
    DURATION                                 : 00:46:44.721000000
    NUMBER_OF_FRAMES                         : 83775
    NUMBER_OF_BYTES                          : 1022776257
    _STATISTICS_WRITING_APP                  : mkvmerge v7.6.0 ('Garden of Dreams') 64bit built on Feb  8 2015 13:04:34
    _STATISTICS_WRITING_DATE_UTC             : 2015-05-08 12:42:58
    _STATISTICS_TAGS                         : BPS DURATION NUMBER_OF_FRAMES NUMBER_OF_BYTES

    Audio
    ID                                       : 2
    Format                                   : AAC
    Format/Info                              : Advanced Audio Codec
    Format profile                           : LC
    Codec ID                                 : A_AAC
    Duration                                 : 46mn 44s
    Channel(s)                               : 2 channels
    Channel positions                        : Front: L R
    Sampling rate                            : 48.0 KHz
    Compression mode                         : Lossy
    Delay relative to video                  : 8ms
    Default                                  : Yes
    Forced                                   : No





    0 0

    Original Post: She EP04 720p HDTV x264 AAC-DoA



    http://wiki.d-addicts.com/She
    http://asianwiki.com/She_%28Japanese_Drama%29
    http://thetvdb.com/?tab=series&id=294070&lid=7


    Title: She
    Format: Renzoku
    Genre: Suspense, school
    Episodes: 5
    Broadcast network: Fuji TV
    Broadcast period: 2015-Apr-18 to 2015-May-16
    Air time: Saturday 23:40
    Subtitles: English - miitla
    RAW credit to DoA


    Cast

      Matsuoka Mayu as Nishizawa Ryoko
       Nakajo Ayami as Ogiwara Azusa
       Taketomi Seika as Yamamoto Saya
      Morikawa Aoi as Okumura Chisato
       Shimizu Kurumi (清水くるみ) as Eto Miyuri
       Narita Ryo (成田凌) as Muraoka Haruto
       Shirasu Jin (白洲迅) as Hirose Yuki


    Synopsis

    Nishizawa Ryoko is a cool-headed, brilliant-minded high school student who aspires to become journalist. On the very first day of the school year, Ryoko's best friend Ogiwara Azusa goes missing all of a sudden and no one can account her whereabouts. Azusa's mother and police immediately starts investigating the case and interviewing students at school. In order to uncover the hidden truth and real reason behind the disappearance of her best friends, Ryoko undertakes her own investigation into the matter. As she digs further and further into her investigation and talking to Azusa's circle of friends, their deep-hidden feelings are revealed and friendships get tested to the brink... -- Fuji TV


    Mediainfo
    Spoiler:show

    Code
    Format                                   : Matroska
    Format version                           : Version 4 / Version 2
    File size                                : 577 MiB
    Duration                                 : 19mn 29s
    Overall bit rate                         : 4 135 Kbps
    Movie name                               : She #04 720p HDTV x264 AAC-DoA
    Encoded date                             : UTC 2015-05-10 01:10:30
    Writing application                      : mkvmerge v7.8.0 ('River Man') 64bit built on Mar 27 2015 16:31:37
    Writing library                          : libebml v1.3.1 + libmatroska v1.4.2
    DURATION                                 : 00:19:29.664000000
    NUMBER_OF_FRAMES                         : 54828
    NUMBER_OF_BYTES                          : 27578484
    _STATISTICS_WRITING_APP                  : mkvmerge v7.8.0 ('River Man') 64bit built on Mar 27 2015 16:31:37
    _STATISTICS_WRITING_DATE_UTC             : 2015-05-10 01:10:30
    _STATISTICS_TAGS                         : BPS DURATION NUMBER_OF_FRAMES NUMBER_OF_BYTES

    Video
    ID                                       : 1
    Format                                   : AVC
    Format/Info                              : Advanced Video Codec
    Format profile                           : High@L4.1
    Format settings, CABAC                   : Yes
    Format settings, ReFrames                : 9 frames
    Codec ID                                 : V_MPEG4/ISO/AVC
    Duration                                 : 19mn 29s
    Width                                    : 1 280 pixels
    Height                                   : 720 pixels
    Display aspect ratio                     : 16:9
    Frame rate mode                          : Constant
    Frame rate                               : 29.970 fps
    Color space                              : YUV
    Chroma subsampling                       : 4:2:0
    Bit depth                                : 8 bits
    Scan type                                : Progressive
    Title                                    : Encode by DoA
    Writing library                          : x264 core 130 r2273 b3065e6
    Encoding settings                        : cabac=1 / ref=9 / deblock=1:-2:-2 / analyse=0x3:0x133 / me=umh / subme=10 / psy=1 / psy_rd=1.00:0.15 / mixed_ref=1 / me_range=48 / chroma_me=1 / trellis=2 / 8x8dct=1 / cqm=0 / deadzone=21,11 / fast_pskip=0 / chroma_qp_offset=-3 / threads=12 / lookahead_threads=2 / sliced_threads=0 / nr=0 / decimate=1 / interlaced=0 / bluray_compat=0 / constrained_intra=0 / bframes=8 / b_pyramid=2 / b_adapt=2 / b_bias=0 / direct=3 / weightb=1 / open_gop=0 / weightp=2 / keyint=300 / keyint_min=29 / scenecut=40 / intra_refresh=0 / rc_lookahead=60 / rc=crf / mbtree=1 / crf=17.5 / qcomp=0.60 / qpmin=0 / qpmax=69 / qpstep=4 / ip_ratio=1.40 / aq=1:1.00
    Language                                 : Japanese
    Default                                  : Yes
    Forced                                   : No
    DURATION                                 : 00:19:29.835000000
    NUMBER_OF_FRAMES                         : 35060
    NUMBER_OF_BYTES                          : 576698345
    _STATISTICS_WRITING_APP                  : mkvmerge v7.8.0 ('River Man') 64bit built on Mar 27 2015 16:31:37
    _STATISTICS_WRITING_DATE_UTC             : 2015-05-10 01:10:30
    _STATISTICS_TAGS                         : BPS DURATION NUMBER_OF_FRAMES NUMBER_OF_BYTES

    Audio
    ID                                       : 2
    Format                                   : AAC
    Format/Info                              : Advanced Audio Codec
    Format profile                           : LC
    Codec ID                                 : A_AAC
    Duration                                 : 19mn 29s
    Channel(s)                               : 2 channels
    Channel positions                        : Front: L R
    Sampling rate                            : 48.0 KHz
    Compression mode                         : Lossy
    Delay relative to video                  : 2ms
    Language                                 : Japanese
    Default                                  : Yes
    Forced                                   : No

    Menu
    00:00:00.000                             : ja:She #04 Part 1
    00:05:43.443                             : ja:オープニング
    00:05:51.451                             : ja:She #04 Part 2
    00:06:54.947                             : ja:She #04 Part 3
    00:09:27.934                             : ja:She #04 Part 4
    00:13:13.893                             : ja:提供
    00:13:23.869                             : ja:She #04 Part 5
    00:19:17.856                             : ja:エンディング





    0 0

    Original Post: Law of the Jungle (2012) Complete Season 02 - HANrel



    Season 2 of Law of the Jungle aired under Good Sunday, Sunday afternoons at 5:00 pm from May 6 to November 11, 2012. The last episode aired Friday, November 16, 2012 at 10:00 pm.

    subtitles: none

    Vanuatu
    Title: Good Sunday - Kim Byung-man's Law of the Jungle in Vanuatu
    Theme: Tribal Evolution
    Location: Vanuatu, Oceania
    Members: Kim Byung-man, Noh Woo-jin, Ricky Kim, Hwang Kwang-hee (ZE:A), Choo Sung-hoon, Park Si-eun
    Airdate: May 6 - July 8, 2012

    Siberia
    Title: Good Sunday - Kim Byung-man's Law of the Jungle in Siberia
    Theme: Road to the End of the Earth
    Location: Siberia, Russia, North Asia
    Members: Kim Byung-man, Noh Woo-jin, Ricky Kim, Hwang Kwang-hee (ZE:A), Lee Tae-gon
    Airdate: July 15 - August 26, 2012
    Notes: Hwang Kwang-hee suffered an injury during the trip and returned to Korea early.[8]

    Madagascar
    Title: Good Sunday - Kim Byung-man's Law of the Jungle in Madagascar
    Theme: Exploring Lost Treasure
    Location: Madagascar, Africa
    Members: Kim Byung-man, Noh Woo-jin, Ricky Kim, Ryu Dam, Park Jung-chul, Jeon Hye-bin, Jeong Jin-woon (2AM)
    Airdate: September 2 - November 16, 2012










    Code
    Complete name               : Kim.Byung-man's.Law of.the.Jungle.E13.120506.HDTV.H264.720p-HANrel.avi
    Format                      : AVI
    Format/Info                 : Audio Video Interleave
    File size                   : 1.30 GiB
    Duration                    : 1h 8mn
    Overall bit rate            : 2 697 Kbps

    Video
    ID                          : 0
    Format                      : AVC
    Format/Info                 : Advanced Video Codec
    Format profile              : High@L5.1
    Format settings, CABAC      : Yes
    Format settings, ReFrames   : 2 frames
    Codec ID                    : H264
    Duration                    : 1h 8mn
    Bit rate                    : 2 500 Kbps
    Width                       : 1 280 pixels
    Height                      : 720 pixels
    Display aspect ratio        : 16:9
    Frame rate                  : 29.970 fps
    Color space                 : YUV
    Chroma subsampling          : 4:2:0
    Bit depth                   : 8 bits
    Scan type                   : Progressive
    Bits/(Pixel*Frame)          : 0.091
    Stream size                 : 1.20 GiB (92%)

    Audio
    ID                          : 1
    Format                      : AC-3
    Format/Info                 : Audio Coding 3
    Mode extension              : CM (complete main)
    Format settings, Endianness : Big
    Codec ID                    : 2000
    Duration                    : 1h 8mn
    Bit rate mode               : Constant
    Bit rate                    : 192 Kbps
    Channel(s)                  : 2 channels
    Channel positions           : Front: L R
    Sampling rate               : 48.0 KHz
    Bit depth                   : 16 bits
    Compression mode            : Lossy
    Stream size                 : 94.5 MiB (7%)
    Alignment                   : Aligned on interleaves
    Interleave, duration        : 33 ms (1.00 video frame)
    Interleave, preload duratio : 512 ms



    0 0

    Original Post: LIQUID - Oni no Sake, Kiseki no Kura - 720p HDTV x264 AAC-DoA Complete




    Title: LIQUID - Oni no Sake, Kiseki no Kura
    Revised Romanization: LIQUID - Ogre’s Sake, Miraculous Kura
    Release Date: April 12, 2015
    Runtime: 50 minutes
    Genre: Drama / Sake / Brewery / Village / People
    Language: Japanese
    Country: Japan
    Subtitles: NONE
    IMDB URL: http://www.imdb.com/title/tt4578906


    Episodes: 3
    TV Network: NHK BS Premium
    Airtime: Sunday's 22:00


    Cast:
    Ito Hideaki - Sagara Shuichi
    Tsugawa Mahiko - Whio Yusaku
    Emoto Tuku - Sagara Naoki
    Watanabe Ikkei - Todoroki Katsuhisa
    Ishibhi Renji - Kunishige Goro
    Matsubara Chieko - Sagara Yoshie
    Hoshi Yuriko - Whio Tae
    Komoto Mahiro - Suzuhara Yoji
    Seki Megumi - Shimizu Maika
    Fukami Motoki - Tajima Naotaro
    Nakamura Yuko - Sagara Machiko
    Otaka Hiro - Tanida Kanji


    Synopsis:
    Sagara Shuichi (Ito Hideaki), the only son of a long standing sake brewery, “Sagara Brewery” in Kanazawa which is deep in the red, is an elite banker working in Tokyo. However, he ends up being pressed for a divorce by his wife and relegated for assignment at his workplace as a result of defeat in a power struggle. Amidst all this, his mother, who was running the sake brewery after his father’s death, falls ill, and subsequently Shuichi quits his job at the bank and decides to dedicate his life to making sake. In quest of his ideal sake, Shuichi persuades Washio Yusaku (Tsugawa Masahiko), the legendary master brewer feared as an ogre, to work with him. But the brewery workers he was able to gather are all inexperienced in sake making and they had all lost their place in society due to their respective circumstances. Will the day come when the drops of the ultimate “liquid” they pursued will flow?












    Code
    General
    Complete name                            : リキッド~鬼の酒 奇跡の蔵~ 最終話 「名酒のゆくえ」 720p HDTV x264 AAC-DoA.mkv
    Format                                   : Matroska
    Format version                           : Version 4 / Version 2
    File size                                : 1.20 GiB
    Duration                                 : 48mn 59s
    Overall bit rate                         : 3518 Kbps


    Video
    ID                                       : 1
    Format                                   : AVC
    Format/Info                              : Advanced Video Codec
    Format profile                           : High@L4.1
    Format settings, CABAC                   : Yes
    Format settings, ReFrames                : 9 frames
    Codec ID                                 : V_MPEG4/ISO/AVC
    Duration                                 : 48mn 59s
    Width                                    : 1280 pixels
    Height                                   : 720 pixels
    Display aspect ratio                     : 16:9
    Frame rate                               : 29.970 fps
    Color space                              : YUV
    Chroma subsampling                       : 4:2:0
    Bit depth                                : 8 bits
    Scan type                                : Progressive


    Audio
    ID                                       : 2
    Format                                   : AAC
    Format/Info                              : Advanced Audio Codec
    Format profile                           : HE-AAC / LC
    Codec ID                                 : A_AAC
    Duration                                 : 48mn 59s
    Channel(s)                               : 2 channels
    Channel positions                        : Front: L R
    Sampling rate                            : 96.0 KHz / 48.0 KHz
    Compression mode                         : Lossy
    Delay relative to video                  : 10ms
    Default                                  : Yes
    Forced                                   : No



    0 0

    Original Post: Ishitachi no Renai Jijou EP03 720p HDTV x264 AAC DoA



    http://asianwiki.com/Ishitachi_no_Renai_Jijou
    http://wiki.d-addicts.com/Ishitachi_no_Renai_Jijou
    http://thetvdb.com/?tab=series&id=294581&lid=7
       
    Title (romaji): Ishitachi no Renai Jijou
    Also known as: Doctors' Affairs
    Format: Renzoku
    Genre: Romance, medical
    Episodes: TBD
    Broadcast network: Fuji TV
    Broadcast period: 2015-Apr-09 start
    Air time: Thursday 22:00
    Theme song: Don't be love by Shishido Kavka
    Subtitles: Yes (credits in the file)
    RAW credit to DoA

    Cast

       Saito Takumi as Morita Haruki
       Ishida Yuriko as Kondo Chizuru
       Aibu Saki as Kawai Nana
       Hirayama Hiroyuki as Takahashi Sotaro
       Miyake Hiroki as Oone Ryota
       Ihara Tsuyoshi as Nishi Yusuke
       Itaya Yuka as Ichikawa Tomoko
       Namase Katsuhisa as Watanabe Mikio

    Synopsis

    Morita Haruki is a surgeon who only thinks about saving patients 24 hours a day, every day. A compassionate man with a strong sense of justice, he pushes back against the university hospital system which prioritises profit and power. However, he has forgotten how to love because he has put work before romance and his hectic job. Haruki takes a position at a university hospital out of a desire to hone his skills as a surgeon. But it is a place where all sorts of desires swirl. He meets Kondo Chizuru, a surgeon who is his senior, here. Chizuru has been very wrapped up in her work and is now past
    marriageable age. He gets attracted to her little by little -- Jdrama Weblog


    Mediainfo
    Spoiler:show

    Code
    Format                                   : Matroska
    Format version                           : Version 4 / Version 2
    File size                                : 988 MiB
    Duration                                 : 46mn 24s
    Overall bit rate                         : 2 975 Kbps
    Movie name                               : 医師たちの恋愛事情 Story 03「宿る命、始まる恋」720p HDTV x264 AAC-DoA
    Encoded date                             : UTC 2015-05-10 03:05:21
    Writing application                      : mkvmerge v7.2.0 ('On Every Street') 32bit built on Sep 13 2014 15:42:11
    Writing library                          : libebml v1.3.0 + libmatroska v1.4.1

    Video
    ID                                       : 1
    Format                                   : AVC
    Format/Info                              : Advanced Video Codec
    Format profile                           : High@L4.1
    Format settings, CABAC                   : Yes
    Format settings, ReFrames                : 9 frames
    Codec ID                                 : V_MPEG4/ISO/AVC
    Duration                                 : 46mn 24s
    Width                                    : 1 280 pixels
    Height                                   : 720 pixels
    Display aspect ratio                     : 16:9
    Frame rate mode                          : Constant
    Frame rate                               : 29.970 fps
    Color space                              : YUV
    Chroma subsampling                       : 4:2:0
    Bit depth                                : 8 bits
    Scan type                                : Progressive
    Title                                    : Encode by kt-DoA
    Writing library                          : x264 core 146 r2538 121396c
    Encoding settings                        : cabac=1 / ref=9 / deblock=1:-1:-1 / analyse=0x3:0x133 / me=umh / subme=10 / psy=1 / psy_rd=1.00:0.15 / mixed_ref=1 / me_range=48 / chroma_me=1 / trellis=2 / 8x8dct=1 / cqm=0 / deadzone=21,11 / fast_pskip=0 / chroma_qp_offset=-3 / threads=12 / lookahead_threads=2 / sliced_threads=0 / nr=0 / decimate=1 / interlaced=0 / bluray_compat=0 / constrained_intra=0 / bframes=8 / b_pyramid=2 / b_adapt=2 / b_bias=0 / direct=3 / weightb=1 / open_gop=0 / weightp=2 / keyint=300 / keyint_min=29 / scenecut=40 / intra_refresh=0 / rc_lookahead=60 / rc=crf / mbtree=1 / crf=17.6 / qcomp=0.60 / qpmin=0 / qpmax=69 / qpstep=4 / ip_ratio=1.40 / aq=1:1.00
    Default                                  : Yes
    Forced                                   : No

    Audio
    ID                                       : 2
    Format                                   : AAC
    Format/Info                              : Advanced Audio Codec
    Format profile                           : LC
    Codec ID                                 : A_AAC
    Duration                                 : 46mn 24s
    Channel(s)                               : 2 channels
    Channel positions                        : Front: L R
    Sampling rate                            : 48.0 KHz
    Compression mode                         : Lossy
    Delay relative to video                  : 5ms
    Language                                 : Japanese
    Default                                  : Yes
    Forced                                   : No

    Menu
    00:00:00.000                             : ja:Part A
    00:15:46.979                             : ja:Part B
    00:29:17.956                             : ja:Part C
    00:38:02.913                             : ja:Part D
    00:45:54.885                             : ja:次回予告





    0 0

    Original Post: Flower.of.Algernon.EP05.720p.HDTV.x264.AAC-DoA



    http://wiki.d-addicts.com/Algernon_ni_Hanataba_wo_%282015%29
    http://asianwiki.com/Flowers_for_Algernon_%28Japanese_Drama%29

    Title: アルジャーノンに花束を
    Title (romaji): Algernon ni Hanataba wo
    Also known as: Flowers for Algernon
    Format: Renzoku
    Genre: Drama
    Episodes: TBD
    Broadcast network: TBS
    Broadcast period: 2015-Apr-10 start
    Air time: Friday 22:00
    Related TV shows: Algernon ni Hanataba wo (Fuji TV, 2002), Hello, God (KBS2, 2006)
    Language: Japanese
    Country: Japan
    Subtitles: English here: areea-chan
    RAW credit to DoA

    Cast
       Yamashita Tomohisa as Shiratori Sakuto
       Kuriyama Chiaki as Mochizuki Haruka
       Kubota Masataka as Yanagawa Ryuichi
       Kudo Asuka (工藤阿須加)
       Kikuchi Fuma
       Tanimura Mitsuki
       Oomasa Aya
       Kaai Gamon
       Ishida Issei
       Kusakari Tamiyo
       Nakahara Takeo (special appearance)
       Hagiwara Masato
       Ishimaru Kanji as Hachisuka Daigo

    Synopsis
    Shiratori Sakuto is 28, but has the intelligence of a 6-year-old boy. He works for Dream Flower Service, a flower distribution centre which provides employment for problem youth. One day, he and a colleague, Yanagawa Ryuichi, delivers a rose bouquet to the apartment building where Mochizuki Haruka lives. Because Haruka does not know that the deliveryman is mentally challenged, she is shocked by his response and tries to call the police. Haruka works for a brain physiology research centre where Professor Hachisuka Daigo has been studying the improvement of mental performance. He has succeeded in lab experiments on a white mouse called Algernon. Sakuto is transformed into a genius through surgery. But Algernon's new intelligence begins to fade, and he dies. Sakuto realises that his genius, too, is destined to leave him.

    General
    Complete name                  : Flower.of.Algernon.EP05.720p.HDTV.x264.AAC-DoA.mkv
    Format                         : Matroska
    Format version                 : Version 4 / Version 2
    File size                      : 1.03 GiB
    Duration                       : 46mn 34s
    Overall bit rate               : 3 165 Kbps

    Video
    ID                             : 1
    Format                         : AVC
    Format/Info                    : Advanced Video Codec
    Format profile                 : High@L4.1
    Format settings, CABAC         : Yes
    Format settings, ReFrames      : 9 frames
    Codec ID                       : V_MPEG4/ISO/AVC
    Duration                       : 46mn 34s
    Width                          : 1 280 pixels
    Height                         : 720 pixels
    Display aspect ratio           : 16:9
    Frame rate mode                : Constant
    Frame rate                     : 29.970 fps
    Color space                    : YUV
    Chroma subsampling             : 4:2:0
    Bit depth                      : 8 bits
    Scan type                      : Progressive
    Title                          : Encode by DoA

    Audio
    ID                             : 2
    Format                         : AAC
    Format/Info                    : Advanced Audio Codec
    Format profile                 : LC
    Codec ID                       : A_AAC
    Duration                       : 46mn 34s
    Channel(s)                     : 2 channels
    Channel positions              : Front: L R
    Sampling rate                  : 48.0 KHz
    Compression mode               : Lossy



older | 1 | .... | 1339 | 1340 | (Page 1341) | 1342 | 1343 | .... | 1405 | newer