Are you the publisher? Claim or contact us about this channel


Embed this content in your HTML

Search

Report adult content:

click to rate:

Account: (login)

More Channels


Showcase


Channel Catalog


Channel Description:

Asia Torrents RSS Feed

older | 1 | .... | 1341 | 1342 | (Page 1343) | 1344 | 1345 | .... | 1405 | newer

    0 0

    Original Post: Yami no Bansosha EP05 Finale 720p HDTV x264 AAC DoA



    http://asianwiki.com/Yami_no_Bansosha
    http://thetvdb.com/?tab=series&id=294725&lid=7


    Drama: Partner in Darkness
    Romaji: Yami no Bansosha
    Japanese: 闇の伴走者
    Director: Takahiro Miki
    Writer: Takashi Nagasaki (novel), Dai Sato, Kumiko Aso
    Network: WOWOW
    Episodes: 5
    Release Date: April 11 - May 9, 2015
    Runtime: Saturdays 22:00
    Language: Japanese
    Country: Japan
    Subtitles: None - [url=][/url]
    RAW credit to DoA


    Cast

    Nao Matsushita as Yuki Mizuno
    Arata Furuta as Shinji Daigo
    Bengal as Fumiya Ajima
    Kyoko Maya as Yoshiko Ajima
    Jun Kaname as Yukihide Ozawa
    Tomoya Maeno as Kosuke Takeuchi  
    Tetsushi Tanaka as Kaoru Kazumine
    Kenjiro Ishimaru as Hidemasa Mochizuki
    Mitsuru Hirata as cartoonist
    Tetsuhiro Ikeda as Kazunari Tomura
    Leo Morimoto as Tomoyuki Yajima  
    Yumiko Fujita as Kazue Mizuno
    Toru Nomaguchi as Mikio Terada
    Morooka Moro as Kensuke Eto
    Yoichi Nukumizu as master
    Mina Fujii as Shoko Murotani


    Plot

    A year after manga master Fumiya Ajima's death, 50 unpublished sketches are discovered. The sketches appear to be the work of Fumiya Ajima, but the sketches shows details from several missing women cases that occurred 35 years earlier. Fumiya Ajima’s wife (Kyoko Maya) asks the Department Head of Yukihide Ozawa (Jun Kaname) to find out if the sketches are the work of her late husband. Ex-police officer Yuki Mizuno (Nao Matsushita) receives a request to investigate the origins of the 50 sketches. Yuki Mizuno then enlists the help of Shinji Daigo (Arata Furuta), an expert of the manga world.


    Mediainfo
    Spoiler:show

    Code
    Format                                   : Matroska
    Format version                           : Version 4 / Version 2
    File size                                : 1.03 GiB
    Duration                                 : 49mn 59s
    Overall bit rate                         : 2 955 Kbps
    Movie name                               : 連続ドラマW 闇の伴走者 Last Episode  720p HDTV x264 AAC-DoA
    Encoded date                             : UTC 2015-05-10 04:01:35
    Writing application                      : mkvmerge v7.8.0 ('River Man') 64bit built on Mar 27 2015 16:31:37
    Writing library                          : libebml v1.3.1 + libmatroska v1.4.2
    DURATION                                 : 00:49:59.957000000
    NUMBER_OF_FRAMES                         : 140623
    NUMBER_OF_BYTES                          : 70733369
    _STATISTICS_WRITING_APP                  : mkvmerge v7.8.0 ('River Man') 64bit built on Mar 27 2015 16:31:37
    _STATISTICS_WRITING_DATE_UTC             : 2015-05-10 04:01:35
    _STATISTICS_TAGS                         : BPS DURATION NUMBER_OF_FRAMES NUMBER_OF_BYTES

    Video
    ID                                       : 1
    Format                                   : AVC
    Format/Info                              : Advanced Video Codec
    Format profile                           : High@L4.1
    Format settings, CABAC                   : Yes
    Format settings, ReFrames                : 9 frames
    Codec ID                                 : V_MPEG4/ISO/AVC
    Duration                                 : 49mn 59s
    Width                                    : 1 280 pixels
    Height                                   : 720 pixels
    Display aspect ratio                     : 16:9
    Frame rate mode                          : Constant
    Frame rate                               : 23.976 fps
    Color space                              : YUV
    Chroma subsampling                       : 4:2:0
    Bit depth                                : 8 bits
    Scan type                                : Progressive
    Title                                    : Encode by TTG-DoA
    Writing library                          : x264 core 146 r2538 121396c
    Encoding settings                        : cabac=1 / ref=9 / deblock=1:-3:-3 / analyse=0x3:0x133 / me=umh / subme=10 / psy=1 / psy_rd=1.00:0.15 / mixed_ref=1 / me_range=48 / chroma_me=1 / trellis=2 / 8x8dct=1 / cqm=0 / deadzone=21,11 / fast_pskip=0 / chroma_qp_offset=-3 / threads=12 / lookahead_threads=2 / sliced_threads=0 / nr=0 / decimate=1 / interlaced=0 / bluray_compat=0 / constrained_intra=0 / bframes=8 / b_pyramid=2 / b_adapt=2 / b_bias=0 / direct=3 / weightb=1 / open_gop=0 / weightp=2 / keyint=240 / keyint_min=23 / scenecut=40 / intra_refresh=0 / rc_lookahead=60 / rc=crf / mbtree=1 / crf=17.0 / qcomp=0.60 / qpmin=0 / qpmax=69 / qpstep=4 / ip_ratio=1.40 / aq=1:1.00
    Language                                 : Japanese
    Default                                  : Yes
    Forced                                   : No
    DURATION                                 : 00:49:59.956000000
    NUMBER_OF_FRAMES                         : 71927
    NUMBER_OF_BYTES                          : 1036497622
    _STATISTICS_WRITING_APP                  : mkvmerge v7.8.0 ('River Man') 64bit built on Mar 27 2015 16:31:37
    _STATISTICS_WRITING_DATE_UTC             : 2015-05-10 04:01:35
    _STATISTICS_TAGS                         : BPS DURATION NUMBER_OF_FRAMES NUMBER_OF_BYTES

    Audio
    ID                                       : 2
    Format                                   : AAC
    Format/Info                              : Advanced Audio Codec
    Format profile                           : LC
    Codec ID                                 : A_AAC
    Duration                                 : 49mn 59s
    Channel(s)                               : 2 channels
    Channel positions                        : Front: L R
    Sampling rate                            : 48.0 KHz
    Compression mode                         : Lossy
    Language                                 : Japanese
    Default                                  : Yes
    Forced                                   : No





    0 0

    Original Post: Yami no Bansosha 720p DoA Complete



    http://asianwiki.com/Yami_no_Bansosha
    http://thetvdb.com/?tab=series&id=294725&lid=7


    Drama: Partner in Darkness
    Romaji: Yami no Bansosha
    Japanese: 闇の伴走者
    Director: Takahiro Miki
    Writer: Takashi Nagasaki (novel), Dai Sato, Kumiko Aso
    Network: WOWOW
    Episodes: 5
    Release Date: April 11 - May 9, 2015
    Runtime: Saturdays 22:00
    Language: Japanese
    Country: Japan
    Subtitles: None - [url=][/url]
    RAW credit to DoA


    Cast

    Nao Matsushita as Yuki Mizuno
    Arata Furuta as Shinji Daigo
    Bengal as Fumiya Ajima
    Kyoko Maya as Yoshiko Ajima
    Jun Kaname as Yukihide Ozawa
    Tomoya Maeno as Kosuke Takeuchi  
    Tetsushi Tanaka as Kaoru Kazumine
    Kenjiro Ishimaru as Hidemasa Mochizuki
    Mitsuru Hirata as cartoonist
    Tetsuhiro Ikeda as Kazunari Tomura
    Leo Morimoto as Tomoyuki Yajima  
    Yumiko Fujita as Kazue Mizuno
    Toru Nomaguchi as Mikio Terada
    Morooka Moro as Kensuke Eto
    Yoichi Nukumizu as master
    Mina Fujii as Shoko Murotani


    Plot

    A year after manga master Fumiya Ajima's death, 50 unpublished sketches are discovered. The sketches appear to be the work of Fumiya Ajima, but the sketches shows details from several missing women cases that occurred 35 years earlier. Fumiya Ajima’s wife (Kyoko Maya) asks the Department Head of Yukihide Ozawa (Jun Kaname) to find out if the sketches are the work of her late husband. Ex-police officer Yuki Mizuno (Nao Matsushita) receives a request to investigate the origins of the 50 sketches. Yuki Mizuno then enlists the help of Shinji Daigo (Arata Furuta), an expert of the manga world.


    Mediainfo
    Spoiler:show

    Code
    Format                                   : Matroska
    Format version                           : Version 4 / Version 2
    File size                                : 823 MiB
    Duration                                 : 52mn 0s
    Overall bit rate                         : 2 214 Kbps
    Movie name                               : 連続ドラマW 闇の伴走者 Episode 1 720p HDTV x264 AAC-DoA
    Encoded date                             : UTC 2015-04-14 01:32:51
    Writing application                      : mkvmerge v7.7.0 ('Six Voices') 64bit built on Feb 28 2015 23:39:33
    Writing library                          : libebml v1.3.1 + libmatroska v1.4.2
    DURATION                                 : 00:52:00.021000000
    NUMBER_OF_FRAMES                         : 146251
    NUMBER_OF_BYTES                          : 73564253
    _STATISTICS_WRITING_APP                  : mkvmerge v7.7.0 ('Six Voices') 64bit built on Feb 28 2015 23:39:33
    _STATISTICS_WRITING_DATE_UTC             : 2015-04-14 01:32:51
    _STATISTICS_TAGS                         : BPS DURATION NUMBER_OF_FRAMES NUMBER_OF_BYTES

    Video
    ID                                       : 1
    Format                                   : AVC
    Format/Info                              : Advanced Video Codec
    Format profile                           : High@L4.1
    Format settings, CABAC                   : Yes
    Format settings, ReFrames                : 9 frames
    Codec ID                                 : V_MPEG4/ISO/AVC
    Duration                                 : 52mn 0s
    Width                                    : 1 280 pixels
    Height                                   : 720 pixels
    Display aspect ratio                     : 16:9
    Frame rate mode                          : Constant
    Frame rate                               : 23.976 fps
    Original frame rate                      : 29.970 fps
    Color space                              : YUV
    Chroma subsampling                       : 4:2:0
    Bit depth                                : 8 bits
    Scan type                                : Progressive
    Title                                    : Encode by TTG-DoA
    Writing library                          : x264 core 146 r2538 121396c
    Encoding settings                        : cabac=1 / ref=9 / deblock=1:-3:-3 / analyse=0x3:0x133 / me=umh / subme=10 / psy=1 / psy_rd=1.00:0.15 / mixed_ref=1 / me_range=48 / chroma_me=1 / trellis=2 / 8x8dct=1 / cqm=0 / deadzone=21,11 / fast_pskip=0 / chroma_qp_offset=-3 / threads=12 / lookahead_threads=2 / sliced_threads=0 / nr=0 / decimate=1 / interlaced=0 / bluray_compat=0 / constrained_intra=0 / bframes=8 / b_pyramid=2 / b_adapt=2 / b_bias=0 / direct=3 / weightb=1 / open_gop=0 / weightp=2 / keyint=300 / keyint_min=29 / scenecut=40 / intra_refresh=0 / rc_lookahead=60 / rc=crf / mbtree=1 / crf=17.0 / qcomp=0.60 / qpmin=0 / qpmax=69 / qpstep=4 / ip_ratio=1.40 / aq=1:1.00
    Language                                 : Japanese
    Default                                  : Yes
    Forced                                   : No
    DURATION                                 : 00:52:00.004000000
    NUMBER_OF_FRAMES                         : 76892
    NUMBER_OF_BYTES                          : 788188851
    _STATISTICS_WRITING_APP                  : mkvmerge v7.7.0 ('Six Voices') 64bit built on Feb 28 2015 23:39:33
    _STATISTICS_WRITING_DATE_UTC             : 2015-04-14 01:32:51
    _STATISTICS_TAGS                         : BPS DURATION NUMBER_OF_FRAMES NUMBER_OF_BYTES

    Audio
    ID                                       : 2
    Format                                   : AAC
    Format/Info                              : Advanced Audio Codec
    Format profile                           : LC
    Codec ID                                 : A_AAC
    Duration                                 : 52mn 0s
    Channel(s)                               : 2 channels
    Channel positions                        : Front: L R
    Sampling rate                            : 48.0 KHz
    Compression mode                         : Lossy
    Language                                 : Japanese
    Default                                  : Yes
    Forced                                   : No







    0 0

    Original Post: Ishitachi no Renai Jijou EP04 720p HDTV x264 AAC DoA



    http://asianwiki.com/Ishitachi_no_Renai_Jijou
    http://wiki.d-addicts.com/Ishitachi_no_Renai_Jijou
    http://thetvdb.com/?tab=series&id=294581&lid=7
       
    Title (romaji): Ishitachi no Renai Jijou
    Also known as: Doctors' Affairs
    Format: Renzoku
    Genre: Romance, medical
    Episodes: TBD
    Broadcast network: Fuji TV
    Broadcast period: 2015-Apr-09 start
    Air time: Thursday 22:00
    Theme song: Don't be love by Shishido Kavka
    Subtitles: Yes (credits in the file)
    RAW credit to DoA

    Cast

       Saito Takumi as Morita Haruki
       Ishida Yuriko as Kondo Chizuru
       Aibu Saki as Kawai Nana
       Hirayama Hiroyuki as Takahashi Sotaro
       Miyake Hiroki as Oone Ryota
       Ihara Tsuyoshi as Nishi Yusuke
       Itaya Yuka as Ichikawa Tomoko
       Namase Katsuhisa as Watanabe Mikio

    Synopsis

    Morita Haruki is a surgeon who only thinks about saving patients 24 hours a day, every day. A compassionate man with a strong sense of justice, he pushes back against the university hospital system which prioritises profit and power. However, he has forgotten how to love because he has put work before romance and his hectic job. Haruki takes a position at a university hospital out of a desire to hone his skills as a surgeon. But it is a place where all sorts of desires swirl. He meets Kondo Chizuru, a surgeon who is his senior, here. Chizuru has been very wrapped up in her work and is now past
    marriageable age. He gets attracted to her little by little -- Jdrama Weblog


    Mediainfo
    Spoiler:show

    Code
    Format                                   : Matroska
    Format version                           : Version 4 / Version 2
    File size                                : 1.20 GiB
    Duration                                 : 46mn 25s
    Overall bit rate                         : 3 695 Kbps
    Movie name                               : 医師たちの恋愛事情 Story 04「あなたを守りたい」720p HDTV x264 AAC-DoA
    Encoded date                             : UTC 2015-05-10 03:05:57
    Writing application                      : mkvmerge v7.2.0 ('On Every Street') 32bit built on Sep 13 2014 15:42:11
    Writing library                          : libebml v1.3.0 + libmatroska v1.4.1

    Video
    ID                                       : 1
    Format                                   : AVC
    Format/Info                              : Advanced Video Codec
    Format profile                           : High@L4.1
    Format settings, CABAC                   : Yes
    Format settings, ReFrames                : 9 frames
    Codec ID                                 : V_MPEG4/ISO/AVC
    Duration                                 : 46mn 25s
    Width                                    : 1 280 pixels
    Height                                   : 720 pixels
    Display aspect ratio                     : 16:9
    Frame rate mode                          : Constant
    Frame rate                               : 29.970 fps
    Color space                              : YUV
    Chroma subsampling                       : 4:2:0
    Bit depth                                : 8 bits
    Scan type                                : Progressive
    Title                                    : Encode by kt-DoA
    Writing library                          : x264 core 146 r2538 121396c
    Encoding settings                        : cabac=1 / ref=9 / deblock=1:-1:-1 / analyse=0x3:0x133 / me=umh / subme=10 / psy=1 / psy_rd=1.00:0.15 / mixed_ref=1 / me_range=48 / chroma_me=1 / trellis=2 / 8x8dct=1 / cqm=0 / deadzone=21,11 / fast_pskip=0 / chroma_qp_offset=-3 / threads=12 / lookahead_threads=2 / sliced_threads=0 / nr=0 / decimate=1 / interlaced=0 / bluray_compat=0 / constrained_intra=0 / bframes=8 / b_pyramid=2 / b_adapt=2 / b_bias=0 / direct=3 / weightb=1 / open_gop=0 / weightp=2 / keyint=300 / keyint_min=29 / scenecut=40 / intra_refresh=0 / rc_lookahead=60 / rc=crf / mbtree=1 / crf=17.6 / qcomp=0.60 / qpmin=0 / qpmax=69 / qpstep=4 / ip_ratio=1.40 / aq=1:1.00
    Default                                  : Yes
    Forced                                   : No

    Audio
    ID                                       : 2
    Format                                   : AAC
    Format/Info                              : Advanced Audio Codec
    Format profile                           : LC
    Codec ID                                 : A_AAC
    Duration                                 : 46mn 25s
    Channel(s)                               : 2 channels
    Channel positions                        : Front: L R
    Sampling rate                            : 48.0 KHz
    Compression mode                         : Lossy
    Delay relative to video                  : 11ms
    Language                                 : Japanese
    Default                                  : Yes
    Forced                                   : No

    Menu
    00:00:00.000                             : ja:Part A
    00:14:43.983                             : ja:Part B
    00:23:16.995                             : ja:Part C
    00:33:59.003                             : ja:Part D
    00:45:55.018                             : ja:次回予告





    0 0

    Original Post: Song Yoo Bin, Kim Na Young – The Girl Who Can See Smells/Sensory Couple OST Part.9



    송유빈, 김나영 – 냄새를 보는 소녀 (SBS 수목드라마) OST – Part.9
    Release Date: 2015.05.13
    Genre: OST
    Language: Korean
    Bit Rate: MP3-320kbps
    credit to hulkpop

    Track List:

    01. 흔한 이별 (Ordinary Farewell)
    02. 흔한 이별 (Inst.)



    0 0

    Original Post: Front Page 1990 720p BluRay x264-WiKi





    Detail:
    Title: Front Page
    Genre: Comedy
    Release Date: 24 August 1990
    Runtime: 92 min
    Director: Philip Chan
    Rating: 7.0/10 from 87 users
    Country: Hong Kong
    Language: Mandarin, Cantonese
    Subtitles:Chinese, English

    Synopsis:
    Hui (Michael Hui), an owner of a Hong Kong tabloid magazine company, hires martial artist Bill Lee (Sam Hui) to help him get a good headliner for a magazine story to, hopefully, save his failing business. In the process, Bill meets San-San (Catherine Hung Yan), the fiancée of a wealthy jewelry business owner, and pursues her in order to get the scoop about her life. After thinking that San-San would make a great headliner, Bill feels sorry for her because of her troubled life: her mother has cancer, her brother is mentally disabled and her fiancé puts work before her. Thus, Bill is reluctant to publish San-San's story, putting the tabloid company's fate in his hands.

    Cast:
    Michael Hui, Samuel Hui, Ricky Hui








    Code

    Video
    ID                                       : 1
    Format                                   : AVC
    Format/Info                              : Advanced Video Codec
    Format profile                           : High@L4.1
    Format settings, CABAC                   : Yes
    Format settings, ReFrames                : 9 frames
    Codec ID                                 : V_MPEG4/ISO/AVC
    Duration                                 : 1h 35mn
    Bit rate                                 : 9 000 Kbps
    Width                                    : 1 280 pixels
    Height                                   : 720 pixels
    Display aspect ratio                     : 16:9
    Frame rate                               : 24.000 fps
    Color space                              : YUV
    Chroma subsampling                       : 4:2:0
    Bit depth                                : 8 bits
    Scan type                                : Progressive
    Bits/(Pixel*Frame)                       : 0.407
    Stream size                              : 5.87 GiB (89%)
    Writing library                          : x264 core 142 r2431+42 c69a006 tMod [8-bit@all X86_64]
    Encoding settings                        : cabac=1 / ref=9 / deblock=1:-3:-3 / analyse=0x3:0x133 / me=umh / subme=11 / psy=1 / fade_compensate=0.00 / psy_rd=1.05:0.10 / mixed_ref=1 / me_range=32 / chroma_me=1 / trellis=2 / 8x8dct=1 / cqm=0 / deadzone=6,6 / fast_pskip=0 / chroma_qp_offset=-3 / threads=12 / lookahead_threads=2 / sliced_threads=0 / nr=0 / decimate=0 / interlaced=0 / bluray_compat=0 / constrained_intra=0 / fgo=0 / bframes=8 / b_pyramid=2 / b_adapt=2 / b_bias=0 / direct=3 / weightb=1 / open_gop=0 / weightp=2 / keyint=250 / keyint_min=24 / scenecut=40 / intra_refresh=0 / rc=2pass / mbtree=0 / bitrate=9000 / ratetol=1.0 / qcomp=0.60 / qpmin=0:0:0 / qpmax=69:69:69 / qpstep=4 / cplxblur=20.0 / qblur=0.5 / ip_ratio=1.10 / pb_ratio=1.10 / aq=1:0.55 / aq-sensitivity=10.00 / aq-factor=1.00:1.00:1.00 / aq2=0 / aq3=0
    Language                                 : Chinese
    Default                                  : Yes
    Forced                                   : No
    Matrix coefficients                      : BT.709-5, BT.1361, IEC 61966-2-4 709, SMPTE RP177

    Audio #1
    ID                                       : 2
    Format                                   : AC-3
    Format/Info                              : Audio Coding 3
    Mode extension                           : CM (complete main)
    Format settings, Endianness              : Big
    Codec ID                                 : A_AC3
    Duration                                 : 1h 35mn
    Bit rate mode                            : Constant
    Bit rate                                 : 448 Kbps
    Channel(s)                               : 2 channels
    Channel positions                        : Front: L R
    Sampling rate                            : 48.0 KHz
    Bit depth                                : 16 bits
    Compression mode                         : Lossy
    Stream size                              : 306 MiB (5%)
    Title                                    : Cantonese
    Language                                 : Chinese
    Default                                  : Yes
    Forced                                   : No

    Audio #2
    ID                                       : 3
    Format                                   : AC-3
    Format/Info                              : Audio Coding 3
    Mode extension                           : CM (complete main)
    Format settings, Endianness              : Big
    Codec ID                                 : A_AC3
    Duration                                 : 1h 35mn
    Bit rate mode                            : Constant
    Bit rate                                 : 448 Kbps
    Channel(s)                               : 2 channels
    Channel positions                        : Front: L R
    Sampling rate                            : 48.0 KHz
    Bit depth                                : 16 bits
    Compression mode                         : Lossy
    Stream size                              : 306 MiB (5%)
    Title                                    : Mandarin
    Language                                 : Chinese
    Default                                  : No
    Forced                                   : No

    Text #1
    ID                                       : 4
    Format                                   : UTF-8
    Codec ID                                 : S_TEXT/UTF8
    Codec ID/Info                            : UTF-8 Plain Text
    Title                                    : CHT
    Language                                 : Chinese
    Default                                  : No
    Forced                                   : No

    Text #2
    ID                                       : 5
    Format                                   : UTF-8
    Codec ID                                 : S_TEXT/UTF8
    Codec ID/Info                            : UTF-8 Plain Text
    Title                                    : CHS
    Language                                 : Chinese
    Default                                  : No
    Forced                                   : No

    Text #3
    ID                                       : 6
    Format                                   : UTF-8
    Codec ID                                 : S_TEXT/UTF8
    Codec ID/Info                            : UTF-8 Plain Text
    Language                                 : English
    Default                                  : No
    Forced                                   : No



    0 0
  • 05/13/15--04:01: Unkind Women E23 XVID LIMO
  • Original Post: Unkind Women E23 XVID LIMO


    Details
    Title: 착하지 않은 여자들 / Chakhaji Anheun Yeojadeul
    Also known as: Unkind Women
    Genre: Family, drama, romance
    Episodes: 24
    Broadcast network: KBS2
    Broadcast period: 2015-Feb-25 to 2015-???-??
    Air time: Wednesday & Thursday 22:00
    Original Soundtrack: Unkind Ladies OST
    Synopsis
    This drama features the women of three generations and people around them.

    Ma Ri grows up as a good teacher of this generation where there is no true mentor. Hyun Sook, who has been a troublemaker, realizes the love and support of her family. Kang Soon Ok regards herself as unlucky, but later on realizes how happy she has been.

    How can you hold up when your life gets tough? You will figure it out by holding up day by day, just like these women in the drama.

    Source: KBS World

    Cast
    Main Cast
    Kim Hye Ja as Kang Soon Ok
    Chae Si Ra as Kim Hyun Sook
    Do Ji Won as Kim Hyun Jung
    Lee Ha Na as Jung Ma Ri




    Code
    Video
    ID                                       : 0
    Format                                   : MPEG-4 Visual
    Format profile                           : Advanced Simple@L5
    Format settings, BVOP                    : No
    Format settings, QPel                    : No
    Format settings, GMC                     : No warppoints
    Format settings, Matrix                  : Default (MPEG)
    Codec ID                                 : XVID
    Codec ID/Hint                            : XviD
    Duration                                 : 1h 6mn
    Bit rate                                 : 1 391 Kbps
    Width                                    : 624 pixels
    Height                                   : 352 pixels
    Display aspect ratio                     : 16:9
    Frame rate                               : 29.970 fps
    Color space                              : YUV
    Chroma subsampling                       : 4:2:0
    Bit depth                                : 8 bits
    Scan type                                : Progressive
    Compression mode                         : Lossy
    Bits/(Pixel*Frame)                       : 0.211
    Stream size                              : 660 MiB (87%)
    Writing library                          : XviD 1.2.1 (UTC 2008-12-04)

    Audio
    ID                                       : 1
    Format                                   : MPEG Audio
    Format version                           : Version 1
    Format profile                           : Layer 3
    Mode                                     : Joint stereo
    Mode extension                           : MS Stereo
    Codec ID                                 : 55
    Codec ID/Hint                            : MP3
    Duration                                 : 1h 6mn
    Bit rate mode                            : Constant
    Bit rate                                 : 128 Kbps
    Channel(s)                               : 2 channels
    Sampling rate                            : 48.0 KHz
    Compression mode                         : Lossy
    Stream size                              : 60.8 MiB (8%)
    Alignment                                : Aligned on interleaves
    Writing library                          : LAME3.98.2



    0 0
  • 05/13/15--04:01: Unkind Women E23 450p LIMO
  • Original Post: Unkind Women E23 450p LIMO


    Details
    Title: 착하지 않은 여자들 / Chakhaji Anheun Yeojadeul
    Also known as: Unkind Women
    Genre: Family, drama, romance
    Episodes: 24
    Broadcast network: KBS2
    Broadcast period: 2015-Feb-25 to 2015-???-??
    Air time: Wednesday & Thursday 22:00
    Original Soundtrack: Unkind Ladies OST
    Synopsis
    This drama features the women of three generations and people around them.

    Ma Ri grows up as a good teacher of this generation where there is no true mentor. Hyun Sook, who has been a troublemaker, realizes the love and support of her family. Kang Soon Ok regards herself as unlucky, but later on realizes how happy she has been.

    How can you hold up when your life gets tough? You will figure it out by holding up day by day, just like these women in the drama.

    Source: KBS World

    Cast
    Main Cast
    Kim Hye Ja as Kang Soon Ok
    Chae Si Ra as Kim Hyun Sook
    Do Ji Won as Kim Hyun Jung
    Lee Ha Na as Jung Ma Ri




    Code
    Video
    ID                                       : 0
    Format                                   : AVC
    Format/Info                              : Advanced Video Codec
    Format profile                           : High@L5.1
    Format settings, CABAC                   : Yes
    Format settings, ReFrames                : 4 frames
    Codec ID                                 : H264
    Bit rate                                 : 1 500 Kbps
    Width                                    : 800 pixels
    Height                                   : 450 pixels
    Display aspect ratio                     : 16:9
    Frame rate mode                          : Variable
    Frame rate                               : 29.970 fps
    Color space                              : YUV
    Chroma subsampling                       : 4:2:0
    Bit depth                                : 8 bits
    Scan type                                : Progressive
    Bits/(Pixel*Frame)                       : 0.139
    Stream size                              : 686 MiB (88%)
    Writing library                          : x264 core 112

    Audio
    ID                                       : 1
    Format                                   : MPEG Audio
    Format version                           : Version 1
    Format profile                           : Layer 3
    Mode                                     : Joint stereo
    Mode extension                           : MS Stereo
    Codec ID                                 : 55
    Codec ID/Hint                            : MP3
    Bit rate mode                            : Constant
    Bit rate                                 : 192 Kbps
    Channel(s)                               : 2 channels
    Sampling rate                            : 48.0 KHz
    Compression mode                         : Lossy
    Stream size                              : 88.3 MiB (11%)
    Alignment                                : Aligned on interleaves
    Interleave, duration                     : 24 ms (0.72 video frame)
    Writing library                          : LAME3.98.2
    Language                                 : Korean



    0 0
  • 05/13/15--04:01: Unkind Women E23 720p LIMO
  • Original Post: Unkind Women E23 720p LIMO


    Details
    Title: 착하지 않은 여자들 / Chakhaji Anheun Yeojadeul
    Also known as: Unkind Women
    Genre: Family, drama, romance
    Episodes: 24
    Broadcast network: KBS2
    Broadcast period: 2015-Feb-25 to 2015-???-??
    Air time: Wednesday & Thursday 22:00
    Original Soundtrack: Unkind Ladies OST
    Synopsis
    This drama features the women of three generations and people around them.

    Ma Ri grows up as a good teacher of this generation where there is no true mentor. Hyun Sook, who has been a troublemaker, realizes the love and support of her family. Kang Soon Ok regards herself as unlucky, but later on realizes how happy she has been.

    How can you hold up when your life gets tough? You will figure it out by holding up day by day, just like these women in the drama.

    Source: KBS World

    Cast
    Main Cast
    Kim Hye Ja as Kang Soon Ok
    Chae Si Ra as Kim Hyun Sook
    Do Ji Won as Kim Hyun Jung
    Lee Ha Na as Jung Ma Ri




    Code
    Video
    ID                               : 0
    Format                           : AVC
    Format/Info                      : Advanced Video Codec
    Format profile                   : High@L5.1
    Format settings, CABAC           : Yes
    Format settings, ReFrames        : 4 frames
    Codec ID                         : H264
    Duration                         : 1h 4mn
    Bit rate                         : 3 000 Kbps
    Width                            : 1 280 pixels
    Height                           : 720 pixels
    Display aspect ratio             : 16:9
    Frame rate mode                  : Variable
    Frame rate                       : 29.970 fps
    Color space                      : YUV
    Chroma subsampling               : 4:2:0
    Bit depth                        : 8 bits
    Scan type                        : Progressive
    Bits/(Pixel*Frame)               : 0.109
    Stream size                      : 1.35 GiB (94%)
    Writing library                  : x264 core 112
    Encoding settings                : cabac=1 / ref=3 / deblock=1:-1:-1 / analyse=0x3:0x113 / me=hex / subme=6 / psy=1 / psy_rd=1.00:1.00 / mixed_ref=1 / me_range=16 / chroma_me=1 / trellis=1 / 8x8dct=1 / cqm=0 / deadzone=21,11 / fast_pskip=0 / chroma_qp_offset=-4 / threads=12 / sliced_threads=0 / nr=0 / decimate=1 / interlaced=0 / constrained_intra=0 / bframes=3 / b_pyramid=2 / b_adapt=1 / b_bias=1 / direct=3 / weightb=1 / open_gop=0 / weightp=2 / keyint=299 / keyint_min=25 / scenecut=1 / intra_refresh=0 / rc_lookahead=40 / rc=abr / mbtree=1 / bitrate=3000 / ratetol=1.0 / qcomp=0.60 / qpmin=10 / qpmax=51 / qpstep=4 / ip_ratio=1.40 / aq=1:1.00

    Audio
    ID                               : 1
    Format                           : MPEG Audio
    Format version                   : Version 1
    Format profile                   : Layer 3
    Mode                             : Joint stereo
    Mode extension                   : MS Stereo
    Codec ID                         : 55
    Codec ID/Hint                    : MP3
    Duration                         : 1h 4mn
    Bit rate mode                    : Constant
    Bit rate                         : 192 Kbps
    Channel(s)                       : 2 channels
    Sampling rate                    : 48.0 KHz
    Stream size                      : 88.0 MiB (6%)
    Alignment                        : Split accross interleaves
    Interleave, duration             : 33 ms (1.00 video frame)
    Interleave, preload duration     : 500 ms
    Writing library                  : LAME3.98.2



    0 0
  • 05/13/15--04:01: Sensory Couple E13 XVID LIMO
  • Original Post: Sensory Couple E13 XVID LIMO


    Details
    Title: 냄새를 보는 소녀 / A Girl Who Sees Smells
    Genre: Romance
    Episodes:
    Broadcast network: SBS
    Broadcast period: 2015-Apr-01 to 2015-Jun-??
    Air time: Wednesday & Thursday 22:00
    Original Soundtrack: A Girl Who Sees Smells OST
    Synopsis
    Three years ago, a man lost his younger sister in the "Bar Code" murder case, since then he lost his senses. A girl miraculously survived the "Bar code" murder case, since then she has lost her memory. But she has also gained the ability to see smells.

    Cast
    Main Cast
    Park Yoo Chun as Choi Moo Gak
    Shin Se Kyung as Oh Cho Rim
    Nam Goong Min as Kwon Jae Hee
    Yoon Jin Seo as Yeom Mi




    Code
    Video
    ID                                       : 0
    Format                                   : MPEG-4 Visual
    Format profile                           : Advanced Simple@L5
    Format settings, BVOP                    : No
    Format settings, QPel                    : No
    Format settings, GMC                     : No warppoints
    Format settings, Matrix                  : Default (MPEG)
    Codec ID                                 : XVID
    Codec ID/Hint                            : XviD
    Duration                                 : 1h 6mn
    Bit rate                                 : 1 391 Kbps
    Width                                    : 624 pixels
    Height                                   : 352 pixels
    Display aspect ratio                     : 16:9
    Frame rate                               : 29.970 fps
    Color space                              : YUV
    Chroma subsampling                       : 4:2:0
    Bit depth                                : 8 bits
    Scan type                                : Progressive
    Compression mode                         : Lossy
    Bits/(Pixel*Frame)                       : 0.211
    Stream size                              : 660 MiB (87%)
    Writing library                          : XviD 1.2.1 (UTC 2008-12-04)

    Audio
    ID                                       : 1
    Format                                   : MPEG Audio
    Format version                           : Version 1
    Format profile                           : Layer 3
    Mode                                     : Joint stereo
    Mode extension                           : MS Stereo
    Codec ID                                 : 55
    Codec ID/Hint                            : MP3
    Duration                                 : 1h 6mn
    Bit rate mode                            : Constant
    Bit rate                                 : 128 Kbps
    Channel(s)                               : 2 channels
    Sampling rate                            : 48.0 KHz
    Compression mode                         : Lossy
    Stream size                              : 60.8 MiB (8%)
    Alignment                                : Aligned on interleaves
    Writing library                          : LAME3.98.2



    0 0
  • 05/13/15--04:01: Sensory Couple E13 450p LIMO
  • Original Post: Sensory Couple E13 450p LIMO


    Details
    Title: 냄새를 보는 소녀 / A Girl Who Sees Smells
    Genre: Romance
    Episodes:
    Broadcast network: SBS
    Broadcast period: 2015-Apr-01 to 2015-Jun-??
    Air time: Wednesday & Thursday 22:00
    Original Soundtrack: A Girl Who Sees Smells OST
    Synopsis
    Three years ago, a man lost his younger sister in the "Bar Code" murder case, since then he lost his senses. A girl miraculously survived the "Bar code" murder case, since then she has lost her memory. But she has also gained the ability to see smells.

    Cast
    Main Cast
    Park Yoo Chun as Choi Moo Gak
    Shin Se Kyung as Oh Cho Rim
    Nam Goong Min as Kwon Jae Hee
    Yoon Jin Seo as Yeom Mi




    Code
    Video
    ID                                       : 0
    Format                                   : AVC
    Format/Info                              : Advanced Video Codec
    Format profile                           : High@L5.1
    Format settings, CABAC                   : Yes
    Format settings, ReFrames                : 4 frames
    Codec ID                                 : H264
    Bit rate                                 : 1 500 Kbps
    Width                                    : 800 pixels
    Height                                   : 450 pixels
    Display aspect ratio                     : 16:9
    Frame rate mode                          : Variable
    Frame rate                               : 29.970 fps
    Color space                              : YUV
    Chroma subsampling                       : 4:2:0
    Bit depth                                : 8 bits
    Scan type                                : Progressive
    Bits/(Pixel*Frame)                       : 0.139
    Stream size                              : 686 MiB (88%)
    Writing library                          : x264 core 112

    Audio
    ID                                       : 1
    Format                                   : MPEG Audio
    Format version                           : Version 1
    Format profile                           : Layer 3
    Mode                                     : Joint stereo
    Mode extension                           : MS Stereo
    Codec ID                                 : 55
    Codec ID/Hint                            : MP3
    Bit rate mode                            : Constant
    Bit rate                                 : 192 Kbps
    Channel(s)                               : 2 channels
    Sampling rate                            : 48.0 KHz
    Compression mode                         : Lossy
    Stream size                              : 88.3 MiB (11%)
    Alignment                                : Aligned on interleaves
    Interleave, duration                     : 24 ms (0.72 video frame)
    Writing library                          : LAME3.98.2
    Language                                 : Korean



    0 0
  • 05/13/15--04:01: Sensory Couple E13 720p LIMO
  • Original Post: Sensory Couple E13 720p LIMO


    Details
    Title: 냄새를 보는 소녀 / A Girl Who Sees Smells
    Genre: Romance
    Episodes:
    Broadcast network: SBS
    Broadcast period: 2015-Apr-01 to 2015-Jun-??
    Air time: Wednesday & Thursday 22:00
    Original Soundtrack: A Girl Who Sees Smells OST
    Synopsis
    Three years ago, a man lost his younger sister in the "Bar Code" murder case, since then he lost his senses. A girl miraculously survived the "Bar code" murder case, since then she has lost her memory. But she has also gained the ability to see smells.

    Cast
    Main Cast
    Park Yoo Chun as Choi Moo Gak
    Shin Se Kyung as Oh Cho Rim
    Nam Goong Min as Kwon Jae Hee
    Yoon Jin Seo as Yeom Mi




    Code
    Video
    ID                               : 0
    Format                           : AVC
    Format/Info                      : Advanced Video Codec
    Format profile                   : High@L5.1
    Format settings, CABAC           : Yes
    Format settings, ReFrames        : 4 frames
    Codec ID                         : H264
    Duration                         : 1h 4mn
    Bit rate                         : 3 000 Kbps
    Width                            : 1 280 pixels
    Height                           : 720 pixels
    Display aspect ratio             : 16:9
    Frame rate mode                  : Variable
    Frame rate                       : 29.970 fps
    Color space                      : YUV
    Chroma subsampling               : 4:2:0
    Bit depth                        : 8 bits
    Scan type                        : Progressive
    Bits/(Pixel*Frame)               : 0.109
    Stream size                      : 1.35 GiB (94%)
    Writing library                  : x264 core 112
    Encoding settings                : cabac=1 / ref=3 / deblock=1:-1:-1 / analyse=0x3:0x113 / me=hex / subme=6 / psy=1 / psy_rd=1.00:1.00 / mixed_ref=1 / me_range=16 / chroma_me=1 / trellis=1 / 8x8dct=1 / cqm=0 / deadzone=21,11 / fast_pskip=0 / chroma_qp_offset=-4 / threads=12 / sliced_threads=0 / nr=0 / decimate=1 / interlaced=0 / constrained_intra=0 / bframes=3 / b_pyramid=2 / b_adapt=1 / b_bias=1 / direct=3 / weightb=1 / open_gop=0 / weightp=2 / keyint=299 / keyint_min=25 / scenecut=1 / intra_refresh=0 / rc_lookahead=40 / rc=abr / mbtree=1 / bitrate=3000 / ratetol=1.0 / qcomp=0.60 / qpmin=10 / qpmax=51 / qpstep=4 / ip_ratio=1.40 / aq=1:1.00

    Audio
    ID                               : 1
    Format                           : MPEG Audio
    Format version                   : Version 1
    Format profile                   : Layer 3
    Mode                             : Joint stereo
    Mode extension                   : MS Stereo
    Codec ID                         : 55
    Codec ID/Hint                    : MP3
    Duration                         : 1h 4mn
    Bit rate mode                    : Constant
    Bit rate                         : 192 Kbps
    Channel(s)                       : 2 channels
    Sampling rate                    : 48.0 KHz
    Stream size                      : 88.0 MiB (6%)
    Alignment                        : Split accross interleaves
    Interleave, duration             : 33 ms (1.00 video frame)
    Interleave, preload duration     : 500 ms
    Writing library                  : LAME3.98.2



    0 0
  • 05/13/15--04:01: Warm and Cozy E01 X264 LIMO
  • Original Post: Warm and Cozy E01 X264 LIMO



    Details
    Title: 맨도롱 또똣 / Maendorong Ttottos
    Previously known as: 제주도 개츠비 / Jeju Island Gatsby
    Genre: Romance
    Episodes: 16
    Broadcast network: MBC
    Broadcast period: 2015-May-13 to 2015-Jul-??
    Air time: Wednesday & Thursday 22:00
    Subtitles will be added later

    Synopsis
    Desperate to escape the drama and stress of modern life in the city, Baek Gun Woo (Yoo Yeon Seok) and Lee Jung Joo (Kang So Ra) take off to South Korea's idyllic Jeju Island. But when these two urbane strangers meet on the island, they discover the magical island's restorative qualities include unexpected romance.

    Cast
    Main Cast
    Yoo Yun Suk as Baek Gun Woo
    Kang So Ra as Lee Jung Joo




    Code
    Video
    ID                             : 1
    Format                         : AVC
    Format/Info                    : Advanced Video Codec
    Format profile                 : Main@L4.0
    Format settings, CABAC         : Yes
    Format settings, ReFrames      : 4 frames
    Codec ID                       : V_MPEG4/ISO/AVC
    Duration                       : 58mn 44s
    Bit rate                       : 450 Kbps
    Width                          : 624 pixels
    Height                         : 350 pixels
    Display aspect ratio           : 16:9
    Frame rate mode                : Constant
    Frame rate                     : 29.970 fps
    Color space                    : YUV
    Chroma subsampling             : 4:2:0
    Bit depth                      : 8 bits
    Scan type                      : Progressive
    Bits/(Pixel*Frame)             : 0.069
    Stream size                    : 190 MiB (76%)
    Writing library                : x264 core 130 r2273 b3065e6
    Encoding settings              : cabac=1 / ref=1 / deblock=1:0:0 / analyse=0x1:0x111 / me=hex / subme=2 / psy=1 / psy_rd=1.00:0.00 / mixed_ref=0 / me_range=16 / chroma_me=1 / trellis=0 / 8x8dct=0 / cqm=0 / deadzone=21,11 / fast_pskip=1 / chroma_qp_offset=0 / threads=1 / lookahead_threads=1 / sliced_threads=0 / nr=0 / decimate=1 / interlaced=0 / bluray_compat=0 / constrained_intra=0 / bframes=3 / b_pyramid=2 / b_adapt=1 / b_bias=0 / direct=1 / weightb=1 / open_gop=0 / weightp=1 / keyint=300 / keyint_min=30 / scenecut=40 / intra_refresh=0 / rc_lookahead=10 / rc=abr / mbtree=1 / bitrate=450 / ratetol=1.0 / qcomp=0.60 / qpmin=0 / qpmax=69 / qpstep=4 / vbv_maxrate=20000 / vbv_bufsize=25000 / nal_hrd=none / ip_ratio=1.40 / aq=1:1.00
    Language                       : English
    Default                        : Yes
    Forced                         : No
    Color primaries                : BT.601 NTSC
    Transfer characteristics       : BT.709
    Matrix coefficients            : BT.601

    Audio
    ID                             : 2
    Format                         : MPEG Audio
    Format version                 : Version 1
    Format profile                 : Layer 3
    Mode                           : Joint stereo
    Mode extension                 : MS Stereo
    Codec ID                       : A_MPEG/L3
    Codec ID/Hint                  : MP3
    Duration                       : 58mn 44s
    Bit rate mode                  : Constant
    Bit rate                       : 128 Kbps
    Channel(s)                     : 2 channels
    Sampling rate                  : 48.0 KHz
    Compression mode               : Lossy
    Stream size                    : 53.8 MiB (22%)
    Default                        : Yes
    Forced                         : No



    0 0
  • 05/13/15--04:01: Warm and Cozy E01 720p LIMO
  • Original Post: Warm and Cozy E01 720p LIMO



    Details
    Title: 맨도롱 또똣 / Maendorong Ttottos
    Previously known as: 제주도 개츠비 / Jeju Island Gatsby
    Genre: Romance
    Episodes: 16
    Broadcast network: MBC
    Broadcast period: 2015-May-13 to 2015-Jul-??
    Air time: Wednesday & Thursday 22:00
    Subtitles will be added later

    Synopsis
    Desperate to escape the drama and stress of modern life in the city, Baek Gun Woo (Yoo Yeon Seok) and Lee Jung Joo (Kang So Ra) take off to South Korea's idyllic Jeju Island. But when these two urbane strangers meet on the island, they discover the magical island's restorative qualities include unexpected romance.

    Cast
    Main Cast
    Yoo Yun Suk as Baek Gun Woo
    Kang So Ra as Lee Jung Joo




    Code
    Video
    ID                               : 0
    Format                           : AVC
    Format/Info                      : Advanced Video Codec
    Format profile                   : High@L5.1
    Format settings, CABAC           : Yes
    Format settings, ReFrames        : 4 frames
    Codec ID                         : H264
    Duration                         : 1h 4mn
    Bit rate                         : 3 000 Kbps
    Width                            : 1 280 pixels
    Height                           : 720 pixels
    Display aspect ratio             : 16:9
    Frame rate mode                  : Variable
    Frame rate                       : 29.970 fps
    Color space                      : YUV
    Chroma subsampling               : 4:2:0
    Bit depth                        : 8 bits
    Scan type                        : Progressive
    Bits/(Pixel*Frame)               : 0.109
    Stream size                      : 1.35 GiB (94%)
    Writing library                  : x264 core 112
    Encoding settings                : cabac=1 / ref=3 / deblock=1:-1:-1 / analyse=0x3:0x113 / me=hex / subme=6 / psy=1 / psy_rd=1.00:1.00 / mixed_ref=1 / me_range=16 / chroma_me=1 / trellis=1 / 8x8dct=1 / cqm=0 / deadzone=21,11 / fast_pskip=0 / chroma_qp_offset=-4 / threads=12 / sliced_threads=0 / nr=0 / decimate=1 / interlaced=0 / constrained_intra=0 / bframes=3 / b_pyramid=2 / b_adapt=1 / b_bias=1 / direct=3 / weightb=1 / open_gop=0 / weightp=2 / keyint=299 / keyint_min=25 / scenecut=1 / intra_refresh=0 / rc_lookahead=40 / rc=abr / mbtree=1 / bitrate=3000 / ratetol=1.0 / qcomp=0.60 / qpmin=10 / qpmax=51 / qpstep=4 / ip_ratio=1.40 / aq=1:1.00

    Audio
    ID                               : 1
    Format                           : MPEG Audio
    Format version                   : Version 1
    Format profile                   : Layer 3
    Mode                             : Joint stereo
    Mode extension                   : MS Stereo
    Codec ID                         : 55
    Codec ID/Hint                    : MP3
    Duration                         : 1h 4mn
    Bit rate mode                    : Constant
    Bit rate                         : 192 Kbps
    Channel(s)                       : 2 channels
    Sampling rate                    : 48.0 KHz
    Stream size                      : 88.0 MiB (6%)
    Alignment                        : Split accross interleaves
    Interleave, duration             : 33 ms (1.00 video frame)
    Interleave, preload duration     : 500 ms
    Writing library                  : LAME3.98.2



    0 0
  • 05/13/15--04:52: The Lover E05 XVID WITH
  • Original Post: The Lover E05 XVID WITH

    Warning: this show is rated 19+ and contains mature content


    Title: The Lover 더 러버
    Genre: Historical, Melodrama, Romance, Suspense
    Episodes: 12
    Broadcast network: MNET
    Broadcast period (Korea): 2015-APRIL -02 to
    Air time: Thursday 23:00

    It’s an omnibus series about four different couples living together in one apartment complex. Oh Do Si and Ryu Du Ri play the main couple in their 30s, who’ve been living together for two years. Oh Do Si is a voice actor, and Ryu Du Ri is a reviewer who runs a blog. They’re an average 30-something couple and they simply chose to live together instead of getting married. Choi Jin Nye and Jung Young Joon are couple that’s twelve years apart in age. She’s a penny-pincher who basically supports her younger boyfriend, and he’s a musician who carries a guitar but doesn’t know how to play it. They’ve been living together for a year, and though they fight like cats and dogs, they’re always quick to make up. Ha Seoul Eun and Park Hwan Jong are a 20-something couple that just moved in together. She’s the type of woman who doesn’t want her boyfriend to know that she isn’t the perfect embodiment of femininity, and works tirelessly to keep up the illusion. Lee Joon Jae is a loner who prefers to stay at home, but is forced to get a roommate for financial reasons. He doesn’t even want to exchange unnecessary small talk with the guy, and thus seeks out a foreigner who can’t speak Korean very well. Takuya is the new roommate, a young man from Japan who’s on a trip around the world. Takyua thinks it a shame that Lee Jae-joon is wasting his youth as a homebody, and begins to draw him out into the world.

    - Cast
    Oh Jung Se as Oh Do Si
    Ryu Hyun Kyung as Ryoo Doo Ri
    Choi Yeo Jin as Choi Jin Nyeo
    Jung Joon Young as Jeong Yeong Joon
    Ha Eun Sul as Ha Seol Eun
    Park Jong Hwan as Park Hwan Jong
    Lee Jae Joon as Lee Joon Jae
    Terada Takuya as Takuya




    Code
    Video
    ID                                       : 0
    Format                                   : MPEG-4 Visual
    Format profile                           : Advanced Simple@L5
    Format settings, BVOP                    : No
    Format settings, QPel                    : No
    Format settings, GMC                     : No warppoints
    Format settings, Matrix                  : Default (MPEG)
    Codec ID                                 : XVID
    Codec ID/Hint                            : XviD
    Bit rate                                 : 1 391 Kbps
    Width                                    : 624 pixels
    Height                                   : 352 pixels
    Display aspect ratio                     : 16:9
    Frame rate                               : 29.970 fps
    Color space                              : YUV
    Chroma subsampling                       : 4:2:0
    Bit depth                                : 8 bits
    Scan type                                : Progressive
    Compression mode                         : Lossy
    Bits/(Pixel*Frame)                       : 0.211
    Stream size                              : 660 MiB (87%)
    Writing library                          : XviD 1.2.1 (UTC 2008-12-04)

    Audio
    ID                                       : 1
    Format                                   : MPEG Audio
    Format version                           : Version 1
    Format profile                           : Layer 3
    Mode                                     : Joint stereo
    Mode extension                           : MS Stereo
    Codec ID                                 : 55
    Codec ID/Hint                            : MP3
    Bit rate mode                            : Constant
    Bit rate                                 : 128 Kbps
    Channel(s)                               : 2 channels
    Sampling rate                            : 48.0 KHz
    Compression mode                         : Lossy
    Stream size                              : 60.8 MiB (8%)
    Alignment                                : Aligned on interleaves
    Writing library                          : LAME3.98.2



    0 0
  • 05/13/15--04:52: The Lover E05 720p WITH
  • Original Post: The Lover E05 720p WITH

    Warning: this show is rated 19+ and contains mature content

    Title: The Lover 더 러버
    Genre: Historical, Melodrama, Romance, Suspense
    Episodes: 12
    Broadcast network: MNET
    Broadcast period (Korea): 2015-APRIL -02 to
    Air time: Thursday 23:00

    It’s an omnibus series about four different couples living together in one apartment complex. Oh Do Si and Ryu Du Ri play the main couple in their 30s, who’ve been living together for two years. Oh Do Si is a voice actor, and Ryu Du Ri is a reviewer who runs a blog. They’re an average 30-something couple and they simply chose to live together instead of getting married. Choi Jin Nye and Jung Young Joon are couple that’s twelve years apart in age. She’s a penny-pincher who basically supports her younger boyfriend, and he’s a musician who carries a guitar but doesn’t know how to play it. They’ve been living together for a year, and though they fight like cats and dogs, they’re always quick to make up. Ha Seoul Eun and Park Hwan Jong are a 20-something couple that just moved in together. She’s the type of woman who doesn’t want her boyfriend to know that she isn’t the perfect embodiment of femininity, and works tirelessly to keep up the illusion. Lee Joon Jae is a loner who prefers to stay at home, but is forced to get a roommate for financial reasons. He doesn’t even want to exchange unnecessary small talk with the guy, and thus seeks out a foreigner who can’t speak Korean very well. Takuya is the new roommate, a young man from Japan who’s on a trip around the world. Takyua thinks it a shame that Lee Jae-joon is wasting his youth as a homebody, and begins to draw him out into the world.

    - Cast
    Oh Jung Se as Oh Do Si
    Ryu Hyun Kyung as Ryoo Doo Ri
    Choi Yeo Jin as Choi Jin Nyeo
    Jung Joon Young as Jeong Yeong Joon
    Ha Eun Sul as Ha Seol Eun
    Park Jong Hwan as Park Hwan Jong
    Lee Jae Joon as Lee Joon Jae
    Terada Takuya as Takuya




    Code

    Video
    ID                                       : 0
    Format                                   : AVC
    Format/Info                              : Advanced Video Codec
    Format profile                           : Baseline@L3.1
    Format settings, CABAC                   : No
    Format settings, ReFrames                : 1 frame
    Codec ID                                 : H264
    Bit rate                                 : 3 017 Kbps
    Width                                    : 1 280 pixels
    Height                                   : 720 pixels
    Display aspect ratio                     : 16:9
    Frame rate mode                          : Variable
    Frame rate                               : 29.970 fps
    Color space                              : YUV
    Chroma subsampling                       : 4:2:0
    Bit depth                                : 8 bits
    Scan type                                : Progressive
    Bits/(Pixel*Frame)                       : 0.109

    Audio
    ID                                       : 1
    Format                                   : MPEG Audio
    Format version                           : Version 1
    Format profile                           : Layer 3
    Mode                                     : Joint stereo
    Mode extension                           : MS Stereo
    Codec ID                                 : 55
    Codec ID/Hint                            : MP3
    Bit rate mode                            : Constant
    Bit rate                                 : 128 Kbps
    Channel(s)                               : 2 channels
    Sampling rate                            : 44.1 KHz
    Compression mode                         : Lossy
    Stream size                              : 62.1 MiB (4%)
    Alignment                                : Aligned on interleaves
    Interleave, duration                     : 26 ms (0.78 video frame)
    Writing library                          : LAME3.98.2



    0 0

    Original Post: Dragon Princess (1976 Remastered DVDRIP)

    This is the Japanese remastered version of the Dragon Princess. The subtitles have been taken and transcribed from an earlier release.One of the best Karate movie featuring the ravishing Etsuko "Sue" Shihomi who gives a powerful performance as revenge seeking Dragon Princess along with martial arts legend Yasuaki Kurata.

    Title: Dragon Princess
    Japanese title: Hissatsu Onna Kenshi
    Director: Yutaka Kohira
    Genre: Action / Adventure
    Release date: 1976
    Runtime: 1hr 21min 03sec
    Language: Japanese
    Country: Japan
    Subtitles: English (optional)
    IMDB URL:http://www.imdb.com/title/tt0165256

    Synopsis: Karate master Kazuma Agaki (Shinichi Chiba) gets severely beaten and crippled by a vicious gang of thugs called the Big Four, lead by the evil Nikaido (Bin Amatsu) who’s after Agaki's job as "the top Karate instructor." Blinded in one eye, Agaki flees to New York City with his loyal daughter Yumi (Etsuko Shihomi) which pretty much ends her childhood as Agaki trains her to be his instrument of revenge.

    Starring: Etsuko "Sue" Shihomi, Yasuaki Kurata, Bin Amatsu, Shinichi "Sonny" Chiba



    Screen Shots









    Technical Information

    Video
    ID: 1
    Format: AVC
    Format/Info: Advanced Video Codec
    Format profile: Main@L4.0
    Format settings, CABAC: Yes
    Format settings, ReFrames: 4 frames
    Codec ID: V_MPEG4/ISO/AVC
    Bit rate: 692 Kbps
    Width: 688 pixels
    Height: 288 pixels
    Display aspect ratio: 2.40:1
    Frame rate mode: Variable
    Color space: YUV
    Chroma subsampling: 4:2:0
    Bit depth: 8 bits
    Scan type: Progressive
    Writing library: x264 core 142 r2479 dd79a61
    Encoding settings: cabac=1 / ref=1 / deblock=1:0:0 / analyse=0x1:0x111 / me=hex / subme=2 / psy=1 / psy_rd=1.00:0.00 / mixed_ref=0 / me_range=16 / chroma_me=1 / trellis=0 / 8x8dct=0 / cqm=0 / deadzone=21,11 / fast_pskip=1 / chroma_qp_offset=0 / threads=6 / lookahead_threads=2 / sliced_threads=0 / nr=0 / decimate=1 / interlaced=0 / bluray_compat=0 / constrained_intra=0 / bframes=3 / b_pyramid=2 / b_adapt=1 / b_bias=0 / direct=1 / weightb=1 / open_gop=0 / weightp=1 / keyint=300 / keyint_min=30 / scenecut=40 / intra_refresh=0 / rc_lookahead=10 / rc=crf / mbtree=1 / crf=20.0 / qcomp=0.60 / qpmin=0 / qpmax=69 / qpstep=4 / vbv_maxrate=20000 / vbv_bufsize=25000 / crf_max=0.0 / nal_hrd=none / filler=0 / ip_ratio=1.40 / aq=1:1.00
    Default: Yes
    Forced: No
    Color primaries: BT.601 NTSC
    Transfer characteristics: BT.709
    Matrix coefficients: BT.601
    Color range: Limited

    Audio
    ID: 2
    Format: AC-3
    Format/Info: Audio Coding 3
    Mode extension: CM (complete main)
    Format settings, Endianness: Big
    Codec ID: A_AC3
    Duration: 1h 21mn
    Bit rate mode: Constant
    Bit rate: 384 Kbps
    Channel(s): 2 channels
    Channel positions: Front: L R
    Sampling rate: 48.0 KHz
    Bit depth: 16 bits
    Compression mode: Lossy
    Stream size: 223 MiB (35%)
    Title: Stereo
    Language: Japanese
    Default: Yes
    Forced: No

    Text
    ID: 3
    Format: VobSub
    Codec ID: S_VOBSUB
    Codec ID/Info: The same subtitle format used on DVDs
    Language: English
    Default: Yes
    Forced: No


    0 0
  • 05/13/15--15:52: Let's Eat S02 E11 XVID WITH
  • Original Post: Let's Eat S02 E11 XVID WITH


    Title: 식샤를 합시다 2 / Siksyareul Habsida 2
    Episodes: 18
    Broadcast period: 2015-Apr-06 to 2015-???-??
    Air time: Monday & Tuesday 23:00
    Original soundtrack: Let's Eat 2 OST


    Synopsis
    Goo Dae young’s rivals have appeared! Food blogger Goo Dae young, the fourth year freelancer, Bae Soo ji on one meal per day diet, who regards him as an enemy, and the vegetarian government worker, Lee Sang Woo. This drama depicts the spicy and tasteful lives of the single dwellers in Sejong Villa, who has each one’s own unique taste

    Cast
    Yoon Doo Joon as Goo Dae Young
    Seo Hyun Jin as Baek Soo Ji
    Kwon Yool as Lee Sang Woo
    Kim Hee Won as Im Taek Soo
    Hwang Seung Eon as Hwang Hye Rim
    Jo Eun Ji as Hong In Ah
    Hwang Suk Jung as Kim Mo Ran
    Lee Joo Seung as mysterious man




    Code
    Video
    ID                                       : 0
    Format                                   : MPEG-4 Visual
    Format profile                           : Advanced Simple@L5
    Format settings, BVOP                    : No
    Format settings, QPel                    : No
    Format settings, GMC                     : No warppoints
    Format settings, Matrix                  : Default (MPEG)
    Codec ID                                 : XVID
    Codec ID/Hint                            : XviD
    Bit rate                                 : 1 391 Kbps
    Width                                    : 624 pixels
    Height                                   : 352 pixels
    Display aspect ratio                     : 16:9
    Frame rate                               : 29.970 fps
    Color space                              : YUV
    Chroma subsampling                       : 4:2:0
    Bit depth                                : 8 bits
    Scan type                                : Progressive
    Compression mode                         : Lossy
    Bits/(Pixel*Frame)                       : 0.211
    Stream size                              : 660 MiB (87%)
    Writing library                          : XviD 1.2.1 (UTC 2008-12-04)

    Audio
    ID                                       : 1
    Format                                   : MPEG Audio
    Format version                           : Version 1
    Format profile                           : Layer 3
    Mode                                     : Joint stereo
    Mode extension                           : MS Stereo
    Codec ID                                 : 55
    Codec ID/Hint                            : MP3
    Bit rate mode                            : Constant
    Bit rate                                 : 128 Kbps
    Channel(s)                               : 2 channels
    Sampling rate                            : 48.0 KHz
    Compression mode                         : Lossy
    Stream size                              : 60.8 MiB (8%)
    Alignment                                : Aligned on interleaves
    Writing library                          : LAME3.98.2



    0 0
  • 05/13/15--15:53: Let's Eat S02 E11 720p WITH
  • Original Post: Let's Eat S02 E11 720p WITH


    Title: 식샤를 합시다 2 / Siksyareul Habsida 2
    Episodes: 18
    Broadcast period: 2015-Apr-06 to 2015-???-??
    Air time: Monday & Tuesday 23:00
    Original soundtrack: Let's Eat 2 OST


    Synopsis
    Goo Dae young’s rivals have appeared! Food blogger Goo Dae young, the fourth year freelancer, Bae Soo ji on one meal per day diet, who regards him as an enemy, and the vegetarian government worker, Lee Sang Woo. This drama depicts the spicy and tasteful lives of the single dwellers in Sejong Villa, who has each one’s own unique taste

    Cast
    Yoon Doo Joon as Goo Dae Young
    Seo Hyun Jin as Baek Soo Ji
    Kwon Yool as Lee Sang Woo
    Kim Hee Won as Im Taek Soo
    Hwang Seung Eon as Hwang Hye Rim
    Jo Eun Ji as Hong In Ah
    Hwang Suk Jung as Kim Mo Ran
    Lee Joo Seung as mysterious man




    Code
    Video
    ID                                       : 0
    Format                                   : AVC
    Format/Info                              : Advanced Video Codec
    Format profile                           : Baseline@L3.1
    Format settings, CABAC                   : No
    Format settings, ReFrames                : 1 frame
    Codec ID                                 : H264
    Bit rate                                 : 3 017 Kbps
    Width                                    : 1 280 pixels
    Height                                   : 720 pixels
    Display aspect ratio                     : 16:9
    Frame rate mode                          : Variable
    Frame rate                               : 29.970 fps
    Color space                              : YUV
    Chroma subsampling                       : 4:2:0
    Bit depth                                : 8 bits
    Scan type                                : Progressive
    Bits/(Pixel*Frame)                       : 0.109

    Audio
    ID                                       : 1
    Format                                   : MPEG Audio
    Format version                           : Version 1
    Format profile                           : Layer 3
    Mode                                     : Joint stereo
    Mode extension                           : MS Stereo
    Codec ID                                 : 55
    Codec ID/Hint                            : MP3
    Bit rate mode                            : Constant
    Bit rate                                 : 128 Kbps
    Channel(s)                               : 2 channels
    Sampling rate                            : 44.1 KHz
    Compression mode                         : Lossy
    Stream size                              : 62.1 MiB (4%)
    Alignment                                : Aligned on interleaves
    Interleave, duration                     : 26 ms (0.78 video frame)
    Writing library                          : LAME3.98.2



    0 0

    Original Post: [Mini Album] MONSTA X – Trespass [1st Mini Album]



    몬스타엑스 – Trespass
    Release Date: 2015.05.14
    Genre: Rap / Hip-Hop
    Language: Korean
    Bit Rate: MP3-320kbps
    credit to k2nblog

    K-pop’s newest “monsta rookies” have arrived! Formed by Joo Heon, Shownu, Ki Hyun, Hyung Won, Won Ho, Min Hyuk, and I.M, Starship Entertainment’s new boy band Monsta X was formed through the Mnet reality survival show No.Mercy so fans are already well acquainted with the members. Three months after the program ended, the group makes a speedy debut with their first mini-album and powerful title track “Trespass,” a hip-hop number with trap, synth and EDM elements. Joo Heon, Hyung Won and I.M’s song Interstellar, which they’ve performed on No.Mercy, is also included on the album.

    Track List:

    01. 무단침입 (Trespass)
    02. 출구는 없어 (No Exit)
    03. One Love
    04. 솔직히 말할까 (Narr. 다솜 Of 씨스타) (Honestly)
    05. 훔쳐 (Steal Your Heart)
    06. Blue Moon
    07. 인터스텔라 (Feat. Yella Diamond) (Performed By 주헌, 형원, I.M) (Interstellar)



    0 0

    Original Post: K.Will – Warm and Cozy OST Part.1



    케이윌 – 맨도롱 또똣 (MBC 수목드라마) OST – Part.1
    Release Date: 2015.05.14
    Genre: OST
    Language: Korean
    Bit Rate: MP3-320kbps
    credit to hulkpop

    Track List:

    01. Thank U
    02. Thank U (Inst.)



older | 1 | .... | 1341 | 1342 | (Page 1343) | 1344 | 1345 | .... | 1405 | newer