Are you the publisher? Claim or contact us about this channel


Embed this content in your HTML

Search

Report adult content:

click to rate:

Account: (login)

More Channels


Showcase


Channel Catalog


Channel Description:

Asia Torrents RSS Feed

older | 1 | .... | 1343 | 1344 | (Page 1345) | 1346 | 1347 | .... | 1405 | newer

    0 0

    Original Post: Time Is Money 2015 1080p BluRay x264 DTS-WiKi





    Detail:
    Title: Time Is Money
    Genre: Comedy
    Release Date: 16 January 2015
    Runtime: 91 mins
    Director: Kan Kan
    Country: Hong Kong
    Language: Mandarin
    Subtitles:Chinese, English

    Synopsis:
    “Time Is Money” is the first movie directed by Kang Kang. It revolves around the story of Chen Mo (played by Kang Kang) who is one of the second generation of rich family. Due to his addiction in gambling, he lost everything in which his dad has passed over and this infuriates his old man. His dad left him a painting by painter Chu Zhong Tian (played by Mark Lee) and it is only worth $100,000 Taiwan currency which is not enough to pay off his debt.

    Cast:
    Kan Kan, Jacky Wu Zongxian, Ng Man-Tat, Mark Lee, Eddy Ou, Wu Shuzhu, Lotus Wang, Zhuang Yongxuan, Sarah Wang








    Code

    Video
    ID                                       : 1
    Format                                   : AVC
    Format/Info                              : Advanced Video Codec
    Format profile                           : High@L4.1
    Format settings, CABAC                   : Yes
    Format settings, ReFrames                : 5 frames
    Codec ID                                 : V_MPEG4/ISO/AVC
    Duration                                 : 1h 31mn
    Bit rate                                 : 12.5 Mbps
    Width                                    : 1 920 pixels
    Height                                   : 804 pixels
    Display aspect ratio                     : 2.40:1
    Frame rate                               : 24.000 fps
    Color space                              : YUV
    Chroma subsampling                       : 4:2:0
    Bit depth                                : 8 bits
    Scan type                                : Progressive
    Bits/(Pixel*Frame)                       : 0.337
    Stream size                              : 7.77 GiB (87%)
    Writing library                          : x264 core 142 r2431+42 c69a006 tMod [8-bit@all X86]
    Encoding settings                        : cabac=1 / ref=5 / deblock=1:-3:-3 / analyse=0x3:0x133 / me=umh / subme=11 / psy=1 / fade_compensate=0.00 / psy_rd=1.00:0.05 / mixed_ref=1 / me_range=64 / chroma_me=1 / trellis=2 / 8x8dct=1 / cqm=0 / deadzone=21,11 / fast_pskip=0 / chroma_qp_offset=-3 / threads=12 / lookahead_threads=2 / sliced_threads=0 / nr=0 / decimate=0 / interlaced=0 / bluray_compat=0 / constrained_intra=0 / fgo=0 / bframes=8 / b_pyramid=2 / b_adapt=2 / b_bias=0 / direct=3 / weightb=1 / open_gop=0 / weightp=2 / keyint=250 / keyint_min=24 / scenecut=40 / intra_refresh=0 / rc_lookahead=100 / rc=2pass / mbtree=1 / bitrate=12500 / ratetol=1.0 / qcomp=0.70 / qpmin=0:0:0 / qpmax=69:69:69 / qpstep=4 / cplxblur=20.0 / qblur=0.5 / vbv_maxrate=50000 / vbv_bufsize=50000 / nal_hrd=none / filler=0 / ip_ratio=1.40 / aq=1:0.80 / aq-sensitivity=10.00 / aq-factor=1.00:1.00:1.00 / aq2=0 / aq3=0
    Language                                 : Chinese
    Default                                  : Yes
    Forced                                   : No

    Audio
    ID                                       : 2
    Format                                   : DTS
    Format/Info                              : Digital Theater Systems
    Codec ID                                 : A_DTS
    Duration                                 : 1h 31mn
    Bit rate mode                            : Constant
    Bit rate                                 : 1 510 Kbps
    Channel(s)                               : 6 channels
    Channel positions                        : Front: L C R, Side: L R, LFE
    Sampling rate                            : 48.0 KHz
    Bit depth                                : 24 bits
    Compression mode                         : Lossy
    Stream size                              : 984 MiB (11%)
    Language                                 : Chinese
    Default                                  : Yes
    Forced                                   : No

    Text #1
    ID                                       : 3
    Format                                   : UTF-8
    Codec ID                                 : S_TEXT/UTF8
    Codec ID/Info                            : UTF-8 Plain Text
    Title                                    : CHS
    Language                                 : Chinese
    Default                                  : No
    Forced                                   : No

    Text #2
    ID                                       : 4
    Format                                   : UTF-8
    Codec ID                                 : S_TEXT/UTF8
    Codec ID/Info                            : UTF-8 Plain Text
    Title                                    : CHT
    Language                                 : Chinese
    Default                                  : No
    Forced                                   : No

    Text #3
    ID                                       : 5
    Format                                   : UTF-8
    Codec ID                                 : S_TEXT/UTF8
    Codec ID/Info                            : UTF-8 Plain Text
    Language                                 : English
    Default                                  : No
    Forced                                   : No



    0 0

    Original Post: God of Gamblers II 1991 1080p Blu-ray AVC TrueHD 5 1-JoyHD


    Title: God of Gamblers 2
    Hangul: 赌侠
    Director: Wong Jing
    Release Date: 1991
    Runtime: 1:44:46.291 (h:m:s.ms)
    Genre: Action, Comedy
    Language: Chinese
    Country: Hong Kong
    Subtitles: No
    IMDB URL: http://www.imdb.com/title/tt0101763/

    Cast: Andy Lau, Stephen Chow, Man Tat Ng

    Storyline
    Wong Jing's sequel to All for the Winner and spin-off to God of Gamblers finds Chow Sing Cho looking up to Michael "Dagger" Chan in order to become Ko Chun's next disciple, but the two must put aside their differences when they discover that a gang boss is bent on ruining the God of Gamblers' name






    :
    DISC INFO:

    Disc Title:     God of Gamblers II 1991 Blu-ray 1080p AVC TrueHD 5.1-JoyHD
    Disc Size:      24,526,023,044 bytes
    Protection:     AACS
    BD-Java:        No
    BDInfo:         0.5.8

    PLAYLIST REPORT:

    Name:                   00001.MPLS
    Length:                 1:44:46.291 (h:m:s.ms)
    Size:                   23,585,642,496 bytes
    Total Bitrate:          30.02 Mbps

    VIDEO:

    Codec                   Bitrate             Description    
    -----                   -------             -----------    
    MPEG-4 AVC Video        22500 kbps          1080p / 24 fps / 16:9 / High Profile 4.1

    AUDIO:

    Codec                           Language        Bitrate         Description    
    -----                           --------        -------         -----------    
    Dolby TrueHD Audio              Chinese         2689 kbps       5.1 / 96 kHz / 2689 kbps / 16-bit (AC3 Embedded: 5.1 / 48 kHz / 640 kbps)
    LPCM Audio                      Chinese         1536 kbps       2.0 / 48 kHz / 1536 kbps / 16-bit

    SUBTITLES:

    Codec                           Language        Bitrate         Description    
    -----                           --------        -------         -----------    
    Presentation Graphics           Chinese         39.878 kbps                    
    Presentation Graphics           Chinese         39.079 kbps                    
    Presentation Graphics           English         45.644 kbps



    0 0

    Original Post: God of Gamblers III: Back to Shanghai 1991 1080p Blu-ray AVC TrueHD 5 1-JoyHD


    Title: God of Gamblers 3
    Hangul: 赌侠2之上海滩赌圣
    Director: Wong Jing
    Release Date: 1991
    Runtime: 1:56:34.291 (h:m:s.ms)
    Genre: Action, Comedy
    Language: Chinese
    Country: Hong Kong
    Subtitles: No
    IMDB URL: http://www.imdb.com/title/tt0101783/

    Cast: Stephen Chow, Li Gong, Ray Lui

    Storyline
    This film focuses on the disciple of the God of Gamblers, Chow Sing Cho, also known as the "Saint of Gamblers". A group of people with telekinetic powers matching his attack him and his uncle, accidentally sending him to the year 1937, in Shanghai. This is a year crucial in Sing's family history, and he must use his powers play a part that has irrevocable effects on his present and future, while trying to find a way back to home, the year 1991






    :
    DISC INFO:

    Disc Title:     God of Gamblers III Back to Shanghai 1991 Blu-ray 1080p AVC TrueHD 5.1-JoyHD
    Disc Size:      24,544,436,870 bytes
    Protection:     AACS
    BD-Java:        No
    BDInfo:         0.5.8

    PLAYLIST REPORT:

    Name:                   00001.MPLS
    Length:                 1:56:34.291 (h:m:s.ms)
    Size:                   23,599,183,872 bytes
    Total Bitrate:          26.99 Mbps

    VIDEO:

    Codec                   Bitrate             Description    
    -----                   -------             -----------    
    MPEG-4 AVC Video        19488 kbps          1080p / 24 fps / 16:9 / High Profile 4.1

    AUDIO:

    Codec                           Language        Bitrate         Description    
    -----                           --------        -------         -----------    
    Dolby TrueHD Audio              Chinese         2766 kbps       5.1 / 96 kHz / 2766 kbps / 16-bit (AC3 Embedded: 5.1 / 48 kHz / 640 kbps)
    LPCM Audio                      Chinese         1536 kbps       2.0 / 48 kHz / 1536 kbps / 16-bit

    SUBTITLES:

    Codec                           Language        Bitrate         Description    
    -----                           --------        -------         -----------    
    Presentation Graphics           Chinese         46.989 kbps                    
    Presentation Graphics           Chinese         46.101 kbps                    
    Presentation Graphics           English         43.513 kbps



    0 0

    Original Post: Mother Game EP05 720p HDTV x264 AAC-DoA



    http://wiki.d-addicts.com/Mother_Game
    http://asianwiki.com/Mother_Game
    http://thetvdb.com/?tab=series&id=293381&lid=7

    Title (English): Mother Game
    Also known as: The Mother Class
    Tagline: 彼女たちの階級 / Kanojotachi no Kaikyuu
    Format: Renzoku
    Genre: Family
    Episodes: TBD
    Broadcast network: TBS
    Broadcast period: 2015-Apr-14 start
    Air time: Tuesday 22:00
    Theme song: Beautiful by Superfly
    Subtitles: English - Yukkuri Subs
    RAW credit to DoA


    Cast

    Kanbara Family

       Kimura Fumino as Kanbara Kiko
       Ryu Raita as Kanbara Tetsuji
       Yamamoto Ayumu (横山歩) as Kanbara Haruto

    Odadera Family

       Dan Rei as Odadera Marie
       Igarashi Hinata (五十嵐陽向) as Odadera Makoto

    Yano Family

       Hasegawa Kyoko as Yano Satoko
       Hasegawa Kiyo (長谷川稀世) as Yano Shizuko
       Sakurai Hijiri as Yano Masaki
       Kanon as Yano Reina
       Watanabe Reika (渡邊れいら) as Yano Erina
       Oe Yusei (大江優成) as Yano Yuuki

    Kamiya Family

       Kanjiya Shihori as Kamiya Yuki
       Shinoda Mitsuyoshi as Kamiya Kyoji
       Goto Yuira (後藤由依良) as Kamiya Sakurako

    Goto Family

       Adachi Yumi as Goto Midori
       Maruyama Tomomi as Goto Rika
       Yazaki Yusa (矢崎由紗) as Goto Shuhei

    Others

       Muroi Shigeru as Naraoka Fumi
       Seto Koji as Naraoka Shinnosuke
       Okada Yoshinori as Kashiyama Hidenori
       Emi Kurara as Yamakawa Mamiko
       Tominaga Saori (富永沙織) as Tsunoda Kayo
       Kamiji Yusuke as Isoyama Takumi
       Tanaka Naoki as Member of staff
       Toyohara Kosuke as Mysterious Man
       Shibukawa Kiyohiko (渋川清彦) as Kashiwagi Kunpei


    Synopsis

    Kanbara Kiko is a poor single mother whose 5-year-old son, Haruto, gets admitted to a prestigious kindergarten in an unexpected turn of events. One Haruto's first day of school, high-end cars are backed up in front of the kindergarten’s front gate. Mothers swagger on high heels within the compound and carry luxury brand bags. Although Kiko is shocked by the reality of this kindergarten where she is out of her element, she expresses her feelings directly to the mothers who regard her as an enemy. With her vivacity and compassion, she starts to change the thinking and establish new bonds with these rigid women living in a completely different world and generation. -- Jdrama Weblog


    Mediainfo
    Spoiler:show

    Code
    Format                                   : Matroska
    Format version                           : Version 4 / Version 2
    File size                                : 1.15 GiB
    Duration                                 : 46mn 29s
    Overall bit rate                         : 3 536 Kbps
    Movie name                               : マザー・ゲーム~彼女たちの階級~ #05 720p HDTV x264 AAC-DoA
    Encoded date                             : UTC 2015-05-13 10:26:11
    Writing application                      : mkvmerge v7.8.0 ('River Man') 64bit built on Mar 27 2015 16:31:37
    Writing library                          : libebml v1.3.1 + libmatroska v1.4.2
    DURATION                                 : 00:46:29.632000000
    NUMBER_OF_FRAMES                         : 130764
    NUMBER_OF_BYTES                          : 65774230
    _STATISTICS_WRITING_APP                  : mkvmerge v7.8.0 ('River Man') 64bit built on Mar 27 2015 16:31:37
    _STATISTICS_WRITING_DATE_UTC             : 2015-05-13 10:26:11
    _STATISTICS_TAGS                         : BPS DURATION NUMBER_OF_FRAMES NUMBER_OF_BYTES

    Video
    ID                                       : 1
    Format                                   : AVC
    Format/Info                              : Advanced Video Codec
    Format profile                           : High@L4.1
    Format settings, CABAC                   : Yes
    Format settings, ReFrames                : 9 frames
    Codec ID                                 : V_MPEG4/ISO/AVC
    Duration                                 : 46mn 29s
    Width                                    : 1 280 pixels
    Height                                   : 720 pixels
    Display aspect ratio                     : 16:9
    Frame rate mode                          : Constant
    Frame rate                               : 29.970 fps
    Color space                              : YUV
    Chroma subsampling                       : 4:2:0
    Bit depth                                : 8 bits
    Scan type                                : Progressive
    Title                                    : Encode by DoA
    Writing library                          : x264 core 130 r2273 b3065e6
    Encoding settings                        : cabac=1 / ref=9 / deblock=1:-2:-2 / analyse=0x3:0x133 / me=umh / subme=10 / psy=1 / psy_rd=1.00:0.15 / mixed_ref=1 / me_range=48 / chroma_me=1 / trellis=2 / 8x8dct=1 / cqm=0 / deadzone=21,11 / fast_pskip=0 / chroma_qp_offset=-3 / threads=12 / lookahead_threads=2 / sliced_threads=0 / nr=0 / decimate=1 / interlaced=0 / bluray_compat=0 / constrained_intra=0 / bframes=8 / b_pyramid=2 / b_adapt=2 / b_bias=0 / direct=3 / weightb=1 / open_gop=0 / weightp=2 / keyint=300 / keyint_min=29 / scenecut=40 / intra_refresh=0 / rc_lookahead=60 / rc=crf / mbtree=1 / crf=17.5 / qcomp=0.60 / qpmin=0 / qpmax=69 / qpstep=4 / ip_ratio=1.40 / aq=1:1.00
    Language                                 : Japanese
    Default                                  : Yes
    Forced                                   : No
    DURATION                                 : 00:46:29.920000000
    NUMBER_OF_FRAMES                         : 83614
    NUMBER_OF_BYTES                          : 1166312217
    _STATISTICS_WRITING_APP                  : mkvmerge v7.8.0 ('River Man') 64bit built on Mar 27 2015 16:31:37
    _STATISTICS_WRITING_DATE_UTC             : 2015-05-13 10:26:11
    _STATISTICS_TAGS                         : BPS DURATION NUMBER_OF_FRAMES NUMBER_OF_BYTES

    Audio
    ID                                       : 2
    Format                                   : AAC
    Format/Info                              : Advanced Audio Codec
    Format profile                           : LC
    Codec ID                                 : A_AAC
    Duration                                 : 46mn 29s
    Channel(s)                               : 2 channels
    Channel positions                        : Front: L R
    Sampling rate                            : 48.0 KHz
    Compression mode                         : Lossy
    Delay relative to video                  : 7ms
    Language                                 : Japanese
    Default                                  : Yes
    Forced                                   : No

    Menu
    00:00:00.000                             : ja:マザー・ゲーム~彼女たちの階級~ #05 Part 1
    00:02:54.340                             : ja:オープニング
    00:03:02.348                             : ja:マザー・ゲーム~彼女たちの階級~ #05 Part 2
    00:16:41.967                             : ja:マザー・ゲーム~彼女たちの階級~ #05 Part 3
    00:22:14.933                             : ja:マザー・ゲーム~彼女たちの階級~ #05 Part 4
    00:30:25.924                             : ja:マザー・ゲーム~彼女たちの階級~ #05 Part 5
    00:46:14.938                             : ja:次回予告





    0 0

    Original Post: Orange Marmalade E02 720p LIMO


    Details
    Title: 오렌지마말레이드 / Orenji Marmaleideu
    Genre: School, fantasy, romance
    Episodes: 12
    Broadcast network: KBS2
    Broadcast period: 2015-May-15 to 2015-???-??
    Air time: Friday 22:35
    Original Soundtrack: Orange Marmalade OST

    Synopsis
    Despite a 200-year-old treaty between humans and vampires, both races still don't get along. Amidst the looming tension, Jung Jae Min (Yeo Jin Goo), a posh yet kindhearted high school student, quickly falls for the mysterious new girl Baek Ma Ri (Seol Hyun). But can Ma Ri conceal her true vampire identity and give love an honest chance? If these star-crossed lovers can find the courage to make the leap, Jae Min and Ma Ri may just be the key to a final resolution between humans and vampires...

    Main Cast
    Yeo Jin Goo as Jung Jae Min (18)
    Kim Seol Hyun as Baek Ma Ri (18)
    Lee Jong Hyun as Han Shi Hoo (18)
    Gil Eun Hye as Jo Ah Ra (18)




    Code
    Video
    ID                               : 0
    Format                           : AVC
    Format/Info                      : Advanced Video Codec
    Format profile                   : High@L5.1
    Format settings, CABAC           : Yes
    Format settings, ReFrames        : 4 frames
    Codec ID                         : H264
    Duration                         : 1h 4mn
    Bit rate                         : 3 000 Kbps
    Width                            : 1 280 pixels
    Height                           : 720 pixels
    Display aspect ratio             : 16:9
    Frame rate mode                  : Variable
    Frame rate                       : 29.970 fps
    Color space                      : YUV
    Chroma subsampling               : 4:2:0
    Bit depth                        : 8 bits
    Scan type                        : Progressive
    Bits/(Pixel*Frame)               : 0.109
    Stream size                      : 1.35 GiB (94%)
    Writing library                  : x264 core 112
    Encoding settings                : cabac=1 / ref=3 / deblock=1:-1:-1 / analyse=0x3:0x113 / me=hex / subme=6 / psy=1 / psy_rd=1.00:1.00 / mixed_ref=1 / me_range=16 / chroma_me=1 / trellis=1 / 8x8dct=1 / cqm=0 / deadzone=21,11 / fast_pskip=0 / chroma_qp_offset=-4 / threads=12 / sliced_threads=0 / nr=0 / decimate=1 / interlaced=0 / constrained_intra=0 / bframes=3 / b_pyramid=2 / b_adapt=1 / b_bias=1 / direct=3 / weightb=1 / open_gop=0 / weightp=2 / keyint=299 / keyint_min=25 / scenecut=1 / intra_refresh=0 / rc_lookahead=40 / rc=abr / mbtree=1 / bitrate=3000 / ratetol=1.0 / qcomp=0.60 / qpmin=10 / qpmax=51 / qpstep=4 / ip_ratio=1.40 / aq=1:1.00

    Audio
    ID                               : 1
    Format                           : MPEG Audio
    Format version                   : Version 1
    Format profile                   : Layer 3
    Mode                             : Joint stereo
    Mode extension                   : MS Stereo
    Codec ID                         : 55
    Codec ID/Hint                    : MP3
    Duration                         : 1h 4mn
    Bit rate mode                    : Constant
    Bit rate                         : 192 Kbps
    Channel(s)                       : 2 channels
    Sampling rate                    : 48.0 KHz
    Stream size                      : 88.0 MiB (6%)
    Alignment                        : Split accross interleaves
    Interleave, duration             : 33 ms (1.00 video frame)
    Interleave, preload duration     : 500 ms
    Writing library                  : LAME3.98.2



    0 0

    Original Post: Ex-Girlfriend's Club E03 XVID WITH


    Details
    Title: 구여친클럽 / Guyeochinkeulleob
    Genre: Romance, Comedy
    Episodes: TBA
    Broadcast network: tvN
    Broadcast period: 2015-May-8 to TBA
    Air time: Friday & Saturday 20:30
    Original Soundtrack: Ex-Girlfriend Club OST
    Synopsis
    The story centered around a famous webtoon writer named Bang Myung Soo (Byun Yo Han) that write webtoon based on his past relationship with all his ex-girlfriends. Kim Soo Jin (Song Ji Hyo) is a producer who is assigned to make his webtoon into a movie.

    Cast
    Song Ji Hyo as Kim Soo Jin (32)
    Byun Yo Han as Bang Myung Soo (32)
    Lee Yoon Ji as Jang Hwa Young (31, Myung Soo's first love)
    Jang Ji Eun (장지은) as Na Ji Ah (34, Myung Soo's second love)
    Ryu Hwa Young as Ra Ra (27, Myung Soo's third love)




    Code
    Video
    ID                                       : 0
    Format                                   : MPEG-4 Visual
    Format profile                           : Advanced Simple@L5
    Format settings, BVOP                    : 2
    Format settings, QPel                    : No
    Format settings, GMC                     : No warppoints
    Format settings, Matrix                  : Default (H.263)
    Muxing mode                              : Packed bitstream
    Codec ID                                 : XVID
    Codec ID/Hint                            : XviD
    Duration                                 : 58mn 22s
    Bit rate                                 : 1 239 Kbps
    Width                                    : 640 pixels
    Height                                   : 352 pixels
    Display aspect ratio                     : 16:9
    Frame rate                               : 29.970 fps
    Color space                              : YUV
    Chroma subsampling                       : 4:2:0
    Bit depth                                : 8 bits
    Scan type                                : Progressive
    Compression mode                         : Lossy
    Bits/(Pixel*Frame)                       : 0.184
    Stream size                              : 517 MiB (90%)
    Writing library                          : XviD 58

    Audio
    ID                                       : 1
    Format                                   : MPEG Audio
    Format version                           : Version 1
    Format profile                           : Layer 3
    Mode                                     : Joint stereo
    Mode extension                           : MS Stereo
    Codec ID                                 : 55
    Codec ID/Hint                            : MP3
    Duration                                 : 58mn 22s
    Bit rate mode                            : Constant
    Bit rate                                 : 128 Kbps
    Channel(s)                               : 2 channels
    Sampling rate                            : 48.0 KHz
    Compression mode                         : Lossy
    Stream size                              : 53.4 MiB (9%)
    Alignment                                : Aligned on interleaves
    Interleave, duration                     : 33 ms (1.00 video frame)
    Interleave, preload duration             : 504 ms



    0 0

    Original Post: Ex-Girlfriend's Club E03 720p WITH


    Details
    Title: 구여친클럽 / Guyeochinkeulleob
    Genre: Romance, Comedy
    Episodes: TBA
    Broadcast network: tvN
    Broadcast period: 2015-May-8 to TBA
    Air time: Friday & Saturday 20:30
    Original Soundtrack: Ex-Girlfriend Club OST
    Synopsis
    The story centered around a famous webtoon writer named Bang Myung Soo (Byun Yo Han) that write webtoon based on his past relationship with all his ex-girlfriends. Kim Soo Jin (Song Ji Hyo) is a producer who is assigned to make his webtoon into a movie.

    Cast
    Song Ji Hyo as Kim Soo Jin (32)
    Byun Yo Han as Bang Myung Soo (32)
    Lee Yoon Ji as Jang Hwa Young (31, Myung Soo's first love)
    Jang Ji Eun (장지은) as Na Ji Ah (34, Myung Soo's second love)
    Ryu Hwa Young as Ra Ra (27, Myung Soo's third love)




    Code
    Video
    ID                                       : 1
    Format                                   : AVC
    Format/Info                              : Advanced Video Codec
    Format profile                           : Baseline@L1.3
    Format settings, CABAC                   : No
    Format settings, ReFrames                : 1 frame
    Codec ID                                 : avc1
    Codec ID/Info                            : Advanced Video Coding
    Duration                                 : 58mn 22s
    Bit rate                                 : 2 200 Kbps
    Maximum bit rate                         : 5 302 Kbps
    Width                                    : 1 280 pixels
    Height                                   : 720 pixels
    Display aspect ratio                     : 16:9
    Frame rate mode                          : Constant
    Frame rate                               : 29.970 fps
    Color space                              : YUV
    Chroma subsampling                       : 4:2:0
    Bit depth                                : 8 bits
    Scan type                                : Progressive
    Bits/(Pixel*Frame)                       : 0.080
    Stream size                              : 922 MiB (90%)
    Writing library                          : x264 core 128 r2216 198a7ea
    Encoding settings                        : cabac=0 / ref=1 / deblock=1:0:0 / analyse=0x1:0x111 / me=hex / subme=7 / psy=1 / psy_rd=1.00:0.00 / mixed_ref=0 / me_range=16 / chroma_me=1 / trellis=1 / 8x8dct=0 / cqm=0 / deadzone=21,11 / fast_pskip=1 / chroma_qp_offset=-2 / threads=12 / lookahead_threads=2 / sliced_threads=0 / nr=0 / decimate=1 / interlaced=0 / bluray_compat=0 / constrained_intra=0 / bframes=0 / weightp=0 / keyint=250 / keyint_min=25 / scenecut=40 / intra_refresh=0 / rc_lookahead=40 / rc=abr / mbtree=1 / bitrate=2200 / ratetol=1.0 / qcomp=0.60 / qpmin=0 / qpmax=69 / qpstep=4 / vbv_maxrate=50000 / vbv_bufsize=50000 / nal_hrd=none / ip_ratio=1.40 / aq=1:1.00
    Encoded date                             : UTC 2015-05-08 12:47:49
    Tagged date                              : UTC 2015-05-08 12:52:53

    Audio
    ID                                       : 2
    Format                                   : AAC
    Format/Info                              : Advanced Audio Codec
    Format profile                           : LC
    Codec ID                                 : 40
    Duration                                 : 58mn 22s
    Bit rate mode                            : Variable
    Bit rate                                 : 256 Kbps
    Maximum bit rate                         : 262 Kbps
    Channel(s)                               : 2 channels
    Channel positions                        : Front: L R
    Sampling rate                            : 48.0 KHz
    Compression mode                         : Lossy
    Stream size                              : 107 MiB (10%)
    Encoded date                             : UTC 2015-05-08 12:52:48
    Tagged date                              : UTC 2015-05-08 12:52:53



    0 0

    Original Post: TVB Limelight Years E15 HDTV 720p-TVBDO



    If you like my upload, please press the "Thank You" buttoncool2.gif

    English Title: Limelight Years
    Chinese Title:華麗轉身
    Network: TVB
    Release Date: April 27, 2015
    Episodes: 20
    Country: Hong Kong
    Audio: Cantonese (AC-3 6 Channels)
    Subtitles: English (.srt embedded)
    Genre: Modern
    Cast: Liza Wang, Damion Lau, Alex Fong, Linda Chung, Eliza Sum, Jonathan Wong, Jacqueline Wong, Michelle Yim (Guest Star)

    Synopsis: There is darkness behind the limelight. After recovering from a long-term sickness, retiring singer Wah Fong Ying (Liza Wang) has come to realize that she has failed to live a fulfilling life. With two failed marriages and strained relationships with her three children, Fong Ying is much lonelier than she admits. Summoning up all her courage, Fong Ying flies to Taiwan to mend her broken relationship with her oldest daughter. During this time, she comes across Hong Kong photographer Law Ben (Damian Lau), who is in Taiwan to fulfill his late wife’s (Michelle Yim) wish of returning to her ancestral home. Sparks fly when the extraordinary meets the ordinary. Both Fong Ying and Ben find their strength as they quietly support each other.

    Encouraged by Ben, Fong Ying decides to perform one last time in a goodbye concert for her close friends and family, but her youngest daughter Tong Yan (Eliza Sam) reacts coldly to the invitation. Nonetheless, Fong Ying remains committed to her last concert and hires a new assistant Szeto Dik Dik (Linda Chung) and a new creative director, Song Sheung Hang (Alex Fong). Dik Dik and Sheung Han initially struggle to get along due to past misunderstandings, but they eventually cultivate a deep relationship. Just as Fong Ying starts to find the light again, she is once again attacked by darkness. While Sheung Hang was preparing a special issue to promote Fong Ying’s concert, he discovers an ugly secret that Fong Ying has been keeping for many years. Dik Dik finds out that Fong Ying and her uncle were involved in the past. Ben is also starting to have hallucinations…






    If you like my upload, please press the "Thank You" buttoncool2.gif


    Code

    General
    Unique ID                                : 181492329224055205024290206073507544625 (0x888A26B1F52DC01D97CEB91AB193FE31)
    Complete name                            : Limelight.Years.E15.HDTV.720p-TVBDO.mkv
    Format                                   : Matroska
    Format version                           : Version 4 / Version 2
    File size                                : 1.60 GiB
    Duration                                 : 44mn 10s
    Overall bit rate                         : 5 169 Kbps
    Encoded date                             : UTC 2015-05-15 18:43:01
    Writing application                      : mkvmerge v7.5.0 ('Glass Culture') 32bit built on Jan  4 2015 16:37:25
    Writing library                          : libebml v1.3.1 + libmatroska v1.4.2
    DURATION                                 : 00:41:22.550000000
    NUMBER_OF_FRAMES                         : 587
    NUMBER_OF_BYTES                          : 26003
    _STATISTICS_WRITING_APP                  : mkvmerge v7.5.0 ('Glass Culture') 32bit built on Jan  4 2015 16:37:25
    _STATISTICS_WRITING_DATE_UTC             : 2015-05-15 18:43:01
    _STATISTICS_TAGS                         : BPS DURATION NUMBER_OF_FRAMES NUMBER_OF_BYTES

    Video
    ID                                       : 1
    Format                                   : AVC
    Format/Info                              : Advanced Video Codec
    Format profile                           : High@L3.1
    Format settings, CABAC                   : Yes
    Format settings, ReFrames                : 4 frames
    Codec ID                                 : V_MPEG4/ISO/AVC
    Duration                                 : 44mn 10s
    Bit rate                                 : 4 682 Kbps
    Width                                    : 1 280 pixels
    Height                                   : 720 pixels
    Display aspect ratio                     : 16:9
    Frame rate mode                          : Constant
    Frame rate                               : 25.000 fps
    Color space                              : YUV
    Chroma subsampling                       : 4:2:0
    Bit depth                                : 8 bits
    Scan type                                : Progressive
    Bits/(Pixel*Frame)                       : 0.203
    Stream size                              : 1.44 GiB (91%)
    Writing library                          : x264 core 146 r2538 121396c
    Encoding settings                        : cabac=1 / ref=3 / deblock=1:-1:-1 / analyse=0x3:0x113 / me=hex / subme=7 / psy=1 / psy_rd=1.00:0.15 / mixed_ref=1 / me_range=16 / chroma_me=1 / trellis=1 / 8x8dct=1 / cqm=0 / deadzone=21,11 / fast_pskip=1 / chroma_qp_offset=-3 / threads=18 / lookahead_threads=3 / sliced_threads=0 / nr=0 / decimate=1 / interlaced=0 / bluray_compat=0 / constrained_intra=0 / bframes=3 / b_pyramid=2 / b_adapt=1 / b_bias=0 / direct=1 / weightb=1 / open_gop=0 / weightp=2 / keyint=250 / keyint_min=25 / scenecut=40 / intra_refresh=0 / rc_lookahead=40 / rc=crf / mbtree=1 / crf=16.0 / qcomp=0.60 / qpmin=0 / qpmax=69 / qpstep=4 / ip_ratio=1.40 / aq=1:1.00
    Default                                  : Yes
    Forced                                   : No

    Audio
    ID                                       : 2
    Format                                   : AC-3
    Format/Info                              : Audio Coding 3
    Mode extension                           : CM (complete main)
    Format settings, Endianness              : Big
    Codec ID                                 : A_AC3
    Duration                                 : 44mn 10s
    Bit rate mode                            : Constant
    Bit rate                                 : 384 Kbps
    Channel(s)                               : 6 channels
    Channel positions                        : Front: L C R, Side: L R, LFE
    Sampling rate                            : 48.0 KHz
    Bit depth                                : 16 bits
    Compression mode                         : Lossy
    Stream size                              : 121 MiB (7%)
    Default                                  : Yes
    Forced                                   : No

    Text
    ID                                       : 3
    Format                                   : UTF-8
    Codec ID                                 : S_TEXT/UTF8
    Codec ID/Info                            : UTF-8 Plain Text
    Language                                 : English
    Default                                  : Yes
    Forced                                   : No



    0 0

    Original Post: The Return of Superman E77 720p JOA


    The Return of Superman

    Originally aired: November 3, 2013 – present
    Cast: Lee Hwi-jae, Choo Sung-hoon, Jang Hyeon-seong, Tablo
    Subtitles by KBS World will be added later

    Synopsis

    Fathers may not be perfect.. but that's alright if they aren't perfect! There's nothing like a father's love to boost our spirits. The dads who used to spend all their time working have returned home on 'The Return of Superman'.




    Code
    Video
    ID                               : 0
    Format                           : AVC
    Format/Info                      : Advanced Video Codec
    Format profile                   : High@L5.1
    Format settings, CABAC           : Yes
    Format settings, ReFrames        : 4 frames
    Codec ID                         : H264
    Duration                         : 1h 4mn
    Bit rate                         : 3 000 Kbps
    Width                            : 1 280 pixels
    Height                           : 720 pixels
    Display aspect ratio             : 16:9
    Frame rate mode                  : Variable
    Frame rate                       : 29.970 fps
    Color space                      : YUV
    Chroma subsampling               : 4:2:0
    Bit depth                        : 8 bits
    Scan type                        : Progressive
    Bits/(Pixel*Frame)               : 0.109
    Stream size                      : 1.35 GiB (94%)
    Writing library                  : x264 core 112
    Encoding settings                : cabac=1 / ref=3 / deblock=1:-1:-1 / analyse=0x3:0x113 / me=hex / subme=6 / psy=1 / psy_rd=1.00:1.00 / mixed_ref=1 / me_range=16 / chroma_me=1 / trellis=1 / 8x8dct=1 / cqm=0 / deadzone=21,11 / fast_pskip=0 / chroma_qp_offset=-4 / threads=12 / sliced_threads=0 / nr=0 / decimate=1 / interlaced=0 / constrained_intra=0 / bframes=3 / b_pyramid=2 / b_adapt=1 / b_bias=1 / direct=3 / weightb=1 / open_gop=0 / weightp=2 / keyint=299 / keyint_min=25 / scenecut=1 / intra_refresh=0 / rc_lookahead=40 / rc=abr / mbtree=1 / bitrate=3000 / ratetol=1.0 / qcomp=0.60 / qpmin=10 / qpmax=51 / qpstep=4 / ip_ratio=1.40 / aq=1:1.00

    Audio
    ID                               : 1
    Format                           : MPEG Audio
    Format version                   : Version 1
    Format profile                   : Layer 3
    Mode                             : Joint stereo
    Mode extension                   : MS Stereo
    Codec ID                         : 55
    Codec ID/Hint                    : MP3
    Duration                         : 1h 4mn
    Bit rate mode                    : Constant
    Bit rate                         : 192 Kbps
    Channel(s)                       : 2 channels
    Sampling rate                    : 48.0 KHz
    Stream size                      : 88.0 MiB (6%)
    Alignment                        : Split accross interleaves
    Interleave, duration             : 33 ms (1.00 video frame)
    Interleave, preload duration     : 500 ms
    Writing library                  : LAME3.98.2



    0 0

    Original Post: Yokoso, Wagaya e EP05 720p HDTV x264 AAC-DoA



    http://wiki.d-addicts.com/Yokoso,_Wagaya_e
    http://asianwiki.com/Welcome_to_Our_Home
    http://thetvdb.com/?tab=series&id=294674&lid=7

    Title (romaji): Yokoso, Wagaya e
    Format: Renzoku
    Genre: Family, suspense drama
    Episodes: TBA
    Broadcast network: Fuji TV
    Broadcast period: 2015-April-13 start
    Air time: Monday 21:00
    Theme song: Aozora no Shita, Kimi no Tonari by Arashi
    Subtitles: English - Menimi
    RAW credit to DoA


    Cast

       Aiba Masaki as Kurata Kenta
       Sawajiri Erika as Kandori Asuka
       Arimura Kasumi as Kurata Nana
       Minami Kaho as Kurata Keiko
       Terao Akira as Kurata Taichi
       Fujii Ryusei
       Adachi Rika
       Takada Junji
       Sato Jiro
       Takenaka Naoto
       Yamaguchi Sayaka
       Tanaka Mirie (田中美麗)
       Horiuchi Keiko
       Mashima Hidekazu


    Synopsis

    Kurata Kenta lives with his father, Taichi, his mother, Keiko, and his younger sister, Nana in an isolated home in the suburbs. He works as an unpopular commercial designer. Kenta possesses a timid personality, which he picked up from his father. Kenta doesn't like his father.

    One day, while waiting for the train, Kenta warns a man who pushed a woman and cut in line. Kenta is surprised that he spoke out with his normally timid personality. After that incident, Kenta's family home is targeted by an unknown person with flowers from their garden being pulled out and the seat of a bicycle being torn. Also, Kenta's younger sister Nana is stalked by her ex-boyfriend.

    Kenta and his family try to find out who is responsible.


    Mediainfo
    Spoiler:show

    Code
    Format                                   : Matroska
    Format version                           : Version 4 / Version 2
    File size                                : 1.00 GiB
    Duration                                 : 46mn 24s
    Overall bit rate                         : 3 095 Kbps
    Movie name                               : ようこそ、わが家へ 第5話
    Encoded by                               : 愛衣ちゃん大勝利 。゚( ゚இωஇ゚)゚。
    Encoded date                             : UTC 2015-05-13 15:15:30
    Writing application                      : mkvmerge v7.6.0 ('Garden of Dreams') 64bit built on Feb  9 2015 20:32:11
    Writing library                          : libebml v1.3.1 + libmatroska v1.4.2
    DATE_RECORDED                            : JST 2015-05-11 20:59:36
    TITLE                                    : ようこそ、わが家へ 第5話
    TITLE/Url                                : http://www.fujitv.co.jp/wagayae/story/index.html
    SUBTITLE                                 : 犠牲者発生!!最弱のヒーローが遂に動き出す
    WRITTEN_BY                               : 黒岩勉
    DIRECTOR                                 : 中江功
    ACTOR                                    : 有村架純
    ACTOR/CHARACTER                          : 倉田 七菜
    COMMENT                                  : ルートスフィア
    ENCODER_SETTINGS                         : wine avs-mt/avs2yuv.exe wagayae.avs - | x264 -
    ENCODER_SETTINGS/AviSynth                : qtgmc(preset = 'slower').selecteven.lanczosresize
    DURATION                                 : 00:46:24.896000000
    NUMBER_OF_FRAMES                         : 130542
    NUMBER_OF_BYTES                          : 65662626
    _STATISTICS_WRITING_APP                  : mkvmerge v7.6.0 ('Garden of Dreams') 64bit built on Feb  9 2015 20:32:11
    _STATISTICS_WRITING_DATE_UTC             : 2015-05-13 15:15:30
    _STATISTICS_TAGS                         : BPS DURATION NUMBER_OF_FRAMES NUMBER_OF_BYTES

    Video
    ID                                       : 1
    Format                                   : AVC
    Format/Info                              : Advanced Video Codec
    Format profile                           : High@L4
    Format settings, CABAC                   : Yes
    Format settings, ReFrames                : 6 frames
    Codec ID                                 : V_MPEG4/ISO/AVC
    Duration                                 : 46mn 24s
    Width                                    : 1 280 pixels
    Height                                   : 720 pixels
    Display aspect ratio                     : 16:9
    Frame rate mode                          : Constant
    Frame rate                               : 29.970 fps
    Color space                              : YUV
    Chroma subsampling                       : 4:2:0
    Bit depth                                : 8 bits
    Scan type                                : Progressive
    Writing library                          : x264 core 146 r2538 121396c
    Encoding settings                        : cabac=1 / ref=6 / deblock=1:-3:-3 / analyse=0x3:0x133 / me=umh / subme=11 / psy=1 / psy_rd=1.00:0.15 / mixed_ref=1 / me_range=24 / chroma_me=1 / trellis=2 / 8x8dct=1 / cqm=0 / deadzone=21,11 / fast_pskip=1 / chroma_qp_offset=-3 / threads=12 / lookahead_threads=1 / sliced_threads=0 / nr=0 / decimate=1 / interlaced=0 / bluray_compat=0 / constrained_intra=0 / bframes=5 / b_pyramid=2 / b_adapt=2 / b_bias=0 / direct=3 / weightb=1 / open_gop=0 / weightp=2 / keyint=300 / keyint_min=30 / scenecut=40 / intra_refresh=0 / rc_lookahead=60 / rc=crf / mbtree=1 / crf=18.0 / qcomp=0.60 / qpmin=0 / qpmax=69 / qpstep=4 / ip_ratio=1.40 / aq=1:1.00
    Language                                 : Japanese
    Default                                  : Yes
    Forced                                   : No
    DURATION                                 : 00:46:24.948000000
    NUMBER_OF_FRAMES                         : 83465
    NUMBER_OF_BYTES                          : 1010782205
    _STATISTICS_WRITING_APP                  : mkvmerge v7.6.0 ('Garden of Dreams') 64bit built on Feb  9 2015 20:32:11
    _STATISTICS_WRITING_DATE_UTC             : 2015-05-13 15:15:30
    _STATISTICS_TAGS                         : BPS DURATION NUMBER_OF_FRAMES NUMBER_OF_BYTES

    Audio
    ID                                       : 2
    Format                                   : AAC
    Format/Info                              : Advanced Audio Codec
    Format profile                           : LC
    Codec ID                                 : A_AAC
    Duration                                 : 46mn 24s
    Channel(s)                               : 2 channels
    Channel positions                        : Front: L R
    Sampling rate                            : 48.0 KHz
    Compression mode                         : Lossy
    Delay relative to video                  : 17ms
    Language                                 : Japanese
    Default                                  : Yes
    Forced                                   : No

    Menu
    00:00:00.000                             : ja:Part A
    00:07:16.002                             : ja:Part B
    00:18:49.995                             : ja:Part C
    00:25:08.974                             : ja:Part D
    00:32:47.966                             : ja:Part E





    0 0

    Original Post: Jing Bi Rok 징비록 (2015) E09 HDTV H264 720p WITH



    Title: Jing Bi Rok 징비록 / The Jingbirok: A Memoir of Imjin War 징비록 (懲毖錄): 임진왜란 피로 쓴 교훈
    Revised romanization: Jingbirok: Imjinwaeran Piro Sseun Gyohoon
    Runtime: around 55 min/ep
    Broadcast period: 2015-Feb-14 to 2015-???-??
    Genre: Daeha drama, historical, political, action
    Language: Korean
    Country: South Korea
    Episodes: 50
    Broadcast network: KBS1
    Subtitle: English  softsub by DarkSmurfSub

    Synopsis
    Based on the memoir "Jibirok," written in 1604 by scholar Ryu Seong-Ryong. The memoir covers Ryu Seong-Ryong's experiences from 1592-1598 during the Japanese invasion of Joseon era South Korea, the story of what happened at Jojeong between the Japanese Invasion and the Battle of Noryang where General Lee Soon-sin was killed

    Cast   
    Kim Sang Joong as Seo Ae Ryu Sung Ryong
    Kim Tae Woo as King Seon Jo
    Im Dong Jin as Oh Eum Yoon Doo Soo
    Sun Dong Hyuk (선동혁) as Song Kang Jung Chul
    Choi Chul Ho as Baek Sa Lee Hang Bok
    Park Ji Il as Goo Bong Song Ik Pil
    Kim Hyo Won (김효원) as Woo Gye Sung Hon
    Kim Jong Soo (김종수) as Woo Song Dang Hwang Yoon Gil
    Kang In Ki (강인기) as Joong Bong Jo Hun

    Director: Kim Sang Hwi, Kim Young Jo (김영조)
    Sceenwriter: Jung Hyung Soo, Jung Ji Yun (정지연)

    Video: MPEG4 Video (H264) 1280x720 29.97fps 2195kbps [V: h264 constrained baseline L3.1, yuv420p, 1280x720, 2195 kb/s]
    Audio: AAC 48000Hz stereo 256kbps [A: aac lc, 48000 Hz, stereo, 256 kb/s]

    Media Info
    Spoiler:show

    Code
    General
    Complete name                  : Jing Bi Rok 징비록.E09.150314.HDTV.H264.720p-WITH.mp4
    Format                         : MPEG-4
    Format profile                 : Base Media
    Codec ID                       : isom
    File size                      : 895 MiB
    Duration                       : 50mn 58s
    Overall bit rate mode          : Variable
    Overall bit rate               : 2 454 Kbps
    Encoded date                   : UTC 2015-03-14 13:38:50
    Tagged date                    : UTC 2015-03-14 13:38:50

    Video
    ID                             : 1
    Format                         : AVC
    Format/Info                    : Advanced Video Codec
    Format profile                 : Baseline@L3.1
    Format settings, CABAC         : No
    Format settings, ReFrames      : 3 frames
    Codec ID                       : avc1
    Codec ID/Info                  : Advanced Video Coding
    Duration                       : 50mn 58s
    Bit rate                       : 2 200 Kbps
    Maximum bit rate               : 6 040 Kbps
    Width                          : 1 280 pixels
    Height                         : 720 pixels
    Display aspect ratio           : 16:9
    Frame rate mode                : Constant
    Frame rate                     : 29.970 fps
    Color space                    : YUV
    Chroma subsampling             : 4:2:0
    Bit depth                      : 8 bits
    Scan type                      : Progressive
    Bits/(Pixel*Frame)             : 0.080
    Stream size                    : 801 MiB (89%)
    Writing library                : x264 core 128 r2216 198a7ea
    Encoding settings              : cabac=0 / ref=3 / deblock=1:0:0 / analyse=0x1:0x111 / me=hex / subme=7 / psy=1 / psy_rd=1.00:0.00 / mixed_ref=1 / me_range=16 / chroma_me=1 / trellis=1 / 8x8dct=0 / cqm=0 / deadzone=21,11 / fast_pskip=1 / chroma_qp_offset=-2 / threads=12 / lookahead_threads=2 / sliced_threads=0 / nr=0 / decimate=1 / interlaced=0 / bluray_compat=0 / constrained_intra=0 / bframes=0 / weightp=0 / keyint=250 / keyint_min=25 / scenecut=40 / intra_refresh=0 / rc_lookahead=40 / rc=abr / mbtree=1 / bitrate=2200 / ratetol=1.0 / qcomp=0.60 / qpmin=0 / qpmax=69 / qpstep=4 / vbv_maxrate=50000 / vbv_bufsize=50000 / nal_hrd=none / ip_ratio=1.40 / aq=1:1.00
    Encoded date                   : UTC 2015-03-14 13:17:44
    Tagged date                    : UTC 2015-03-14 13:38:52

    Audio
    ID                             : 2
    Format                         : AAC
    Format/Info                    : Advanced Audio Codec
    Format profile                 : LC
    Codec ID                       : 40
    Duration                       : 50mn 58s
    Bit rate mode                  : Variable
    Bit rate                       : 256 Kbps
    Maximum bit rate               : 263 Kbps
    Channel(s)                     : 2 channels
    Channel positions              : Front: L R
    Sampling rate                  : 48.0 KHz
    Compression mode               : Lossy
    Stream size                    : 93.3 MiB (10%)
    Encoded date                   : UTC 2015-03-14 13:38:51
    Tagged date                    : UTC 2015-03-14 13:38:52





    0 0

    Original Post: Jing Bi Rok 징비록 (2010) E09 HDTV XviD WITH



    Title: Jing Bi Rok 징비록 / The Jingbirok: A Memoir of Imjin War 징비록 (懲毖錄): 임진왜란 피로 쓴 교훈
    Revised romanization: Jingbirok: Imjinwaeran Piro Sseun Gyohoon
    Runtime: around 55 min/ep
    Broadcast period: 2015-Feb-14 to 2015-???-??
    Genre: Daeha drama, historical, political, action
    Language: Korean
    Country: South Korea
    Episodes: 50
    Broadcast network: KBS1
    Subtitle: English  softsub by DarkSmurfSub

    Synopsis
    Based on the memoir "Jibirok," written in 1604 by scholar Ryu Seong-Ryong. The memoir covers Ryu Seong-Ryong's experiences from 1592-1598 during the Japanese invasion of Joseon era South Korea, the story of what happened at Jojeong between the Japanese Invasion and the Battle of Noryang where General Lee Soon-sin was killed

    Cast   
    Kim Sang Joong as Seo Ae Ryu Sung Ryong
    Kim Tae Woo as King Seon Jo
    Im Dong Jin as Oh Eum Yoon Doo Soo
    Sun Dong Hyuk (선동혁) as Song Kang Jung Chul
    Choi Chul Ho as Baek Sa Lee Hang Bok
    Park Ji Il as Goo Bong Song Ik Pil
    Kim Hyo Won (김효원) as Woo Gye Sung Hon
    Kim Jong Soo (김종수) as Woo Song Dang Hwang Yoon Gil
    Kang In Ki (강인기) as Joong Bong Jo Hun

    Director: Kim Sang Hwi, Kim Young Jo (김영조)
    Sceenwriter: Jung Hyung Soo, Jung Ji Yun (정지연)

    Video: Xvid 640x352 29.97fps 1237kbps [V: mpeg4 advanced simple profile, yuv420p, 640x352, 1237 kb/s]
    Audio: MP3 48000Hz stereo 128kbps [A: mp3, 48000 Hz, stereo, 128 kb/s]

    Media Info
    Spoiler:show

    Code
    General
    Complete name                  : Jing Bi Rok 징비록.E09.150314.HDTV.XviD-WITH.avi
    Format                         : AVI
    Format/Info                    : Audio Video Interleave
    File size                      : 502 MiB
    Duration                       : 50mn 58s
    Overall bit rate               : 1 378 Kbps
    Writing application            : VirtualDubMod 1.5.10.2 (build 2540/release)
    Writing library                : VirtualDubMod build 2540/release

    Video
    ID                             : 0
    Format                         : MPEG-4 Visual
    Format profile                 : Advanced Simple@L5
    Format settings, BVOP          : 2
    Format settings, QPel          : No
    Format settings, GMC           : No warppoints
    Format settings, Matrix        : Default (H.263)
    Muxing mode                    : Packed bitstream
    Codec ID                       : XVID
    Codec ID/Hint                  : XviD
    Duration                       : 50mn 58s
    Bit rate                       : 1 238 Kbps
    Width                          : 640 pixels
    Height                         : 352 pixels
    Display aspect ratio           : 16:9
    Frame rate                     : 29.970 fps
    Color space                    : YUV
    Chroma subsampling             : 4:2:0
    Bit depth                      : 8 bits
    Scan type                      : Progressive
    Compression mode               : Lossy
    Bits/(Pixel*Frame)             : 0.183
    Stream size                    : 451 MiB (90%)
    Writing library                : XviD 58

    Audio
    ID                             : 1
    Format                         : MPEG Audio
    Format version                 : Version 1
    Format profile                 : Layer 3
    Mode                           : Joint stereo
    Mode extension                 : MS Stereo
    Codec ID                       : 55
    Codec ID/Hint                  : MP3
    Duration                       : 50mn 58s
    Bit rate mode                  : Constant
    Bit rate                       : 128 Kbps
    Channel(s)                     : 2 channels
    Sampling rate                  : 48.0 KHz
    Compression mode               : Lossy
    Stream size                    : 46.7 MiB (9%)
    Alignment                      : Aligned on interleaves
    Interleave, duration           : 33 ms (1.00 video frame)
    Interleave, preload duration   : 504 ms





    0 0

    Original Post: Shin Jae, Yoonhak (Supernova) – My Unfortunate Boyfriend OST Part.5-6



    신재 (Shin Jae) – 나의 유감스러운 남자친구 (MBC 드라마넷 금토드라마) OST – Part.5
    Release Date: 2015.05.08
    Genre: OST
    Language: Korean
    Bit Rate: MP3-192kbps

    Track List:

    01. You're My Angel
    02. You're My Angel (Inst.)



    윤학 (Yoonhak (Supernova)) – 나의 유감스러운 남자친구 (MBC 드라마넷 금토드라마) OST – Part.6
    Release Date: 2015.05.15
    Genre: OST
    Language: Korean
    Bit Rate: MP3-320kbps
    credit to hulkpop

    Track List:

    01. 내 사랑아
    02. 내 사랑아 (Inst.)



    0 0

    Original Post: ICON (No Min Woo) – My Unfortunate Boyfriend OST



    ICON – 사랑해 (I Love You)
    Release Date: 2015.05.08
    Genre: Ballad
    Language: Korean
    Bit Rate: MP3-320kbps
    credit to k2nblog

    Track List:

    01. 사랑해



    ICON – Shining Love
    Release Date: 2015.05.12
    Genre: OST
    Language: Korean
    Bit Rate: MP3-320kbps
    credit to hulkpop

    Track List:

    01. Shining Love (feat. Snowman)



    0 0

    Original Post: Lee Yoon Chan – Falling For Innocence OST Part.4



    이윤찬 (Lee Yoon Chan) – 순정에 반하다 (JTBC 금토드라마) OST – Part.4
    Release Date: 2015.05.15
    Genre: OST
    Language: Korean
    Bit Rate: MP3-320kbps

    Track List:

    01. 외친다



    0 0

    Original Post: Lee Seung Chul – The Producers OST Preview 01



    이승철 – 프로듀사 (KBS 2TV 금토드라마) OST – Preview 01
    Release Date: 2015.05.15
    Genre: OST
    Language: Korean
    Bit Rate: MP3-320kbps
    credit to k2nblog

    Track List:

    01. 달링 (OST ver.)



    0 0
  • 05/15/15--22:49: I'm Home ep05 480p
  • Original Post: I'm Home ep05 480p



    http://wiki.d-addicts.com/I%27m_Home_%28TV_Asahi%29
    http://asianwiki.com/I%27m_Home

    Title: アイムホーム
    Title (English): I'm home
    Format: Renzoku
    Genre: Family mystery
    Broadcast network: TV Asahi
    Episodes: TBD
    Broadcast period: 2015-Apr-16 start
    Air time: Thursday 21:00
    Language: Japanese
    Country: Japan
    Subtitles: English here: Watanuki and Chiyoko Fansub
    RAW credit to furransu

    Cast
       Kimura Takuya as Ieji Hisashi
       Ueto Aya as Ieji Megumi
       Mizuno Miki as Nozawa Kaoru
       Tanaka Kei as Honjo Tsuyoshi
       Suzuki Kosuke as Watanuki Shinji
       Yoshimoto Miyu as Takanashi Yua
       Ino Manabu (猪野学) as Hifumi Tsutomu
       Anami Atsuko as Isami Yoko
       Nomaguchi Toru as Iwashita Noboru
       Yano Masato as Tokura Shingo
       Takahashi Rai (高橋來) as Ieji Yoshio
       Yamaguchi Mayu (山口まゆ) as Nozawa Subaru
       Arai Hirofumi as Kuroki Jin
       Mitsuishi Ken as Todoroki Haruki
       Watanabe Ikkei as Teshigawara Yosuke
       Oikawa Mitsuhiro as Tsukuba Yoshiaki
       Nishida Toshiyuki as Kozukue Yukio

    Synopsis
    Ieji Hisashi, a salaryman who works for a securities company, has a fuzzy memory of the recent five years because of an accident at his job posting. His wife of five years, Megumi and their 4-year-old son seem to wear masks. He can neither tell their facial expressions nor their emotions. He also struggles about his love for them. On the other hand, Ieji feels an attachment to his ex-wife, whom he divorced five years ago, and their daughter. What sort of days did he have in those five years which are a blank to him? Ieji sets out on a journey to find his past self with a mysterious bunch of 10 keys that he has. He becomes aware that he was a cold, career-minded man before the accident, and the persona that is gradually revealed is beyond the imagination of his present kindhearted self.

    General
    Complete name                  : I'm Home ep05 (848x480 x264).mp4
    Format                         : MPEG-4
    Format profile                 : Base Media
    Codec ID                       : isom
    File size                      : 304 MiB
    Duration                       : 46mn 56s
    Overall bit rate mode          : Variable
    Overall bit rate               : 904 Kbps

    Video
    ID                             : 1
    Format                         : AVC
    Format/Info                    : Advanced Video Codec
    Format profile                 : High@L4.1
    Format settings, CABAC         : Yes
    Format settings, ReFrames      : 4 frames
    Codec ID                       : avc1
    Codec ID/Info                  : Advanced Video Coding
    Duration                       : 46mn 56s
    Bit rate                       : 772 Kbps
    Maximum bit rate               : 6 011 Kbps
    Width                          : 848 pixels
    Height                         : 480 pixels
    Display aspect ratio           : 16:9
    Frame rate mode                : Constant
    Frame rate                     : 29.970 fps
    Color space                    : YUV
    Chroma subsampling             : 4:2:0
    Bit depth                      : 8 bits
    Scan type                      : Progressive
    Bits/(Pixel*Frame)             : 0.063
    Stream size                    : 259 MiB (85%)

    Audio
    ID                             : 2
    Format                         : AAC
    Format/Info                    : Advanced Audio Codec
    Format profile                 : LC
    Codec ID                       : 40
    Duration                       : 46mn 56s
    Bit rate mode                  : Variable
    Bit rate                       : 128 Kbps
    Maximum bit rate               : 133 Kbps
    Channel count                  : 2 channels
    Channel positions              : Front: L R
    Sampling rate                  : 48.0 KHz
    Compression mode               : Lossy



    0 0

    Original Post: Lucky Star 2015 720p BluRay x264-WiKi





    Detail:
    Title: Lucky Star
    Genre: Comedy
    Release Date: 19 Feb 2015
    Runtime: 1 Hour 28 Minutes
    Director: Sunny
    Country: Hong Kong
    Language: Mandarin, Cantonese
    Subtitles:Chinese

    Synopsis:
    "Lucky Star 2015" is a Chinese New Year comedy film starring an ensemble cast featuring Eric Tsang, Wong Cho-lam, Ella Chen from S.H.E, Dada Chan, King Tan Yuen and Yuen Qiu. The film is about a Wong Cho-lam look-alike who is invited to perform at a birthday party of a local tycoon. He brings along a group of look-alike artistes for his show. However, the local tycoon sees through his trick. The comedy film also features cameo appearances from Andy Lau, Nicholas Tse, Chow Yun Fat, Julian Cheung and many more.

    Cast:
    Eric Tsang, Wong Cho-lam, Ella Chen, Dada Chan Ching, Yuen King-Tan








    Code

    Video
    ID                                       : 1
    Format                                   : AVC
    Format/Info                              : Advanced Video Codec
    Format profile                           : High@L4.1
    Format settings, CABAC                   : Yes
    Format settings, ReFrames                : 9 frames
    Codec ID                                 : V_MPEG4/ISO/AVC
    Duration                                 : 1h 27mn
    Bit rate                                 : 5 848 Kbps
    Width                                    : 1 280 pixels
    Height                                   : 690 pixels
    Display aspect ratio                     : 1.85:1
    Frame rate                               : 24.000 fps
    Color space                              : YUV
    Chroma subsampling                       : 4:2:0
    Bit depth                                : 8 bits
    Scan type                                : Progressive
    Bits/(Pixel*Frame)                       : 0.276
    Stream size                              : 3.50 GiB (80%)
    Writing library                          : x264 core 129 r2245+704+36 8e61944 tMod+MixAQ [8-bit@4:2:0 X86_64]
    Encoding settings                        : cabac=1 / ref=9 / deblock=1:-3:-3 / analyse=0x3:0x133 / me=umh / subme=11 / psy=1 / fade_compensate=0.00 / psy_rd=1.05:0.10 / mixed_ref=1 / me_range=32 / chroma_me=1 / trellis=2 / 8x8dct=1 / cqm=0 / deadzone=21,11 / fast_pskip=0 / chroma_qp_offset=-3 / threads=18 / lookahead_threads=3 / sliced_threads=0 / nr=0 / decimate=0 / interlaced=0 / bluray_compat=0 / constrained_intra=0 / fgo=0 / bframes=10 / b_pyramid=2 / b_adapt=2 / b_bias=0 / direct=3 / weightb=1 / open_gop=0 / weightp=2 / keyint=250 / keyint_min=24 / scenecut=40 / intra_refresh=0 / rc_lookahead=80 / rc=2pass / mbtree=1 / bitrate=5848 / ratetol=1.0 / qcomp=0.70 / qpmin=0 / qpmax=69 / qpstep=4 / cplxblur=20.0 / qblur=0.5 / ip_ratio=1.40 / aq=1 / aq-strength=0.85 / aq-sensitivity=10.00 / aq-ifactor=1.00 / aq-pfactor=1.00 / aq-bfactor=1.00 / aq2=0
    Language                                 : Chinese
    Default                                  : Yes
    Forced                                   : No
    DURATION                                 : 01:27:47.709000000
    NUMBER_OF_FRAMES                         : 126425
    NUMBER_OF_BYTES                          : 3847303282
    _STATISTICS_WRITING_APP                  : mkvmerge v7.9.0 ('Birds') 64bit
    _STATISTICS_WRITING_DATE_UTC             : 2015-05-16 00:03:22
    _STATISTICS_TAGS                         : BPS DURATION NUMBER_OF_FRAMES NUMBER_OF_BYTES
    Matrix coefficients                      : BT.709-5, BT.1361, IEC 61966-2-4 709, SMPTE RP177

    Audio #1
    ID                                       : 2
    Format                                   : AC-3
    Format/Info                              : Audio Coding 3
    Mode extension                           : CM (complete main)
    Format settings, Endianness              : Big
    Codec ID                                 : A_AC3
    Duration                                 : 1h 27mn
    Bit rate mode                            : Constant
    Bit rate                                 : 640 Kbps
    Channel(s)                               : 6 channels
    Channel positions                        : Front: L C R, Side: L R, LFE
    Sampling rate                            : 48.0 KHz
    Bit depth                                : 16 bits
    Compression mode                         : Lossy
    Stream size                              : 402 MiB (9%)
    Title                                    : Cantonese
    Language                                 : Chinese
    Default                                  : Yes
    Forced                                   : No

    Audio #2
    ID                                       : 3
    Format                                   : AC-3
    Format/Info                              : Audio Coding 3
    Mode extension                           : CM (complete main)
    Format settings, Endianness              : Big
    Codec ID                                 : A_AC3
    Duration                                 : 1h 27mn
    Bit rate mode                            : Constant
    Bit rate                                 : 640 Kbps
    Channel(s)                               : 6 channels
    Channel positions                        : Front: L C R, Side: L R, LFE
    Sampling rate                            : 48.0 KHz
    Bit depth                                : 16 bits
    Compression mode                         : Lossy
    Stream size                              : 402 MiB (9%)
    Title                                    : Mandarin
    Language                                 : Chinese
    Default                                  : No
    Forced                                   : No

    Text #1
    ID                                       : 4
    Format                                   : UTF-8
    Codec ID                                 : S_TEXT/UTF8
    Codec ID/Info                            : UTF-8 Plain Text
    Title                                    : Simplified
    Language                                 : Chinese
    Default                                  : Yes
    Forced                                   : No

    Text #2
    ID                                       : 5
    Format                                   : UTF-8
    Codec ID                                 : S_TEXT/UTF8
    Codec ID/Info                            : UTF-8 Plain Text
    Title                                    : Traditional
    Language                                 : Chinese
    Default                                  : No
    Forced                                   : No



    0 0

    Original Post: Dr. Rintaro EP05 720p HDTV x264 AAC-DoA



    http://wiki.d-addicts.com/Dr._Rintaro
    http://asianwiki.com/Dr._Rintaro
    http://thetvdb.com/?tab=series&id=293875&lid=7

    Title (romaji): Dr. Rintaro
    Format: Renzoku
    Genre: Medical
    Episodes: TBD
    Broadcast network: NTV
    Broadcast period: 2015-Apr-15 start
    Air time: Wednesday 22:00
    Subtitles: English - torachan2006
    RAW credit to DoA


    Cast

       Sakai Masato as Hino Rintaro
       Aoi Yu as Yumeno
       Kichise Michiko as Mizushima Yuriko
       Uchida Yuki as Kiryuu Kaoru
       Takanashi Rin as Kawakami Yoko
       Takahashi Issei as Fukuhara Daisaku
       Matobu Sei as Yabe Machiko
       Nakanishi Miho (中西美帆) as Koyume
       Yo Kimiko as Masuda Ikumi
       Endo Kenichi as Araki Shigeto
       Sakai Wakana as Nakahata Madoka
       Nagatsuka Keishi (長塚圭史) as Miyagawa Takahiro
       Matsushige Yutaka as Hasumi Eisuke
       Ishibashi Renji as Ike Masayuki
       Takahata Atsuko as Aizawa Ruriko
       Kohinata Fumiyo as Ennouji Kazuo


    Synopsis

    His name is Hino Rintaro. He listens closely to the aching hearts of people and relieves them of their pain. He is published and makes television appearances. The number of people waiting to receive his consultation continues to grow. Despite his achievements, Dr. Rintaro falls short in one department: love. He even dismisses it by saying “Falling in love is just like a passing mental illness.” One day, during a meal with the president of the university, Rintaro meets a woman. Her name is Yumeno, a highly sought-after geisha in Shimbashi. Little did Rintaro know that this encounter would drastically change his life. -- NTV


    Mediainfo
    Spoiler:show

    Code
    Format                                   : Matroska
    Format version                           : Version 4 / Version 2
    File size                                : 797 MiB
    Duration                                 : 51mn 4s
    Overall bit rate                         : 2 180 Kbps
    Encoded date                             : UTC 2015-05-14 07:48:54
    Writing application                      : mkvmerge v7.6.0 ('Garden of Dreams') 64bit built on Feb  8 2015 13:04:34
    Writing library                          : libebml v1.3.1 + libmatroska v1.4.2
    DURATION                                 : 00:51:04.811000000
    NUMBER_OF_FRAMES                         : 143663
    NUMBER_OF_BYTES                          : 72262491
    _STATISTICS_WRITING_APP                  : mkvmerge v7.6.0 ('Garden of Dreams') 64bit built on Feb  8 2015 13:04:34
    _STATISTICS_WRITING_DATE_UTC             : 2015-05-14 07:48:54
    _STATISTICS_TAGS                         : BPS DURATION NUMBER_OF_FRAMES NUMBER_OF_BYTES

    Video
    ID                                       : 1
    Format                                   : AVC
    Format/Info                              : Advanced Video Codec
    Format profile                           : High@L4.1
    Format settings, CABAC                   : Yes
    Format settings, ReFrames                : 9 frames
    Codec ID                                 : V_MPEG4/ISO/AVC
    Duration                                 : 51mn 4s
    Width                                    : 1 280 pixels
    Height                                   : 720 pixels
    Display aspect ratio                     : 16:9
    Frame rate mode                          : Constant
    Frame rate                               : 29.970 fps
    Color space                              : YUV
    Chroma subsampling                       : 4:2:0
    Bit depth                                : 8 bits
    Scan type                                : Progressive
    Title                                    : DoA Encoder
    Writing library                          : x264 core 146 r2538 121396c
    Encoding settings                        : cabac=1 / ref=9 / deblock=1:-2:-2 / analyse=0x3:0x133 / me=umh / subme=10 / psy=1 / psy_rd=1.00:0.15 / mixed_ref=1 / me_range=48 / chroma_me=1 / trellis=2 / 8x8dct=1 / cqm=0 / deadzone=21,11 / fast_pskip=0 / chroma_qp_offset=-3 / threads=12 / lookahead_threads=2 / sliced_threads=0 / nr=0 / decimate=1 / interlaced=0 / bluray_compat=0 / constrained_intra=0 / bframes=8 / b_pyramid=2 / b_adapt=2 / b_bias=0 / direct=3 / weightb=1 / open_gop=0 / weightp=2 / keyint=300 / keyint_min=29 / scenecut=40 / intra_refresh=0 / rc_lookahead=60 / rc=crf / mbtree=1 / crf=17.0 / qcomp=0.60 / qpmin=0 / qpmax=69 / qpstep=4 / ip_ratio=1.40 / aq=1:1.00
    Language                                 : English
    Default                                  : Yes
    Forced                                   : No
    DURATION                                 : 00:51:04.756000000
    NUMBER_OF_FRAMES                         : 91381
    NUMBER_OF_BYTES                          : 762040236
    _STATISTICS_WRITING_APP                  : mkvmerge v7.6.0 ('Garden of Dreams') 64bit built on Feb  8 2015 13:04:34
    _STATISTICS_WRITING_DATE_UTC             : 2015-05-14 07:48:54
    _STATISTICS_TAGS                         : BPS DURATION NUMBER_OF_FRAMES NUMBER_OF_BYTES

    Audio
    ID                                       : 2
    Format                                   : AAC
    Format/Info                              : Advanced Audio Codec
    Format profile                           : LC
    Codec ID                                 : A_AAC
    Duration                                 : 51mn 4s
    Channel(s)                               : 2 channels
    Channel positions                        : Front: L R
    Sampling rate                            : 48.0 KHz
    Compression mode                         : Lossy
    Delay relative to video                  : 12ms
    Default                                  : Yes
    Forced                                   : No





    0 0

    Original Post: TVB The.Empress.of.China.E01 to E18.HDTV.H264.2Audio.720p-CensoredCleavages


    Detail:
    Title: Empress Of China
    AKA:武媚娘傳奇
    Genre: Historical fiction
    Release Date: April 26, 2015 - July 4, 2015
    Episodes: 70
    Director: Go Yik Chun
    Country: China
    Language: Track 1: Mandarin/ Track 2: Cantonese dub
    Subtitles: English (srt embedded)

    Fan Bingbing as Wu Meiniang
    Zhang Fengyi as Li Shimin
    Aarif Rahman as Li Zhi
    Janine Chang as Xu Hui
    Li Chen as Li Mu
    Chang Ting as Consort Wei
    Wu Xiubo as Zhang Jianzhi
    Viann Zhang as Consort Xiao
    Kathy Chow as Consort Yang
    Wang Huichun as Zhangsun Wuji
    Lee Lee-jen as Li Chengqian
    Li Jie as Li Ke
    Yu Haoming as Li Chunfeng

    Before she was the most famous female ruler in Chinese history, Wu Mei Liang was a woman vying for her husbands’ love. While her first husband kept her at arm’s length by a prophecy foretelling a woman of Wu stealing the Tang Dynasty, her second husband welcomed her with open arms. During her time as a minor consort to Li Shi Min, she learned how an effective Emperor rule his court. Using that knowledge, she helped Li Zhi take back power from his Regent, and herself into the position of Empress. She co-ruled with Li Zhi until his death, after which she ruled the country in her own right.







    Code
    Video
    ID                             : 1
    Format                         : AVC
    Format/Info                    : Advanced Video Codec
    Format profile                 : Main@L4.0
    Format settings, CABAC         : Yes
    Format settings, ReFrames      : 4 frames
    Codec ID                       : V_MPEG4/ISO/AVC
    Duration                       : 44mn 28s
    Bit rate                       : 148 Kbps
    Nominal bit rate               : 4 500 Kbps
    Width                          : 1 280 pixels
    Height                         : 720 pixels
    Display aspect ratio           : 16:9
    Frame rate mode                : Constant
    Frame rate                     : 25.000 fps
    Color space                    : YUV
    Chroma subsampling             : 4:2:0
    Bit depth                      : 8 bits
    Scan type                      : Progressive
    Bits/(Pixel*Frame)             : 0.006
    Stream size                    : 1.38 GiB (87%)
    Title                          : The.Empress.of.China.E03.HDTV.H264.2Audio.720p-CensoredCleavages
    Writing library                : x264 core 130 r2273 b3065e6
    Language                       : Chinese
    Default                        : Yes
    Forced                         : No
    Color primaries                : BT.709
    Transfer characteristics       : BT.709
    Matrix coefficients            : BT.709

    Audio #1
    ID                             : 2
    Format                         : AC-3
    Format/Info                    : Audio Coding 3
    Mode extension                 : CM (complete main)
    Format settings, Endianness    : Big
    Codec ID                       : A_AC3
    Duration                       : 44mn 28s
    Bit rate mode                  : Constant
    Bit rate                       : 384 Kbps
    Channel(s)                     : 6 channels
    Channel positions              : Front: L C R, Side: L R, LFE
    Sampling rate                  : 48.0 KHz
    Bit depth                      : 16 bits
    Compression mode               : Lossy
    Stream size                    : 121 MiB (7%)
    Title                          : Mandarin
    Language                       : Chinese
    Default                        : Yes
    Forced                         : No

    Audio #2
    ID                             : 3
    Format                         : AC-3
    Format/Info                    : Audio Coding 3
    Mode extension                 : CM (complete main)
    Format settings, Endianness    : Big
    Codec ID                       : A_AC3
    Duration                       : 44mn 28s
    Bit rate mode                  : Constant
    Bit rate                       : 192 Kbps
    Channel(s)                     : 2 channels
    Channel positions              : Front: L R
    Sampling rate                  : 48.0 KHz
    Bit depth                      : 16 bits
    Compression mode               : Lossy
    Stream size                    : 60.7 MiB (4%)
    Title                          : Cantonese
    Language                       : Chinese
    Default                        : No
    Forced                         : No

    Text
    ID                             : 4
    Format                         : UTF-8
    Codec ID                       : S_TEXT/UTF8
    Codec ID/Info                  : UTF-8 Plain Text
    Default                        : Yes
    Forced                         : No



older | 1 | .... | 1343 | 1344 | (Page 1345) | 1346 | 1347 | .... | 1405 | newer