Are you the publisher? Claim or contact us about this channel


Embed this content in your HTML

Search

Report adult content:

click to rate:

Account: (login)

More Channels


Showcase


Channel Catalog


Channel Description:

Asia Torrents RSS Feed

older | 1 | .... | 1346 | 1347 | (Page 1348) | 1349 | 1350 | .... | 1405 | newer

    0 0

    Original Post: New Champ, Gemini – Divorce Lawyer in Love OST Part.4



    New Champ, Gemini (제미니) – 이혼변호사는 연애중 (SBS 주말드라마) OST – Part.4
    Release Date: 2015.05.18
    Genre: OST
    Language: Korean
    Bit Rate: MP3-320kbps
    credit to hulkpop

    Track List:

    01. Making Love
    02. Making Love (Inst.)



    0 0

    Original Post: As the Gods Will 2014 720p BluRay x264 DTS-WiKi





    Detail:
    Title: As the Gods Will
    Genre: Horror, Thriller
    Release Date: November 15, 2014
    Runtime: 118 min
    Director: Takashi Miike
    Rating: 6.4/10 from 182 users
    Country: Japan
    Language: Japanese
    Subtitles:Chinese

    Synopsis:
    Shun Takahata (Sota Fukushi) is an ordinary high school student leading a boring life. His life long friend is Ichika Akimoto (Hirona Yamazaki).

    One day, a teacher’s head explodes in class. Shun Takahata and his classmates are forced to play a game of death without knowing who, why or how.  

    Cast:
    Shôta Sometani, Ryûnosuke Kamiki, Rirî Furankî








    Code

    Video
    ID                                       : 1
    Format                                   : AVC
    Format/Info                              : Advanced Video Codec
    Format profile                           : High@L4.1
    Format settings, CABAC                   : Yes
    Format settings, ReFrames                : 12 frames
    Codec ID                                 : V_MPEG4/ISO/AVC
    Duration                                 : 1h 56mn
    Width                                    : 1 280 pixels
    Height                                   : 536 pixels
    Display aspect ratio                     : 2.40:1
    Frame rate                               : 23.976 fps
    Color space                              : YUV
    Chroma subsampling                       : 4:2:0
    Bit depth                                : 8 bits
    Scan type                                : Progressive
    Language                                 : Japanese
    Default                                  : Yes
    Forced                                   : No
    Matrix coefficients                      : BT.709-5, BT.1361, IEC 61966-2-4 709, SMPTE RP177

    Audio
    ID                                       : 2
    Format                                   : DTS
    Format/Info                              : Digital Theater Systems
    Codec ID                                 : A_DTS
    Duration                                 : 1h 56mn
    Channel(s)                               : 6 channels
    Sampling rate                            : 48.0 KHz
    Compression mode                         : Lossy
    Language                                 : Japanese
    Default                                  : Yes
    Forced                                   : No

    Text #1
    ID                                       : 3
    Format                                   : ASS
    Codec ID                                 : S_TEXT/ASS
    Codec ID/Info                            : Advanced Sub Station Alpha
    Compression mode                         : Lossless
    Title                                    : CHS
    Language                                 : Chinese
    Default                                  : No
    Forced                                   : No

    Text #2
    ID                                       : 4
    Format                                   : ASS
    Codec ID                                 : S_TEXT/ASS
    Codec ID/Info                            : Advanced Sub Station Alpha
    Compression mode                         : Lossless
    Title                                    : CHT
    Language                                 : Chinese
    Default                                  : No
    Forced                                   : No



    0 0
  • 05/18/15--01:23: Kuroi Gashu - Kusa
  • Original Post: Kuroi Gashu - Kusa

    https://www.asiatorrents.me/imgz/images/tk1v5.jpg[left][/left]
    Detail:
    Title: Kuroi Gashu: Kusa/Black Art Book - Grass
    Genre: drama, detective
    Release Date: March 25, 2015
    Runtime: 107 min
    Director: Kenjiro Kuranuki
    Rating: 70/8 votes (asianwiki)
    Country: Japan
    Language: Japanese
    Subtitles: No Subtitles
    Plot
    Based on the collection of short stories "Kuroi Gashu - Kusa -" by Seicho Matsumoto (published April 10, 1960 to June 19, 1960 in weekly magazine Shukan Asahi).
    Ichiro Numata (Hiroaki Murakami) is the chief editor of a publishing company. He suddenly falls unconscious and is hospitalized, but various cases takes place at the hospital.
    Hospital Director Kenichiro Asashima and Chief Nurse Junko  Amemiya goes missing. There are rumors that they were in a close relationship. Head of Drug Management, Yasuharu Horimura is found dead. Rumors were that he stalked Junko Amemiya. The investigation into his dead is carried out as a suicide case, but Detective Eiji Kirishima (Takanori Jinnai) suspects foul play.
    Ichiro Numata follows with his sharp eyes what transpires at the hospital and he also holds a secret.
    Cast
    Hiroaki Murakami - Ichiro Numata
    Ayame Gouriki - Ai Numata (Ichiro's daughter)
    Takanori Jinnai - Eiji Kirishima
    Info
    Spoiler:show
    Video
    ID                          : 1
    Format                      : AVC
    Format/Info                 : Advanced Video Codec
    Format profile              : High@L4
    Format settings, CABAC      : Yes
    Format settings, ReFrames   : 6 frames
    Codec ID                    : V_MPEG4/ISO/AVC
    Duration                    : 1h 47mn
    Width                       : 1 280 pixels
    Height                      : 720 pixels
    Display aspect ratio        : 16:9
    Frame rate mode             : Constant
    Frame rate                  : 29.970 fps
    Color space                 : YUV
    Chroma subsampling          : 4:2:0
    Bit depth                   : 8 bits
    Scan type                   : Progressive
    Writing library             : x264 core 146 r2538 121396c
    Encoding settings           : cabac=1 / ref=6 / deblock=1:-1:-1 / analyse=0x3:0x133 / me=umh / subme=11 / psy=1 / psy_rd=1.00:0.15 / mixed_ref=1 / me_range=24 / chroma_me=1 / trellis=2 / 8x8dct=1 / cqm=0 / deadzone=21,11 / fast_pskip=1 / chroma_qp_offset=-3 / threads=12 / lookahead_threads=1 / sliced_threads=0 / nr=0 / decimate=1 / interlaced=0 / bluray_compat=0 / constrained_intra=0 / bframes=5 / b_pyramid=2 / b_adapt=2 / b_bias=0 / direct=3 / weightb=1 / open_gop=0 / weightp=2 / keyint=300 / keyint_min=30 / scenecut=40 / intra_refresh=0 / rc_lookahead=60 / rc=crf / mbtree=1 / crf=20.0 / qcomp=0.60 / qpmin=0 / qpmax=69 / qpstep=4 / ip_ratio=1.40 / aq=1:1.00
    Language                    : Japanese
    Default                     : Yes
    Forced                      : No
    DURATION                    : 01:47:40.020000000
    NUMBER_OF_FRAMES            : 193607
    NUMBER_OF_BYTES             : 1574032560
    _STATISTICS_WRITING_APP     : mkvmerge v7.6.0 ('Garden of Dreams') 64bit built on Feb  9 2015 20:32:11
    _STATISTICS_WRITING_DATE_UT : 2015-03-28 06:51:42
    _STATISTICS_TAGS            : BPS DURATION NUMBER_OF_FRAMES NUMBER_OF_BYTES

    Audio
    ID                          : 2
    Format                      : AAC
    Format/Info                 : Advanced Audio Codec
    Format profile              : LC
    Codec ID                    : A_AAC
    Duration                    : 1h 47mn
    Channel(s)                  : 2 channels
    Channel positions           : Front: L R
    Sampling rate               : 48.0 KHz
    Compression mode            : Lossy
    Delay relative to video     : 14ms
    Language                    : Japanese
    Default                     : Yes
    Forced                      : No

    Screen


    0 0

    Original Post: Tennou no Ryouriban ep04 480p



    http://asianwiki.com/Tenno_no_Ryoriban

    Title: The Emperor's Cook
    Romaji: Tenno no Ryoriban
    Japanese: 天皇の料理番
    Genre: Historical, Human Drama
    Director: Yuichiro Hirakawa, Shingo Okamoto
    Writer: Hisahide Sugimori (novel), Yoshiko Morishita
    Network: TBS
    Episodes: TBA
    Release Date: 2015-Apr-26 start
    Runtime: Sundays 21:00
    Theme song: Yume Miru Hito (Dreamer) by Sada Masashi
    Language: Japanese
    Country: Japan
    Subtitles: English here: subie06
    RAW credit to furransu

    Cast
       Takeru Satoh - Tokuzo Akiyama
       Haru Kuroki - Toshiko Takahama
       Kenta Kiritani - Shintaro Matsui
       Tasuku Emoto - Tatsuyoshi Yamagami
       Saki Takaoka - Ume Morita
       Gajiro Sato - Sennosuke Morita
       Sei Ashina - Kayano
       Ryu Morioka - Kurasaburo Akiyama
       Anna Ishibashi - Koshi Takahama
       Yoshiyuki Tsubokura - Okumura
       Jinta Nishizawa - Masashi Sasaki
       Daisuke Kuroda - Araki
       Takeshi Onishi - Sekiguchi
       Mamoru Watanabe - Sugiyama
       Hirotaka Ookuma - Fujita
       Yuji Kido - Suzuki
       Ryohei Suzuki - Shutaro Akiyama
       Tetsuya Takeda - Shogo
       Hideaki Ito - Yukichi Tanabe
       Yumi Asou - Okichi (restaurant owner)
       Masaya Kato - Takeshiro Ioki
       Yojin Hino - Kinnosuke Takahama
       Satoko Oshima - Harugo Takahama
       Jun Miho - Fuki Akiyama
       Tetta Sugimoto - Shuzo Akiyama
       Kaoru Kobayashi - Usami
       Satoko Oshima
       Hiromi Go - Shin'ichirō Awano

    Synopsis
    Tokuzo Akiyama (Takeru Satoh) is a young man living in a rural area. One day, he eats cutlet. That experience leads him to become a cook for western style food. He first goes to Tokyo and then Paris, France to learn about the culinary arts. Fighting against discrimination and prejudice, he becomes a chef at the Hotel Ritz in Paris, France. At the age of 26, he becomes the chef for the Emperor of Japan.

    In 1904, at New Year's, the Akiyama family in Fukui prefecture were full of hope except for one thing. Shuzo (Tetta Sugimoto) worries that his second son, Tokuzo (Takeru Satoh) just quits things too easily unlike the first son, Shutaro (Ryohei Suzuki). The worried father arranges his son to marry Toshiko (Haru Kuroki) of the Takahama family who runs a seaweed merchant. One day, newly-married Tokuzo encounters Sergeant Tanabe (Hideaki Ito) of the Sabae Regiment while delivering seaweed. Tokuzo has a piece of freshly-fried cutlet offered by Tanabe and is struck by the overwhelming taste. ~ TBS

    General
    Complete name                  : Tennou no Ryouriban ep04 (848x480 x264).mp4
    Format                         : MPEG-4
    Format profile                 : Base Media
    Codec ID                       : isom
    File size                      : 313 MiB
    Duration                       : 46mn 5s
    Overall bit rate mode          : Variable
    Overall bit rate               : 949 Kbps

    Video
    ID                             : 1
    Format                         : AVC
    Format/Info                    : Advanced Video Codec
    Format profile                 : High@L4.1
    Format settings, CABAC         : Yes
    Format settings, ReFrames      : 4 frames
    Codec ID                       : avc1
    Codec ID/Info                  : Advanced Video Coding
    Duration                       : 46mn 5s
    Bit rate                       : 817 Kbps
    Maximum bit rate               : 5 552 Kbps
    Width                          : 848 pixels
    Height                         : 480 pixels
    Display aspect ratio           : 16:9
    Frame rate mode                : Constant
    Frame rate                     : 29.970 fps
    Color space                    : YUV
    Chroma subsampling             : 4:2:0
    Bit depth                      : 8 bits
    Scan type                      : Progressive
    Bits/(Pixel*Frame)             : 0.067
    Stream size                    : 269 MiB (86%)

    Audio
    ID                             : 2
    Format                         : AAC
    Format/Info                    : Advanced Audio Codec
    Format profile                 : LC
    Codec ID                       : 40
    Duration                       : 46mn 5s
    Bit rate mode                  : Variable
    Bit rate                       : 128 Kbps
    Maximum bit rate               : 136 Kbps
    Channel(s)                     : 2 channels
    Channel positions              : Front: L R
    Sampling rate                  : 48.0 KHz
    Compression mode               : Lossy



    0 0

    Original Post: Falling in Love With Soon Jung E14 XVID WITH


    Drama: Fall in Love with Soon-Jung (literal title)
    Revised romanization: Soonjunge Banhada
    Hangul: 순정에 반하다
    Director: Ji Yeong-Su
    Writer: Yoo Hee-Gyung
    Network: JTBC
    Episodes:
    Release Date: April 3, 2015 --
    Runtime: Fridays & Saturdays 21:50
    Language: Korean
    Country: South Korea

    Plot
    After his uncle's unjust takeover of the family company, Kang Min Ho (Jung Kyung Ho) grows up to be a successful, if not cynical investor who only cares about money. But when he undergoes a sudden heart transplant surgery, Min Ho literally has a change of heart when he inherits a warm and compassionate heart. In the midst of seeing the world anew, including falling for the kind Kim Soon Jung (Kim So Yeon), Min Ho must mitigate his newfound personality with the demands of his cutthroat career.




    Code
    Video
    ID                                       : 0
    Format                                   : MPEG-4 Visual
    Format profile                           : Advanced Simple@L5
    Format settings, BVOP                    : No
    Format settings, QPel                    : No
    Format settings, GMC                     : No warppoints
    Format settings, Matrix                  : Default (MPEG)
    Codec ID                                 : XVID
    Codec ID/Hint                            : XviD
    Bit rate                                 : 1 391 Kbps
    Width                                    : 624 pixels
    Height                                   : 352 pixels
    Display aspect ratio                     : 16:9
    Frame rate                               : 29.970 fps
    Color space                              : YUV
    Chroma subsampling                       : 4:2:0
    Bit depth                                : 8 bits
    Scan type                                : Progressive
    Compression mode                         : Lossy
    Bits/(Pixel*Frame)                       : 0.211
    Stream size                              : 660 MiB (87%)
    Writing library                          : XviD 1.2.1 (UTC 2008-12-04)

    Audio
    ID                                       : 1
    Format                                   : MPEG Audio
    Format version                           : Version 1
    Format profile                           : Layer 3
    Mode                                     : Joint stereo
    Mode extension                           : MS Stereo
    Codec ID                                 : 55
    Codec ID/Hint                            : MP3
    Bit rate mode                            : Constant
    Bit rate                                 : 128 Kbps
    Channel(s)                               : 2 channels
    Sampling rate                            : 48.0 KHz
    Compression mode                         : Lossy
    Stream size                              : 60.8 MiB (8%)
    Alignment                                : Aligned on interleaves
    Writing library                          : LAME3.98.2



    0 0

    Original Post: Falling in Love With Soon Jung E14 720p WITH


    Drama: Fall in Love with Soon-Jung (literal title)
    Revised romanization: Soonjunge Banhada
    Hangul: 순정에 반하다
    Director: Ji Yeong-Su
    Writer: Yoo Hee-Gyung
    Network: JTBC
    Episodes:
    Release Date: April 3, 2015 --
    Runtime: Fridays & Saturdays 21:50
    Language: Korean
    Country: South Korea

    Plot
    After his uncle's unjust takeover of the family company, Kang Min Ho (Jung Kyung Ho) grows up to be a successful, if not cynical investor who only cares about money. But when he undergoes a sudden heart transplant surgery, Min Ho literally has a change of heart when he inherits a warm and compassionate heart. In the midst of seeing the world anew, including falling for the kind Kim Soon Jung (Kim So Yeon), Min Ho must mitigate his newfound personality with the demands of his cutthroat career.




    Code
    Video
    ID                                       : 0
    Format                                   : AVC
    Format/Info                              : Advanced Video Codec
    Format profile                           : Baseline@L3.1
    Format settings, CABAC                   : No
    Format settings, ReFrames                : 1 frame
    Codec ID                                 : H264
    Bit rate                                 : 3 017 Kbps
    Width                                    : 1 280 pixels
    Height                                   : 720 pixels
    Display aspect ratio                     : 16:9
    Frame rate mode                          : Variable
    Frame rate                               : 29.970 fps
    Color space                              : YUV
    Chroma subsampling                       : 4:2:0
    Bit depth                                : 8 bits
    Scan type                                : Progressive
    Bits/(Pixel*Frame)                       : 0.109

    Audio
    ID                                       : 1
    Format                                   : MPEG Audio
    Format version                           : Version 1
    Format profile                           : Layer 3
    Mode                                     : Joint stereo
    Mode extension                           : MS Stereo
    Codec ID                                 : 55
    Codec ID/Hint                            : MP3
    Bit rate mode                            : Constant
    Bit rate                                 : 128 Kbps
    Channel(s)                               : 2 channels
    Sampling rate                            : 44.1 KHz
    Compression mode                         : Lossy
    Stream size                              : 62.1 MiB (4%)
    Alignment                                : Aligned on interleaves
    Interleave, duration                     : 26 ms (0.78 video frame)
    Writing library                          : LAME3.98.2

    http://


    0 0
  • 05/18/15--09:53: We Are In Love E05 720p
  • Original Post: We Are In Love E05 720p



    English Title: We Are In Love
    Original: 我们相爱吧 (Wo Men Xiang Ai Ba)
    Broadcast: JSTV, 19 April 2015 Premiere
    Country: China
    Language: Mandarin, Korean
    Subtitles: Chinese

    NO ENGLISH SUBS

    This is the Chinese version of the South Korean variety show "We Got Married."
    Cast: Kimi Qiao & Xu Lu, Ruby Lin & Ren Zhong, Choi Siwon & Liu Wen






    Code
    General
    Format                                   : MPEG-4
    Format profile                           : Base Media / Version 2
    Codec ID                                 : mp42
    File size                                : 1.13 GiB
    Duration                                 : 1h 14mn
    Overall bit rate mode                    : Variable
    Overall bit rate                         : 2 180 Kbps

    Video
    ID                                       : 1
    Format                                   : AVC
    Format/Info                              : Advanced Video Codec
    Format profile                           : High@L3.1
    Format settings, CABAC                   : Yes
    Format settings, ReFrames                : 1 frame
    Codec ID                                 : avc1
    Codec ID/Info                            : Advanced Video Coding
    Duration                                 : 1h 14mn
    Bit rate                                 : 1 985 Kbps
    Maximum bit rate                         : 6 853 Kbps
    Width                                    : 1 280 pixels
    Height                                   : 720 pixels
    Display aspect ratio                     : 16:9
    Frame rate mode                          : Constant
    Frame rate                               : 25.000 fps
    Color space                              : YUV
    Chroma subsampling                       : 4:2:0
    Bit depth                                : 8 bits
    Scan type                                : Progressive
    Bits/(Pixel*Frame)                       : 0.086
    Stream size                              : 1.03 GiB (91%)

    Audio
    ID                                       : 2
    Format                                   : AAC
    Format/Info                              : Advanced Audio Codec
    Format profile                           : LC
    Codec ID                                 : 40
    Duration                                 : 1h 14mn
    Bit rate mode                            : Variable
    Bit rate                                 : 192 Kbps
    Maximum bit rate                         : 201 Kbps
    Channel count                            : 2 channels
    Channel positions                        : Front: L R
    Sampling rate                            : 44.1 KHz
    Compression mode                         : Lossy
    Stream size                              : 102 MiB (9%)



    0 0

    Original Post: Someone Like You (2015) [Ongoing] ENG SUB E19 720p



    Details:
    Chinese title: 聽見幸福 / Tīngjiàn xìngfú
    English title: Someone Like You
    Genre: Melodrama, Modern, Romance
    Episodes: 20
    Director: Chén Róng Huī
    Broadcast Period: January 11, 2015 - May 24, 2015
    Broadcast Day: Sundays
    Replacing: Say Again Yes I Do/I Do 2 再說一次我願意
    IMBD: None
    http://thetvdb.com/index.php?tab=series&id=292420

    Cast:
    KingOne Wang
    Lorene Ren (Rong Rong)
    Wei-lian
    Katie Chen
    Sean Lee
    Miao Ke-Li
    Alex Dǒng
    Darren (Guest Star)
    Hsieh Chi-Wen (Guest Star)
    Yao Yuan-Hao (Guest Star)
    Coke Lee (Guest Star)
    Bii (Guest Star)


    Synopsis
    :

    A man loses everything in one day in a tragic car accident. Fang Zhan Cheng (Kingone Wang) lost his fiancée, Liang Luo Han (Kirsten Ren), but he also lost his own eyesight. Devastated by the loss of his fiancée, Zhan Cheng is inconsolable and even refuses a corneal transplant that could restore his vision. But his life takes an unexpected turn when Wang Yu Xi (Kirsten Ren), who looks exactly like his fiancée, is hired to become Zhan Cheng’s day nurse. Another young woman, Xu Ya Ti (Nita Lei), receives Luo Han’s heart in a transplant and begins to exhibit many of Luo Han’s mannerisms and personality. Caught between a woman who looks exactly like his beloved dead fiancée and another woman who behaves just like her, what will Zhan Cheng do? “Someone Like You” is a 2015 Taiwanese drama series directed by Chen Rong Hui..







    Video Codec

    Code
    Video
    ID                                       : 1
    Format                                   : AVC
    Format/Info                              : Advanced Video Codec
    Format profile                           : Main@L3.1
    Format settings, CABAC                   : Yes
    Format settings, ReFrames                : 4 frames
    Codec ID                                 : V_MPEG4/ISO/AVC
    Duration                                 : 1h 14mn
    Width                                    : 1 280 pixels
    Height                                   : 720 pixels
    Display aspect ratio                     : 16:9
    Frame rate mode                          : Constant
    Frame rate                               : 29.970 fps
    Color space                              : YUV
    Chroma subsampling                       : 4:2:0
    Bit depth                                : 8 bits
    Scan type                                : Progressive
    Writing library                          : x264 core 138 r2 9e941d1
    Encoding settings                        : cabac=1 / ref=1 / deblock=1:0:0 / analyse=0x1:0 / me=dia / subme=2 / psy=1 / psy_rd=1.00:0.00 / mixed_ref=0 / me_range=16 / chroma_me=1 / trellis=0 / 8x8dct=0 / cqm=0 / deadzone=21,11 / fast_pskip=1 / chroma_qp_offset=0 / threads=12 / lookahead_threads=4 / sliced_threads=0 / nr=0 / decimate=1 / interlaced=0 / bluray_compat=0 / constrained_intra=0 / bframes=3 / b_pyramid=2 / b_adapt=1 / b_bias=0 / direct=1 / weightb=1 / open_gop=0 / weightp=2 / keyint=300 / keyint_min=29 / scenecut=40 / intra_refresh=0 / rc_lookahead=40 / rc=crf / mbtree=1 / crf=23.0 / qcomp=0.60 / qpmin=0 / qpmax=69 / qpstep=4 / ip_ratio=1.40 / aq=1:1.00
    Default                                  : Yes
    Forced                                   : No

    Audio
    ID                                       : 2
    Format                                   : AAC
    Format/Info                              : Advanced Audio Codec
    Format profile                           : LC
    Codec ID                                 : A_AAC
    Duration                                 : 1h 14mn
    Channel(s)                               : 2 channels
    Channel positions                        : Front: L R
    Sampling rate                            : 48.0 KHz
    Compression mode                         : Lossy
    Default                                  : Yes
    Forced                                   : No




    0 0

    Original Post: 64 (Rokuyon) EP04 720p HDTV x264 AAC-DoA



    http://wiki.d-addicts.com/64
    https://jdramas.wordpress.com/2015/04/19/64/
    http://thetvdb.com/?tab=series&id=293166&lid=7


    Title (romaji): 64 (Rokuyon)
    Format: Renzoku
    Genre: Mystery, suspense
    Episodes: 5
    Broadcast network: NHK
    Broadcast period: 2015-Apr-18 to 2015-May-16
    Air time: Saturday 21:00
    Subtitles: None - [url=/][/url]
    RAW credit to DoA


    Cast

       Pierre Taki
       Kimura Yoshino
       Iriyama Anna (入山杏奈)
       Arai Hirofumi
       Nagaoka Takuya (永岡卓也)
       Yamamoto Mizuki
       Nagayama Kento
       Tatsumi Tomoaki (辰巳智秋)
       Umefune Ariei (梅舟惟永)
       Abe Shohei (阿部翔平)
       Kitaro
       Takahashi Kazuya
       Hagiwara Masato
       Mizusawa Shingo (水澤紳吾)
       Nakamura Yuko (中村優子)
       Kokontei Kikunojo (古今亭菊之丞)
       Hira Takehiro
       Ono Ryo
       Yoshida Eisaku
       Nakahara Takeo
       Shibata Kyohei
       Murakami Jun
       Saito Tomoko (斉藤とも子)
       Ando Tamae
       Sato Naoko (佐藤直子)
       Danta Yasunori


    Synopsis

    While the public relations office of D Prefectural Police is having a confrontation with the correspondents' club, over the issue of the anonymity of perpetrators, it is decided that a Tokyo Metropolitan Police Department director will inspect the home of the family of the victim in "64", an important unsolved case with its statute of limitation about to run out one week later. The kidnapping and murder of Shoko-chan which took place in just 7 days in 1989 (Showa 64) was the worst in D Prefectural Police's history. The family of the deceased decline the director's visit to offer condolences. A gag order is imposed on those involved in 64 such as the investigators at the time. An iron curtain between the Criminal Investigations Department and the Police Affairs Department. A mysterious memo. Then a new kidnapping that happens right before the director's inspection, is a exact copycat of 64. -- Jdrama Weblog


    Mediainfo
    Spoiler:show

    Code
    Format                                   : Matroska
    Format version                           : Version 4 / Version 2
    File size                                : 1.00 GiB
    Duration                                 : 57mn 59s
    Overall bit rate                         : 2 476 Kbps
    Encoded date                             : UTC 2015-05-16 15:55:00
    Writing application                      : mkvmerge v7.0.0 ('Where We Going') 32bit built on Jun  9 2014 15:08:34
    Writing library                          : libebml v1.3.0 + libmatroska v1.4.1
    DURATION                                 : 00:57:59.872000000
    NUMBER_OF_FRAMES                         : 163119
    NUMBER_OF_BYTES                          : 61170777
    _STATISTICS_WRITING_APP                  : mkvmerge v7.0.0 ('Where We Going') 32bit built on Jun  9 2014 15:08:34
    _STATISTICS_WRITING_DATE_UTC             : 2015-05-16 15:55:00
    _STATISTICS_TAGS                         : BPS DURATION NUMBER_OF_FRAMES NUMBER_OF_BYTES

    Video
    ID                                       : 1
    Format                                   : AVC
    Format/Info                              : Advanced Video Codec
    Format profile                           : High@L4.1
    Format settings, CABAC                   : Yes
    Format settings, ReFrames                : 9 frames
    Codec ID                                 : V_MPEG4/ISO/AVC
    Duration                                 : 57mn 59s
    Width                                    : 1 280 pixels
    Height                                   : 720 pixels
    Display aspect ratio                     : 16:9
    Frame rate mode                          : Constant
    Frame rate                               : 29.970 fps
    Color space                              : YUV
    Chroma subsampling                       : 4:2:0
    Bit depth                                : 8 bits
    Scan type                                : Progressive
    Writing library                          : x264 core 146 r2538 121396c
    Encoding settings                        : cabac=1 / ref=9 / deblock=1:-3:-3 / analyse=0x3:0x133 / me=umh / subme=10 / psy=1 / psy_rd=1.00:0.00 / mixed_ref=1 / me_range=48 / chroma_me=1 / trellis=2 / 8x8dct=1 / cqm=0 / deadzone=21,11 / fast_pskip=0 / chroma_qp_offset=-2 / threads=12 / lookahead_threads=2 / sliced_threads=0 / nr=0 / decimate=1 / interlaced=0 / bluray_compat=0 / constrained_intra=0 / bframes=8 / b_pyramid=2 / b_adapt=2 / b_bias=0 / direct=3 / weightb=1 / open_gop=0 / weightp=2 / keyint=300 / keyint_min=29 / scenecut=40 / intra_refresh=0 / rc_lookahead=60 / rc=crf / mbtree=1 / crf=18.0 / qcomp=0.60 / qpmin=0 / qpmax=69 / qpstep=4 / ip_ratio=1.40 / aq=1:1.00
    Language                                 : English
    Default                                  : Yes
    Forced                                   : No
    DURATION                                 : 00:57:59.943000000
    NUMBER_OF_FRAMES                         : 104294
    NUMBER_OF_BYTES                          : 1014959896
    _STATISTICS_WRITING_APP                  : mkvmerge v7.0.0 ('Where We Going') 32bit built on Jun  9 2014 15:08:34
    _STATISTICS_WRITING_DATE_UTC             : 2015-05-16 15:55:00
    _STATISTICS_TAGS                         : BPS DURATION NUMBER_OF_FRAMES NUMBER_OF_BYTES

    Audio
    ID                                       : 2
    Format                                   : AAC
    Format/Info                              : Advanced Audio Codec
    Format profile                           : LC
    Codec ID                                 : A_AAC
    Duration                                 : 57mn 59s
    Channel(s)                               : 2 channels
    Channel positions                        : Front: L R
    Sampling rate                            : 48.0 KHz
    Compression mode                         : Lossy
    Delay relative to video                  : 15ms
    Default                                  : Yes
    Forced                                   : No





    0 0

    Original Post: Wild Heroes EP03 720p HDTV x264 AAC-DoA



    http://wiki.d-addicts.com/Wild_Heroes
    http://asianwiki.com/Wild_Heroes
    http://thetvdb.com/?tab=series&id=292904


    Title (English): Wild Heroes
    Format: Renzoku
    Genre: Action
    Episodes: TBD
    Broadcast network: NTV
    Broadcast period: 2015-Apr-19 start
    Air time: Sunday 22:30
    Theme song: Kimi ga Ita kara by Crystal Kay
    Subtitles: None - [url=/][/url]
    RAW credit to DoA


    Cast
    Spoiler:show


       TAKAHIRO as Segawa Kiichi
       Aoyagi Sho
       Iwata Takanori
       Nogae Shuhei (野替愁平)
       Yagi Masayasu (八木将康)
       Sato Taiki (佐藤大樹)
       Kuroki Keiji (黒木啓司)
       Sakurada Hiyori (桜田ひより) as Hikari
       Mizusawa Elena
       Hasegawa Hatsunori
       Asaka Mayumi
       Tobita Hikari (飛田光里)
       Kusamura Reiko
       Sakai Miki
       Nakamura Shizuka
       Ninomiya Ai (二宮愛)
       Kazuki Saya
       Hirata Kaoru
       Tsukamoto Takashi
       Naitou Takashi


    Synopsis
    Spoiler:show

    A former delinquent, Segawa Kiichi (TAKAHIRO), happens to encounter a lonely 10-year-old girl, Hikari (Sakurada Hiyori), who looks like she is going to be killed by a gangster. He saves her by reflex, but does not get an answer when he asks what is going on. Because of that, he is mysteriously attacked time and again. With his own life in sudden danger, he calls on six friends (Aoyagi Sho, Iwata Takanori, Sato Taiki, Nogae Shuhei, Yagi Masayasu, Kuroki Keiji) from his high school days as a delinquent. These enthusiastic, single-minded men band together to protect her to the end.


    Mediainfo
    Spoiler:show

    Code
    Format                                   : Matroska
    Format version                           : Version 4 / Version 2
    File size                                : 715 MiB
    Duration                                 : 46mn 24s
    Overall bit rate                         : 2 153 Kbps
    Encoded date                             : UTC 2015-05-16 15:56:08
    Writing application                      : mkvmerge v7.0.0 ('Where We Going') 32bit built on Jun  9 2014 15:08:34
    Writing library                          : libebml v1.3.0 + libmatroska v1.4.1
    DURATION                                 : 00:46:24.320000000
    NUMBER_OF_FRAMES                         : 130515
    NUMBER_OF_BYTES                          : 65649067
    _STATISTICS_WRITING_APP                  : mkvmerge v7.0.0 ('Where We Going') 32bit built on Jun  9 2014 15:08:34
    _STATISTICS_WRITING_DATE_UTC             : 2015-05-16 15:56:08
    _STATISTICS_TAGS                         : BPS DURATION NUMBER_OF_FRAMES NUMBER_OF_BYTES

    Video
    ID                                       : 1
    Format                                   : AVC
    Format/Info                              : Advanced Video Codec
    Format profile                           : High@L4.1
    Format settings, CABAC                   : Yes
    Format settings, ReFrames                : 9 frames
    Codec ID                                 : V_MPEG4/ISO/AVC
    Duration                                 : 46mn 24s
    Width                                    : 1 280 pixels
    Height                                   : 720 pixels
    Display aspect ratio                     : 16:9
    Frame rate mode                          : Constant
    Frame rate                               : 29.970 fps
    Color space                              : YUV
    Chroma subsampling                       : 4:2:0
    Bit depth                                : 8 bits
    Scan type                                : Progressive
    Writing library                          : x264 core 146 r2538 121396c
    Encoding settings                        : cabac=1 / ref=9 / deblock=1:-3:-3 / analyse=0x3:0x133 / me=umh / subme=10 / psy=1 / psy_rd=1.00:0.00 / mixed_ref=1 / me_range=48 / chroma_me=1 / trellis=2 / 8x8dct=1 / cqm=0 / deadzone=21,11 / fast_pskip=0 / chroma_qp_offset=-2 / threads=12 / lookahead_threads=2 / sliced_threads=0 / nr=0 / decimate=1 / interlaced=0 / bluray_compat=0 / constrained_intra=0 / bframes=8 / b_pyramid=2 / b_adapt=2 / b_bias=0 / direct=3 / weightb=1 / open_gop=0 / weightp=2 / keyint=300 / keyint_min=29 / scenecut=40 / intra_refresh=0 / rc_lookahead=60 / rc=crf / mbtree=1 / crf=19.0 / qcomp=0.60 / qpmin=0 / qpmax=69 / qpstep=4 / ip_ratio=1.40 / aq=1:1.00
    Language                                 : English
    Default                                  : Yes
    Forced                                   : No
    DURATION                                 : 00:46:24.581000000
    NUMBER_OF_FRAMES                         : 83454
    NUMBER_OF_BYTES                          : 682812809
    _STATISTICS_WRITING_APP                  : mkvmerge v7.0.0 ('Where We Going') 32bit built on Jun  9 2014 15:08:34
    _STATISTICS_WRITING_DATE_UTC             : 2015-05-16 15:56:08
    _STATISTICS_TAGS                         : BPS DURATION NUMBER_OF_FRAMES NUMBER_OF_BYTES

    Audio
    ID                                       : 2
    Format                                   : AAC
    Format/Info                              : Advanced Audio Codec
    Format profile                           : LC
    Codec ID                                 : A_AAC
    Duration                                 : 46mn 24s
    Channel(s)                               : 2 channels
    Channel positions                        : Front: L R
    Sampling rate                            : 48.0 KHz
    Compression mode                         : Lossy
    Delay relative to video                  : 16ms
    Default                                  : Yes
    Forced                                   : No





    0 0

    Original Post: Kabukimono Keiji EP05 720p HDTV x264 AAC-DoA



    https://jdramas.wordpress.com/2015/04/25/kabukimono-keiji/


    Title: Kabukimono Keiji
    Genre: jidaigeki
    Number of Episodes: 11
    Broadcaster NHK
    Air date: 04/09/2015 - 06/18/2015
    Air time: Thursday, 20:00
    Subtitles: None - [url=][/url]
    RAW credit to DoA


    Cast
    Spoiler:show

       Fuji Tatsuya as Maeda Keiji
       Nakamura Aoi as Maeda Shinkurou
       Nishiuchi Mariya as Maeda Sano
       Kudo Asuka as Yasuda Katsunoshin
       Enami Kyoko as Maeda Mitsu
       Aoyama Noriko as Maeda Hana
       Dan Mitsu as Shizuku
       Yoo Min as Yukiyo
       Tabata Tomoko as Take
       Maeda Beverly as Izumi-kyoku
       Kakuda Nobuaki as Kitagawa Jiuemon
       Ibu Masato as Tentoku Osho
       Hino Shohei as Matayoshi


    Synopsis
    Spoiler:show

    1608 (Keichou 13) was the year Tokugawa Ieyasu won the Battle of Sekigahara. Under Ieyasu’s reign the Uesugis had their vast 1,200,000 koku holdings in Aizu drastically curtailed to 300,000 koku in Yonezawa, Dewa Province. Many vassals give up on the future and leave the Uesugis. In the midst of this, Maeda Keiji continues to remain in Yonezawa and chooses to live with people trying to cope with difficult times. Over 60, he lives in a shabby, secluded hut and contemplates the “right time”. On the other hand, his son, Shinkuro, objects to him being fond of drinking and absorbed in cultural pursuits such as poetry, painting and calligraphy, and nothing like the brave general he is famed to be with the rumours of the Tokugawa plotting the demise of the Uesugis. However, Keiji “performs” when it comes to the crunch. Although he has considered retirement, he is willing to sacrifice himself in order to protect the Uesugis. Shinkuro is gradually fascinated by his magnanimity and his way of life. Keiji is in no hurry to hand over the reins of the family to Shinkuro. Furthermore, Keiji’s daughter, Sano, comes from the Maedas of Kaga to bring her father back and both Shinkuro and Sano are shocked to learn of the existence of a sibling for the first time. In the midst of this, Kitagawa Jiemon a wandering samurai who once fought with Keiji, challenges him to a duel.


    Mediainfo
    Spoiler:show

    Code
    Format                                   : Matroska
    Format version                           : Version 4 / Version 2
    File size                                : 880 MiB
    Duration                                 : 42mn 59s
    Overall bit rate                         : 2 862 Kbps
    Encoded date                             : UTC 2015-05-16 15:55:37
    Writing application                      : mkvmerge v7.0.0 ('Where We Going') 32bit built on Jun  9 2014 15:08:34
    Writing library                          : libebml v1.3.0 + libmatroska v1.4.1
    DURATION                                 : 00:42:59.647000000
    NUMBER_OF_FRAMES                         : 120921
    NUMBER_OF_BYTES                          : 45345552
    _STATISTICS_WRITING_APP                  : mkvmerge v7.0.0 ('Where We Going') 32bit built on Jun  9 2014 15:08:34
    _STATISTICS_WRITING_DATE_UTC             : 2015-05-16 15:55:37
    _STATISTICS_TAGS                         : BPS DURATION NUMBER_OF_FRAMES NUMBER_OF_BYTES

    Video
    ID                                       : 1
    Format                                   : AVC
    Format/Info                              : Advanced Video Codec
    Format profile                           : High@L4.1
    Format settings, CABAC                   : Yes
    Format settings, ReFrames                : 9 frames
    Codec ID                                 : V_MPEG4/ISO/AVC
    Duration                                 : 42mn 59s
    Width                                    : 1 280 pixels
    Height                                   : 720 pixels
    Display aspect ratio                     : 16:9
    Frame rate mode                          : Constant
    Frame rate                               : 29.970 fps
    Color space                              : YUV
    Chroma subsampling                       : 4:2:0
    Bit depth                                : 8 bits
    Scan type                                : Progressive
    Writing library                          : x264 core 146 r2538 121396c
    Encoding settings                        : cabac=1 / ref=9 / deblock=1:-3:-3 / analyse=0x3:0x133 / me=umh / subme=10 / psy=1 / psy_rd=1.00:0.00 / mixed_ref=1 / me_range=48 / chroma_me=1 / trellis=2 / 8x8dct=1 / cqm=0 / deadzone=21,11 / fast_pskip=0 / chroma_qp_offset=-2 / threads=12 / lookahead_threads=2 / sliced_threads=0 / nr=0 / decimate=1 / interlaced=0 / bluray_compat=0 / constrained_intra=0 / bframes=8 / b_pyramid=2 / b_adapt=2 / b_bias=0 / direct=3 / weightb=1 / open_gop=0 / weightp=2 / keyint=300 / keyint_min=29 / scenecut=40 / intra_refresh=0 / rc_lookahead=60 / rc=crf / mbtree=1 / crf=18.0 / qcomp=0.60 / qpmin=0 / qpmax=69 / qpstep=4 / ip_ratio=1.40 / aq=1:1.00
    Language                                 : English
    Default                                  : Yes
    Forced                                   : No
    DURATION                                 : 00:42:59.810000000
    NUMBER_OF_FRAMES                         : 77317
    NUMBER_OF_BYTES                          : 876660593
    _STATISTICS_WRITING_APP                  : mkvmerge v7.0.0 ('Where We Going') 32bit built on Jun  9 2014 15:08:34
    _STATISTICS_WRITING_DATE_UTC             : 2015-05-16 15:55:37
    _STATISTICS_TAGS                         : BPS DURATION NUMBER_OF_FRAMES NUMBER_OF_BYTES

    Audio
    ID                                       : 2
    Format                                   : AAC
    Format/Info                              : Advanced Audio Codec
    Format profile                           : LC
    Codec ID                                 : A_AAC
    Duration                                 : 42mn 59s
    Channel(s)                               : 2 channels
    Channel positions                        : Front: L R
    Sampling rate                            : 48.0 KHz
    Compression mode                         : Lossy
    Delay relative to video                  : 3ms
    Default                                  : Yes
    Forced                                   : No





    0 0

    Original Post: TVB The.Empress.of.China.E23.HDTV.H264.2Audio.720p-CensoredCleavages


    Detail:
    Title: Empress Of China
    AKA:武媚娘傳奇
    Genre: Historical fiction
    Release Date: April 26, 2015 - July 4, 2015
    Episodes: 70
    Director: Go Yik Chun
    Country: China
    Language: Track 1: Mandarin/ Track 2: Cantonese dub
    Subtitles: English (srt embedded)
    http://thetvdb.com/?tab=series&id=289782

    Fan Bingbing as Wu Meiniang
    Zhang Fengyi as Li Shimin
    Aarif Rahman as Li Zhi
    Janine Chang as Xu Hui
    Li Chen as Li Mu
    Chang Ting as Consort Wei
    Wu Xiubo as Zhang Jianzhi
    Viann Zhang as Consort Xiao
    Kathy Chow as Consort Yang
    Wang Huichun as Zhangsun Wuji
    Lee Lee-jen as Li Chengqian
    Li Jie as Li Ke
    Yu Haoming as Li Chunfeng

    Before she was the most famous female ruler in Chinese history, Wu Mei Liang was a woman vying for her husbands’ love. While her first husband kept her at arm’s length by a prophecy foretelling a woman of Wu stealing the Tang Dynasty, her second husband welcomed her with open arms. During her time as a minor consort to Li Shi Min, she learned how an effective Emperor rule his court. Using that knowledge, she helped Li Zhi take back power from his Regent, and herself into the position of Empress. She co-ruled with Li Zhi until his death, after which she ruled the country in her own right.







    Code
    Video
    ID                             : 1
    Format                         : AVC
    Format/Info                    : Advanced Video Codec
    Format profile                 : Main@L4.0
    Format settings, CABAC         : Yes
    Format settings, ReFrames      : 4 frames
    Codec ID                       : V_MPEG4/ISO/AVC
    Bit rate                       : 4 500 Kbps
    Width                          : 1 280 pixels
    Height                         : 720 pixels
    Display aspect ratio           : 16:9
    Frame rate mode                : Variable
    Color space                    : YUV
    Chroma subsampling             : 4:2:0
    Bit depth                      : 8 bits
    Scan type                      : Progressive
    Title                          : The.Empress.of.China.E23.HDTV.H264.2Audio.720p-CensoredCleavages
    Writing library                : x264 core 130 r2273 b3065e6
    Language                       : Chinese
    Default                        : Yes
    Forced                         : No
    Color primaries                : BT.709
    Transfer characteristics       : BT.709
    Matrix coefficients            : BT.709

    Audio #1
    ID                             : 2
    Format                         : AC-3
    Format/Info                    : Audio Coding 3
    Mode extension                 : CM (complete main)
    Format settings, Endianness    : Big
    Codec ID                       : A_AC3
    Duration                       : 44mn 27s
    Bit rate mode                  : Constant
    Bit rate                       : 384 Kbps
    Channel(s)                     : 6 channels
    Channel positions              : Front: L C R, Side: L R, LFE
    Sampling rate                  : 48.0 KHz
    Bit depth                      : 16 bits
    Compression mode               : Lossy
    Stream size                    : 122 MiB (8%)
    Title                          : Mandarin
    Language                       : Chinese
    Default                        : Yes
    Forced                         : No

    Audio #2
    ID                             : 3
    Format                         : AC-3
    Format/Info                    : Audio Coding 3
    Mode extension                 : CM (complete main)
    Format settings, Endianness    : Big
    Codec ID                       : A_AC3
    Duration                       : 44mn 27s
    Bit rate mode                  : Constant
    Bit rate                       : 192 Kbps
    Channel(s)                     : 2 channels
    Channel positions              : Front: L R
    Sampling rate                  : 48.0 KHz
    Bit depth                      : 16 bits
    Compression mode               : Lossy
    Stream size                    : 61.1 MiB (4%)
    Title                          : Cantonese
    Language                       : Chinese
    Default                        : No
    Forced                         : No

    Text
    ID                             : 4
    Format                         : UTF-8
    Codec ID                       : S_TEXT/UTF8
    Codec ID/Info                  : UTF-8 Plain Text
    Default                        : Yes
    Forced                         : No



    0 0

    Original Post: [Singapore Drama] Mind Games EP02 720p HDTV x264 AAC-DoA



    Title: Mind Game(心迷)
    Genre: Drama
    Episodes: TBD
    Broadcast network: MediaCorp
    Country: Singapore
    Language: Mandarin
    Broadcast period: 7 May - 17 Jun
    Air time: Weekday 21:00
    Subtitles: English
    RAW credit to DoA

     
    Cast

       Joanne Peh as Zhao Anni
       Tay Ping Hui as Liang Wenjie
       Zhang Yao Dong as Guo Yongyan
       Paige Chua as Feng Xuezhi/Liang Huixin
       Yuan Shuai
       Terence Cao
       Ye Shipin
       Akit Tay
       Tiffany Leong


    Synopsis

    Mind Games is thriller-romance drama with many unexpected twists and suspense. Liang Wen Jie (Tay Ping Hui) is a paralegal at a law firm; he is in-charge of many mysterious cases that requires thorough investigations. In each case, suspects are extremely careful as they plot elaborate lies to escape from detection. However, none of them can escape from Wen Jie who has a sharp analytical mind and is attentive to even the smallest details.


    Mediainfo
    Spoiler:show

    Code
    Format                                   : Matroska
    Format version                           : Version 4 / Version 2
    File size                                : 1.08 GiB
    Duration                                 : 45mn 35s
    Overall bit rate                         : 3 400 Kbps
    Encoded date                             : UTC 2015-05-10 05:01:17
    Writing application                      : mkvmerge v6.1.0 ('Old Devil') built on Mar  2 2013 14:32:37
    Writing library                          : libebml v1.3.0 + libmatroska v1.4.0

    Video
    ID                                       : 1
    Format                                   : AVC
    Format/Info                              : Advanced Video Codec
    Format profile                           : High@L4.1
    Format settings, CABAC                   : Yes
    Format settings, ReFrames                : 5 frames
    Codec ID                                 : V_MPEG4/ISO/AVC
    Duration                                 : 45mn 35s
    Bit rate                                 : 3 204 Kbps
    Width                                    : 1 280 pixels
    Height                                   : 720 pixels
    Display aspect ratio                     : 16:9
    Frame rate mode                          : Constant
    Frame rate                               : 25.000 fps
    Color space                              : YUV
    Chroma subsampling                       : 4:2:0
    Bit depth                                : 8 bits
    Scan type                                : Progressive
    Bits/(Pixel*Frame)                       : 0.139
    Stream size                              : 1.02 GiB (94%)
    Writing library                          : x264 core 120 r2164 da19765
    Encoding settings                        : cabac=1 / ref=5 / deblock=1:-3:-3 / analyse=0x3:0x133 / me=umh / subme=9 / psy=1 / psy_rd=1.00:0.15 / mixed_ref=1 / me_range=16 / chroma_me=1 / trellis=2 / 8x8dct=1 / cqm=0 / deadzone=21,11 / fast_pskip=1 / chroma_qp_offset=-3 / threads=6 / sliced_threads=0 / nr=0 / decimate=1 / interlaced=0 / bluray_compat=0 / constrained_intra=0 / bframes=8 / b_pyramid=2 / b_adapt=2 / b_bias=0 / direct=3 / weightb=1 / open_gop=0 / weightp=2 / keyint=250 / keyint_min=25 / scenecut=40 / intra_refresh=0 / rc_lookahead=60 / rc=crf / mbtree=1 / crf=18.0 / qcomp=0.60 / qpmin=0 / qpmax=69 / qpstep=4 / ip_ratio=1.40 / aq=1:1.00
    Default                                  : Yes
    Forced                                   : No

    Audio
    ID                                       : 2
    Format                                   : AC-3
    Format/Info                              : Audio Coding 3
    Mode extension                           : CM (complete main)
    Format settings, Endianness              : Big
    Codec ID                                 : A_AC3
    Duration                                 : 45mn 35s
    Bit rate mode                            : Constant
    Bit rate                                 : 128 Kbps
    Channel(s)                               : 2 channels
    Channel positions                        : Front: L R
    Sampling rate                            : 48.0 KHz
    Bit depth                                : 16 bits
    Compression mode                         : Lossy
    Stream size                              : 41.7 MiB (4%)
    Language                                 : Chinese
    Default                                  : Yes
    Forced                                   : No





    0 0

    Original Post: She EP05 Finale 720p HDTV x264 AAC DoA



    http://wiki.d-addicts.com/She
    http://asianwiki.com/She_%28Japanese_Drama%29
    http://thetvdb.com/?tab=series&id=294070&lid=7


    Title: She
    Format: Renzoku
    Genre: Suspense, school
    Episodes: 5
    Broadcast network: Fuji TV
    Broadcast period: 2015-Apr-18 to 2015-May-16
    Air time: Saturday 23:40
    Subtitles: English - miitla
    RAW credit to DoA


    Cast

       Matsuoka Mayu as Nishizawa Ryoko
       Nakajo Ayami as Ogiwara Azusa
       Taketomi Seika as Yamamoto Saya
       Morikawa Aoi as Okumura Chisato
       Shimizu Kurumi (清水くるみ) as Eto Miyuri
       Narita Ryo (成田凌) as Muraoka Haruto
       Shirasu Jin (白洲迅) as Hirose Yuki


    Synopsis

    Nishizawa Ryoko is a cool-headed, brilliant-minded high school student who aspires to become journalist. On the very first day of the school year, Ryoko's best friend Ogiwara Azusa goes missing all of a sudden and no one can account her whereabouts. Azusa's mother and police immediately starts investigating the case and interviewing students at school. In order to uncover the hidden truth and real reason behind the disappearance of her best friends, Ryoko undertakes her own investigation into the matter. As she digs further and further into her investigation and talking to Azusa's circle of friends, their deep-hidden feelings are revealed and friendships get tested to the brink... -- Fuji TV


    Mediainfo
    Spoiler:show

    Code
    Format                                   : Matroska
    Format version                           : Version 4 / Version 2
    File size                                : 578 MiB
    Duration                                 : 19mn 29s
    Overall bit rate                         : 4 147 Kbps
    Movie name                               : She #05 END 720p HDTV x264 AAC-DoA
    Encoded date                             : UTC 2015-05-17 01:47:12
    Writing application                      : mkvmerge v7.8.0 ('River Man') 64bit built on Mar 27 2015 16:31:37
    Writing library                          : libebml v1.3.1 + libmatroska v1.4.2
    DURATION                                 : 00:19:29.813000000
    NUMBER_OF_FRAMES                         : 54835
    NUMBER_OF_BYTES                          : 27581846
    _STATISTICS_WRITING_APP                  : mkvmerge v7.8.0 ('River Man') 64bit built on Mar 27 2015 16:31:37
    _STATISTICS_WRITING_DATE_UTC             : 2015-05-17 01:47:12
    _STATISTICS_TAGS                         : BPS DURATION NUMBER_OF_FRAMES NUMBER_OF_BYTES

    Video
    ID                                       : 1
    Format                                   : AVC
    Format/Info                              : Advanced Video Codec
    Format profile                           : High@L4.1
    Format settings, CABAC                   : Yes
    Format settings, ReFrames                : 9 frames
    Codec ID                                 : V_MPEG4/ISO/AVC
    Duration                                 : 19mn 29s
    Width                                    : 1 280 pixels
    Height                                   : 720 pixels
    Display aspect ratio                     : 16:9
    Frame rate mode                          : Constant
    Frame rate                               : 29.970 fps
    Color space                              : YUV
    Chroma subsampling                       : 4:2:0
    Bit depth                                : 8 bits
    Scan type                                : Progressive
    Title                                    : Encode by DoA
    Writing library                          : x264 core 130 r2273 b3065e6
    Encoding settings                        : cabac=1 / ref=9 / deblock=1:-2:-2 / analyse=0x3:0x133 / me=umh / subme=10 / psy=1 / psy_rd=1.00:0.15 / mixed_ref=1 / me_range=48 / chroma_me=1 / trellis=2 / 8x8dct=1 / cqm=0 / deadzone=21,11 / fast_pskip=0 / chroma_qp_offset=-3 / threads=12 / lookahead_threads=2 / sliced_threads=0 / nr=0 / decimate=1 / interlaced=0 / bluray_compat=0 / constrained_intra=0 / bframes=8 / b_pyramid=2 / b_adapt=2 / b_bias=0 / direct=3 / weightb=1 / open_gop=0 / weightp=2 / keyint=300 / keyint_min=29 / scenecut=40 / intra_refresh=0 / rc_lookahead=60 / rc=crf / mbtree=1 / crf=17.8 / qcomp=0.60 / qpmin=0 / qpmax=69 / qpstep=4 / ip_ratio=1.40 / aq=1:1.00
    Language                                 : Japanese
    Default                                  : Yes
    Forced                                   : No
    DURATION                                 : 00:19:29.835000000
    NUMBER_OF_FRAMES                         : 35060
    NUMBER_OF_BYTES                          : 578422774
    _STATISTICS_WRITING_APP                  : mkvmerge v7.8.0 ('River Man') 64bit built on Mar 27 2015 16:31:37
    _STATISTICS_WRITING_DATE_UTC             : 2015-05-17 01:47:12
    _STATISTICS_TAGS                         : BPS DURATION NUMBER_OF_FRAMES NUMBER_OF_BYTES

    Audio
    ID                                       : 2
    Format                                   : AAC
    Format/Info                              : Advanced Audio Codec
    Format profile                           : LC
    Codec ID                                 : A_AAC
    Duration                                 : 19mn 29s
    Channel(s)                               : 2 channels
    Channel positions                        : Front: L R
    Sampling rate                            : 48.0 KHz
    Compression mode                         : Lossy
    Delay relative to video                  : 53ms
    Language                                 : Japanese
    Default                                  : Yes
    Forced                                   : No

    Menu
    00:00:00.000                             : ja:She #05 Part 1
    00:02:04.858                             : ja:オープニング
    00:02:12.866                             : ja:She #05 Part 2
    00:09:24.964                             : ja:She #05 Part 3
    00:10:36.902                             : ja:She #05 Part 4
    00:13:56.869                             : ja:提供
    00:14:06.846                             : ja:She #05 Part 5
    00:19:06.512                             : ja:エンディング
    00:19:14.820                             : ja:新番組予告「妄想彼女」





    0 0

    Original Post: Wild Heroes EP04 720p HDTV x264 AAC-DoA



    http://wiki.d-addicts.com/Wild_Heroes
    http://asianwiki.com/Wild_Heroes
    http://thetvdb.com/?tab=series&id=292904


    Title (English): Wild Heroes
    Format: Renzoku
    Genre: Action
    Episodes: TBD
    Broadcast network: NTV
    Broadcast period: 2015-Apr-19 start
    Air time: Sunday 22:30
    Theme song: Kimi ga Ita kara by Crystal Kay
    Subtitles: None - [url=/][/url]
    RAW credit to DoA


    Cast
    Spoiler:show


       TAKAHIRO as Segawa Kiichi
       Aoyagi Sho
       Iwata Takanori
       Nogae Shuhei (野替愁平)
       Yagi Masayasu (八木将康)
       Sato Taiki (佐藤大樹)
       Kuroki Keiji (黒木啓司)
       Sakurada Hiyori (桜田ひより) as Hikari
       Mizusawa Elena
       Hasegawa Hatsunori
       Asaka Mayumi
       Tobita Hikari (飛田光里)
       Kusamura Reiko
       Sakai Miki
       Nakamura Shizuka
       Ninomiya Ai (二宮愛)
       Kazuki Saya
       Hirata Kaoru
       Tsukamoto Takashi
       Naitou Takashi


    Synopsis
    Spoiler:show

    A former delinquent, Segawa Kiichi (TAKAHIRO), happens to encounter a lonely 10-year-old girl, Hikari (Sakurada Hiyori), who looks like she is going to be killed by a gangster. He saves her by reflex, but does not get an answer when he asks what is going on. Because of that, he is mysteriously attacked time and again. With his own life in sudden danger, he calls on six friends (Aoyagi Sho, Iwata Takanori, Sato Taiki, Nogae Shuhei, Yagi Masayasu, Kuroki Keiji) from his high school days as a delinquent. These enthusiastic, single-minded men band together to protect her to the end.


    Mediainfo
    Spoiler:show

    Code
    Format                                   : Matroska
    Format version                           : Version 4 / Version 2
    File size                                : 922 MiB
    Duration                                 : 46mn 9s
    Overall bit rate                         : 2 791 Kbps
    Encoded date                             : UTC 2015-05-16 15:56:50
    Writing application                      : mkvmerge v7.0.0 ('Where We Going') 32bit built on Jun  9 2014 15:08:34
    Writing library                          : libebml v1.3.0 + libmatroska v1.4.1
    DURATION                                 : 00:46:09.344000000
    NUMBER_OF_FRAMES                         : 129813
    NUMBER_OF_BYTES                          : 65295953
    _STATISTICS_WRITING_APP                  : mkvmerge v7.0.0 ('Where We Going') 32bit built on Jun  9 2014 15:08:34
    _STATISTICS_WRITING_DATE_UTC             : 2015-05-16 15:56:50
    _STATISTICS_TAGS                         : BPS DURATION NUMBER_OF_FRAMES NUMBER_OF_BYTES

    Video
    ID                                       : 1
    Format                                   : AVC
    Format/Info                              : Advanced Video Codec
    Format profile                           : High@L4.1
    Format settings, CABAC                   : Yes
    Format settings, ReFrames                : 9 frames
    Codec ID                                 : V_MPEG4/ISO/AVC
    Duration                                 : 46mn 9s
    Width                                    : 1 280 pixels
    Height                                   : 720 pixels
    Display aspect ratio                     : 16:9
    Frame rate mode                          : Constant
    Frame rate                               : 29.970 fps
    Color space                              : YUV
    Chroma subsampling                       : 4:2:0
    Bit depth                                : 8 bits
    Scan type                                : Progressive
    Writing library                          : x264 core 146 r2538 121396c
    Encoding settings                        : cabac=1 / ref=9 / deblock=1:-3:-3 / analyse=0x3:0x133 / me=umh / subme=10 / psy=1 / psy_rd=1.00:0.00 / mixed_ref=1 / me_range=48 / chroma_me=1 / trellis=2 / 8x8dct=1 / cqm=0 / deadzone=21,11 / fast_pskip=0 / chroma_qp_offset=-2 / threads=12 / lookahead_threads=2 / sliced_threads=0 / nr=0 / decimate=1 / interlaced=0 / bluray_compat=0 / constrained_intra=0 / bframes=8 / b_pyramid=2 / b_adapt=2 / b_bias=0 / direct=3 / weightb=1 / open_gop=0 / weightp=2 / keyint=300 / keyint_min=29 / scenecut=40 / intra_refresh=0 / rc_lookahead=60 / rc=crf / mbtree=1 / crf=19.0 / qcomp=0.60 / qpmin=0 / qpmax=69 / qpstep=4 / ip_ratio=1.40 / aq=1:1.00
    Language                                 : English
    Default                                  : Yes
    Forced                                   : No
    DURATION                                 : 00:46:09.733000000
    NUMBER_OF_FRAMES                         : 83009
    NUMBER_OF_BYTES                          : 900098444
    _STATISTICS_WRITING_APP                  : mkvmerge v7.0.0 ('Where We Going') 32bit built on Jun  9 2014 15:08:34
    _STATISTICS_WRITING_DATE_UTC             : 2015-05-16 15:56:50
    _STATISTICS_TAGS                         : BPS DURATION NUMBER_OF_FRAMES NUMBER_OF_BYTES

    Audio
    ID                                       : 2
    Format                                   : AAC
    Format/Info                              : Advanced Audio Codec
    Format profile                           : LC
    Codec ID                                 : A_AAC
    Duration                                 : 46mn 9s
    Channel(s)                               : 2 channels
    Channel positions                        : Front: L R
    Sampling rate                            : 48.0 KHz
    Compression mode                         : Lossy
    Delay relative to video                  : 12ms
    Default                                  : Yes
    Forced                                   : No





    0 0

    Original Post: [Album] Girl's Day - Female President (Repackage)



    걸스데이 – 정규 1집 리패키지 앨범 – 여자 대통령 (Female President)
    Release Date: 2013.06.24
    Genre: Dance Pop
    Language: Korean
    File Size: 102 MB
    Bit Rate: MP3-320kbps
    credit to hulkpop

    South Korea inaugurated the country’s first female president this year and Girl’s Day is bringing some of that girl power to their first album repackage Female President. Following the success of “Expect,” their new title song will also have a sexy and cool concept on top of the girls’ natural cuteness. Most of the songs from Expectation (except the “Don’t Flirt” remix track) are also in the repackage.

    Track List:
    01. Girl’s Day World (Intro)
    02. 여자 대통령
    03. 기대해
    04. I Don’t Mind
    05. Easy Go.
    06. 그녀를 믿지마
    07. White Day
    08. 어쩜 좋아
    09. 반짝반짝
    10. 한번만 안아줘
    11. Oh! My God!
    12. 나를 잊지마요
    13. 여자 대통령 (Inst.)



    0 0

    Original Post: [Single] Girl's Day - Hello Bubble



    걸스데이 – Hello Bubble
    Release Date: 2015.05.12
    Genre: Dance
    File Size: 16.2 MB
    Language: Korean
    Bit Rate: MP3-320kbps
    credit to hulkpop

    Track List:
    01. Hello Bubble
    02. Hello Bubble (inst.)




    0 0

    Original Post: [Single] LAYSHA - Turn Up The Music



    레이샤 – Laysha
    Release Date: 2015.05.12
    Genre: Dance
    Language: Korean
    File Size: 8.82 MB
    Bit Rate: MP3-320kbps
    Credit: k2nblog



    Track List:
    01. Turn Up The Music



    0 0
  • 05/18/15--21:34: She 720p DoA Complete
  • Original Post: She 720p DoA Complete



    http://wiki.d-addicts.com/She
    http://asianwiki.com/She_%28Japanese_Drama%29
    http://thetvdb.com/?tab=series&id=294070&lid=7


    Title: She
    Format: Renzoku
    Genre: Suspense, school
    Episodes: 5
    Broadcast network: Fuji TV
    Broadcast period: 2015-Apr-18 to 2015-May-16
    Air time: Saturday 23:40
    Subtitles: English - miitla
    RAW credit to DoA


    Cast

       Matsuoka Mayu as Nishizawa Ryoko
       Nakajo Ayami as Ogiwara Azusa
       Taketomi Seika as Yamamoto Saya
       Morikawa Aoi as Okumura Chisato
       Shimizu Kurumi (清水くるみ) as Eto Miyuri
       Narita Ryo (成田凌) as Muraoka Haruto
       Shirasu Jin (白洲迅) as Hirose Yuki


    Synopsis

    Nishizawa Ryoko is a cool-headed, brilliant-minded high school student who aspires to become journalist. On the very first day of the school year, Ryoko's best friend Ogiwara Azusa goes missing all of a sudden and no one can account her whereabouts. Azusa's mother and police immediately starts investigating the case and interviewing students at school. In order to uncover the hidden truth and real reason behind the disappearance of her best friends, Ryoko undertakes her own investigation into the matter. As she digs further and further into her investigation and talking to Azusa's circle of friends, their deep-hidden feelings are revealed and friendships get tested to the brink... -- Fuji TV


    Mediainfo
    Spoiler:show

    Code
    Format                                   : Matroska
    Format version                           : Version 4 / Version 2
    File size                                : 478 MiB
    Duration                                 : 19mn 30s
    Overall bit rate                         : 3 430 Kbps
    Movie name                               : She #01 720p HDTV x264 AAC-DoA
    Encoded date                             : UTC 2015-04-19 01:51:43
    Writing application                      : mkvmerge v7.8.0 ('River Man') 64bit built on Mar 27 2015 16:31:37
    Writing library                          : libebml v1.3.1 + libmatroska v1.4.2
    DURATION                                 : 00:19:29.856000000
    NUMBER_OF_FRAMES                         : 54837
    NUMBER_OF_BYTES                          : 27583011
    _STATISTICS_WRITING_APP                  : mkvmerge v7.8.0 ('River Man') 64bit built on Mar 27 2015 16:31:37
    _STATISTICS_WRITING_DATE_UTC             : 2015-04-19 01:51:43
    _STATISTICS_TAGS                         : BPS DURATION NUMBER_OF_FRAMES NUMBER_OF_BYTES

    Video
    ID                                       : 1
    Format                                   : AVC
    Format/Info                              : Advanced Video Codec
    Format profile                           : High@L4.1
    Format settings, CABAC                   : Yes
    Format settings, ReFrames                : 9 frames
    Codec ID                                 : V_MPEG4/ISO/AVC
    Duration                                 : 19mn 30s
    Width                                    : 1 280 pixels
    Height                                   : 720 pixels
    Display aspect ratio                     : 16:9
    Frame rate mode                          : Constant
    Frame rate                               : 29.970 fps
    Color space                              : YUV
    Chroma subsampling                       : 4:2:0
    Bit depth                                : 8 bits
    Scan type                                : Progressive
    Title                                    : Encode by DoA
    Writing library                          : x264 core 130 r2273 b3065e6
    Encoding settings                        : cabac=1 / ref=9 / deblock=1:-2:-2 / analyse=0x3:0x133 / me=umh / subme=10 / psy=1 / psy_rd=1.00:0.15 / mixed_ref=1 / me_range=48 / chroma_me=1 / trellis=2 / 8x8dct=1 / cqm=0 / deadzone=21,11 / fast_pskip=0 / chroma_qp_offset=-3 / threads=12 / lookahead_threads=2 / sliced_threads=0 / nr=0 / decimate=1 / interlaced=0 / bluray_compat=0 / constrained_intra=0 / bframes=8 / b_pyramid=2 / b_adapt=2 / b_bias=0 / direct=3 / weightb=1 / open_gop=0 / weightp=2 / keyint=300 / keyint_min=29 / scenecut=40 / intra_refresh=0 / rc_lookahead=60 / rc=crf / mbtree=1 / crf=17.5 / qcomp=0.60 / qpmin=0 / qpmax=69 / qpstep=4 / ip_ratio=1.40 / aq=1:1.00
    Language                                 : Japanese
    Default                                  : Yes
    Forced                                   : No
    DURATION                                 : 00:19:29.868000000
    NUMBER_OF_FRAMES                         : 35061
    NUMBER_OF_BYTES                          : 473628328
    _STATISTICS_WRITING_APP                  : mkvmerge v7.8.0 ('River Man') 64bit built on Mar 27 2015 16:31:37
    _STATISTICS_WRITING_DATE_UTC             : 2015-04-19 01:51:43
    _STATISTICS_TAGS                         : BPS DURATION NUMBER_OF_FRAMES NUMBER_OF_BYTES

    Audio
    ID                                       : 2
    Format                                   : AAC
    Format/Info                              : Advanced Audio Codec
    Format profile                           : LC
    Codec ID                                 : A_AAC
    Duration                                 : 19mn 30s
    Channel(s)                               : 2 channels
    Channel positions                        : Front: L R
    Sampling rate                            : 48.0 KHz
    Compression mode                         : Lossy
    Delay relative to video                  : 198ms
    Language                                 : Japanese
    Default                                  : Yes
    Forced                                   : No

    Menu
    00:00:00.000                             : ja:She #01 Part 1
    00:01:16.076                             : ja:オープニング
    00:01:23.249                             : ja:She #01 Part 2
    00:06:42.969                             : ja:She #01 Part 3
    00:12:51.937                             : ja:She #01 Part 4
    00:14:06.912                             : ja:提供
    00:14:16.889                             : ja:She #01 Part 5
    00:19:17.923                             : ja:エンディング
    00:19:24.930                             : ja:次回予告







    0 0

    Original Post: Insanity 2015 1080p WEB-DL x264 AC3-SeeHD





    Detail:
    Title: Insanity
    Genre: Drama, Thriller
    Release Date: 3 April 2015
    Runtime: 96 min
    Director: David Lee
    Country: Chinese
    Language: Mandarin
    Subtitles:Chinese Hardcoded

    Synopsis:
    Three years ago. Fan (Lau Ching Wan) suffered a schizophrenic breakdown, killed his wife (Michelle Ye), and unsuccessfully attempted to kill himself. He was arrested and sentenced to rehabilitation in a psychiatric facility indefinitely. Chow (Huang Xiaoming) is Fan's psychiatrist. He believes that after years of treatment and against all odds, Fan has recovered. He is determined to see Fan discharged. However when Fan is released back into society, he suffers discrimination and once again finds himself at the brink of collapse. One night, Fan kills a drug addict, and turns to his only friend Dr Chow for help. Chow fears if the event is uncovered, his career will be destroyed. He decides to help Fan and conceal the truth, while at the same time being tormented by the media and public opinion. But Fan's clinging to Chow only makes things worse. In order to undo his mistakes, Chow decides to heal Fan secretly. However, in the course of the treatment, can Chow make his way out of this bottomless psyche whirlpool?

    Cast:
    Huang Xiaoming, Lau Ching-Wan, Fiona Sit, Alex Fong Chung-Sun, Paw Hee-Ching, Michelle Ye, Xian Seli, Fredric Mao, Michelle Wai








    Code

    Video
    ID                                       : 1
    Format                                   : AVC
    Format/Info                              : Advanced Video Codec
    Format profile                           : High@L5.0
    Format settings, CABAC                   : Yes
    Format settings, ReFrames                : 5 frames
    Codec ID                                 : V_MPEG4/ISO/AVC
    Duration                                 : 1h 38mn
    Bit rate                                 : 2 022 Kbps
    Width                                    : 1 912 pixels
    Height                                   : 808 pixels
    Display aspect ratio                     : 2.35:1
    Frame rate                               : 24.000 fps
    Color space                              : YUV
    Chroma subsampling                       : 4:2:0
    Bit depth                                : 8 bits
    Scan type                                : Progressive
    Bits/(Pixel*Frame)                       : 0.055
    Stream size                              : 1.39 GiB (66%)
    Default                                  : Yes
    Forced                                   : No

    Audio #1
    ID                                       : 2
    Format                                   : AC-3
    Format/Info                              : Audio Coding 3
    Mode extension                           : CM (complete main)
    Format settings, Endianness              : Big
    Codec ID                                 : A_AC3
    Duration                                 : 1h 38mn
    Bit rate mode                            : Constant
    Bit rate                                 : 640 Kbps
    Channel(s)                               : 2 channels
    Channel positions                        : Front: L R
    Sampling rate                            : 44.1 KHz
    Bit depth                                : 16 bits
    Compression mode                         : Lossy
    Stream size                              : 449 MiB (21%)
    Default                                  : Yes
    Forced                                   : No

    Audio #2
    ID                                       : 3
    Format                                   : MPEG Audio
    Format version                           : Version 1
    Format profile                           : Layer 3
    Mode                                     : Joint stereo
    Codec ID                                 : A_MPEG/L3
    Codec ID/Hint                            : MP3
    Duration                                 : 1h 38mn
    Bit rate mode                            : Constant
    Bit rate                                 : 320 Kbps
    Channel(s)                               : 2 channels
    Sampling rate                            : 44.1 KHz
    Compression mode                         : Lossy
    Stream size                              : 225 MiB (11%)
    Writing library                          : LAME3.98r
    Encoding settings                        : -m j -V 4 -q 2 -lowpass 20.5
    Default                                  : No
    Forced                                   : No



older | 1 | .... | 1346 | 1347 | (Page 1348) | 1349 | 1350 | .... | 1405 | newer