Are you the publisher? Claim or contact us about this channel


Embed this content in your HTML

Search

Report adult content:

click to rate:

Account: (login)

More Channels


Showcase


Channel Catalog


Channel Description:

Asia Torrents RSS Feed

older | 1 | .... | 1349 | 1350 | (Page 1351) | 1352 | 1353 | .... | 1405 | newer

    0 0

    Original Post: UDON (2006) 720p HDTV x264 AAC 5.1 DoA




    Title: Udon
    Genre: Food
    Runtime: 134 Min
    Movie Studio: Fuji TV
    Release Date: August 26, 2006
    Language: Japanese
    Country: Japan
    Subtitles: NONE


    Cast:
    Yusuke Santamaria - Kosuke Matsui
    Manami Konishi - Kyoko Miyagawa
    Tortoise Matsumoto - Shosuke Suzuki
    Kyoka Suzuki - Mari Fujimoto
    Takeshi Masu - Masanori Otani
    Jin Katagiri - Kenjiro Mishima
    Jun Kaname - Kazuya Aoki
    Fumiyo Kohinata - Ryoichi Fujimoto
    Katsumi Kiba - Takutomi Matsui
    Sosuke Ikematsu
    Yo Oizumi
    Kotaro Koizumi
    Daijiro Kawaoka
    Tsuyoshi Muro
    Hosshan
    Yoshiyaki Yoza
    Tadahiro Aoki
    Hideki Nakano - Nakanishi
    Munenori Nagano
    Kaoru Kusumi


    Synopsis:
    Kosuke is 31, and tired of his hometown where nothing happens. On a whim, he departs for New York with dreams of making it big. 6 months later, he straggles home... defeated, and saddled with debt.


    Awaiting him are his old friends, a caring sister, a disgruntled father ...and a bowl of noodles. Namely, "udon" noodles. The town is built around udon, sustained by udon, nationally famous for udon. The region even lends its name to a particular type of udon - "Sanuki Udon."

    It is the town's fixation with udon that essentially drove Kosuke away. Little does he realize upon his inglorious return that he - and the rest of the free world - are about to rediscover the miraculous wonder of this local delicacy.

    The steam rises on a vastly entertaining film! The same talented production staff that shattered Japanese box office records with the thrilling "Bayside Shakedown" series reassembles to explore the mysteriously delectable depths of Japanese folk cuisine with UDON, thick noodles made from only flour, water and salt. From such humble ingredients comes a noodle dish so simple, so cheap, yet so infinitely profound in flavor and satisfying in consistency, that it has become an irreplaceable staple of the local diet, written into their culinary DNA. Udon is "soul food."



















    Code
    General
    Complete name                            : UDON 2006 720p HDTV x264 AAC5.1-DoA.mkv
    Format                                   : Matroska
    Format version                           : Version 4 / Version 2
    File size                                : 3.46 GiB
    Duration                                 : 2h 14mn
    Overall bit rate                         : 3683 Kbps


    Video
    ID                                       : 1
    Format                                   : AVC
    Format/Info                              : Advanced Video Codec
    Format profile                           : High@L4.1
    Format settings, CABAC                   : Yes
    Format settings, ReFrames                : 9 frames
    Codec ID                                 : V_MPEG4/ISO/AVC
    Duration                                 : 2h 14mn
    Width                                    : 1280 pixels
    Height                                   : 544 pixels
    Display aspect ratio                     : 2.35:1
    Frame rate                               : 23.976 fps
    Color space                              : YUV
    Chroma subsampling                       : 4:2:0
    Bit depth                                : 8 bits
    Scan type                                : Progressive


    Audio
    ID                                       : 2
    Format                                   : AAC
    Format/Info                              : Advanced Audio Codec
    Format profile                           : LC
    Codec ID                                 : A_AAC
    Duration                                 : 2h 14mn
    Channel(s)                               : 6 channels
    Channel positions                        : Front: L C R, Side: L R, LFE
    Sampling rate                            : 48.0 KHz
    Compression mode                         : Lossy
    Default                                  : Yes
    Forced                                   : No



    0 0

    Original Post: The Homeless (1974 DVDRIP) - Shintaro Katsu

    When the Daiei studio closed its doors in 1971, their biggest chanbara star Shintaro Katsu already had his own production company Katsu Production set up, and a distribution deal signed with Toho. With most directors and actors now liberated from their long-term contracts with the ailing major studios, and film work harder to come by, Katsu was able to pick and choose from a teeming pool of talent and lined up a series of high-profile projects. He cast Toshiro Mifune and Ayako Wakao to co-star with him in Zatoichi Meets Yojimbo, paired his brother Tomisaburo Wakayama with his favourite Daiei director Kenji Misumi for the Lone Wolf and Cub series, and lured Ken Takakura and Meiko Kaji into his fold for The Homeless, a loose remake of French director Robert Enrico's Les Aventuriers (1967).

    Title: The Homeless
    Japanese title: Yadonashi
    Director: Takeichi Saitô
    Genre: Action / Crime / Drama
    Release date: 1974
    Runtime: 1hr 34min 40sec
    Language: Japanese
    Country: Japan
    Subtitles: English (optional)
    IMDB URL:http://www.imdb.com/title/tt0071879/

    Synopsis: Two men (Shintaro Katsu and Ken Takakura) are released from prison and with one man's girlfriend (Meiko Kaji), they search for gold using a diving suit.

    Starring: Shintaro Katsu, Ken Takakura, Meiko Kaji



    Screen Shots







    Technical Information

    Video
    ID                                       : 1
    Format                                   : AVC
    Format/Info                              : Advanced Video Codec
    Format profile                           : Main@L4.0
    Format settings, CABAC                   : Yes
    Format settings, ReFrames                : 4 frames
    Codec ID                                 : V_MPEG4/ISO/AVC
    Bit rate                                 : 623 Kbps
    Width                                    : 682 pixels
    Height                                   : 332 pixels
    Display aspect ratio                     : 2.40:1
    Original display aspect ratio            : 2.40:1
    Frame rate mode                          : Variable
    Color space                              : YUV
    Chroma subsampling                       : 4:2:0
    Bit depth                                : 8 bits
    Scan type                                : Progressive
    Writing library                          : x264 core 142 r2479 dd79a61
    Encoding settings                        : cabac=1 / ref=1 / deblock=1:0:0 / analyse=0x1:0x111 / me=hex / subme=2 / psy=1 / psy_rd=1.00:0.00 / mixed_ref=0 / me_range=16 / chroma_me=1 / trellis=0 / 8x8dct=0 / cqm=0 / deadzone=21,11 / fast_pskip=1 / chroma_qp_offset=0 / threads=6 / lookahead_threads=2 / sliced_threads=0 / nr=0 / decimate=1 / interlaced=0 / bluray_compat=0 / constrained_intra=0 / bframes=3 / b_pyramid=2 / b_adapt=1 / b_bias=0 / direct=1 / weightb=1 / open_gop=0 / weightp=1 / keyint=240 / keyint_min=24 / scenecut=40 / intra_refresh=0 / rc_lookahead=10 / rc=crf / mbtree=1 / crf=20.0 / qcomp=0.60 / qpmin=0 / qpmax=69 / qpstep=4 / vbv_maxrate=20000 / vbv_bufsize=25000 / crf_max=0.0 / nal_hrd=none / filler=0 / ip_ratio=1.40 / aq=1:1.00
    Default                                  : Yes
    Forced                                   : No
    Color primaries                          : BT.601 NTSC
    Transfer characteristics                 : BT.709
    Matrix coefficients                      : BT.601
    Color range                              : Limited

    Audio
    ID                                       : 2
    Format                                   : AC-3
    Format/Info                              : Audio Coding 3
    Mode extension                           : CM (complete main)
    Format settings, Endianness              : Big
    Codec ID                                 : A_AC3
    Duration                                 : 1h 36mn
    Bit rate mode                            : Constant
    Bit rate                                 : 192 Kbps
    Channel(s)                               : 1 channel
    Channel positions                        : Front: C
    Sampling rate                            : 48.0 KHz
    Bit depth                                : 16 bits
    Compression mode                         : Lossy
    Stream size                              : 133 MiB (23%)
    Title                                    : Mono
    Language                                 : Japanese
    Default                                  : Yes
    Forced                                   : No

    Text
    ID                                       : 3
    Format                                   : VobSub
    Codec ID                                 : S_VOBSUB
    Codec ID/Info                            : The same subtitle format used on DVDs
    Language                                 : English
    Default                                  : Yes
    Forced                                   : No


    0 0

    Original Post: Hyolyn (Sistar) – Warm and Cozy OST Part.3



    효린 – 맨도롱 또똣 (MBC 수목드라마) OST – Part.3
    Release Date: 2015.05.21
    Genre: OST
    Language: Korean
    Bit Rate: MP3-320kbps
    credit to hulkpop

    Track List:

    01. 더 가까이 (Come A Little Closer)
    02. 더 가까이 (Inst.)



    0 0

    Original Post: Wolf Warriors 2015.1080p.WEB-DL.x264.AAC-SeeHD





    Detail:
    Title: Wolf Warriors
    AKA: Zhan Lang
    Genre: Action, War
    Release Date: 6 April 2015
    Runtime: 90 min
    Director: Jacky Wu Jing
    Rating: 7.0/10 from 137 users  
    Country: China
    Language: Mandarin
    Subtitles:Chinese, ENglish Hardcoded

    Jacky Wu, Scott Adkins, Kevin Lee

    A Chinese special force soldier with extraordinary marksmanship is confronted by a group of deadly foreign mercenaries who are hired to assassinate him by a vicious drug lord.








    Code
    Video
    ID                                       : 1
    Format                                   : AVC
    Format/Info                              : Advanced Video Codec
    Format profile                           : Main@L4.0
    Format settings, CABAC                   : Yes
    Format settings, ReFrames                : 2 frames
    Codec ID                                 : V_MPEG4/ISO/AVC
    Duration                                 : 1h 30mn
    Width                                    : 1 920 pixels
    Height                                   : 1 080 pixels
    Display aspect ratio                     : 16:9
    Frame rate mode                          : Variable
    Frame rate                               : 24.000 fps
    Color space                              : YUV
    Chroma subsampling                       : 4:2:0
    Bit depth                                : 8 bits
    Scan type                                : Progressive
    Writing library                          : avc encoder v1.9
    Default                                  : Yes
    Forced                                   : No

    Audio
    ID                                       : 2
    Format                                   : AAC
    Format/Info                              : Advanced Audio Codec
    Format profile                           : LC
    Codec ID                                 : A_AAC
    Duration                                 : 1h 30mn
    Channel(s)                               : 2 channels
    Channel positions                        : Front: L R
    Sampling rate                            : 44.1 KHz
    Compression mode                         : Lossy
    Default                                  : Yes
    Forced                                   : No



    0 0

    Original Post: Sensory Couple (2015) Complete 720p LIMO


    Details
    Title: 냄새를 보는 소녀 / A Girl Who Sees Smells
    Genre: Romance
    Episodes:
    Broadcast network: SBS
    Broadcast period: 2015-Apr-01 to 2015-Jun-??
    Air time: Wednesday & Thursday 22:00
    Original Soundtrack: A Girl Who Sees Smells OST
    Synopsis
    Three years ago, a man lost his younger sister in the "Bar Code" murder case, since then he lost his senses. A girl miraculously survived the "Bar code" murder case, since then she has lost her memory. But she has also gained the ability to see smells.

    Cast
    Main Cast
    Park Yoo Chun as Choi Moo Gak
    Shin Se Kyung as Oh Cho Rim
    Nam Goong Min as Kwon Jae Hee
    Yoon Jin Seo as Yeom Mi




    Code
    Video
    ID                               : 0
    Format                           : AVC
    Format/Info                      : Advanced Video Codec
    Format profile                   : High@L5.1
    Format settings, CABAC           : Yes
    Format settings, ReFrames        : 4 frames
    Codec ID                         : H264
    Duration                         : 1h 4mn
    Bit rate                         : 3 000 Kbps
    Width                            : 1 280 pixels
    Height                           : 720 pixels
    Display aspect ratio             : 16:9
    Frame rate mode                  : Variable
    Frame rate                       : 29.970 fps
    Color space                      : YUV
    Chroma subsampling               : 4:2:0
    Bit depth                        : 8 bits
    Scan type                        : Progressive
    Bits/(Pixel*Frame)               : 0.109
    Stream size                      : 1.35 GiB (94%)
    Writing library                  : x264 core 112
    Encoding settings                : cabac=1 / ref=3 / deblock=1:-1:-1 / analyse=0x3:0x113 / me=hex / subme=6 / psy=1 / psy_rd=1.00:1.00 / mixed_ref=1 / me_range=16 / chroma_me=1 / trellis=1 / 8x8dct=1 / cqm=0 / deadzone=21,11 / fast_pskip=0 / chroma_qp_offset=-4 / threads=12 / sliced_threads=0 / nr=0 / decimate=1 / interlaced=0 / constrained_intra=0 / bframes=3 / b_pyramid=2 / b_adapt=1 / b_bias=1 / direct=3 / weightb=1 / open_gop=0 / weightp=2 / keyint=299 / keyint_min=25 / scenecut=1 / intra_refresh=0 / rc_lookahead=40 / rc=abr / mbtree=1 / bitrate=3000 / ratetol=1.0 / qcomp=0.60 / qpmin=10 / qpmax=51 / qpstep=4 / ip_ratio=1.40 / aq=1:1.00

    Audio
    ID                               : 1
    Format                           : MPEG Audio
    Format version                   : Version 1
    Format profile                   : Layer 3
    Mode                             : Joint stereo
    Mode extension                   : MS Stereo
    Codec ID                         : 55
    Codec ID/Hint                    : MP3
    Duration                         : 1h 4mn
    Bit rate mode                    : Constant
    Bit rate                         : 192 Kbps
    Channel(s)                       : 2 channels
    Sampling rate                    : 48.0 KHz
    Stream size                      : 88.0 MiB (6%)
    Alignment                        : Split accross interleaves
    Interleave, duration             : 33 ms (1.00 video frame)
    Interleave, preload duration     : 500 ms
    Writing library                  : LAME3.98.2



    0 0

    Original Post: Masked Prosecutor E02 X264 LIMO


    Details
    Title: 복면검사 / Bogmyeongeomsa
    Genre: Action, thriller
    Episodes:
    Broadcast network: KBS2
    Broadcast period: 2015-May-20 to 2015-??-??
    Air time: Wednesday & Thursday 22:00

    Synopsis
    The story is about a man, played by Joo Sang Wook with a double identity. He's a normal prosecutor during the day and a masked vigilante at night. Kim Sun Ah will play a role of detective chief in the violent crimes unit.

    Cast
    Joo Sang Wook as Ha Dae Chul (33, Prosecutor at Southern District)
    Kim Sun Ah as a Yoo Min Hee (33, Chief at Gangnam Police Station, Crime Division)
    Uhm Ki Joon as Kang Hyun Woong (30, Prosecutor at Seoul District)
    Jun Kwang Ryul as Jo Sang Taek (50s, former detective)




    Code
    Video
    ID                             : 1
    Format                         : AVC
    Format/Info                    : Advanced Video Codec
    Format profile                 : Main@L4.0
    Format settings, CABAC         : Yes
    Format settings, ReFrames      : 4 frames
    Codec ID                       : V_MPEG4/ISO/AVC
    Duration                       : 58mn 44s
    Bit rate                       : 450 Kbps
    Width                          : 624 pixels
    Height                         : 350 pixels
    Display aspect ratio           : 16:9
    Frame rate mode                : Constant
    Frame rate                     : 29.970 fps
    Color space                    : YUV
    Chroma subsampling             : 4:2:0
    Bit depth                      : 8 bits
    Scan type                      : Progressive
    Bits/(Pixel*Frame)             : 0.069
    Stream size                    : 190 MiB (76%)
    Writing library                : x264 core 130 r2273 b3065e6
    Encoding settings              : cabac=1 / ref=1 / deblock=1:0:0 / analyse=0x1:0x111 / me=hex / subme=2 / psy=1 / psy_rd=1.00:0.00 / mixed_ref=0 / me_range=16 / chroma_me=1 / trellis=0 / 8x8dct=0 / cqm=0 / deadzone=21,11 / fast_pskip=1 / chroma_qp_offset=0 / threads=1 / lookahead_threads=1 / sliced_threads=0 / nr=0 / decimate=1 / interlaced=0 / bluray_compat=0 / constrained_intra=0 / bframes=3 / b_pyramid=2 / b_adapt=1 / b_bias=0 / direct=1 / weightb=1 / open_gop=0 / weightp=1 / keyint=300 / keyint_min=30 / scenecut=40 / intra_refresh=0 / rc_lookahead=10 / rc=abr / mbtree=1 / bitrate=450 / ratetol=1.0 / qcomp=0.60 / qpmin=0 / qpmax=69 / qpstep=4 / vbv_maxrate=20000 / vbv_bufsize=25000 / nal_hrd=none / ip_ratio=1.40 / aq=1:1.00
    Language                       : English
    Default                        : Yes
    Forced                         : No
    Color primaries                : BT.601 NTSC
    Transfer characteristics       : BT.709
    Matrix coefficients            : BT.601

    Audio
    ID                             : 2
    Format                         : MPEG Audio
    Format version                 : Version 1
    Format profile                 : Layer 3
    Mode                           : Joint stereo
    Mode extension                 : MS Stereo
    Codec ID                       : A_MPEG/L3
    Codec ID/Hint                  : MP3
    Duration                       : 58mn 44s
    Bit rate mode                  : Constant
    Bit rate                       : 128 Kbps
    Channel(s)                     : 2 channels
    Sampling rate                  : 48.0 KHz
    Compression mode               : Lossy
    Stream size                    : 53.8 MiB (22%)
    Default                        : Yes
    Forced                         : No



    0 0
  • 05/21/15--04:32: Dr. Rintaro ep06 480p
  • Original Post: Dr. Rintaro ep06 480p



    http://wiki.d-addicts.com/Dr._Rintaro
    http://asianwiki.com/Dr._Rintaro

    Title: Dr.倫太郎
    Title (romaji): Dr. Rintaro
    Format: Renzoku
    Genre: Medical
    Episodes: 10
    Broadcast network: NTV
    Broadcast period: 2015-Apr-15 to 2015-Jun-17
    Air time: Wednesday 22:00
    Language: Japanese
    Country: Japan
    Subtitles: English here: torachan2006 (members only)
    RAW credit to furransu

    Cast
       Sakai Masato as Hino Rintaro
       Aoi Yu as Yumeno
       Kichise Michiko as Mizushima Yuriko
       Uchida Yuki as Kiryuu Kaoru
       Takanashi Rin as Kawakami Yoko
       Takahashi Issei as Fukuhara Daisaku
       Matobu Sei as Yabe Machiko
       Nakanishi Miho (中西美帆) as Koyume
       Yo Kimiko as Masuda Ikumi
       Endo Kenichi as Araki Shigeto
       Sakai Wakana as Nakahata Madoka
       Nagatsuka Keishi (長塚圭史) as Miyagawa Takahiro
       Matsushige Yutaka as Hasumi Eisuke
       Ishibashi Renji as Ike Masayuki
       Takahata Atsuko as Aizawa Ruriko
       Kohinata Fumiyo as Ennouji Kazuo

    Synopsis
    His name is Hino Rintaro. He listens closely to the aching hearts of people and relieves them of their pain. He is published and makes television appearances. The number of people waiting to receive his consultation continues to grow. Despite his achievements, Dr. Rintaro falls short in one department: love. He even dismisses it by saying “Falling in love is just like a passing mental illness.” One day, during a meal with the president of the university, Rintaro meets a woman. Her name is Yumeno, a highly sought-after geisha in Shimbashi. Little did Rintaro know that this encounter would drastically change his life. ~ NTV

    General
    Complete name                  : Dr. Rintaro ep06 (848x480 x264).mp4
    Format                         : MPEG-4
    Format profile                 : Base Media
    Codec ID                       : isom
    File size                      : 266 MiB
    Duration                       : 51mn 19s
    Overall bit rate mode          : Variable
    Overall bit rate               : 725 Kbps

    Video
    ID                             : 1
    Format                         : AVC
    Format/Info                    : Advanced Video Codec
    Format profile                 : High@L4.1
    Format settings, CABAC         : Yes
    Format settings, ReFrames      : 4 frames
    Codec ID                       : avc1
    Codec ID/Info                  : Advanced Video Coding
    Duration                       : 51mn 19s
    Bit rate                       : 593 Kbps
    Maximum bit rate               : 2 887 Kbps
    Width                          : 848 pixels
    Height                         : 480 pixels
    Display aspect ratio           : 16:9
    Frame rate mode                : Constant
    Frame rate                     : 29.970 fps
    Color space                    : YUV
    Chroma subsampling             : 4:2:0
    Bit depth                      : 8 bits
    Scan type                      : Progressive
    Bits/(Pixel*Frame)             : 0.049
    Stream size                    : 218 MiB (82%)

    Audio
    ID                             : 2
    Format                         : AAC
    Format/Info                    : Advanced Audio Codec
    Format profile                 : LC
    Codec ID                       : 40
    Duration                       : 51mn 19s
    Bit rate mode                  : Variable
    Bit rate                       : 128 Kbps
    Maximum bit rate               : 138 Kbps
    Channel count                  : 2 channels
    Channel positions              : Front: L R
    Sampling rate                  : 48.0 KHz
    Compression mode               : Lossy



    0 0

    Original Post: Masked Prosecutor E02 720p LIMO


    Details
    Title: 복면검사 / Bogmyeongeomsa
    Genre: Action, thriller
    Episodes:
    Broadcast network: KBS2
    Broadcast period: 2015-May-20 to 2015-??-??
    Air time: Wednesday & Thursday 22:00

    Synopsis
    The story is about a man, played by Joo Sang Wook with a double identity. He's a normal prosecutor during the day and a masked vigilante at night. Kim Sun Ah will play a role of detective chief in the violent crimes unit.

    Cast
    Joo Sang Wook as Ha Dae Chul (33, Prosecutor at Southern District)
    Kim Sun Ah as a Yoo Min Hee (33, Chief at Gangnam Police Station, Crime Division)
    Uhm Ki Joon as Kang Hyun Woong (30, Prosecutor at Seoul District)
    Jun Kwang Ryul as Jo Sang Taek (50s, former detective)




    Code
    Video
    ID                               : 0
    Format                           : AVC
    Format/Info                      : Advanced Video Codec
    Format profile                   : High@L5.1
    Format settings, CABAC           : Yes
    Format settings, ReFrames        : 4 frames
    Codec ID                         : H264
    Duration                         : 1h 4mn
    Bit rate                         : 3 000 Kbps
    Width                            : 1 280 pixels
    Height                           : 720 pixels
    Display aspect ratio             : 16:9
    Frame rate mode                  : Variable
    Frame rate                       : 29.970 fps
    Color space                      : YUV
    Chroma subsampling               : 4:2:0
    Bit depth                        : 8 bits
    Scan type                        : Progressive
    Bits/(Pixel*Frame)               : 0.109
    Stream size                      : 1.35 GiB (94%)
    Writing library                  : x264 core 112
    Encoding settings                : cabac=1 / ref=3 / deblock=1:-1:-1 / analyse=0x3:0x113 / me=hex / subme=6 / psy=1 / psy_rd=1.00:1.00 / mixed_ref=1 / me_range=16 / chroma_me=1 / trellis=1 / 8x8dct=1 / cqm=0 / deadzone=21,11 / fast_pskip=0 / chroma_qp_offset=-4 / threads=12 / sliced_threads=0 / nr=0 / decimate=1 / interlaced=0 / constrained_intra=0 / bframes=3 / b_pyramid=2 / b_adapt=1 / b_bias=1 / direct=3 / weightb=1 / open_gop=0 / weightp=2 / keyint=299 / keyint_min=25 / scenecut=1 / intra_refresh=0 / rc_lookahead=40 / rc=abr / mbtree=1 / bitrate=3000 / ratetol=1.0 / qcomp=0.60 / qpmin=10 / qpmax=51 / qpstep=4 / ip_ratio=1.40 / aq=1:1.00

    Audio
    ID                               : 1
    Format                           : MPEG Audio
    Format version                   : Version 1
    Format profile                   : Layer 3
    Mode                             : Joint stereo
    Mode extension                   : MS Stereo
    Codec ID                         : 55
    Codec ID/Hint                    : MP3
    Duration                         : 1h 4mn
    Bit rate mode                    : Constant
    Bit rate                         : 192 Kbps
    Channel(s)                       : 2 channels
    Sampling rate                    : 48.0 KHz
    Stream size                      : 88.0 MiB (6%)
    Alignment                        : Split accross interleaves
    Interleave, duration             : 33 ms (1.00 video frame)
    Interleave, preload duration     : 500 ms
    Writing library                  : LAME3.98.2



    0 0

    Original Post: Kokoro ga Pokkito ne ep07 480p



    http://wiki.d-addicts.com/Kokoro_ga_Pokitto_ne

    Title: 心がポキッとね
    Title (romaji): Kokoro ga Pokitto ne
    Also known as: Crazy for Me
    Format: Renzoku
    Genre: Love comedy
    Episodes: TBD
    Broadcast network: Fuji TV
    Broadcast period: 2015-Apr-08 start
    Air time: Wednesday 22:00
    Theme song: SUN by Hoshino Gen
    Language: Japanese
    Country: Japan
    Subtitles: will be added when available
    RAW credit to furransu

    Cast
       Abe Sadao as Kojima Haruta
       Mizuhara Kiko as Hayama Miyako
       Fujiki Naohito as Otake Shin
       Yamaguchi Tomoko as Kamoda Shizuka
       Tokunaga Eri as Itoyama Fumi
       Yamashita Rio as Makino Eriko
       Nagase Tasuku
       Ikezu Shoko
       Yamanishi Atsushi (山西惇)

    Synopsis
    Set in Tokyo, the story follows Kojima Haruta, a 40-year-old man who hits the rock bottom as he fell mentally ill which led him to lose his job, family, and even a place to live. After a certain turn of events, Haruta encounters Otake Shin, the owner of an antique furniture shop who takes Haruta in and hires him as a furniture repairman in the shop. Touched by such kindness, Haruta promised himself to try to put his life back together but kept himself isolated in order to avoid any additional stress being created. However, things suddenly starts to change as Haruta encounters Hayama Miyako, a 26-year-old woman who has a tendency to become overly dependent and extremely obsessed with a man she falls in love with... ~ Fuji TV

    General
    Complete name                  : Kokoro ga Pokkito ne ep07 (848x480 x264).mp4
    Format                         : MPEG-4
    Format profile                 : Base Media
    Codec ID                       : isom
    File size                      : 366 MiB
    Duration                       : 46mn 25s
    Overall bit rate mode          : Variable
    Overall bit rate               : 1 102 Kbps

    Video
    ID                             : 1
    Format                         : AVC
    Format/Info                    : Advanced Video Codec
    Format profile                 : High@L4.1
    Format settings, CABAC         : Yes
    Format settings, ReFrames      : 4 frames
    Codec ID                       : avc1
    Codec ID/Info                  : Advanced Video Coding
    Duration                       : 46mn 24s
    Bit rate                       : 970 Kbps
    Maximum bit rate               : 4 556 Kbps
    Width                          : 848 pixels
    Height                         : 480 pixels
    Display aspect ratio           : 16:9
    Frame rate mode                : Constant
    Frame rate                     : 29.970 fps
    Color space                    : YUV
    Chroma subsampling             : 4:2:0
    Bit depth                      : 8 bits
    Scan type                      : Progressive
    Bits/(Pixel*Frame)             : 0.079
    Stream size                    : 322 MiB (88%)

    Audio
    ID                             : 2
    Format                         : AAC
    Format/Info                    : Advanced Audio Codec
    Format profile                 : LC
    Codec ID                       : 40
    Duration                       : 46mn 25s
    Bit rate mode                  : Variable
    Bit rate                       : 128 Kbps
    Maximum bit rate               : 133 Kbps
    Channel count                  : 2 channels
    Channel positions              : Front: L R
    Sampling rate                  : 48.0 KHz
    Compression mode               : Lossy



    0 0

    Original Post: The End of Summer 1961 DVDRip x264 AAC Yasujiro Ozu



    The End of Summer

    AKA:小早川家の秋 / Autumn for the Kohayagawa Family
    IMDb:http://www.imdb.com/title/tt0055052
    Wikipedia:http://en.wikipedia.org/wiki/The_End_of_Summer
    Review:DVDBeaver

    Director: Yasujiro Ozu
    Writers: Kogo Noda, Yasujiro Ozu
    Genre: Drama
    Release Date: 29 October 1961
    Runtime: 103 min
    Country: Japan
    Language: Japanese
    Subtitles: English, Japanese
    Source: Toho R2J DVD9 (Thanks to hybridism @ PTP for the DVD)

    Synopsis: The penultimate film by Japanese master director Yasujiro Ozu examines the difficulties faced by the Kohayagawa family as they struggle to adapt their traditional values to a rapidly changing post-war Japan. As the family's generations-old sake making business begins to fail in the face of increasingly fierce competition, Manbei, the incorrigible elderly patriarch, rekindles an affair with an old flame, much to the disapproval of his daughter Fumiko. He is further distracted by his attempts to marry off his other two daughters: Akiko, the eldest and a widow with a small son, and Noriko, the youngest who is still single.

    Uploader's Comments: The colors of the film have been heavily tampered with on Criterion's and Artifical Eye's releases. This Japanese transfer has a less filtered look, while also introducing a more green palette.

    I took the English subs from the Criterion release and retimed them to this DVD.

    MediaInfo
    Spoiler:show
    General
    Unique ID                                : 201604952507599105667897144123601750434 (0x97ABB395509FE18988DE7EFA5FC889A2)
    Complete name                            : The.End.of.Summer.1961.DVDRip.x264.AAC-Jongl0.mkv
    Format                                   : Matroska
    Format version                           : Version 4 / Version 2
    File size                                : 1.44 GiB
    Duration                                 : 1h 42mn
    Overall bit rate                         : 2 002 Kbps
    Encoded date                             : UTC 2015-05-21 09:30:07
    Writing application                      : mkvmerge v7.6.0 ('Garden of Dreams') 64bit built on Feb  8 2015 13:04:34
    Writing library                          : libebml v1.3.1 + libmatroska v1.4.2
    DURATION                                 : 01:42:46.955000000
    NUMBER_OF_FRAMES                         : 289076
    NUMBER_OF_BYTES                          : 106488224
    _STATISTICS_WRITING_APP                  : mkvmerge v7.6.0 ('Garden of Dreams') 64bit built on Feb  8 2015 13:04:34
    _STATISTICS_WRITING_DATE_UTC             : 2015-05-21 09:30:07
    _STATISTICS_TAGS                         : BPS DURATION NUMBER_OF_FRAMES NUMBER_OF_BYTES

    Video
    ID                                       : 1
    Format                                   : AVC
    Format/Info                              : Advanced Video Codec
    Format profile                           : High@L4.1
    Format settings, CABAC                   : Yes
    Format settings, ReFrames                : 16 frames
    Codec ID                                 : V_MPEG4/ISO/AVC
    Duration                                 : 1h 42mn
    Width                                    : 716 pixels
    Height                                   : 480 pixels
    Display aspect ratio                     : 4:3
    Frame rate mode                          : Constant
    Frame rate                               : 23.976 fps
    Color space                              : YUV
    Chroma subsampling                       : 4:2:0
    Bit depth                                : 8 bits
    Scan type                                : Progressive
    Writing library                          : x264 core 142 r2431 ac76440
    Encoding settings                        : cabac=1 / ref=16 / deblock=1:-3:-3 / analyse=0x3:0x133 / me=umh / subme=10 / psy=1 / psy_rd=1.10:0.05 / mixed_ref=1 / me_range=32 / chroma_me=1 / trellis=2 / 8x8dct=1 / cqm=0 / deadzone=21,11 / fast_pskip=0 / chroma_qp_offset=-3 / threads=12 / lookahead_threads=3 / sliced_threads=0 / nr=0 / decimate=0 / interlaced=0 / bluray_compat=0 / constrained_intra=0 / bframes=10 / b_pyramid=2 / b_adapt=2 / b_bias=0 / direct=3 / weightb=1 / open_gop=0 / weightp=2 / keyint=240 / keyint_min=23 / scenecut=40 / intra_refresh=0 / rc_lookahead=50 / rc=crf / mbtree=0 / crf=16.9 / qcomp=0.65 / qpmin=0 / qpmax=69 / qpstep=4 / vbv_maxrate=14000 / vbv_bufsize=14000 / crf_max=0.0 / nal_hrd=none / filler=0 / ip_ratio=1.40 / pb_ratio=1.20 / aq=1:0.70
    Default                                  : Yes
    Forced                                   : No
    DURATION                                 : 01:42:46.994000000
    NUMBER_OF_FRAMES                         : 147860
    NUMBER_OF_BYTES                          : 1430713850
    _STATISTICS_WRITING_APP                  : mkvmerge v7.6.0 ('Garden of Dreams') 64bit built on Feb  8 2015 13:04:34
    _STATISTICS_WRITING_DATE_UTC             : 2015-05-21 09:30:07
    _STATISTICS_TAGS                         : BPS DURATION NUMBER_OF_FRAMES NUMBER_OF_BYTES

    Audio
    ID                                       : 2
    Format                                   : AAC
    Format/Info                              : Advanced Audio Codec
    Format profile                           : LC
    Codec ID                                 : A_AAC
    Duration                                 : 1h 42mn
    Channel(s)                               : 2 channels
    Channel positions                        : Front: L R
    Sampling rate                            : 48.0 KHz
    Compression mode                         : Lossy
    Delay relative to video                  : 9ms
    Language                                 : Japanese
    Default                                  : Yes
    Forced                                   : No

    Text #1
    ID                                       : 3
    Format                                   : UTF-8
    Codec ID                                 : S_TEXT/UTF8
    Codec ID/Info                            : UTF-8 Plain Text
    Language                                 : English
    Default                                  : Yes
    Forced                                   : No

    Text #2
    ID                                       : 4
    Format                                   : VobSub
    Muxing mode                              : zlib
    Codec ID                                 : S_VOBSUB
    Codec ID/Info                            : The same subtitle format used on DVDs
    Language                                 : Japanese
    Default                                  : No
    Forced                                   : No

    Text #3
    ID                                       : 5
    Format                                   : VobSub
    Muxing mode                              : zlib
    Codec ID                                 : S_VOBSUB
    Codec ID/Info                            : The same subtitle format used on DVDs
    Language                                 : English
    Default                                  : No
    Forced                                   : No

    Menu
    00:00:00.000                             : en:Chapter 1
    00:02:12.165                             : en:Chapter 2
    00:08:27.540                             : en:Chapter 3
    00:11:24.817                             : en:Chapter 4
    00:15:02.534                             : en:Chapter 5
    00:19:53.526                             : en:Chapter 6
    00:26:06.700                             : en:Chapter 7
    00:33:43.723                             : en:Chapter 8
    00:35:19.787                             : en:Chapter 9
    00:42:45.432                             : en:Chapter 10
    00:46:48.109                             : en:Chapter 11
    00:49:07.950                             : en:Chapter 12
    00:55:31.333                             : en:Chapter 13
    01:01:20.850                             : en:Chapter 14
    01:06:15.277                             : en:Chapter 15
    01:12:59.681                             : en:Chapter 16
    01:17:59.147                             : en:Chapter 17
    01:22:09.098                             : en:Chapter 18
    01:30:51.554                             : en:Chapter 19
    01:42:45.002                             : en:Chapter 20




    0 0

    Original Post: Ah Boys To Men 3: Frogmen DVDRip x264 AC3-ELANOR (+ BTS)




    ABTM3 is a film that depicts the training of Naval Divers, where they were trained in once a highly-restricted Sembawang Camp. Touted as one of the toughest army training in Singapore and only the fittest will be picked for a chance at this elite military vocation, how will the group of "Ah Boys" survive in this alternate NDU universe?

    Joshua Tan as Ken Chow
    Maxi Lim as Aloysius Jin aka Wayang King
    Wang Wei Liang as Luo Bang aka Lobang
    Tosh Zhang as Warrant Alex Ong
    Charlie Goh as Wei Ming
    Wesley Wong as Hei Long
    Bunz as Sam
    Jaspers Lai as Handsome
    Hanrey Low
    Justin Misson as Warrant Lum aka No. 2
    Rajid Ahamed as Balan
    Joey Leong as Lo Wei
    Irene Ang as Ken's mother
    Richard Low as Ken's father
    Shining Sisters as Ken's twin sisters
    Yoo Ah Min as Ken's grandmother
    Wang Lei as Ken's uncle
    Aileen Tan as Lobang's mother
    Douglas Kung as Hei Long's father
    Hayley Woo as Amy, Ken's girlfriend
    Noah Yap as Man In Ping a.k.a. IP Man, only appears in the credits







    NFO


    Mediainfo:

    Code

    General
    Unique ID                                : 204941080767401859615115164327288877120 (0x9A2E3767DBBAFD40B8521A4BDFF5B040)
    Complete name                            : Ah.Boys.To.Men.3.Frogmen.DVDRip.x264.AC3-ELANOR.mkv
    Format                                   : Matroska
    Format version                           : Version 4 / Version 2
    File size                                : 2.19 GiB
    Duration                                 : 2h 27mn
    Overall bit rate                         : 2 128 Kbps
    Movie name                               : Ah Boys To Men 3: Frogmen. Encoded by ELANOR.
    Encoded date                             : UTC 2015-05-21 15:30:43
    Writing application                      : mkvmerge v7.8.0 ('River Man') 64bit built on Mar 27 2015 16:31:37
    Writing library                          : libebml v1.3.1 + libmatroska v1.4.2
    DURATION                                 : 02:22:19.234000000
    NUMBER_OF_FRAMES                         : 2601
    NUMBER_OF_BYTES                          : 3291161
    _STATISTICS_WRITING_APP                  : mkvmerge v7.8.0 ('River Man') 64bit built on Mar 27 2015 16:31:37
    _STATISTICS_WRITING_DATE_UTC             : 2015-05-21 15:30:43
    _STATISTICS_TAGS                         : BPS DURATION NUMBER_OF_FRAMES NUMBER_OF_BYTES

    Video
    ID                                       : 1
    Format                                   : AVC
    Format/Info                              : Advanced Video Codec
    Format profile                           : High@L4.1
    Format settings, CABAC                   : Yes
    Format settings, ReFrames                : 9 frames
    Codec ID                                 : V_MPEG4/ISO/AVC
    Duration                                 : 2h 27mn
    Bit rate                                 : 1 637 Kbps
    Width                                    : 720 pixels
    Height                                   : 296 pixels
    Display aspect ratio                     : 2.40:1
    Frame rate mode                          : Constant
    Frame rate                               : 23.976 fps
    Color space                              : YUV
    Chroma subsampling                       : 4:2:0
    Bit depth                                : 8 bits
    Scan type                                : Progressive
    Bits/(Pixel*Frame)                       : 0.320
    Stream size                              : 1.69 GiB (77%)
    Writing library                          : x264 core 144 r2525 40bb568
    Encoding settings                        : cabac=1 / ref=9 / deblock=1:-2:-2 / analyse=0x3:0x133 / me=umh / subme=10 / psy=1 / psy_rd=1.00:0.15 / mixed_ref=1 / me_range=24 / chroma_me=1 / trellis=2 / 8x8dct=1 / cqm=0 / deadzone=21,11 / fast_pskip=1 / chroma_qp_offset=-5 / threads=12 / lookahead_threads=2 / sliced_threads=0 / nr=0 / decimate=1 / interlaced=0 / bluray_compat=0 / constrained_intra=0 / bframes=8 / b_pyramid=2 / b_adapt=2 / b_bias=0 / direct=3 / weightb=1 / open_gop=0 / weightp=2 / keyint=230 / keyint_min=22 / scenecut=40 / intra_refresh=0 / rc_lookahead=60 / rc=crf / mbtree=1 / crf=17.0 / qcomp=0.60 / qpmin=0 / qpmax=69 / qpstep=4 / ip_ratio=1.40 / aq=1:1.00
    Default                                  : Yes
    Forced                                   : No

    Audio
    ID                                       : 2
    Format                                   : AC-3
    Format/Info                              : Audio Coding 3
    Mode extension                           : CM (complete main)
    Format settings, Endianness              : Big
    Codec ID                                 : A_AC3
    Duration                                 : 2h 27mn
    Bit rate mode                            : Constant
    Bit rate                                 : 448 Kbps
    Channel(s)                               : 6 channels
    Channel positions                        : Front: L C R, Side: L R, LFE
    Sampling rate                            : 48.0 KHz
    Bit depth                                : 16 bits
    Compression mode                         : Lossy
    Stream size                              : 473 MiB (21%)
    Default                                  : Yes
    Forced                                   : No

    Text #1
    ID                                       : 3
    Format                                   : VobSub
    Muxing mode                              : zlib
    Codec ID                                 : S_VOBSUB
    Codec ID/Info                            : The same subtitle format used on DVDs
    Title                                    : English Subtitles
    Language                                 : English
    Default                                  : Yes
    Forced                                   : No

    Text #2
    ID                                       : 4
    Format                                   : VobSub
    Muxing mode                              : zlib
    Codec ID                                 : S_VOBSUB
    Codec ID/Info                            : The same subtitle format used on DVDs
    Title                                    : Chinese Subtitles
    Language                                 : Chinese
    Default                                  : No
    Forced                                   : No

    Text #3
    ID                                       : 5
    Format                                   : VobSub
    Muxing mode                              : zlib
    Codec ID                                 : S_VOBSUB
    Codec ID/Info                            : The same subtitle format used on DVDs
    Title                                    : Malay Subtitles
    Language                                 : Malay
    Default                                  : No
    Forced                                   : No






    0 0

    Original Post: Sensory Couple (2015) Complete X264 Small LIMO


    Details
    Title: 냄새를 보는 소녀 / A Girl Who Sees Smells
    Genre: Romance
    Episodes:
    Broadcast network: SBS
    Broadcast period: 2015-Apr-01 to 2015-Jun-??
    Air time: Wednesday & Thursday 22:00
    Original Soundtrack: A Girl Who Sees Smells OST
    Synopsis
    Three years ago, a man lost his younger sister in the "Bar Code" murder case, since then he lost his senses. A girl miraculously survived the "Bar code" murder case, since then she has lost her memory. But she has also gained the ability to see smells.

    Cast
    Main Cast
    Park Yoo Chun as Choi Moo Gak
    Shin Se Kyung as Oh Cho Rim
    Nam Goong Min as Kwon Jae Hee
    Yoon Jin Seo as Yeom Mi




    Code
    Video
    ID                                       : 1
    Format                                   : AVC
    Format/Info                              : Advanced Video Codec
    Format profile                           : Main@L4.0
    Format settings, CABAC                   : Yes
    Format settings, ReFrames                : 4 frames
    Codec ID                                 : V_MPEG4/ISO/AVC
    Duration                                 : 1h 1mn
    Nominal bit rate                         : 450 Kbps
    Width                                    : 800 pixels
    Height                                   : 450 pixels
    Display aspect ratio                     : 16:9
    Frame rate mode                          : Variable
    Frame rate                               : 29.970 fps
    Color space                              : YUV
    Chroma subsampling                       : 4:2:0
    Bit depth                                : 8 bits
    Scan type                                : Progressive
    Bits/(Pixel*Frame)                       : 0.042
    Writing library                          : x264 core 130 r2273 b3065e6
    Encoding settings                        : cabac=1 / ref=1 / deblock=1:0:0 / analyse=0x1:0x111 / me=hex / subme=2 / psy=1 / psy_rd=1.00:0.00 / mixed_ref=0 / me_range=16 / chroma_me=1 / trellis=0 / 8x8dct=0 / cqm=0 / deadzone=21,11 / fast_pskip=1 / chroma_qp_offset=0 / threads=1 / lookahead_threads=1 / sliced_threads=0 / nr=0 / decimate=1 / interlaced=0 / bluray_compat=0 / constrained_intra=0 / bframes=3 / b_pyramid=2 / b_adapt=1 / b_bias=0 / direct=1 / weightb=1 / open_gop=0 / weightp=1 / keyint=300 / keyint_min=30 / scenecut=40 / intra_refresh=0 / rc_lookahead=10 / rc=abr / mbtree=1 / bitrate=450 / ratetol=1.0 / qcomp=0.60 / qpmin=0 / qpmax=69 / qpstep=4 / vbv_maxrate=20000 / vbv_bufsize=25000 / nal_hrd=none / ip_ratio=1.40 / aq=1:1.00
    Language                                 : English
    Default                                  : Yes
    Forced                                   : No
    Color primaries                          : BT.601-6 525, BT.1358 525, BT.1700 NTSC, SMPTE 170M
    Transfer characteristics                 : BT.709-5, BT.1361
    Matrix coefficients                      : BT.601-6 525, BT.1358 525, BT.1700 NTSC, SMPTE 170M

    Audio
    ID                                       : 2
    Format                                   : MPEG Audio
    Format version                           : Version 1
    Format profile                           : Layer 3
    Mode                                     : Joint stereo
    Mode extension                           : MS Stereo
    Codec ID                                 : A_MPEG/L3
    Codec ID/Hint                            : MP3
    Duration                                 : 1h 1mn
    Bit rate mode                            : Variable
    Channel(s)                               : 2 channels
    Sampling rate                            : 48.0 KHz
    Compression mode                         : Lossy
    Default                                  : Yes
    Forced                                   : No



    0 0

    Original Post: TVB Limelight Years E19 HDTV 720p-TVBDO



    If you like my upload, please press the "Thank You" buttoncool2.gif

    English Title: Limelight Years
    Chinese Title:華麗轉身
    Network: TVB
    Release Date: April 27, 2015
    Episodes: 20
    Country: Hong Kong
    Audio: Cantonese (AC-3 6 Channels)
    Subtitles: English (.srt embedded)
    Genre: Modern
    Cast: Liza Wang, Damion Lau, Alex Fong, Linda Chung, Eliza Sum, Jonathan Wong, Jacqueline Wong, Michelle Yim (Guest Star)

    Synopsis: There is darkness behind the limelight. After recovering from a long-term sickness, retiring singer Wah Fong Ying (Liza Wang) has come to realize that she has failed to live a fulfilling life. With two failed marriages and strained relationships with her three children, Fong Ying is much lonelier than she admits. Summoning up all her courage, Fong Ying flies to Taiwan to mend her broken relationship with her oldest daughter. During this time, she comes across Hong Kong photographer Law Ben (Damian Lau), who is in Taiwan to fulfill his late wife’s (Michelle Yim) wish of returning to her ancestral home. Sparks fly when the extraordinary meets the ordinary. Both Fong Ying and Ben find their strength as they quietly support each other.

    Encouraged by Ben, Fong Ying decides to perform one last time in a goodbye concert for her close friends and family, but her youngest daughter Tong Yan (Eliza Sam) reacts coldly to the invitation. Nonetheless, Fong Ying remains committed to her last concert and hires a new assistant Szeto Dik Dik (Linda Chung) and a new creative director, Song Sheung Hang (Alex Fong). Dik Dik and Sheung Han initially struggle to get along due to past misunderstandings, but they eventually cultivate a deep relationship. Just as Fong Ying starts to find the light again, she is once again attacked by darkness. While Sheung Hang was preparing a special issue to promote Fong Ying’s concert, he discovers an ugly secret that Fong Ying has been keeping for many years. Dik Dik finds out that Fong Ying and her uncle were involved in the past. Ben is also starting to have hallucinations…






    If you like my upload, please press the "Thank You" buttoncool2.gif


    Code

    General
    Unique ID                                : 244907886656807813436961738766391604472 (0xB83F8B129F25C29C828DFD3DA0EE74F8)
    Complete name                            : Limelight.Years.E19.HDTV.720p-TVBDO.mkv
    Format                                   : Matroska
    Format version                           : Version 4 / Version 2
    File size                                : 1.47 GiB
    Duration                                 : 44mn 10s
    Overall bit rate                         : 4 776 Kbps
    Encoded date                             : UTC 2015-05-21 21:16:47
    Writing application                      : mkvmerge v7.5.0 ('Glass Culture') 32bit built on Jan  4 2015 16:37:25
    Writing library                          : libebml v1.3.1 + libmatroska v1.4.2
    DURATION                                 : 00:41:16.873000000
    NUMBER_OF_FRAMES                         : 655
    NUMBER_OF_BYTES                          : 29001
    _STATISTICS_WRITING_APP                  : mkvmerge v7.5.0 ('Glass Culture') 32bit built on Jan  4 2015 16:37:25
    _STATISTICS_WRITING_DATE_UTC             : 2015-05-21 21:16:47
    _STATISTICS_TAGS                         : BPS DURATION NUMBER_OF_FRAMES NUMBER_OF_BYTES

    Video
    ID                                       : 1
    Format                                   : AVC
    Format/Info                              : Advanced Video Codec
    Format profile                           : High@L3.1
    Format settings, CABAC                   : Yes
    Format settings, ReFrames                : 4 frames
    Codec ID                                 : V_MPEG4/ISO/AVC
    Duration                                 : 44mn 10s
    Bit rate                                 : 4 297 Kbps
    Width                                    : 1 280 pixels
    Height                                   : 720 pixels
    Display aspect ratio                     : 16:9
    Frame rate                               : 25.000 fps
    Color space                              : YUV
    Chroma subsampling                       : 4:2:0
    Bit depth                                : 8 bits
    Scan type                                : Progressive
    Bits/(Pixel*Frame)                       : 0.186
    Stream size                              : 1.33 GiB (90%)
    Writing library                          : x264 core 146 r2538 121396c
    Encoding settings                        : cabac=1 / ref=3 / deblock=1:-1:-1 / analyse=0x3:0x113 / me=hex / subme=7 / psy=1 / psy_rd=1.00:0.15 / mixed_ref=1 / me_range=16 / chroma_me=1 / trellis=1 / 8x8dct=1 / cqm=0 / deadzone=21,11 / fast_pskip=1 / chroma_qp_offset=-3 / threads=18 / lookahead_threads=3 / sliced_threads=0 / nr=0 / decimate=1 / interlaced=0 / bluray_compat=0 / constrained_intra=0 / bframes=3 / b_pyramid=2 / b_adapt=1 / b_bias=0 / direct=1 / weightb=1 / open_gop=0 / weightp=2 / keyint=250 / keyint_min=25 / scenecut=40 / intra_refresh=0 / rc_lookahead=40 / rc=crf / mbtree=1 / crf=16.0 / qcomp=0.60 / qpmin=0 / qpmax=69 / qpstep=4 / ip_ratio=1.40 / aq=1:1.00
    Default                                  : Yes
    Forced                                   : No

    Audio
    ID                                       : 2
    Format                                   : AC-3
    Format/Info                              : Audio Coding 3
    Mode extension                           : CM (complete main)
    Format settings, Endianness              : Big
    Codec ID                                 : A_AC3
    Duration                                 : 44mn 10s
    Bit rate mode                            : Constant
    Bit rate                                 : 384 Kbps
    Channel(s)                               : 6 channels
    Channel positions                        : Front: L C R, Side: L R, LFE
    Sampling rate                            : 48.0 KHz
    Bit depth                                : 16 bits
    Compression mode                         : Lossy
    Delay relative to video                  : 24ms
    Stream size                              : 121 MiB (8%)
    Default                                  : Yes
    Forced                                   : No

    Text
    ID                                       : 3
    Format                                   : UTF-8
    Codec ID                                 : S_TEXT/UTF8
    Codec ID/Info                            : UTF-8 Plain Text
    Language                                 : English
    Default                                  : Yes
    Forced                                   : No



    0 0

    Original Post: TVB The.Empress.of.China.E26.HDTV.H264.2Audio.720p-CensoredCleavages


    Detail:
    Title: Empress Of China
    AKA:武媚娘傳奇
    Genre: Historical fiction
    Release Date: April 26, 2015 - July 4, 2015
    Episodes: 70
    Director: Go Yik Chun
    Country: China
    Language: Track 1: Mandarin/ Track 2: Cantonese dub
    Subtitles: English (srt embedded)
    http://thetvdb.com/?tab=series&id=289782

    Fan Bingbing as Wu Meiniang
    Zhang Fengyi as Li Shimin
    Aarif Rahman as Li Zhi
    Janine Chang as Xu Hui
    Li Chen as Li Mu
    Chang Ting as Consort Wei
    Wu Xiubo as Zhang Jianzhi
    Viann Zhang as Consort Xiao
    Kathy Chow as Consort Yang
    Wang Huichun as Zhangsun Wuji
    Lee Lee-jen as Li Chengqian
    Li Jie as Li Ke
    Yu Haoming as Li Chunfeng

    Before she was the most famous female ruler in Chinese history, Wu Mei Liang was a woman vying for her husbands’ love. While her first husband kept her at arm’s length by a prophecy foretelling a woman of Wu stealing the Tang Dynasty, her second husband welcomed her with open arms. During her time as a minor consort to Li Shi Min, she learned how an effective Emperor rule his court. Using that knowledge, she helped Li Zhi take back power from his Regent, and herself into the position of Empress. She co-ruled with Li Zhi until his death, after which she ruled the country in her own right.







    Code
    Video
    ID                             : 1
    Format                         : AVC
    Format/Info                    : Advanced Video Codec
    Format profile                 : Main@L4.0
    Format settings, CABAC         : Yes
    Format settings, ReFrames      : 4 frames
    Codec ID                       : V_MPEG4/ISO/AVC
    Bit rate                       : 4 500 Kbps
    Width                          : 1 280 pixels
    Height                         : 720 pixels
    Display aspect ratio           : 16:9
    Frame rate mode                : Variable
    Color space                    : YUV
    Chroma subsampling             : 4:2:0
    Bit depth                      : 8 bits
    Scan type                      : Progressive
    Title                          : The.Empress.of.China.E26.HDTV.H264.2Audio.720p-CensoredCleavages
    Writing library                : x264 core 130 r2273 b3065e6
    Language                       : Chinese
    Default                        : Yes
    Forced                         : No
    Color primaries                : BT.709
    Transfer characteristics       : BT.709
    Matrix coefficients            : BT.709

    Audio #1
    ID                             : 2
    Format                         : AC-3
    Format/Info                    : Audio Coding 3
    Mode extension                 : CM (complete main)
    Format settings, Endianness    : Big
    Codec ID                       : A_AC3
    Duration                       : 44mn 27s
    Bit rate mode                  : Constant
    Bit rate                       : 384 Kbps
    Channel(s)                     : 6 channels
    Channel positions              : Front: L C R, Side: L R, LFE
    Sampling rate                  : 48.0 KHz
    Bit depth                      : 16 bits
    Compression mode               : Lossy
    Stream size                    : 122 MiB (8%)
    Title                          : Mandarin
    Language                       : Chinese
    Default                        : Yes
    Forced                         : No

    Audio #2
    ID                             : 3
    Format                         : AC-3
    Format/Info                    : Audio Coding 3
    Mode extension                 : CM (complete main)
    Format settings, Endianness    : Big
    Codec ID                       : A_AC3
    Duration                       : 44mn 27s
    Bit rate mode                  : Constant
    Bit rate                       : 192 Kbps
    Channel(s)                     : 2 channels
    Channel positions              : Front: L R
    Sampling rate                  : 48.0 KHz
    Bit depth                      : 16 bits
    Compression mode               : Lossy
    Stream size                    : 61.1 MiB (4%)
    Title                          : Cantonese
    Language                       : Chinese
    Default                        : No
    Forced                         : No

    Text
    ID                             : 4
    Format                         : UTF-8
    Codec ID                       : S_TEXT/UTF8
    Codec ID/Info                  : UTF-8 Plain Text
    Default                        : Yes
    Forced                         : No



    0 0

    Original Post: Scarlet.Innocence.2014.720p.BluRay.x264-WiKi

    Warning: Nudity | Sex





    Movie: Scarlet Innocence (English title)
    AKA: Madam Bbaengduk (literal title)
    Revised romanization: Madam Bbaengduk
    Hangul: 마담 뺑덕
    Director: Yim Pil-Sung
    World Premiere: September 4, 2014 (Toronto International Film Festival)
    Release Date: October 2, 2014
    Runtime: 111 min.
    Genre: Romance
    Distributor: CJ Entertainment
    Language: Korean
    Country: South Korea
    IMDB link: http://www.imdb.com/title/tt3958014/reference
    Subtitles English/Chinese embedded

    Cast:
    Jung Woo-Sung - Professor Hak-Kyu
    Esom - Deok-Yi
    Park So-Young - Cheong-Yi
    Kim Hee-Won - Mr. Choi
    Yang Jin-Woo - ophthalmologists
    Park So-Dam - Chung-Yi's friend at club
    Yoon Se-Ah - Cheong-Yi's mom

    Plot:
    Hak-kyu (Jung) is a university professor who's gradually losing his eyesight. In a vulnerable state, he begins to fall for an irresistible, insistent young woman (Lee). It turns into a torrid affair, and Hak-kyu throws all caution aside, but when he commits an act that she takes as the worst form of betrayal, her feelings turn. Scarlet Innocence is a contemporary retelling of a classic Korean tale, The Story of Simcheong, which was elevated to timeless art when adapted to the Korean musical storytelling form pansori. But Yim takes radical liberties with the story, changing what was always a father-daughter dynamic into an account of two strangers who first become lovers, then adversaries. Drenched in sex and desperate acts - Jung has scenes here that will shock and excite his fans - this is a twenty-first-century film noir very much in keeping with Yim's abiding interests. From his first feature Antarctic Journal through Hansel and Gretel and Doomsday Book, Yim has always set his characters free to pursue their obsessions no matter how far it takes them. To watch Jung and Lee turn up the heat as this story progresses is to see just how dangerous a director Yim can be. ~ tiff








    Code
    Video
    ID                                       : 1
    Format                                   : AVC
    Format/Info                              : Advanced Video Codec
    Format profile                           : High@L4.1
    Format settings, CABAC                   : Yes
    Format settings, ReFrames                : 9 frames
    Codec ID                                 : V_MPEG4/ISO/AVC
    Duration                                 : 1h 52mn
    Bit rate                                 : 4 930 Kbps
    Width                                    : 1 280 pixels
    Height                                   : 690 pixels
    Display aspect ratio                     : 1.855
    Frame rate                               : 24.000 fps
    Color space                              : YUV
    Chroma subsampling                       : 4:2:0
    Bit depth                                : 8 bits
    Scan type                                : Progressive
    Bits/(Pixel*Frame)                       : 0.233
    Stream size                              : 3.78 GiB (87%)
    Writing library                          : x264 core 129 r2245+704+36 8e61944 tMod+MixAQ [8-bit@4:2:0 X86_64]
    Encoding settings                        : cabac=1 / ref=9 / deblock=1:-3:-3 / analyse=0x3:0x133 / me=umh / subme=11 / psy=1 / fade_compensate=0.00 / psy_rd=1.05:0.10 / mixed_ref=1 / me_range=32 / chroma_me=1 / trellis=2 / 8x8dct=1 / cqm=0 / deadzone=21,11 / fast_pskip=0 / chroma_qp_offset=-3 / threads=18 / lookahead_threads=3 / sliced_threads=0 / nr=0 / decimate=0 / interlaced=0 / bluray_compat=0 / constrained_intra=0 / fgo=0 / bframes=10 / b_pyramid=2 / b_adapt=2 / b_bias=0 / direct=3 / weightb=1 / open_gop=0 / weightp=2 / keyint=250 / keyint_min=24 / scenecut=40 / intra_refresh=0 / rc_lookahead=80 / rc=2pass / mbtree=1 / bitrate=4930 / ratetol=1.0 / qcomp=0.70 / qpmin=0 / qpmax=69 / qpstep=4 / cplxblur=20.0 / qblur=0.5 / ip_ratio=1.40 / aq=1 / aq-strength=0.85 / aq-sensitivity=10.00 / aq-ifactor=1.00 / aq-pfactor=1.00 / aq-bfactor=1.00 / aq2=0
    Language                                 : Korean
    Default                                  : Yes
    Forced                                   : No
    DURATION                                 : 01:52:22.000000000
    NUMBER_OF_FRAMES                         : 161808
    NUMBER_OF_BYTES                          : 4150336448
    _STATISTICS_WRITING_APP                  : mkvmerge v7.9.0 ('Birds') 64bit
    _STATISTICS_WRITING_DATE_UTC             : 2015-05-21 17:21:47
    _STATISTICS_TAGS                         : BPS DURATION NUMBER_OF_FRAMES NUMBER_OF_BYTES
    Matrix coefficients                      : BT.709-5, BT.1361, IEC 61966-2-4 709, SMPTE RP177

    Audio
    ID                                       : 2
    Format                                   : AC-3
    Format/Info                              : Audio Coding 3
    Mode extension                           : CM (complete main)
    Codec ID                                 : A_AC3
    Duration                                 : 1h 52mn
    Bit rate mode                            : Constant
    Bit rate                                 : 640 Kbps
    Channel(s)                               : 6 channels
    Channel positions                        : Front: L C R, Side: L R, LFE
    Sampling rate                            : 48.0 KHz
    Bit depth                                : 16 bits
    Compression mode                         : Lossy
    Stream size                              : 514 MiB (11%)
    Language                                 : Korean
    Default                                  : Yes
    Forced                                   : No

    Text #1
    ID                                       : 3
    Format                                   : UTF-8
    Codec ID                                 : S_TEXT/UTF8
    Codec ID/Info                            : UTF-8 Plain Text
    Title                                    : Simplified
    Language                                 : Chinese
    Default                                  : Yes
    Forced                                   : No

    Text #2
    ID                                       : 4
    Format                                   : UTF-8
    Codec ID                                 : S_TEXT/UTF8
    Codec ID/Info                            : UTF-8 Plain Text
    Title                                    : Traditional
    Language                                 : Chinese
    Default                                  : No
    Forced                                   : No

    Text #3
    ID                                       : 5
    Format                                   : UTF-8
    Codec ID                                 : S_TEXT/UTF8
    Codec ID/Info                            : UTF-8 Plain Text
    Language                                 : English
    Default                                  : No
    Forced                                   : No

    Menu
    00:00:00.000                             : en:00:00:00.000
    00:10:07.333                             : en:00:10:07.333
    00:19:28.375                             : en:00:19:28.375
    00:27:18.708                             : en:00:27:18.708
    00:38:24.000                             : en:00:38:24.000
    00:45:52.000                             : en:00:45:52.000
    00:57:04.250                             : en:00:57:04.250
    01:03:07.041                             : en:01:03:07.041
    01:16:02.125                             : en:01:16:02.125
    01:24:01.166                             : en:01:24:01.166
    01:32:44.375                             : en:01:32:44.375
    01:41:59.125                             : en:01:41:59.125






    0 0

    Original Post: Who is Undercover 2014 720p BluRay x264-WiKi







    Detail:
    Title: Who Is Undercover
    AKA:一号目标/梅园岁月 / Yi Hao Mu Biao
    Genre: Drama, Mystery, Action, Thriller
    Release Date: 21 March 2014
    Runtime: 108 min
    Director: Zhai Junjie
    Country: China
    Language: Mandarin
    Subtitles:Chinese

    Sun Weimin
    Liu Xiaofeng
    Angel Jiang
    Sun Qian
    Murray Clive
    Hou Yong
    Ni Dahong
    Morni Chang
    Huang Wei
    Yiyad Zhang
    Guo Jinglin
    Lin Dongfu
    Liu Xin
    Zhai Wanchen
    Xue Shan

    An Agatha Christie-esque mystery set in 1930s Shanghai. Five women have been arrested and kept in a prison because one of them is suspected to be `Ace,` a core figure in the resistance movement. As the five women are tortured and played against each other for the identity of `Ace,` a resistance fighter risks his life to rescue the women from captivity.








    Code

    Video
    ID                                       : 1
    Format                                   : AVC
    Format/Info                              : Advanced Video Codec
    Format profile                           : High@L4.1
    Format settings, CABAC                   : Yes
    Format settings, ReFrames                : 12 frames
    Codec ID                                 : V_MPEG4/ISO/AVC
    Duration                                 : 1h 31mn
    Bit rate                                 : 4 838 Kbps
    Width                                    : 1 280 pixels
    Height                                   : 544 pixels
    Display aspect ratio                     : 2.35:1
    Frame rate                               : 24.000 fps
    Color space                              : YUV
    Chroma subsampling                       : 4:2:0
    Bit depth                                : 8 bits
    Scan type                                : Progressive
    Bits/(Pixel*Frame)                       : 0.289
    Stream size                              : 3.02 GiB (86%)
    Writing library                          : x264 core 129 r2245+704+36 8e61944 tMod+MixAQ [8-bit@4:2:0 X86_64]
    Encoding settings                        : cabac=1 / ref=12 / deblock=1:-3:-3 / analyse=0x3:0x133 / me=umh / subme=11 / psy=1 / fade_compensate=0.00 / psy_rd=1.05:0.10 / mixed_ref=1 / me_range=32 / chroma_me=1 / trellis=2 / 8x8dct=1 / cqm=0 / deadzone=21,11 / fast_pskip=0 / chroma_qp_offset=-3 / threads=12 / lookahead_threads=2 / sliced_threads=0 / nr=0 / decimate=0 / interlaced=0 / bluray_compat=0 / constrained_intra=0 / fgo=0 / bframes=10 / b_pyramid=2 / b_adapt=2 / b_bias=0 / direct=3 / weightb=1 / open_gop=0 / weightp=2 / keyint=250 / keyint_min=24 / scenecut=40 / intra_refresh=0 / rc_lookahead=80 / rc=2pass / mbtree=1 / bitrate=4838 / ratetol=1.0 / qcomp=0.70 / qpmin=0 / qpmax=69 / qpstep=4 / cplxblur=20.0 / qblur=0.5 / ip_ratio=1.40 / aq=3 / aq-strength=0.85 / aq-sensitivity=10.00 / aq-ifactor=1.00 / aq-pfactor=1.00 / aq-bfactor=1.00 / aq2=0
    Language                                 : Chinese
    Default                                  : Yes
    Forced                                   : No
    DURATION                                 : 01:31:30.834000000
    NUMBER_OF_FRAMES                         : 131780
    NUMBER_OF_BYTES                          : 3320113545
    _STATISTICS_WRITING_APP                  : mkvmerge v7.9.0 ('Birds') 64bit
    _STATISTICS_WRITING_DATE_UTC             : 2015-05-22 01:22:16
    _STATISTICS_TAGS                         : BPS DURATION NUMBER_OF_FRAMES NUMBER_OF_BYTES
    Matrix coefficients                      : BT.709-5, BT.1361, IEC 61966-2-4 709, SMPTE RP177

    Audio
    ID                                       : 2
    Format                                   : AC-3
    Format/Info                              : Audio Coding 3
    Mode extension                           : CM (complete main)
    Format settings, Endianness              : Big
    Codec ID                                 : A_AC3
    Duration                                 : 1h 31mn
    Bit rate mode                            : Constant
    Bit rate                                 : 640 Kbps
    Channel(s)                               : 6 channels
    Channel positions                        : Front: L C R, Side: L R, LFE
    Sampling rate                            : 48.0 KHz
    Bit depth                                : 16 bits
    Compression mode                         : Lossy
    Stream size                              : 419 MiB (12%)
    Language                                 : Chinese
    Default                                  : Yes
    Forced                                   : No

    Text #1
    ID                                       : 3
    Format                                   : UTF-8
    Codec ID                                 : S_TEXT/UTF8
    Codec ID/Info                            : UTF-8 Plain Text
    Title                                    : Simplified
    Language                                 : Chinese
    Default                                  : Yes
    Forced                                   : No

    Text #2
    ID                                       : 4
    Format                                   : UTF-8
    Codec ID                                 : S_TEXT/UTF8
    Codec ID/Info                            : UTF-8 Plain Text
    Title                                    : Traditional
    Language                                 : Chinese
    Default                                  : No
    Forced                                   : No



    0 0

    Original Post: [Singapore Drama] Mind Games EP05 720p HDTV x264 AAC-DoA



    Title: Mind Game(心迷)
    Genre: Drama
    Episodes: TBD
    Broadcast network: MediaCorp
    Country: Singapore
    Language: Mandarin
    Broadcast period: 7 May - 17 Jun
    Air time: Weekday 21:00
    Subtitles: English
    RAW credit to DoA

     
    Cast

       Joanne Peh as Zhao Anni
       Tay Ping Hui as Liang Wenjie
       Zhang Yao Dong as Guo Yongyan
       Paige Chua as Feng Xuezhi/Liang Huixin
       Yuan Shuai
       Terence Cao
       Ye Shipin
       Akit Tay
       Tiffany Leong


    Synopsis

    Mind Games is thriller-romance drama with many unexpected twists and suspense. Liang Wen Jie (Tay Ping Hui) is a paralegal at a law firm; he is in-charge of many mysterious cases that requires thorough investigations. In each case, suspects are extremely careful as they plot elaborate lies to escape from detection. However, none of them can escape from Wen Jie who has a sharp analytical mind and is attentive to even the smallest details.


    Mediainfo
    Spoiler:show

    Code
    Format                                   : Matroska
    Format version                           : Version 4 / Version 2
    File size                                : 1.23 GiB
    Duration                                 : 45mn 23s
    Overall bit rate                         : 3 877 Kbps
    Encoded date                             : UTC 2015-05-16 13:21:32
    Writing application                      : mkvmerge v6.1.0 ('Old Devil') built on Mar  2 2013 14:32:37
    Writing library                          : libebml v1.3.0 + libmatroska v1.4.0

    Video
    ID                                       : 1
    Format                                   : AVC
    Format/Info                              : Advanced Video Codec
    Format profile                           : High@L4.1
    Format settings, CABAC                   : Yes
    Format settings, ReFrames                : 5 frames
    Codec ID                                 : V_MPEG4/ISO/AVC
    Duration                                 : 45mn 23s
    Bit rate                                 : 3 672 Kbps
    Width                                    : 1 280 pixels
    Height                                   : 720 pixels
    Display aspect ratio                     : 16:9
    Frame rate mode                          : Constant
    Frame rate                               : 25.000 fps
    Color space                              : YUV
    Chroma subsampling                       : 4:2:0
    Bit depth                                : 8 bits
    Scan type                                : Progressive
    Bits/(Pixel*Frame)                       : 0.159
    Stream size                              : 1.16 GiB (95%)
    Writing library                          : x264 core 120 r2164 da19765
    Encoding settings                        : cabac=1 / ref=5 / deblock=1:-3:-3 / analyse=0x3:0x133 / me=umh / subme=9 / psy=1 / psy_rd=1.00:0.15 / mixed_ref=1 / me_range=16 / chroma_me=1 / trellis=2 / 8x8dct=1 / cqm=0 / deadzone=21,11 / fast_pskip=1 / chroma_qp_offset=-3 / threads=6 / sliced_threads=0 / nr=0 / decimate=1 / interlaced=0 / bluray_compat=0 / constrained_intra=0 / bframes=8 / b_pyramid=2 / b_adapt=2 / b_bias=0 / direct=3 / weightb=1 / open_gop=0 / weightp=2 / keyint=250 / keyint_min=25 / scenecut=40 / intra_refresh=0 / rc_lookahead=60 / rc=crf / mbtree=1 / crf=18.0 / qcomp=0.60 / qpmin=0 / qpmax=69 / qpstep=4 / ip_ratio=1.40 / aq=1:1.00
    Default                                  : Yes
    Forced                                   : No

    Audio
    ID                                       : 2
    Format                                   : AC-3
    Format/Info                              : Audio Coding 3
    Mode extension                           : CM (complete main)
    Format settings, Endianness              : Big
    Codec ID                                 : A_AC3
    Duration                                 : 45mn 23s
    Bit rate mode                            : Constant
    Bit rate                                 : 128 Kbps
    Channel(s)                               : 2 channels
    Channel positions                        : Front: L R
    Sampling rate                            : 48.0 KHz
    Bit depth                                : 16 bits
    Compression mode                         : Lossy
    Stream size                              : 41.6 MiB (3%)
    Language                                 : Chinese
    Default                                  : Yes
    Forced                                   : No





    0 0

    Original Post: Various Artists – Falling For Innocence OST



    Various Artists – 순정에 반하다 OST (Falling For Innocence OST)
    Release Date: 2015.05.22
    Genre: OST
    Bit rate: MP3-320K
    credit to hulkpop

    Track List:

    01. 파라다이스 – Davink
    02. 꿈은 아니길 – 이영훈
    03. Madly – 덕원
    04. 외친다 – 이윤찬
    05. Butterfly
    06. 해바라기 사랑
    07. 공전하며 공존하기
    08. 연쇄 살인마, 강민호
    09. 슬픔도 다 지나간다
    10. 가질 수 없는 마음
    11. 형사 마동욱
    12. What?
    13. 사랑일까…
    14. 사랑하지 않을 이유가 없다
    15. 예상 밖의 시간
    16. Dissension
    17. 떠나간 자리
    18. 슬픈 심장
    19. 심장의 기억
    20. 풍전등화
    21. Burn With Hatred
    22. 배신의 덫
    23. The Plotter
    24. 고민
    25. 마주보며 걷기
    26. 심쿵



    0 0

    Original Post: Jang Nok Soo (1995) Complete UlTRA


    Title:장녹수 / Jang Nok Soo
    Also known as: Jang Nok Su / jangnoksu
    Genre: Historical
    Episodes: 52
    Broadcast network: KBS2
    Broadcast period: 1995-jan-2 - 1995-jun-27
    Air time: Monday & Tuesday 21:55
    Subtitles:NONE

    Synopsis
    This drama summarizes the relationship between Joseon tyrant Prince Yeonsan and the former gisaeng Jang Nok Soo, who became Yeonsan's queen.

    Cast
    Yu Dong Geun - Prince Yeon San
    Park Ji Yeong - Jang Nok Soo
    Ban Hyo Jeong - Queen In Soo

    Screenwriter: Jeong Ha Yeon
    Director: Lee Yeong Guk


    This is old school release, so every episode has got size limit 1CD (700MB), hasn't got fix bitrate. Some episode has got 128kbps MP3, not AC-3.

    Code
    Video
    ID                          : 0
    Format                      : MPEG-4 Visual
    Format profile              : Simple@L3
    Format settings, BVOP       : 2
    Format settings, QPel       : No
    Format settings, GMC        : No warppoints
    Format settings, Matrix     : Default (H.263)
    Muxing mode                 : Packed bitstream
    Codec ID                    : XVID
    Codec ID/Hint               : XviD
    Duration                    : 44mn 46s
    Bit rate                    : 2 075 Kbps
    Width                       : 640 pixels
    Height                      : 480 pixels
    Display aspect ratio        : 4:3
    Frame rate                  : 29.970 fps
    Color space                 : YUV
    Chroma subsampling          : 4:2:0
    Bit depth                   : 8 bits
    Scan type                   : Progressive
    Compression mode            : Lossy
    Bits/(Pixel*Frame)          : 0.225
    Stream size                 : 665 MiB (95%)
    Writing library             : XviD 1.1.0 Beta2 (UTC 2005-04-04)

    Audio
    ID                          : 1
    Format                      : AC-3
    Format/Info                 : Audio Coding 3
    Mode extension              : CM (complete main)
    Format settings, Endianness : Big
    Codec ID                    : 2000
    Duration                    : 44mn 46s
    Bit rate mode               : Constant
    Bit rate                    : 96.0 Kbps
    Channel(s)                  : 2 channels
    Channel positions           : Front: L R
    Sampling rate               : 48.0 KHz
    Compression mode            : Lossy
    Delay relative to video     : 23ms
    Stream size                 : 30.7 MiB (4%)
    Alignment                   : Split accross interleaves
    Interleave, duration        : 33 ms (1.00 video frame)
    Interleave, preload duratio : 500 ms



    0 0

    Original Post: The Soong Sisters 1997 720p BluRay x264 DTS-WiKi





    Detail:
    Title: The Soong Sisters
    Genre: Drama | History | Romance
    Release Date: 1997
    Runtime: 145 min
    Director: Mabel Cheung
    Rating: 7.1/10 (695 votes)
    Country: Hong Kong | Japan | China
    Language: Mandarin
    Subtitles:Chinese, ENglish

    Synopsis:
    The Soong family was a political dynasty in China that reached the highest levels of power. This film follows the lives of the three Soong daughters, who were educated in America and returned to China. Ai-ling (the oldest) married a wealthy and powerful businessman. Ching-ling married Sun Yat-sen, the revolutionary founder of modern China. Mei-ling (the youngest) married Chiang Kai-shek, China‘s leader during World War II. The sisters captured the world‘s fascination for their brilliant marriages and their strong influence on their nation.

    Cast:
    Maggie Cheung, Michelle Yeoh, Vivian Wu








    Code

    Video
    ID                                       : 1
    Format                                   : AVC
    Format/Info                              : Advanced Video Codec
    Format profile                           : High@L4.1
    Format settings, CABAC                   : Yes
    Format settings, ReFrames                : 12 frames
    Codec ID                                 : V_MPEG4/ISO/AVC
    Duration                                 : 2h 24mn
    Bit rate                                 : 9 000 Kbps
    Width                                    : 1 280 pixels
    Height                                   : 544 pixels
    Display aspect ratio                     : 2.35:1
    Frame rate                               : 24.000 fps
    Color space                              : YUV
    Chroma subsampling                       : 4:2:0
    Bit depth                                : 8 bits
    Scan type                                : Progressive
    Bits/(Pixel*Frame)                       : 0.539
    Stream size                              : 8.85 GiB (84%)
    Writing library                          : x264 core 142 r2431+42 c69a006 tMod [8-bit@all X86_64]
    Encoding settings                        : cabac=1 / ref=12 / deblock=1:-3:-3 / analyse=0x3:0x133 / me=umh / subme=11 / psy=1 / fade_compensate=0.00 / psy_rd=1.05:0.10 / mixed_ref=1 / me_range=32 / chroma_me=1 / trellis=2 / 8x8dct=1 / cqm=0 / deadzone=6,6 / fast_pskip=0 / chroma_qp_offset=-3 / threads=12 / lookahead_threads=2 / sliced_threads=0 / nr=0 / decimate=0 / interlaced=0 / bluray_compat=0 / constrained_intra=0 / fgo=0 / bframes=8 / b_pyramid=2 / b_adapt=2 / b_bias=0 / direct=3 / weightb=1 / open_gop=0 / weightp=2 / keyint=250 / keyint_min=24 / scenecut=40 / intra_refresh=0 / rc=2pass / mbtree=0 / bitrate=9000 / ratetol=1.0 / qcomp=0.65 / qpmin=0:0:0 / qpmax=69:69:69 / qpstep=4 / cplxblur=20.0 / qblur=0.5 / ip_ratio=1.10 / pb_ratio=1.10 / aq=1:0.60 / aq-sensitivity=10.00 / aq-factor=1.00:1.00:1.00 / aq2=0 / aq3=0
    Language                                 : Chinese
    Default                                  : Yes
    Forced                                   : No
    Matrix coefficients                      : BT.709-5, BT.1361, IEC 61966-2-4 709, SMPTE RP177

    Audio
    ID                                       : 2
    Format                                   : DTS
    Format/Info                              : Digital Theater Systems
    Codec ID                                 : A_DTS
    Duration                                 : 2h 24mn
    Bit rate mode                            : Constant
    Bit rate                                 : 1 510 Kbps
    Channel(s)                               : 6 channels
    Channel positions                        : Front: L C R, Side: L R, LFE
    Sampling rate                            : 48.0 KHz
    Bit depth                                : 16 bits
    Compression mode                         : Lossy
    Stream size                              : 1.52 GiB (14%)
    Title                                    : Mandarin
    Language                                 : Chinese
    Default                                  : Yes
    Forced                                   : No

    Text #1
    ID                                       : 3
    Format                                   : UTF-8
    Codec ID                                 : S_TEXT/UTF8
    Codec ID/Info                            : UTF-8 Plain Text
    Title                                    : CHT
    Language                                 : Chinese
    Default                                  : No
    Forced                                   : No

    Text #2
    ID                                       : 4
    Format                                   : UTF-8
    Codec ID                                 : S_TEXT/UTF8
    Codec ID/Info                            : UTF-8 Plain Text
    Title                                    : CHS
    Language                                 : Chinese
    Default                                  : No
    Forced                                   : No

    Text #3
    ID                                       : 5
    Format                                   : UTF-8
    Codec ID                                 : S_TEXT/UTF8
    Codec ID/Info                            : UTF-8 Plain Text
    Language                                 : English
    Default                                  : No
    Forced                                   : No



older | 1 | .... | 1349 | 1350 | (Page 1351) | 1352 | 1353 | .... | 1405 | newer