Are you the publisher? Claim or contact us about this channel


Embed this content in your HTML

Search

Report adult content:

click to rate:

Account: (login)

More Channels


Showcase


Channel Catalog


Channel Description:

Asia Torrents RSS Feed

older | 1 | .... | 1350 | 1351 | (Page 1352) | 1353 | 1354 | .... | 1405 | newer

    0 0

    Original Post: I Fine,Thank You, Love You (2014) HDRip 1080p x264 AC3 THAI-Zakky




    Title: I Fine,Thank You, Love You
    Also known as: Ai Fai.. Thank You Love You
    Genre: Comedy / Romance
    Release Date: December 10, 2014
    Language: Thai
    Country: Thailand
    Subtitles: NONE


    Cast:
    Preechaya Pongthananikorn
    Sunny Suwanmethanon
    Sora Aoi (Japanese JAV actress)
    Popetorn Soonthornyanakij
    Puttachat Pongsuchat


    Synopsis:
    Yim (Sunny Suwanmethanon) hopes to win back his ex-girlfriend Kaya (Sora Aoi), who has left Thailand to work in the United States. In order to join her there, he must ace an upcoming job interview in English, a language he can barely speak. Worse, he gets off on the wrong footing with Pleng (Ice Preechaya Pongthananikorn), the English tutor he employs.












    Code
    General
    Complete name                            : I Fine,Thank You, Love You (2014) HDRip 1080p x264 AC3 THAI-Zakky.mkv
    Format                                   : Matroska
    Format version                           : Version 4 / Version 2
    File size                                : 3.68 GiB
    Duration                                 : 2h 5mn
    Overall bit rate                         : 4190 Kbps


    Video
    ID                                       : 1
    Format                                   : AVC
    Format/Info                              : Advanced Video Codec
    Format profile                           : High@L4.1
    Format settings, CABAC                   : Yes
    Format settings, ReFrames                : 4 frames
    Codec ID                                 : V_MPEG4/ISO/AVC
    Duration                                 : 2h 5mn
    Width                                    : 1920 pixels
    Height                                   : 1080 pixels
    Display aspect ratio                     : 16:9
    Frame rate                               : 25.000 fps
    Color space                              : YUV
    Chroma subsampling                       : 4:2:0
    Bit depth                                : 8 bits
    Scan type                                : Progressive


    Audio
    ID                                       : 2
    Format                                   : AC-3
    Format/Info                              : Audio Coding 3
    Codec ID                                 : A_AAC
    Duration                                 : 2h 5mn
    Channel(s)                               : 6 channels
    Channel positions                        : Front: L C R, Side: L R, LFE
    Bit rate                                 : 448 Kbps
    Sampling rate                            : 48.0 KHz
    Compression mode                         : Lossy
    Default                                  : Yes
    Forced                                   : No



    0 0

    Original Post: Mother Game EP06 720p HDTV x264 AAC-DoA



    http://wiki.d-addicts.com/Mother_Game
    http://asianwiki.com/Mother_Game
    http://thetvdb.com/?tab=series&id=293381&lid=7

    Title (English): Mother Game
    Also known as: The Mother Class
    Tagline: 彼女たちの階級 / Kanojotachi no Kaikyuu
    Format: Renzoku
    Genre: Family
    Episodes: TBD
    Broadcast network: TBS
    Broadcast period: 2015-Apr-14 start
    Air time: Tuesday 22:00
    Theme song: Beautiful by Superfly
    Subtitles: English - Yukkuri Subs
    RAW credit to DoA


    Cast

    Kanbara Family

       Kimura Fumino as Kanbara Kiko
       Ryu Raita as Kanbara Tetsuji
       Yamamoto Ayumu (横山歩) as Kanbara Haruto

    Odadera Family

       Dan Rei as Odadera Marie
       Igarashi Hinata (五十嵐陽向) as Odadera Makoto

    Yano Family

       Hasegawa Kyoko as Yano Satoko
       Hasegawa Kiyo (長谷川稀世) as Yano Shizuko
       Sakurai Hijiri as Yano Masaki
       Kanon as Yano Reina
       Watanabe Reika (渡邊れいら) as Yano Erina
       Oe Yusei (大江優成) as Yano Yuuki

    Kamiya Family

       Kanjiya Shihori as Kamiya Yuki
       Shinoda Mitsuyoshi as Kamiya Kyoji
       Goto Yuira (後藤由依良) as Kamiya Sakurako

    Goto Family

       Adachi Yumi as Goto Midori
       Maruyama Tomomi as Goto Rika
       Yazaki Yusa (矢崎由紗) as Goto Shuhei

    Others

       Muroi Shigeru as Naraoka Fumi
       Seto Koji as Naraoka Shinnosuke
       Okada Yoshinori as Kashiyama Hidenori
       Emi Kurara as Yamakawa Mamiko
       Tominaga Saori (富永沙織) as Tsunoda Kayo
       Kamiji Yusuke as Isoyama Takumi
       Tanaka Naoki as Member of staff
       Toyohara Kosuke as Mysterious Man
       Shibukawa Kiyohiko (渋川清彦) as Kashiwagi Kunpei


    Synopsis

    Kanbara Kiko is a poor single mother whose 5-year-old son, Haruto, gets admitted to a prestigious kindergarten in an unexpected turn of events. One Haruto's first day of school, high-end cars are backed up in front of the kindergarten’s front gate. Mothers swagger on high heels within the compound and carry luxury brand bags. Although Kiko is shocked by the reality of this kindergarten where she is out of her element, she expresses her feelings directly to the mothers who regard her as an enemy. With her vivacity and compassion, she starts to change the thinking and establish new bonds with these rigid women living in a completely different world and generation. -- Jdrama Weblog


    Mediainfo
    Spoiler:show

    Code
    Format                                   : Matroska
    Format version                           : Version 4 / Version 2
    File size                                : 1 019 MiB
    Duration                                 : 46mn 29s
    Overall bit rate                         : 3 063 Kbps
    Movie name                               : マザー・ゲーム~彼女たちの階級~ #06 720p HDTV x264 AAC-DoA
    Encoded date                             : UTC 2015-05-20 02:16:47
    Writing application                      : mkvmerge v7.8.0 ('River Man') 64bit built on Mar 27 2015 16:31:37
    Writing library                          : libebml v1.3.1 + libmatroska v1.4.2
    DURATION                                 : 00:46:29.461000000
    NUMBER_OF_FRAMES                         : 130756
    NUMBER_OF_BYTES                          : 65770224
    _STATISTICS_WRITING_APP                  : mkvmerge v7.8.0 ('River Man') 64bit built on Mar 27 2015 16:31:37
    _STATISTICS_WRITING_DATE_UTC             : 2015-05-20 02:16:47
    _STATISTICS_TAGS                         : BPS DURATION NUMBER_OF_FRAMES NUMBER_OF_BYTES

    Video
    ID                                       : 1
    Format                                   : AVC
    Format/Info                              : Advanced Video Codec
    Format profile                           : High@L4.1
    Format settings, CABAC                   : Yes
    Format settings, ReFrames                : 9 frames
    Codec ID                                 : V_MPEG4/ISO/AVC
    Duration                                 : 46mn 29s
    Width                                    : 1 280 pixels
    Height                                   : 720 pixels
    Display aspect ratio                     : 16:9
    Frame rate mode                          : Constant
    Frame rate                               : 29.970 fps
    Color space                              : YUV
    Chroma subsampling                       : 4:2:0
    Bit depth                                : 8 bits
    Scan type                                : Progressive
    Title                                    : Encode by DoA
    Writing library                          : x264 core 130 r2273 b3065e6
    Encoding settings                        : cabac=1 / ref=9 / deblock=1:-2:-2 / analyse=0x3:0x133 / me=umh / subme=10 / psy=1 / psy_rd=1.00:0.15 / mixed_ref=1 / me_range=48 / chroma_me=1 / trellis=2 / 8x8dct=1 / cqm=0 / deadzone=21,11 / fast_pskip=0 / chroma_qp_offset=-3 / threads=12 / lookahead_threads=2 / sliced_threads=0 / nr=0 / decimate=1 / interlaced=0 / bluray_compat=0 / constrained_intra=0 / bframes=8 / b_pyramid=2 / b_adapt=2 / b_bias=0 / direct=3 / weightb=1 / open_gop=0 / weightp=2 / keyint=300 / keyint_min=29 / scenecut=40 / intra_refresh=0 / rc_lookahead=60 / rc=crf / mbtree=1 / crf=17.5 / qcomp=0.60 / qpmin=0 / qpmax=69 / qpstep=4 / ip_ratio=1.40 / aq=1:1.00
    Language                                 : Japanese
    Default                                  : Yes
    Forced                                   : No
    DURATION                                 : 00:46:29.853000000
    NUMBER_OF_FRAMES                         : 83612
    NUMBER_OF_BYTES                          : 1001615748
    _STATISTICS_WRITING_APP                  : mkvmerge v7.8.0 ('River Man') 64bit built on Mar 27 2015 16:31:37
    _STATISTICS_WRITING_DATE_UTC             : 2015-05-20 02:16:47
    _STATISTICS_TAGS                         : BPS DURATION NUMBER_OF_FRAMES NUMBER_OF_BYTES

    Audio
    ID                                       : 2
    Format                                   : AAC
    Format/Info                              : Advanced Audio Codec
    Format profile                           : LC
    Codec ID                                 : A_AAC
    Duration                                 : 46mn 29s
    Channel(s)                               : 2 channels
    Channel positions                        : Front: L R
    Sampling rate                            : 48.0 KHz
    Compression mode                         : Lossy
    Delay relative to video                  : 14ms
    Language                                 : Japanese
    Default                                  : Yes
    Forced                                   : No

    Menu
    00:00:00.000                             : ja:マザー・ゲーム~彼女たちの階級~ #06 Part 1
    00:08:39.785                             : ja:オープニング
    00:09:02.975                             : ja:マザー・ゲーム~彼女たちの階級~ #06 Part 2
    00:22:55.941                             : ja:マザー・ゲーム~彼女たちの階級~ #06 Part 3
    00:28:37.916                             : ja:マザー・ゲーム~彼女たちの階級~ #06 Part 4
    00:34:06.878                             : ja:マザー・ゲーム~彼女たちの階級~ #06 Part 5
    00:46:14.872                             : ja:次回予告





    0 0

    Original Post: Yokoso, Wagaya e EP06 720p HDTV x264 AAC-DoA



    http://wiki.d-addicts.com/Yokoso,_Wagaya_e
    http://asianwiki.com/Welcome_to_Our_Home
    http://thetvdb.com/?tab=series&id=294674&lid=7

    Title (romaji): Yokoso, Wagaya e
    Format: Renzoku
    Genre: Family, suspense drama
    Episodes: TBA
    Broadcast network: Fuji TV
    Broadcast period: 2015-April-13 start
    Air time: Monday 21:00
    Theme song: Aozora no Shita, Kimi no Tonari by Arashi
    Subtitles: English - Menimi
    RAW credit to DoA


    Cast

       Aiba Masaki as Kurata Kenta
       Sawajiri Erika as Kandori Asuka
       Arimura Kasumi as Kurata Nana
       Minami Kaho as Kurata Keiko
       Terao Akira as Kurata Taichi
       Fujii Ryusei
       Adachi Rika
       Takada Junji
       Sato Jiro
       Takenaka Naoto
       Yamaguchi Sayaka
       Tanaka Mirie (田中美麗)
       Horiuchi Keiko
       Mashima Hidekazu


    Synopsis

    Kurata Kenta lives with his father, Taichi, his mother, Keiko, and his younger sister, Nana in an isolated home in the suburbs. He works as an unpopular commercial designer. Kenta possesses a timid personality, which he picked up from his father. Kenta doesn't like his father.

    One day, while waiting for the train, Kenta warns a man who pushed a woman and cut in line. Kenta is surprised that he spoke out with his normally timid personality. After that incident, Kenta's family home is targeted by an unknown person with flowers from their garden being pulled out and the seat of a bicycle being torn. Also, Kenta's younger sister Nana is stalked by her ex-boyfriend.

    Kenta and his family try to find out who is responsible.


    Mediainfo
    Spoiler:show

    Code
    Format                                   : Matroska
    Format version                           : Version 4 / Version 2
    File size                                : 877 MiB
    Duration                                 : 46mn 24s
    Overall bit rate                         : 2 641 Kbps
    Movie name                               : ようこそ、わが家へ 第6話
    Encoded by                               : 愛衣ちゃん大勝利 。゚( ゚இωஇ゚)゚。
    Encoded date                             : UTC 2015-05-20 14:29:04
    Writing application                      : mkvmerge v7.6.0 ('Garden of Dreams') 64bit built on Feb  9 2015 20:32:11
    Writing library                          : libebml v1.3.1 + libmatroska v1.4.2
    DATE_RECORDED                            : JST 2015-05-18 20:59:06
    TITLE                                    : ようこそ、わが家へ 第6話
    TITLE/Url                                : http://www.fujitv.co.jp/wagayae/story/index.html
    SUBTITLE                                 : 妹は絶対に守る!卑劣なストーカーと直接対決!
    WRITTEN_BY                               : 黒岩勉
    DIRECTOR                                 : 中江功
    ACTOR                                    : 有村架純
    ACTOR/CHARACTER                          : 倉田 七菜
    COMMENT                                  : ルートスフィア
    ENCODER_SETTINGS                         : wine avs-mt/avs2yuv.exe wagayae.avs - | x264 -
    ENCODER_SETTINGS/AviSynth                : qtgmc(preset = 'slower').selecteven.lanczosresize
    DURATION                                 : 00:46:24.917000000
    NUMBER_OF_FRAMES                         : 130543
    NUMBER_OF_BYTES                          : 65663129
    _STATISTICS_WRITING_APP                  : mkvmerge v7.6.0 ('Garden of Dreams') 64bit built on Feb  9 2015 20:32:11
    _STATISTICS_WRITING_DATE_UTC             : 2015-05-20 14:29:04
    _STATISTICS_TAGS                         : BPS DURATION NUMBER_OF_FRAMES NUMBER_OF_BYTES

    Video
    ID                                       : 1
    Format                                   : AVC
    Format/Info                              : Advanced Video Codec
    Format profile                           : High@L4
    Format settings, CABAC                   : Yes
    Format settings, ReFrames                : 6 frames
    Codec ID                                 : V_MPEG4/ISO/AVC
    Duration                                 : 46mn 24s
    Width                                    : 1 280 pixels
    Height                                   : 720 pixels
    Display aspect ratio                     : 16:9
    Frame rate mode                          : Constant
    Frame rate                               : 29.970 fps
    Color space                              : YUV
    Chroma subsampling                       : 4:2:0
    Bit depth                                : 8 bits
    Scan type                                : Progressive
    Writing library                          : x264 core 146 r2538 121396c
    Encoding settings                        : cabac=1 / ref=6 / deblock=1:-3:-3 / analyse=0x3:0x133 / me=umh / subme=11 / psy=1 / psy_rd=1.00:0.15 / mixed_ref=1 / me_range=24 / chroma_me=1 / trellis=2 / 8x8dct=1 / cqm=0 / deadzone=21,11 / fast_pskip=1 / chroma_qp_offset=-3 / threads=12 / lookahead_threads=1 / sliced_threads=0 / nr=0 / decimate=1 / interlaced=0 / bluray_compat=0 / constrained_intra=0 / bframes=5 / b_pyramid=2 / b_adapt=2 / b_bias=0 / direct=3 / weightb=1 / open_gop=0 / weightp=2 / keyint=300 / keyint_min=30 / scenecut=40 / intra_refresh=0 / rc_lookahead=60 / rc=crf / mbtree=1 / crf=18.0 / qcomp=0.60 / qpmin=0 / qpmax=69 / qpstep=4 / ip_ratio=1.40 / aq=1:1.00
    Language                                 : Japanese
    Default                                  : Yes
    Forced                                   : No
    DURATION                                 : 00:46:24.948000000
    NUMBER_OF_FRAMES                         : 83465
    NUMBER_OF_BYTES                          : 852758387
    _STATISTICS_WRITING_APP                  : mkvmerge v7.6.0 ('Garden of Dreams') 64bit built on Feb  9 2015 20:32:11
    _STATISTICS_WRITING_DATE_UTC             : 2015-05-20 14:29:04
    _STATISTICS_TAGS                         : BPS DURATION NUMBER_OF_FRAMES NUMBER_OF_BYTES

    Audio
    ID                                       : 2
    Format                                   : AAC
    Format/Info                              : Advanced Audio Codec
    Format profile                           : LC
    Codec ID                                 : A_AAC
    Duration                                 : 46mn 24s
    Channel(s)                               : 2 channels
    Channel positions                        : Front: L R
    Sampling rate                            : 48.0 KHz
    Compression mode                         : Lossy
    Delay relative to video                  : 13ms
    Language                                 : Japanese
    Default                                  : Yes
    Forced                                   : No

    Menu
    00:00:00.000                             : ja:Part A
    00:14:55.995                             : ja:Part B
    00:18:47.993                             : ja:Part C
    00:25:14.980                             : ja:Part D
    00:32:50.969                             : ja:Part E





    0 0

    Original Post: Legend of The Last Emperor 720p HDTVRe x264-NGB





    Detail:
    Title: Legend of The Last Emperor
    Genre: History, Drama
    Release Date: 2014-11-14
    Episodes: 57
    Director: Wang Wei
    Country: China
    Language: Mandarin
    Subtitles:Chinese

    Synopsis:
    The play, Winston Chao Pu Yi played tempted because Japanese forces came Northeast established a “puppet state of Manchukuo,” the thought that a move can Puyi hearts desire, but the product does not meet the political trend of the times can be ruthless abandon. Winston Chao nominally Kant emperor, but as a puppet-like siege in the palace is often threatened by the Japanese Kwantung Army, not only against their humiliating sign many contracts, it is not even their personal freedom can not control. Into a political whirlpool, while Winston Chao’s love life too much frustration, Tan Yuling’s untimely death make Winston Chao’s life once again into dusk.

    Cast:
    Winston Chao, Yu Shaoqun,Jiang Linjing, Sun Yaoqi, Law Kar-ying, Kara Hui, Zheng Guolin,  Zhang Hui, Siu Hung, Serena, Yuan Tingting, Yan Bing, Tan Wenjing, Shan Wei, Xia Haitao and Li Li Yuan Zhao Meng








    Code

    Video
    ID                                       : 1
    Format                                   : AVC
    Format/Info                              : Advanced Video Codec
    Format profile                           : High@L4.1
    Format settings, CABAC                   : Yes
    Format settings, ReFrames                : 9 frames
    Codec ID                                 : V_MPEG4/ISO/AVC
    Duration                                 : 39mn 32s
    Bit rate                                 : 4 500 Kbps
    Width                                    : 1 280 pixels
    Height                                   : 720 pixels
    Display aspect ratio                     : 16:9
    Frame rate                               : 25.000 fps
    Color space                              : YUV
    Chroma subsampling                       : 4:2:0
    Bit depth                                : 8 bits
    Scan type                                : Progressive
    Bits/(Pixel*Frame)                       : 0.195
    Stream size                              : 1.22 GiB (89%)
    Writing library                          : x264 core 146 r2538 121396c
    Encoding settings                        : cabac=1 / ref=9 / deblock=1:-2:-2 / analyse=0x3:0x133 / me=umh / subme=10 / psy=1 / psy_rd=1.00:0.00 / mixed_ref=1 / me_range=32 / chroma_me=1 / trellis=2 / 8x8dct=1 / cqm=0 / deadzone=21,11 / fast_pskip=0 / chroma_qp_offset=-2 / threads=20 / lookahead_threads=5 / sliced_threads=0 / nr=0 / decimate=0 / interlaced=0 / bluray_compat=0 / constrained_intra=0 / bframes=16 / b_pyramid=2 / b_adapt=2 / b_bias=0 / direct=3 / weightb=0 / open_gop=0 / weightp=2 / keyint=250 / keyint_min=25 / scenecut=40 / intra_refresh=0 / rc_lookahead=250 / rc=2pass / mbtree=1 / bitrate=4500 / ratetol=1.0 / qcomp=0.60 / qpmin=0 / qpmax=69 / qpstep=4 / cplxblur=20.0 / qblur=0.5 / ip_ratio=1.40 / aq=1:1.00
    Language                                 : Chinese
    Default                                  : Yes
    Forced                                   : No
    DURATION                                 : 00:39:32.000000000
    NUMBER_OF_FRAMES                         : 59300
    NUMBER_OF_BYTES                          : 1335542001
    _STATISTICS_WRITING_APP                  : mkvmerge v7.7.0 ('Six Voices') 32bit built on Feb 28 2015 23:23:00
    _STATISTICS_WRITING_DATE_UTC             : 2015-05-20 07:31:36
    _STATISTICS_TAGS                         : BPS DURATION NUMBER_OF_FRAMES NUMBER_OF_BYTES

    Audio
    ID                                       : 2
    Format                                   : AC-3
    Format/Info                              : Audio Coding 3
    Mode extension                           : CM (complete main)
    Format settings, Endianness              : Big
    Codec ID                                 : A_AC3
    Duration                                 : 39mn 32s
    Bit rate mode                            : Constant
    Bit rate                                 : 448 Kbps
    Channel(s)                               : 2 channels
    Channel positions                        : Front: L R
    Sampling rate                            : 48.0 KHz
    Bit depth                                : 16 bits
    Compression mode                         : Lossy
    Stream size                              : 127 MiB (9%)
    Language                                 : Chinese
    Default                                  : Yes
    Forced                                   : No



    0 0

    Original Post: We Got Married S4 E273 XVID LIMO


    Join top Korean celebrities as they get paired off with another celebrity and play a married couple together! They must learn to both live together but also how to be "married." The current couples are: Henry & Yewon, Lee Jong Hyun & Gong Seung Yeon, Song Jae Rim & Kim So Eun.

    Subtitles none





    Code
    Video
    ID                                       : 0
    Format                                   : MPEG-4 Visual
    Format profile                           : Advanced Simple@L5
    Format settings, BVOP                    : No
    Format settings, QPel                    : No
    Format settings, GMC                     : No warppoints
    Format settings, Matrix                  : Default (MPEG)
    Codec ID                                 : XVID
    Codec ID/Hint                            : XviD
    Duration                                 : 1h 29mn
    Bit rate                                 : 1 388 Kbps
    Width                                    : 624 pixels
    Height                                   : 352 pixels
    Display aspect ratio                     : 16:9
    Frame rate                               : 29.970 fps
    Color space                              : YUV
    Chroma subsampling                       : 4:2:0
    Bit depth                                : 8 bits
    Scan type                                : Progressive
    Compression mode                         : Lossy
    Bits/(Pixel*Frame)                       : 0.211
    Stream size                              : 886 MiB (87%)
    Writing library                          : XviD 1.2.1 (UTC 2008-12-04)

    Audio
    ID                                       : 1
    Format                                   : MPEG Audio
    Format version                           : Version 1
    Format profile                           : Layer 3
    Mode                                     : Joint stereo
    Mode extension                           : MS Stereo
    Codec ID                                 : 55
    Codec ID/Hint                            : MP3
    Duration                                 : 1h 29mn
    Bit rate mode                            : Constant
    Bit rate                                 : 128 Kbps
    Channel(s)                               : 2 channels
    Sampling rate                            : 48.0 KHz
    Compression mode                         : Lossy
    Stream size                              : 81.7 MiB (8%)
    Alignment                                : Aligned on interleaves
    Writing library                          : LAME3.98.2



    0 0

    Original Post: We Got Married S4 E273 720p LIMO


    Join top Korean celebrities as they get paired off with another celebrity and play a married couple together! They must learn to both live together but also how to be "married." The current couples are: Henry & Yewon, Lee Jong Hyun & Gong Seung Yeon, Song Jae Rim & Kim So Eun.

    Subtitles none





    Code
    Video
    ID                             : 1
    Format                         : AVC
    Format/Info                    : Advanced Video Codec
    Format profile                 : High@L5.1
    Format settings, CABAC         : Yes
    Format settings, ReFrames      : 4 frames
    Codec ID                       : V_MPEG4/ISO/AVC
    Duration                       : 1h 24mn
    Bit rate                       : 887 Kbps
    Nominal bit rate               : 2 496 Kbps
    Width                          : 1 280 pixels
    Height                         : 720 pixels
    Display aspect ratio           : 16:9
    Frame rate mode                : Constant
    Frame rate                     : 29.970 fps
    Color space                    : YUV
    Chroma subsampling             : 4:2:0
    Bit depth                      : 8 bits
    Scan type                      : Progressive
    Bits/(Pixel*Frame)             : 0.032
    Stream size                    : 535 MiB (68%)
    Writing library                : x264 core 130 r2273 b3065e6
    Encoding settings              : cabac=1 / ref=3 / deblock=1:0:0 / analyse=0x3:0x113 / me=hex / subme=7 / psy=1 / psy_rd=1.00:0.00 / mixed_ref=1 / me_range=16 / chroma_me=1 / trellis=1 / 8x8dct=1 / cqm=0 / deadzone=21,11 / fast_pskip=1 / chroma_qp_offset=-2 / threads=1 / lookahead_threads=1 / sliced_threads=0 / nr=0 / decimate=1 / interlaced=0 / bluray_compat=0 / constrained_intra=0 / bframes=3 / b_pyramid=2 / b_adapt=1 / b_bias=0 / direct=1 / weightb=1 / open_gop=0 / weightp=2 / keyint=300 / keyint_min=29 / scenecut=40 / intra_refresh=0 / rc_lookahead=40 / rc=2pass / mbtree=1 / bitrate=2496 / ratetol=1.0 / qcomp=0.60 / qpmin=0 / qpmax=69 / qpstep=4 / cplxblur=20.0 / qblur=0.5 / vbv_maxrate=300000 / vbv_bufsize=300000 / nal_hrd=none / ip_ratio=1.40 / aq=1:1.00
    Default                        : Yes
    Forced                         : No

    Audio
    ID                             : 2
    Format                         : AC-3
    Format/Info                    : Audio Coding 3
    Mode extension                 : CM (complete main)
    Format settings, Endianness    : Big
    Codec ID                       : A_AC3
    Duration                       : 1h 24mn
    Bit rate mode                  : Constant
    Bit rate                       : 384 Kbps
    Channel(s)                     : 2 channels
    Channel positions              : Front: L R
    Sampling rate                  : 44.1 KHz
    Bit depth                      : 16 bits
    Compression mode               : Lossy
    Stream size                    : 232 MiB (30%)
    Language                       : Korean
    Default                        : Yes
    Forced                         : No



    0 0

    Original Post: (2014) NHK - The Teotihuacan Enigma (Documentary)

    Thank you for loving Asian cinematography ...

    - no cover avvailable -












    File:
    Format: Matroska
    File size: 579 MiB
    Duration: 48mn 59s
    Overall bit rate: 1 653 Kbps

    Video:
    Format: AVC
    Format/Info: Advanced Video Codec
    Format profile: High@L3.1
    Format settings, CABAC: Yes
    Format settings, ReFrames: 4 frames
    Codec ID: V_MPEG4/ISO/AVC
    Duration: 48mn 59s
    Width: 1 024 pixels
    Height: 576 pixels
    Display aspect ratio: 16:9
    Frame rate: 25.000 fps
    Color space: YUV
    Chroma subsampling: 4:2:0
    Bit depth: 8 bits
    Scan type: Progressive
    Writing library: x264 core 146 r2538 121396c

    Audio
    Format: AAC
    Format/Info: Advanced Audio Codec
    Format profile: LC
    Codec ID: A_AAC
    Duration: 48mn 59s
    Channel(s): 2 channels
    Channel positions: Front: L R
    Sampling rate: 48.0 KHz
    Compression mode: Lossy
    Delay relative to video: 9ms


    "For the first time, we are able to show full details of the excavation of a hidden tunnel, sealed and forgotten for 1,800 years, beneath a pyramid in Teotihuacan, Mexico. The ongoing excavation is producing a flood of discoveries that are not only shedding fresh light on the religious and intellectual life of the people who lived here, but also radically changing the way we think civilization began."

    Type: Documentary
    Country: Japan, Mexico
    Language: English, Japanese, Spanish
    Director: Toru Suetsugu
    Cast: the Ancients, ...
    Subtitles: English (hardcoded)

    Uploader's comment:
    This is good.



    Credit goes to JungleBoy (MVG)

    My uploads take a while to kick-start!!! cry.gif


    0 0

    Original Post: Mermaid Story (2007) HDTV XViD ChikY Complete



    Details
    Title:인어 이야기 / Ineo Iyagi
    Genre: Drama, mystery, romance
    Episodes: 4
    Broadcast network: tvN
    Broadcast date: 2007-Jan-17 to 2007-Jan-25
    Air time: Wednesday & Thursday 23:00

    Subtitles:English

    Synopsis
    Lee Min Suk (Kim Nam Jin) falls in love with Son Mi Na (Lee Ji Hyun) but one day she suddenly disappears. Later he meets and falls in love again with Nam Soo In (Seo Yeong Hee). But a year after Son Mi Na's disappearance, her body is found and Lee Min Suk is the main suspect in her murder.

    Cast
    Seo Young Hee as Nam Soo In
    Kim Nam Jin as Lee Min Suk
    Lee Ji Hyun as Son Mi Na
    Kang Shin Il as Detective Kang
    Choi Kwon as Detective Lee
    Jung Dong Hwan
    Kim Jung Nan
    Eun Joo Hee
    Joo Woo

    Production Credits
    Director: Yang Won Mo
    Script writer: Kim Do Woo









    Code

    Source: HDTV rip
    File Format: AVI
    Audio language: Korean
    Subtitles: English

    Episode 1
    File size: 700 MB (734,275,584 bytes)
    Runtime: 00:53:09 (95,575 fr)
    Resolution: 640 x 480
    AR: 1.33:1
    FPS: 29.970 fps
    Video codec: XviD (1642 kb/s bitrate)
    Audio codec: AC3 (192 kb/s (96/ch, stereo) CBR)

    Episode 2
    File size: 700 MB (734,425,088 bytes)
    Runtime: 00:51:34 (92,727 fr)
    Resolution: 640 x 480
    AR: 1.33:1
    FPS: 29.970 fps
    Video codec: XviD (1699 kb/s bitrate)
    Audio codec: AC3 (192 kb/s (96/ch, stereo) CBR)

    Episode 3
    File size: 700 MB (734,351,360 bytes)
    Runtime: 00:50:34 (90,939 fr)
    Resolution: 640 x 480
    AR: 1.33:1
    FPS: 29.970 fps
    Video codec: XviD (1736 kb/s bitrate)
    Audio codec: AC3 (192 kb/s (96/ch, stereo) CBR)

    Episode 4
    File size: 700 MB (734,306,304 bytes)
    Runtime: 00:49:19 (88,686 fr)
    Resolution: 640 x 480
    AR: 1.33:1
    FPS: 29.970 fps
    Video codec: XviD (1785 kb/s bitrate)
    Audio codec: AC3 (192 kb/s (96/ch, stereo) CBR)




    0 0

    Original Post: (2005) NHK - Heavenly Road to Tibet (Documentary)

    Thank you for loving Asian cinematography ...

    could not create mtn shortcut (mtn will be added next week, have to do an OS reinstall)













    File:
    Format: Matroska
    File size: 1.48 GiB
    Duration: 51mn 39s
    Overall bit rate: 4 105 Kbps

    Video:
    Format: AVC
    Format/Info: Advanced Video Codec
    Format profile: High@L3.1
    Format settings, CABAC: Yes
    Format settings, ReFrames: 8 frames
    Format settings, GOP: N=1
    Muxing mode: Header stripping
    Codec ID: V_MPEG4/ISO/AVC
    Duration: 51mn 39s
    Bit rate: 3 831 Kbps
    Width: 1 280 pixels
    Height: 720 pixels
    Display aspect ratio: 16:9
    Frame rate: 29.970 fps
    Color space: YUV
    Chroma subsampling: 4:2:0
    Bit depth: 8 bits
    Scan type: Progressive
    Bits/(Pixel*Frame): 0.139

    Audio
    Format: AAC
    Format/Info: Audio Coding 3
    Mode extension: CM (complete main)
    Muxing mode: Header stripping
    Codec ID: A_AC3
    Duration: 51mn 39s
    Bit rate mode: Constant
    Bit rate: 192 Kbps


    "The destination of the Qingzang road is Lhasa in Chinese Tibet. The Qingzang road runs for 1,937 kilometers at an average altitude of 4,200 meters. Starting out from Xining, an interesting mixture of Tibetan, Islamic, and Han cultures, the camera crew passes through the beautiful town of Golmud, dubbed the "Pearl in the Gobi," Namucuo Lake, which means the "Heavenly Lake," the Kunlun Mountains, where snow falls even in summer, and other stunning places, before finally arriving in Lhasa. Viewers will see the myriad faces of this huge expanse of nature, including scenes of areas where reporting by foreigners had not been permitted. This magnificent travel documentary also shows the lives of Chinese people struggling to survive in this harsh environment and even those of soldiers stationed at the highest military post in the world."

    Type: Documentary
    Country: Japan
    Language: English, Chinese (dialect)
    Director: Liu Bin
    Cast: the people above the clouds, ...
    Subtitles: English (hardcoded)



    Credit goes to hukumuzuku (MVG)


    0 0

    Original Post: (2007) NHK - High Clouds Railway to Tibet (Documentary)

    Thank you for loving Asian cinematography ...

    could not create mtn shortcut (mtn will be added next week, have to do an OS reinstall)












    File:
    Format: Matroska
    File size: 1.41 GiB
    Duration : 46mn 1s
    Overall bit rate: 4 380 Kbps

    Video:
    Format: AVC
    Format/Info: Advanced Video Codec
    Format profile: High@L4.1
    Format settings, CABAC: Yes
    Format settings, ReFrames: 8 frames
    Codec ID: V_MPEG4/ISO/AVC
    Duration: 46mn 1s
    Bit rate: 4 000 Kbps
    Width: 1 280 pixels
    Height: 720 pixels
    Display aspect ratio: 16:9
    Frame rate: 29.970 fps
    Color space: YUV
    Chroma subsampling: 4:2:0
    Bit depth: 8 bits
    Scan type: Progressive
    Bits/(Pixel*Frame): 0.145

    Audio
    Format: AAC
    Format/Info: Audio Coding 3
    Mode extension: CM (complete main)
    Codec ID: A_AC3
    Duration: 46mn 1s
    Bit rate mode: Constant
    Bit rate: 384 Kbps


    "Traversing some of the highest terrains in the world, the Qinghai-Tibet Railway, in service since July 2006, makes the 4,064-kilometer trip from Beijing to Lhasa in 48 hours. It climbs to an ear-popping altitude of 5,072 meters above sea level passing through several tunnels that had to be carved out of frozen soil. It carries a wide range of passengers from businessmen seeking opportunities in Lhasa to pilgrims to the Potala Palace. They travel together along the "rooftop of the world." High Clouds Railway to Tibet showcases the magical allure of this breathtaking railway, including the latest technology used to overcome the harsh conditions like the icy ground and thin air."

    Type: Documentary
    Country: Japan
    Language: English, Chinese (dialect)
    Director: Naoki Yonemoto
    Cast: the people above the clouds, ...
    Subtitles: English (hardcoded)



    Credit goes to hukumuzuku (MVG)


    0 0

    Original Post: Kokoro ga Pokitto ne EP07 720p HDTV x264 AAC DoA



    http://wiki.d-addicts.com/Kokoro_ga_Pokitto_ne
    http://thetvdb.com/?tab=series&id=294579

    Title (romaji): Kokoro ga Pokitto ne
    Also known as: Crazy for Me
    Format: Renzoku
    Genre: Love comedy
    Episodes: TBD
    Broadcast network: Fuji TV
    Broadcast period: 2015-Apr-08 start
    Air time: Wednesday 22:00
    Theme song: SUN by Hoshino Gen
    Subtitles: English
    RAW credit to DoA


    Cast

    Abe Sadao as Kojima Haruta
    Mizuhara Kiko as Hayama Miyako
    Fujiki Naohito as Otake Shin
    Yamaguchi Tomoko as Kamoda Shizuka
    Tokunaga Eri as Itoyama Fumi
    Yamashita Rio as Makino Eriko
    Nagase Tasuku
    Ikezu Shoko
    Yamanishi Atsushi (山西惇)


    Synopsis

    Set in Tokyo, the story follows Kojima Haruta, a 40-year-old man who hits the rock bottom as he fell mentally ill which led him to lose his job, family, and even a place to live. After a certain turn of events, Haruta encounters Otake Shin, the owner of an antique furniture shop who takes Haruta in and hires him as a furniture repairman in the shop. Touched by such kindness, Haruta promised himself to try to put his life back together but kept himself isolated in order to avoid any additional stress being created. However, things suddenly starts to change as Haruta encounters Hayama Miyako, a 26-year-old woman who has a tendency to become overly dependent and extremely obsessed with a man she falls in love with... -- Fuji TV


    Mediainfo
    Spoiler:show

    Code
    Format                                   : Matroska
    Format version                           : Version 4 / Version 2
    File size                                : 1.29 GiB
    Duration                                 : 46mn 24s
    Overall bit rate                         : 3 976 Kbps
    Movie name                               : 心がポキッとね 第7回 720p HDTV x264 AAC-DoA
    Encoded date                             : UTC 2015-05-21 04:07:17
    Writing application                      : mkvmerge v7.9.0 ('Birds') 64bit
    Writing library                          : libebml v1.3.1 + libmatroska v1.4.2
    DURATION                                 : 00:46:24.981000000
    NUMBER_OF_FRAMES                         : 130546
    NUMBER_OF_BYTES                          : 65664630
    _STATISTICS_WRITING_APP                  : mkvmerge v7.9.0 ('Birds') 64bit
    _STATISTICS_WRITING_DATE_UTC             : 2015-05-21 04:07:17
    _STATISTICS_TAGS                         : BPS DURATION NUMBER_OF_FRAMES NUMBER_OF_BYTES

    Video
    ID                                       : 1
    Format                                   : AVC
    Format/Info                              : Advanced Video Codec
    Format profile                           : High@L4.1
    Format settings, CABAC                   : Yes
    Format settings, ReFrames                : 9 frames
    Codec ID                                 : V_MPEG4/ISO/AVC
    Duration                                 : 46mn 24s
    Width                                    : 1 280 pixels
    Height                                   : 720 pixels
    Display aspect ratio                     : 16:9
    Frame rate mode                          : Constant
    Frame rate                               : 29.970 fps
    Color space                              : YUV
    Chroma subsampling                       : 4:2:0
    Bit depth                                : 8 bits
    Scan type                                : Progressive
    Title                                    : Encode by TTG-DoA
    Writing library                          : x264 core 146 r2538 121396c
    Encoding settings                        : cabac=1 / ref=9 / deblock=1:-2:-2 / analyse=0x3:0x133 / me=umh / subme=10 / psy=1 / psy_rd=1.00:0.15 / mixed_ref=1 / me_range=48 / chroma_me=1 / trellis=2 / 8x8dct=1 / cqm=0 / deadzone=21,11 / fast_pskip=0 / chroma_qp_offset=-3 / threads=12 / lookahead_threads=2 / sliced_threads=0 / nr=0 / decimate=1 / interlaced=0 / bluray_compat=0 / constrained_intra=0 / bframes=8 / b_pyramid=2 / b_adapt=2 / b_bias=0 / direct=3 / weightb=1 / open_gop=0 / weightp=2 / keyint=300 / keyint_min=29 / scenecut=40 / intra_refresh=0 / rc_lookahead=60 / rc=crf / mbtree=1 / crf=17.6 / qcomp=0.60 / qpmin=0 / qpmax=69 / qpstep=4 / ip_ratio=1.40 / aq=1:1.00
    Language                                 : Japanese
    Default                                  : Yes
    Forced                                   : No
    _STATISTICS_WRITING_APP                  : mkvmerge v7.9.0 ('Birds') 64bit
    _STATISTICS_WRITING_DATE_UTC             : 2015-05-21 04:07:17
    _STATISTICS_TAGS                         : BPS DURATION NUMBER_OF_FRAMES NUMBER_OF_BYTES
    DURATION                                 : 00:46:24.982000000
    NUMBER_OF_FRAMES                         : 83466
    NUMBER_OF_BYTES                          : 1317724973

    Audio
    ID                                       : 2
    Format                                   : AAC
    Format/Info                              : Advanced Audio Codec
    Format profile                           : LC
    Codec ID                                 : A_AAC
    Duration                                 : 46mn 24s
    Channel(s)                               : 2 channels
    Channel positions                        : Front: L R
    Sampling rate                            : 48.0 KHz
    Compression mode                         : Lossy
    Language                                 : Japanese
    Default                                  : Yes
    Forced                                   : No

    Menu
    00:00:00.000                             : ja:Chapter 01
    00:10:25.992                             : ja:Chapter 02
    00:19:10.983                             : ja:Chapter 03
    00:24:24.963                             : ja:Chapter 04
    00:30:27.992                             : ja:Chapter 05





    0 0

    Original Post: (2011) NHK - Life Force - Japan (Documentary)

    Thank you for loving Asian cinematography ...

    could not create mtn shortcut (mtn will be added next week, have to do an OS reinstall)












    File:
    Format: Matroska
    File size: 1.69 GiB
    Duration: 48mn 46s
    Overall bit rate: 4 968 Kbps

    Video:
    Format: AVC
    Format/Info: Advanced Video Codec
    Format profile: High@L4.1
    Format settings, CABAC: Yes
    Format settings, ReFrames: 8 frames
    Codec ID: V_MPEG4/ISO/AVC
    Duration: 48mn 46s
    Bit rate: 4 677 Kbps
    Width: 1 280 pixels
    Height: 720 pixels
    Display aspect ratio: 16:9
    Frame rate: 29.970 fps
    Color space: YUV
    Chroma subsampling: 4:2:0
    Bit depth: 8 bits
    Scan type: Progressive
    Bits/(Pixel*Frame): 0.169

    Audio
    Format: AAC
    Format/Info: Audio Coding 3
    Mode extension: CM (complete main)
    Muxing mode: Header stripping
    Codec ID: A_AC3
    Duration: 48mn 46s
    Bit rate mode: Constant
    Bit rate: 192 Kbps


    Part 6 of series:
    "Japan is a chain of islands born of violent tectonic forces and buffeted by the most extreme climate. This is the story of how ancient animals and new arrivals evolved strategies to overcome extremes of land and climate to survive on the world's most dramatic and breathtakingly beautiful island arcs."

    Type: Documentary
    Country: Japan
    Language: English
    Director: Masahiro Hayakawa
    Cast: Japan



    Credit goes to hukumuzuku (MVG)


    0 0

    Original Post: Tatakau! Shoten Girl EP06 720p HDTV x264 AAC-DoA



    http://wiki.d-addicts.com/Tatakau!_Shoten_Girl
    http://asianwiki.com/Tatakau!_Shoten_Girl

    Title (romaji): Tatakau! Shoten Girl
    Also known as: Fight! Bookstore Girl
    Format: Renzoku
    Genre: Occupational, romance
    Episodes: TBD
    Broadcast network: Fuji TV / KTV
    Broadcast period: 2015-Apr-14 start
    Air time: Tuesday 22:00
    Theme song: Deai no Tsuzuki by Watanabe Mayu
    Insert song: Girlfriend by SOLIDEMO
    Subtitles: English - Chiizujin
    RAW credit to DoA


    Cast

       Watanabe Mayu as Kitamura Aki
       Inamori Izumi as Nishioka Riko
       Chiba Yudai as Mita Takahiko
       Daito Shunsuke as Obata Nobumitsu
       Suzuki Chinami as Hagiwara Mami
       Inoo Kei as Kusaka Keiichiro
       Makita Sports as Yarabe Mamoru
       Kinoshita Hoka as Nojima Takanori
       Hamada Mari as Ozaki Shiho
       Inoue Jun as Nishioka Tatsuto
       Tanabe Seiichi as Tashiro Toshiyuki


    Synopsis

    Pegasus Bookstore is going through hard times due to competition from internet bookstores. Kitamura Aki and Nishioka Riko are employees at Pegasus Bookstore. Aki is 23 years old. She has a strong will and freewheeling personality. She places her job and dreams above marriage. Riko is a 40-year-old single woman. She is the vice-manager at the bookstore. She has pride in her work. The two women have completely different personalities.


    Mediainfo
    Spoiler:show

    Code
    Format                                   : Matroska
    Format version                           : Version 4 / Version 2
    File size                                : 949 MiB
    Duration                                 : 46mn 24s
    Overall bit rate                         : 2 857 Kbps
    Encoded date                             : UTC 2015-05-20 05:41:19
    Writing application                      : mkvmerge v7.6.0 ('Garden of Dreams') 64bit built on Feb  8 2015 13:04:34
    Writing library                          : libebml v1.3.1 + libmatroska v1.4.2
    DURATION                                 : 00:46:24.939000000
    NUMBER_OF_FRAMES                         : 130544
    NUMBER_OF_BYTES                          : 65663632
    _STATISTICS_WRITING_APP                  : mkvmerge v7.6.0 ('Garden of Dreams') 64bit built on Feb  8 2015 13:04:34
    _STATISTICS_WRITING_DATE_UTC             : 2015-05-20 05:41:19
    _STATISTICS_TAGS                         : BPS DURATION NUMBER_OF_FRAMES NUMBER_OF_BYTES

    Video
    ID                                       : 1
    Format                                   : AVC
    Format/Info                              : Advanced Video Codec
    Format profile                           : High@L4.1
    Format settings, CABAC                   : Yes
    Format settings, ReFrames                : 9 frames
    Codec ID                                 : V_MPEG4/ISO/AVC
    Duration                                 : 46mn 24s
    Width                                    : 1 280 pixels
    Height                                   : 720 pixels
    Display aspect ratio                     : 16:9
    Frame rate mode                          : Constant
    Frame rate                               : 29.970 fps
    Color space                              : YUV
    Chroma subsampling                       : 4:2:0
    Bit depth                                : 8 bits
    Scan type                                : Progressive
    Title                                    : DoA Encoder
    Writing library                          : x264 core 146 r2538 121396c
    Encoding settings                        : cabac=1 / ref=9 / deblock=1:-2:-2 / analyse=0x3:0x133 / me=umh / subme=10 / psy=1 / psy_rd=1.00:0.15 / mixed_ref=1 / me_range=48 / chroma_me=1 / trellis=2 / 8x8dct=1 / cqm=0 / deadzone=21,11 / fast_pskip=0 / chroma_qp_offset=-3 / threads=12 / lookahead_threads=2 / sliced_threads=0 / nr=0 / decimate=1 / interlaced=0 / bluray_compat=0 / constrained_intra=0 / bframes=8 / b_pyramid=2 / b_adapt=2 / b_bias=0 / direct=3 / weightb=1 / open_gop=0 / weightp=2 / keyint=300 / keyint_min=29 / scenecut=40 / intra_refresh=0 / rc_lookahead=60 / rc=crf / mbtree=1 / crf=17.5 / qcomp=0.60 / qpmin=0 / qpmax=69 / qpstep=4 / ip_ratio=1.40 / aq=1:1.00
    Language                                 : English
    Default                                  : Yes
    Forced                                   : No
    DURATION                                 : 00:46:24.948000000
    NUMBER_OF_FRAMES                         : 83465
    NUMBER_OF_BYTES                          : 928156397
    _STATISTICS_WRITING_APP                  : mkvmerge v7.6.0 ('Garden of Dreams') 64bit built on Feb  8 2015 13:04:34
    _STATISTICS_WRITING_DATE_UTC             : 2015-05-20 05:41:19
    _STATISTICS_TAGS                         : BPS DURATION NUMBER_OF_FRAMES NUMBER_OF_BYTES

    Audio
    ID                                       : 2
    Format                                   : AAC
    Format/Info                              : Advanced Audio Codec
    Format profile                           : LC
    Codec ID                                 : A_AAC
    Duration                                 : 46mn 24s
    Channel(s)                               : 2 channels
    Channel positions                        : Front: L R
    Sampling rate                            : 48.0 KHz
    Compression mode                         : Lossy
    Delay relative to video                  : 14ms
    Default                                  : Yes
    Forced                                   : No





    0 0

    Original Post: Infinity Challenge E429 XVID LIMO



    Title: Infinite Challenge (a.k.a. Muhan Dojeon; Hangul: 무한도전; Hanja: 無限挑戰; abbreviated Mudo)
    Cast: Yoo Jae-Seok, Park Myeong-su, Jeong Jun-ha, Noh Hong-cheol, Jeong Hyeong-don, Ha Dong-hoon, Jun Jin
    Producers: Kim Tae Ho
    Broadcast Network: MBC
    Genre: Comedy, Variety & Reality
    Original Run: April 23, 2005 – Present
    Country: South Korea
    Language: Korean
    Subtitles: English subtitles will be added

    Synopsis
    A "real variety show," hosts Yoo Jae Suk, Park Myung Soo, Jung Jun Ha, Ha Ha, Noh Hong Chul, Jung Hyung Don, and Gil Seong Joon undergo several challenges every week. From arriving early on set to composing original songs, the hosts scramble their way to the top and win, proving that Infinity Challenge is 3-D: dirty, dangerous, and difficult. Let the games begin!





    Code
    Video
    ID                                       : 0
    Format                                   : MPEG-4 Visual
    Format profile                           : Advanced Simple@L5
    Format settings, BVOP                    : No
    Format settings, QPel                    : No
    Format settings, GMC                     : No warppoints
    Format settings, Matrix                  : Default (MPEG)
    Codec ID                                 : XVID
    Codec ID/Hint                            : XviD
    Duration                                 : 1h 29mn
    Bit rate                                 : 1 388 Kbps
    Width                                    : 624 pixels
    Height                                   : 352 pixels
    Display aspect ratio                     : 16:9
    Frame rate                               : 29.970 fps
    Color space                              : YUV
    Chroma subsampling                       : 4:2:0
    Bit depth                                : 8 bits
    Scan type                                : Progressive
    Compression mode                         : Lossy
    Bits/(Pixel*Frame)                       : 0.211
    Stream size                              : 886 MiB (87%)
    Writing library                          : XviD 1.2.1 (UTC 2008-12-04)

    Audio
    ID                                       : 1
    Format                                   : MPEG Audio
    Format version                           : Version 1
    Format profile                           : Layer 3
    Mode                                     : Joint stereo
    Mode extension                           : MS Stereo
    Codec ID                                 : 55
    Codec ID/Hint                            : MP3
    Duration                                 : 1h 29mn
    Bit rate mode                            : Constant
    Bit rate                                 : 128 Kbps
    Channel(s)                               : 2 channels
    Sampling rate                            : 48.0 KHz
    Compression mode                         : Lossy
    Stream size                              : 81.7 MiB (8%)
    Alignment                                : Aligned on interleaves
    Writing library                          : LAME3.98.2



    0 0

    Original Post: Infinity Challenge E429 720p LIMO


    Title: Infinite Challenge (a.k.a. Muhan Dojeon; Hangul: 무한도전; Hanja: 無限挑戰; abbreviated Mudo)
    Cast: Yoo Jae-Seok, Park Myeong-su, Jeong Jun-ha, Noh Hong-cheol, Jeong Hyeong-don, Ha Dong-hoon, Jun Jin
    Producers: Kim Tae Ho
    Broadcast Network: MBC
    Genre: Comedy, Variety & Reality
    Original Run: April 23, 2005 – Present
    Country: South Korea
    Language: Korean
    Subtitles: English subtitles will be added later

    Synopsis
    A "real variety show," hosts Yoo Jae Suk, Park Myung Soo, Jung Jun Ha, Ha Ha, Noh Hong Chul, Jung Hyung Don, and Gil Seong Joon undergo several challenges every week. From arriving early on set to composing original songs, the hosts scramble their way to the top and win, proving that Infinity Challenge is 3-D: dirty, dangerous, and difficult. Let the games begin!





    Code
    Video
    ID                             : 1
    Format                         : AVC
    Format/Info                    : Advanced Video Codec
    Format profile                 : High@L5.1
    Format settings, CABAC         : Yes
    Format settings, ReFrames      : 4 frames
    Codec ID                       : V_MPEG4/ISO/AVC
    Duration                       : 1h 24mn
    Bit rate                       : 887 Kbps
    Nominal bit rate               : 2 496 Kbps
    Width                          : 1 280 pixels
    Height                         : 720 pixels
    Display aspect ratio           : 16:9
    Frame rate mode                : Constant
    Frame rate                     : 29.970 fps
    Color space                    : YUV
    Chroma subsampling             : 4:2:0
    Bit depth                      : 8 bits
    Scan type                      : Progressive
    Bits/(Pixel*Frame)             : 0.032
    Stream size                    : 535 MiB (68%)
    Writing library                : x264 core 130 r2273 b3065e6
    Encoding settings              : cabac=1 / ref=3 / deblock=1:0:0 / analyse=0x3:0x113 / me=hex / subme=7 / psy=1 / psy_rd=1.00:0.00 / mixed_ref=1 / me_range=16 / chroma_me=1 / trellis=1 / 8x8dct=1 / cqm=0 / deadzone=21,11 / fast_pskip=1 / chroma_qp_offset=-2 / threads=1 / lookahead_threads=1 / sliced_threads=0 / nr=0 / decimate=1 / interlaced=0 / bluray_compat=0 / constrained_intra=0 / bframes=3 / b_pyramid=2 / b_adapt=1 / b_bias=0 / direct=1 / weightb=1 / open_gop=0 / weightp=2 / keyint=300 / keyint_min=29 / scenecut=40 / intra_refresh=0 / rc_lookahead=40 / rc=2pass / mbtree=1 / bitrate=2496 / ratetol=1.0 / qcomp=0.60 / qpmin=0 / qpmax=69 / qpstep=4 / cplxblur=20.0 / qblur=0.5 / vbv_maxrate=300000 / vbv_bufsize=300000 / nal_hrd=none / ip_ratio=1.40 / aq=1:1.00
    Default                        : Yes
    Forced                         : No

    Audio
    ID                             : 2
    Format                         : AC-3
    Format/Info                    : Audio Coding 3
    Mode extension                 : CM (complete main)
    Format settings, Endianness    : Big
    Codec ID                       : A_AC3
    Duration                       : 1h 24mn
    Bit rate mode                  : Constant
    Bit rate                       : 384 Kbps
    Channel(s)                     : 2 channels
    Channel positions              : Front: L R
    Sampling rate                  : 44.1 KHz
    Bit depth                      : 16 bits
    Compression mode               : Lossy
    Stream size                    : 232 MiB (30%)
    Language                       : Korean
    Default                        : Yes
    Forced                         : No



    0 0

    Original Post: Bluebird's House E27 XVID LIMO


    Details
    Title: 파랑새의 집 / Parangsaeui Jib
    Also known as: Bluebird's Nest
    Genre: Family, human, romance, comedy
    Episodes: 50
    Broadcast network: KBS2
    Broadcast period: 2015-Feb-21 to 2015-???-??
    Air time: Saturday & Sunday Night 19:55
    Original Soundtrack: Bluebird's House OST
    Synopsis
    A drama that tells the story of strong bond between the members of a family even though they are not blood-related. This drama also portrays the hope of parents toward their children's success and how difficult for fresh university graduates to get respectable and well-paid jobs.

    Cast
    Main Cast
    Lee Joon Hyuk as Kim Ji Wan (29)
    Chae Soo Bin as Han Eun Soo (24)
    Lee Sang Yeob as Jang Hyun Do (28)
    Kyung Soo Jin as Kang Young Joo (25)
    Kim Ji Wan's family
    Choi Myung Gil as Han Sun Hee (55)
    Jung Jae Soon as Lee Jin Yi (70)
    Jang Hyun Do's family
    Chun Ho Jin as Jang Tae Soo (55)
    Lee Hye Sook as Jung Soo Kyung (52)
    Kang Young Joo's family
    Song Ok Sook as Oh Min Ja (55)
    Jung Won Joong as Kang Jae Chul (53)
    Others
    Uhm Hyun Kyung as Seo Mi Ji (29)
    Nam Kyung Eup as Shin Young Hwan (50)




    Code
    Video
    ID                                       : 0
    Format                                   : MPEG-4 Visual
    Format profile                           : Advanced Simple@L5
    Format settings, BVOP                    : No
    Format settings, QPel                    : No
    Format settings, GMC                     : No warppoints
    Format settings, Matrix                  : Default (MPEG)
    Codec ID                                 : XVID
    Codec ID/Hint                            : XviD
    Duration                                 : 1h 29mn
    Bit rate                                 : 1 388 Kbps
    Width                                    : 624 pixels
    Height                                   : 352 pixels
    Display aspect ratio                     : 16:9
    Frame rate                               : 29.970 fps
    Color space                              : YUV
    Chroma subsampling                       : 4:2:0
    Bit depth                                : 8 bits
    Scan type                                : Progressive
    Compression mode                         : Lossy
    Bits/(Pixel*Frame)                       : 0.211
    Stream size                              : 886 MiB (87%)
    Writing library                          : XviD 1.2.1 (UTC 2008-12-04)

    Audio
    ID                                       : 1
    Format                                   : MPEG Audio
    Format version                           : Version 1
    Format profile                           : Layer 3
    Mode                                     : Joint stereo
    Mode extension                           : MS Stereo
    Codec ID                                 : 55
    Codec ID/Hint                            : MP3
    Duration                                 : 1h 29mn
    Bit rate mode                            : Constant
    Bit rate                                 : 128 Kbps
    Channel(s)                               : 2 channels
    Sampling rate                            : 48.0 KHz
    Compression mode                         : Lossy
    Stream size                              : 81.7 MiB (8%)
    Alignment                                : Aligned on interleaves
    Writing library                          : LAME3.98.2



    0 0

    Original Post: Bluebird's House E27 720p LIMO


    Details
    Title: 파랑새의 집 / Parangsaeui Jib
    Also known as: Bluebird's Nest
    Genre: Family, human, romance, comedy
    Episodes: 50
    Broadcast network: KBS2
    Broadcast period: 2015-Feb-21 to 2015-???-??
    Air time: Saturday & Sunday Night 19:55
    Original Soundtrack: Bluebird's House OST
    Synopsis
    A drama that tells the story of strong bond between the members of a family even though they are not blood-related. This drama also portrays the hope of parents toward their children's success and how difficult for fresh university graduates to get respectable and well-paid jobs.

    Cast
    Main Cast
    Lee Joon Hyuk as Kim Ji Wan (29)
    Chae Soo Bin as Han Eun Soo (24)
    Lee Sang Yeob as Jang Hyun Do (28)
    Kyung Soo Jin as Kang Young Joo (25)
    Kim Ji Wan's family
    Choi Myung Gil as Han Sun Hee (55)
    Jung Jae Soon as Lee Jin Yi (70)
    Jang Hyun Do's family
    Chun Ho Jin as Jang Tae Soo (55)
    Lee Hye Sook as Jung Soo Kyung (52)
    Kang Young Joo's family
    Song Ok Sook as Oh Min Ja (55)
    Jung Won Joong as Kang Jae Chul (53)
    Others
    Uhm Hyun Kyung as Seo Mi Ji (29)
    Nam Kyung Eup as Shin Young Hwan (50)




    Code
    Video
    ID                             : 1
    Format                         : AVC
    Format/Info                    : Advanced Video Codec
    Format profile                 : High@L5.1
    Format settings, CABAC         : Yes
    Format settings, ReFrames      : 4 frames
    Codec ID                       : V_MPEG4/ISO/AVC
    Duration                       : 1h 24mn
    Bit rate                       : 887 Kbps
    Nominal bit rate               : 2 496 Kbps
    Width                          : 1 280 pixels
    Height                         : 720 pixels
    Display aspect ratio           : 16:9
    Frame rate mode                : Constant
    Frame rate                     : 29.970 fps
    Color space                    : YUV
    Chroma subsampling             : 4:2:0
    Bit depth                      : 8 bits
    Scan type                      : Progressive
    Bits/(Pixel*Frame)             : 0.032
    Stream size                    : 535 MiB (68%)
    Writing library                : x264 core 130 r2273 b3065e6
    Encoding settings              : cabac=1 / ref=3 / deblock=1:0:0 / analyse=0x3:0x113 / me=hex / subme=7 / psy=1 / psy_rd=1.00:0.00 / mixed_ref=1 / me_range=16 / chroma_me=1 / trellis=1 / 8x8dct=1 / cqm=0 / deadzone=21,11 / fast_pskip=1 / chroma_qp_offset=-2 / threads=1 / lookahead_threads=1 / sliced_threads=0 / nr=0 / decimate=1 / interlaced=0 / bluray_compat=0 / constrained_intra=0 / bframes=3 / b_pyramid=2 / b_adapt=1 / b_bias=0 / direct=1 / weightb=1 / open_gop=0 / weightp=2 / keyint=300 / keyint_min=29 / scenecut=40 / intra_refresh=0 / rc_lookahead=40 / rc=2pass / mbtree=1 / bitrate=2496 / ratetol=1.0 / qcomp=0.60 / qpmin=0 / qpmax=69 / qpstep=4 / cplxblur=20.0 / qblur=0.5 / vbv_maxrate=300000 / vbv_bufsize=300000 / nal_hrd=none / ip_ratio=1.40 / aq=1:1.00
    Default                        : Yes
    Forced                         : No

    Audio
    ID                             : 2
    Format                         : AC-3
    Format/Info                    : Audio Coding 3
    Mode extension                 : CM (complete main)
    Format settings, Endianness    : Big
    Codec ID                       : A_AC3
    Duration                       : 1h 24mn
    Bit rate mode                  : Constant
    Bit rate                       : 384 Kbps
    Channel(s)                     : 2 channels
    Channel positions              : Front: L R
    Sampling rate                  : 44.1 KHz
    Bit depth                      : 16 bits
    Compression mode               : Lossy
    Stream size                    : 232 MiB (30%)
    Language                       : Korean
    Default                        : Yes
    Forced                         : No



    0 0

    Original Post: Make A Woman Cry E11 XVID LIMO


    Details
    Title: 여자를 울려 / Yeojareul Woolryeo
    Also known as: Let the Woman Cry
    Genre: Family, drama, romance
    Episodes: 50
    Broadcast network: MBC
    Broadcast period: 2015-Apr-18 to 2015-???-??
    Air time: Saturday & Sunday 20:45
    Original Soundtrack: Make a Woman Cry OST

    Synopsis
    Jung Duk In was a former detective who resigned after her son died. She then opens a food stall in front of her son's school to preserves the memory of him and to protects the other students. Along the way she will struggle to forgive people who were responsible for her son's death.

    Cast

    Main Cast
    Kim Jung Eun as Jung Duk In
    Song Chang Ui as Kang Jin Woo
    Lee Soon Jae as Kang Tae Hwan
    Ha Hee Ra as Na Eun Soo
    Oh Dae Gyu as Kang Jin Myung
    Lee Tae Ran as Choi Hong Ran




    Code
    Video
    ID                                       : 0
    Format                                   : MPEG-4 Visual
    Format profile                           : Advanced Simple@L5
    Format settings, BVOP                    : No
    Format settings, QPel                    : No
    Format settings, GMC                     : No warppoints
    Format settings, Matrix                  : Default (MPEG)
    Codec ID                                 : XVID
    Codec ID/Hint                            : XviD
    Duration                                 : 1h 29mn
    Bit rate                                 : 1 388 Kbps
    Width                                    : 624 pixels
    Height                                   : 352 pixels
    Display aspect ratio                     : 16:9
    Frame rate                               : 29.970 fps
    Color space                              : YUV
    Chroma subsampling                       : 4:2:0
    Bit depth                                : 8 bits
    Scan type                                : Progressive
    Compression mode                         : Lossy
    Bits/(Pixel*Frame)                       : 0.211
    Stream size                              : 886 MiB (87%)
    Writing library                          : XviD 1.2.1 (UTC 2008-12-04)

    Audio
    ID                                       : 1
    Format                                   : MPEG Audio
    Format version                           : Version 1
    Format profile                           : Layer 3
    Mode                                     : Joint stereo
    Mode extension                           : MS Stereo
    Codec ID                                 : 55
    Codec ID/Hint                            : MP3
    Duration                                 : 1h 29mn
    Bit rate mode                            : Constant
    Bit rate                                 : 128 Kbps
    Channel(s)                               : 2 channels
    Sampling rate                            : 48.0 KHz
    Compression mode                         : Lossy
    Stream size                              : 81.7 MiB (8%)
    Alignment                                : Aligned on interleaves
    Writing library                          : LAME3.98.2



    0 0

    Original Post: Make A Woman Cry E11 720p LIMO


    Details
    Title: 여자를 울려 / Yeojareul Woolryeo
    Also known as: Let the Woman Cry
    Genre: Family, drama, romance
    Episodes: 50
    Broadcast network: MBC
    Broadcast period: 2015-Apr-18 to 2015-???-??
    Air time: Saturday & Sunday 20:45
    Original Soundtrack: Make a Woman Cry OST

    Synopsis
    Jung Duk In was a former detective who resigned after her son died. She then opens a food stall in front of her son's school to preserves the memory of him and to protects the other students. Along the way she will struggle to forgive people who were responsible for her son's death.

    Cast

    Main Cast
    Kim Jung Eun as Jung Duk In
    Song Chang Ui as Kang Jin Woo
    Lee Soon Jae as Kang Tae Hwan
    Ha Hee Ra as Na Eun Soo
    Oh Dae Gyu as Kang Jin Myung
    Lee Tae Ran as Choi Hong Ran




    Code
    Video
    ID                             : 1
    Format                         : AVC
    Format/Info                    : Advanced Video Codec
    Format profile                 : High@L5.1
    Format settings, CABAC         : Yes
    Format settings, ReFrames      : 4 frames
    Codec ID                       : V_MPEG4/ISO/AVC
    Duration                       : 1h 24mn
    Bit rate                       : 887 Kbps
    Nominal bit rate               : 2 496 Kbps
    Width                          : 1 280 pixels
    Height                         : 720 pixels
    Display aspect ratio           : 16:9
    Frame rate mode                : Constant
    Frame rate                     : 29.970 fps
    Color space                    : YUV
    Chroma subsampling             : 4:2:0
    Bit depth                      : 8 bits
    Scan type                      : Progressive
    Bits/(Pixel*Frame)             : 0.032
    Stream size                    : 535 MiB (68%)
    Writing library                : x264 core 130 r2273 b3065e6
    Encoding settings              : cabac=1 / ref=3 / deblock=1:0:0 / analyse=0x3:0x113 / me=hex / subme=7 / psy=1 / psy_rd=1.00:0.00 / mixed_ref=1 / me_range=16 / chroma_me=1 / trellis=1 / 8x8dct=1 / cqm=0 / deadzone=21,11 / fast_pskip=1 / chroma_qp_offset=-2 / threads=1 / lookahead_threads=1 / sliced_threads=0 / nr=0 / decimate=1 / interlaced=0 / bluray_compat=0 / constrained_intra=0 / bframes=3 / b_pyramid=2 / b_adapt=1 / b_bias=0 / direct=1 / weightb=1 / open_gop=0 / weightp=2 / keyint=300 / keyint_min=29 / scenecut=40 / intra_refresh=0 / rc_lookahead=40 / rc=2pass / mbtree=1 / bitrate=2496 / ratetol=1.0 / qcomp=0.60 / qpmin=0 / qpmax=69 / qpstep=4 / cplxblur=20.0 / qblur=0.5 / vbv_maxrate=300000 / vbv_bufsize=300000 / nal_hrd=none / ip_ratio=1.40 / aq=1:1.00
    Default                        : Yes
    Forced                         : No

    Audio
    ID                             : 2
    Format                         : AC-3
    Format/Info                    : Audio Coding 3
    Mode extension                 : CM (complete main)
    Format settings, Endianness    : Big
    Codec ID                       : A_AC3
    Duration                       : 1h 24mn
    Bit rate mode                  : Constant
    Bit rate                       : 384 Kbps
    Channel(s)                     : 2 channels
    Channel positions              : Front: L R
    Sampling rate                  : 44.1 KHz
    Bit depth                      : 16 bits
    Compression mode               : Lossy
    Stream size                    : 232 MiB (30%)
    Language                       : Korean
    Default                        : Yes
    Forced                         : No



    0 0

    Original Post: Ex-Girlfriend's Club E05 XVID WITH


    Details
    Title: 구여친클럽 / Guyeochinkeulleob
    Genre: Romance, Comedy
    Episodes: TBA
    Broadcast network: tvN
    Broadcast period: 2015-May-8 to TBA
    Air time: Friday & Saturday 20:30
    Original Soundtrack: Ex-Girlfriend Club OST
    Synopsis
    The story centered around a famous webtoon writer named Bang Myung Soo (Byun Yo Han) that write webtoon based on his past relationship with all his ex-girlfriends. Kim Soo Jin (Song Ji Hyo) is a producer who is assigned to make his webtoon into a movie.

    Cast
    Song Ji Hyo as Kim Soo Jin (32)
    Byun Yo Han as Bang Myung Soo (32)
    Lee Yoon Ji as Jang Hwa Young (31, Myung Soo's first love)
    Jang Ji Eun (장지은) as Na Ji Ah (34, Myung Soo's second love)
    Ryu Hwa Young as Ra Ra (27, Myung Soo's third love)




    Code
    Video
    ID                                       : 0
    Format                                   : MPEG-4 Visual
    Format profile                           : Advanced Simple@L5
    Format settings, BVOP                    : 2
    Format settings, QPel                    : No
    Format settings, GMC                     : No warppoints
    Format settings, Matrix                  : Default (H.263)
    Muxing mode                              : Packed bitstream
    Codec ID                                 : XVID
    Codec ID/Hint                            : XviD
    Duration                                 : 58mn 22s
    Bit rate                                 : 1 239 Kbps
    Width                                    : 640 pixels
    Height                                   : 352 pixels
    Display aspect ratio                     : 16:9
    Frame rate                               : 29.970 fps
    Color space                              : YUV
    Chroma subsampling                       : 4:2:0
    Bit depth                                : 8 bits
    Scan type                                : Progressive
    Compression mode                         : Lossy
    Bits/(Pixel*Frame)                       : 0.184
    Stream size                              : 517 MiB (90%)
    Writing library                          : XviD 58

    Audio
    ID                                       : 1
    Format                                   : MPEG Audio
    Format version                           : Version 1
    Format profile                           : Layer 3
    Mode                                     : Joint stereo
    Mode extension                           : MS Stereo
    Codec ID                                 : 55
    Codec ID/Hint                            : MP3
    Duration                                 : 58mn 22s
    Bit rate mode                            : Constant
    Bit rate                                 : 128 Kbps
    Channel(s)                               : 2 channels
    Sampling rate                            : 48.0 KHz
    Compression mode                         : Lossy
    Stream size                              : 53.4 MiB (9%)
    Alignment                                : Aligned on interleaves
    Interleave, duration                     : 33 ms (1.00 video frame)
    Interleave, preload duration             : 504 ms



older | 1 | .... | 1350 | 1351 | (Page 1352) | 1353 | 1354 | .... | 1405 | newer