Are you the publisher? Claim or contact us about this channel


Embed this content in your HTML

Search

Report adult content:

click to rate:

Account: (login)

More Channels


Showcase


Channel Catalog


Channel Description:

Asia Torrents RSS Feed

older | 1 | .... | 1351 | 1352 | (Page 1353) | 1354 | 1355 | .... | 1405 | newer

    0 0

    Original Post: Ex-Girlfriend's Club E05 720p WITH


    Details
    Title: 구여친클럽 / Guyeochinkeulleob
    Genre: Romance, Comedy
    Episodes: TBA
    Broadcast network: tvN
    Broadcast period: 2015-May-8 to TBA
    Air time: Friday & Saturday 20:30
    Original Soundtrack: Ex-Girlfriend Club OST
    Synopsis
    The story centered around a famous webtoon writer named Bang Myung Soo (Byun Yo Han) that write webtoon based on his past relationship with all his ex-girlfriends. Kim Soo Jin (Song Ji Hyo) is a producer who is assigned to make his webtoon into a movie.

    Cast
    Song Ji Hyo as Kim Soo Jin (32)
    Byun Yo Han as Bang Myung Soo (32)
    Lee Yoon Ji as Jang Hwa Young (31, Myung Soo's first love)
    Jang Ji Eun (장지은) as Na Ji Ah (34, Myung Soo's second love)
    Ryu Hwa Young as Ra Ra (27, Myung Soo's third love)




    Code
    Video
    ID                                       : 1
    Format                                   : AVC
    Format/Info                              : Advanced Video Codec
    Format profile                           : Baseline@L1.3
    Format settings, CABAC                   : No
    Format settings, ReFrames                : 1 frame
    Codec ID                                 : avc1
    Codec ID/Info                            : Advanced Video Coding
    Duration                                 : 58mn 22s
    Bit rate                                 : 2 200 Kbps
    Maximum bit rate                         : 5 302 Kbps
    Width                                    : 1 280 pixels
    Height                                   : 720 pixels
    Display aspect ratio                     : 16:9
    Frame rate mode                          : Constant
    Frame rate                               : 29.970 fps
    Color space                              : YUV
    Chroma subsampling                       : 4:2:0
    Bit depth                                : 8 bits
    Scan type                                : Progressive
    Bits/(Pixel*Frame)                       : 0.080
    Stream size                              : 922 MiB (90%)
    Writing library                          : x264 core 128 r2216 198a7ea
    Encoding settings                        : cabac=0 / ref=1 / deblock=1:0:0 / analyse=0x1:0x111 / me=hex / subme=7 / psy=1 / psy_rd=1.00:0.00 / mixed_ref=0 / me_range=16 / chroma_me=1 / trellis=1 / 8x8dct=0 / cqm=0 / deadzone=21,11 / fast_pskip=1 / chroma_qp_offset=-2 / threads=12 / lookahead_threads=2 / sliced_threads=0 / nr=0 / decimate=1 / interlaced=0 / bluray_compat=0 / constrained_intra=0 / bframes=0 / weightp=0 / keyint=250 / keyint_min=25 / scenecut=40 / intra_refresh=0 / rc_lookahead=40 / rc=abr / mbtree=1 / bitrate=2200 / ratetol=1.0 / qcomp=0.60 / qpmin=0 / qpmax=69 / qpstep=4 / vbv_maxrate=50000 / vbv_bufsize=50000 / nal_hrd=none / ip_ratio=1.40 / aq=1:1.00
    Encoded date                             : UTC 2015-05-08 12:47:49
    Tagged date                              : UTC 2015-05-08 12:52:53

    Audio
    ID                                       : 2
    Format                                   : AAC
    Format/Info                              : Advanced Audio Codec
    Format profile                           : LC
    Codec ID                                 : 40
    Duration                                 : 58mn 22s
    Bit rate mode                            : Variable
    Bit rate                                 : 256 Kbps
    Maximum bit rate                         : 262 Kbps
    Channel(s)                               : 2 channels
    Channel positions                        : Front: L R
    Sampling rate                            : 48.0 KHz
    Compression mode                         : Lossy
    Stream size                              : 107 MiB (10%)
    Encoded date                             : UTC 2015-05-08 12:52:48
    Tagged date                              : UTC 2015-05-08 12:52:53



    0 0

    Original Post: Ex-Girlfriend's Club E06 XVID WITH


    Details
    Title: 구여친클럽 / Guyeochinkeulleob
    Genre: Romance, Comedy
    Episodes: TBA
    Broadcast network: tvN
    Broadcast period: 2015-May-8 to TBA
    Air time: Friday & Saturday 20:30
    Original Soundtrack: Ex-Girlfriend Club OST
    Synopsis
    The story centered around a famous webtoon writer named Bang Myung Soo (Byun Yo Han) that write webtoon based on his past relationship with all his ex-girlfriends. Kim Soo Jin (Song Ji Hyo) is a producer who is assigned to make his webtoon into a movie.

    Cast
    Song Ji Hyo as Kim Soo Jin (32)
    Byun Yo Han as Bang Myung Soo (32)
    Lee Yoon Ji as Jang Hwa Young (31, Myung Soo's first love)
    Jang Ji Eun (장지은) as Na Ji Ah (34, Myung Soo's second love)
    Ryu Hwa Young as Ra Ra (27, Myung Soo's third love)




    Code
    Video
    ID                                       : 0
    Format                                   : MPEG-4 Visual
    Format profile                           : Advanced Simple@L5
    Format settings, BVOP                    : 2
    Format settings, QPel                    : No
    Format settings, GMC                     : No warppoints
    Format settings, Matrix                  : Default (H.263)
    Muxing mode                              : Packed bitstream
    Codec ID                                 : XVID
    Codec ID/Hint                            : XviD
    Duration                                 : 58mn 22s
    Bit rate                                 : 1 239 Kbps
    Width                                    : 640 pixels
    Height                                   : 352 pixels
    Display aspect ratio                     : 16:9
    Frame rate                               : 29.970 fps
    Color space                              : YUV
    Chroma subsampling                       : 4:2:0
    Bit depth                                : 8 bits
    Scan type                                : Progressive
    Compression mode                         : Lossy
    Bits/(Pixel*Frame)                       : 0.184
    Stream size                              : 517 MiB (90%)
    Writing library                          : XviD 58

    Audio
    ID                                       : 1
    Format                                   : MPEG Audio
    Format version                           : Version 1
    Format profile                           : Layer 3
    Mode                                     : Joint stereo
    Mode extension                           : MS Stereo
    Codec ID                                 : 55
    Codec ID/Hint                            : MP3
    Duration                                 : 58mn 22s
    Bit rate mode                            : Constant
    Bit rate                                 : 128 Kbps
    Channel(s)                               : 2 channels
    Sampling rate                            : 48.0 KHz
    Compression mode                         : Lossy
    Stream size                              : 53.4 MiB (9%)
    Alignment                                : Aligned on interleaves
    Interleave, duration                     : 33 ms (1.00 video frame)
    Interleave, preload duration             : 504 ms



    0 0

    Original Post: Ex-Girlfriend's Club E06 720p WITH


    Details
    Title: 구여친클럽 / Guyeochinkeulleob
    Genre: Romance, Comedy
    Episodes: TBA
    Broadcast network: tvN
    Broadcast period: 2015-May-8 to TBA
    Air time: Friday & Saturday 20:30
    Original Soundtrack: Ex-Girlfriend Club OST
    Synopsis
    The story centered around a famous webtoon writer named Bang Myung Soo (Byun Yo Han) that write webtoon based on his past relationship with all his ex-girlfriends. Kim Soo Jin (Song Ji Hyo) is a producer who is assigned to make his webtoon into a movie.

    Cast
    Song Ji Hyo as Kim Soo Jin (32)
    Byun Yo Han as Bang Myung Soo (32)
    Lee Yoon Ji as Jang Hwa Young (31, Myung Soo's first love)
    Jang Ji Eun (장지은) as Na Ji Ah (34, Myung Soo's second love)
    Ryu Hwa Young as Ra Ra (27, Myung Soo's third love)




    Code
    Video
    ID                                       : 1
    Format                                   : AVC
    Format/Info                              : Advanced Video Codec
    Format profile                           : Baseline@L1.3
    Format settings, CABAC                   : No
    Format settings, ReFrames                : 1 frame
    Codec ID                                 : avc1
    Codec ID/Info                            : Advanced Video Coding
    Duration                                 : 58mn 22s
    Bit rate                                 : 2 200 Kbps
    Maximum bit rate                         : 5 302 Kbps
    Width                                    : 1 280 pixels
    Height                                   : 720 pixels
    Display aspect ratio                     : 16:9
    Frame rate mode                          : Constant
    Frame rate                               : 29.970 fps
    Color space                              : YUV
    Chroma subsampling                       : 4:2:0
    Bit depth                                : 8 bits
    Scan type                                : Progressive
    Bits/(Pixel*Frame)                       : 0.080
    Stream size                              : 922 MiB (90%)
    Writing library                          : x264 core 128 r2216 198a7ea
    Encoding settings                        : cabac=0 / ref=1 / deblock=1:0:0 / analyse=0x1:0x111 / me=hex / subme=7 / psy=1 / psy_rd=1.00:0.00 / mixed_ref=0 / me_range=16 / chroma_me=1 / trellis=1 / 8x8dct=0 / cqm=0 / deadzone=21,11 / fast_pskip=1 / chroma_qp_offset=-2 / threads=12 / lookahead_threads=2 / sliced_threads=0 / nr=0 / decimate=1 / interlaced=0 / bluray_compat=0 / constrained_intra=0 / bframes=0 / weightp=0 / keyint=250 / keyint_min=25 / scenecut=40 / intra_refresh=0 / rc_lookahead=40 / rc=abr / mbtree=1 / bitrate=2200 / ratetol=1.0 / qcomp=0.60 / qpmin=0 / qpmax=69 / qpstep=4 / vbv_maxrate=50000 / vbv_bufsize=50000 / nal_hrd=none / ip_ratio=1.40 / aq=1:1.00
    Encoded date                             : UTC 2015-05-08 12:47:49
    Tagged date                              : UTC 2015-05-08 12:52:53

    Audio
    ID                                       : 2
    Format                                   : AAC
    Format/Info                              : Advanced Audio Codec
    Format profile                           : LC
    Codec ID                                 : 40
    Duration                                 : 58mn 22s
    Bit rate mode                            : Variable
    Bit rate                                 : 256 Kbps
    Maximum bit rate                         : 262 Kbps
    Channel(s)                               : 2 channels
    Channel positions                        : Front: L R
    Sampling rate                            : 48.0 KHz
    Compression mode                         : Lossy
    Stream size                              : 107 MiB (10%)
    Encoded date                             : UTC 2015-05-08 12:52:48
    Tagged date                              : UTC 2015-05-08 12:52:53



    0 0

    Original Post: (2012) NHK - Wildlife - Echoes of the Forest - Taiwanese Squirrels (Documentary)

    Thank you for loving Asian cinematography ...

    could not create mtn shortcut (mtn will be added next week, have to do an OS reinstall)










    File:
    Format: Matroska
    File size: 1.49 GiB
    Duration: 48mn 59s
    Overall bit rate: 4 352 Kbps

    Video:
    Format: AVC
    Format/Info: Advanced Video Codec
    Format profile: High@L4.1
    Format settings, CABAC: Yes
    Format settings, ReFrames: 6 frames
    Codec ID: V_MPEG4/ISO/AVC
    Duration: 48mn 59s
    Width: 1 280 pixels
    Height: 720 pixels
    Display aspect ratio: 16:9
    Frame rate: 25.000 fps
    Color space: YUV
    Chroma subsampling: 4:2:0
    Bit depth: 8 bits

    Audio
    Format: AAC
    Format/Info: Advanced Audio Codec
    Format profile: LC
    Codec ID: A_AAC
    Duration : 48mn 59s
    Channel(s): 2 channels
    Channel positions: Front: L R
    Sampling rate: 48.0 KHz


    "The forest in Kenting, which extends across southern Taiwan, is a reservoir of tropical biodiversity. The Taiwanese squirrel has a unique behavior where it uses a specific call for each purpose. For example, if a monkey, eagle or snake approaches, they make different sounds to warn other members of the group which type of predator is approaching. Males also use a special sound when courting a female. This episode features Taiwanese squirrels using their diverse range of calls to overcome many challenges of life in the forest."

    Type: Documentary
    Country: Japan
    Language: English
    Director: Masahiro Hayakawa
    Cast: Japan



    Credit goes to JungleBoy (MVG)


    0 0

    Original Post: Sexphone and the Lonely Wave OST

    [img]http://https://www.asiatorrents.me/imgz/images/CNtvY.jpg[/img]

    Release Date: 2003
    Genre: Thai Pop
    Format: mp3
    Bitrate: 192-250 kbps

    Track List
    1. When I Fall In Love : Matthew Dean

    2. Yahk Hai Roo Wa Ruk Ter : Joni Anwar
    อยากให้รู้ว่ารักเธอ : จอห์นนี่ อันวา

    3. Klub Ma Dai Mai : Bean D2B
    กลับมาได้ไหม : บีม

    4. When I Fall In Love : Sandra

    5. When I Fall In Love (orchestra version)

    6. Duay Ai Ruk : Bean D2B

    7. Baby : DJ "B"

    8. Sexphone (Theme)

    9. When I Fall In Love (Instrumental)

    10. Klub Ma Dai Mai (Instrumental)


    Credit: Please credit me if re-uploading elsewhere

    I will seed for an entire week around this time:
    Monday-Friday 4pm-midnight PST (Pacific Time Zone)
    Otherwise I will inform.

    Hopefully I have done this right this time.smile1.gif


    0 0

    Original Post: [Mini Album] KARA – In Love [7th Mini Album]



    http://en.wikipedia.org/wiki/Kara_%28South_Korean_band%29

    [EP] 카라 – 카라 (Kara) - 7th Mini Album ‘In Love’
    Release Date: 2015.05.26
    Genre: Dance, Ballad
    Language: Korean
    Bit Rate: MP3-320kbps
    credit to k2nblog

    Fall In Love with Kara all over again with their seventh mini-album! Featuring various styles including R&B, ballad and disco, the girls’ new mini-album and its title song Cupid produced by e.one will showcase a more mature Kara to fans.

    Track List:

    01. Starlight
    02. Cupid
    03. 그땐 그냥
    04. I Luv Me
    05. Peek-A-Boo – 박규리, 허영지
    06. Dreamlover – 박규리, 한승연 [카라]



    0 0

    Original Post: Various Artists – My Unfortunate Boyfriend OST



    Various Artists – 나의 유감스러운 남자친구 OST (My Unfortunate Boyfriend OST)
    Release Date: 2015.05.26
    Genre: OST
    Bit rate: MP3-320K
    credit to hulkpop

    Track List:

    01. Yugamnam Title
    02. 이게 사랑인가봐 – F.Cuz
    03. 내 사랑아 – 윤학 (초신성)
    04. 난 널 사랑해 – 연규성
    05. You`re My Angel – 신재
    06. Fall In Love – 백청강, 제이엘
    07. Feel Me Up – 정흠밴드
    08. 좋은 날이야 – 루민, 유행훈
    09. 애매해 – 다홍, 진민호
    10. You`re My Angel (Piano Ver.) – 신지호
    11. Lyrical Man
    12. Sexy Man
    13. Comic Hey You
    14. Acoustic Man
    15. Magic
    16. Comic Party
    17. Ten Comic
    18. Love You
    19. Warm Bossa
    20. No Bright Acco
    21. Ten Secret
    22. Slow Ballade
    23. House Wish Love
    24. Comic Spy
    25. Comic Loose Time
    26. Love Piano



    0 0

    Original Post: Medical Brothers (1997) DVDRip x264 AC3 ZOZO Complete



    Details
    Title:의가형제 / Uiga hyeongje
    Also known as: Doctor Brothers
    Genre: Drama, Romance
    Episodes: 16
    Broadcast network: MBC
    Broadcast date: 1997-Jan-13 to 1997-Mar-04

    Subtitles:NONE

    Synopsis
    Both brothers and rivals, Kim Su Hyung (Jang Dong Gun) and Kim Jun Ki (Son Chang Min) are doctors at the same hospital. Young and promising figures in the field, Su Hyung and Jun Ki are dedicated to their profession, though not always as disciplined in other matters. Su Hyung's rash and insensitive personality often brings tears to his longtime girlfriend Min Joo (Lee Young Ae), who is also a doctor. The brothers face crises in both their personal and professional lives when Jun Ki's mistake leads to his friend's wife's passing and Su Hyung discovers a family secret concerning his identity. (YesAsia)

    Cast
    Jang Dong Gun as Kim Su Hyung
    Son Chang Min as Kim Jun Ki
    Lee Young Ae as Cha Min Joo
    Shin Joo Ri as Regina
    Yoo Kyung Ah
    Kim Ji Young
    Lee Jae Po
    Kang Sung Yun
    Lee Min Young
    Ahn Jae Hwan
    Kim Jung Hak
    Jung Wook
    Lee Young Bum

    Production Credits
    Writer: Kim Ji Soo
    Director: Shin Ho Gyun











    Code

    General
    Format                                   : AVI
    Format/Info                              : Audio Video Interleave
    File size                                : 708 MiB
    Duration                                 : 52mn 1s
    Overall bit rate                         : 1 904 Kbps
    Writing application                      : VirtualDubMod 1.5.10.2 (build 2542/release)
    Writing library                          : VirtualDubMod build 2542/release

    Video
    ID                                       : 0
    Format                                   : AVC
    Format/Info                              : Advanced Video Codec
    Format profile                           : High@L3.0
    Format settings, CABAC                   : Yes
    Format settings, ReFrames                : 4 frames
    Codec ID                                 : H264
    Duration                                 : 52mn 1s
    Bit rate                                 : 1 677 Kbps
    Width                                    : 640 pixels
    Height                                   : 480 pixels
    Display aspect ratio                     : 4:3
    Frame rate                               : 29.970 fps
    Color space                              : YUV
    Chroma subsampling                       : 4:2:0
    Bit depth                                : 8 bits
    Scan type                                : Progressive
    Bits/(Pixel*Frame)                       : 0.182
    Stream size                              : 632 MiB (89%)
    Writing library                          : x264 core 120 r2120bm 0c7dab9
    Encoding settings                        : cabac=1 / ref=3 / deblock=1:0:0 / analyse=0x3:0x113 / me=hex / subme=7 / psy=1 / psy_rd=1.00:0.00 / mixed_ref=1 / me_range=16 / chroma_me=1 / trellis=1 / 8x8dct=1 / cqm=0 / deadzone=21,11 / fast_pskip=1 / chroma_qp_offset=-2 / threads=6 / sliced_threads=0 / nr=0 / decimate=1 / interlaced=0 / bluray_compat=0 / constrained_intra=0 / bframes=3 / b_pyramid=2 / b_adapt=1 / b_bias=0 / direct=1 / weightb=1 / open_gop=0 / weightp=2 / keyint=250 / keyint_min=25 / scenecut=40 / intra_refresh=0 / rc_lookahead=40 / rc=abr / mbtree=1 / bitrate=1677 / ratetol=1.0 / qcomp=0.60 / qpmin=0 / qpmax=69 / qpstep=4 / ip_ratio=1.40 / aq=1:1.00

    Audio
    ID                                       : 1
    Format                                   : AC-3
    Format/Info                              : Audio Coding 3
    Codec ID                                 : 2000
    Duration                                 : 52mn 1s
    Bit rate mode                            : Constant
    Bit rate                                 : 192 Kbps
    Channel(s)                               : 2 channels
    Sampling rate                            : 48.0 KHz
    Compression mode                         : Lossy
    Stream size                              : 71.4 MiB (10%)
    Alignment                                : Split accross interleaves
    Interleave, duration                     : 33 ms (1.00 video frame)
    Interleave, preload duration             : 500 ms




    0 0

    Original Post: Kaiki Renai Sakusen 720p HDTV x264 AAC DoA Complete



    Title (romaji): Kaiki Renai Sakusen
    Format: Renzoku
    Genre: Horror / Comedy / Romance
    Episodes: 12
    Broadcast network: TV Tokyo
    Broadcast period: January 10, 2015 start
    Air time:  Fridays 24:12-24:52
    Theme song: Venus by Queen Bee & Fallin Down by Denki Groove
    Subtitles: None
    RAW credit to DoA

    Cast
    Aso Kumiko
    Sakai Maki
    Ogawa Tamaki
    Nakamura Toru

    Synopsis
    "Kaiki Renai Sakusen" follows three women and depicts their persona lives, work lives and their fight against a monster.

    Natsumi (Kumiko Aso) is 36-years-old. She dreamed of becoming a cafe owner and saved money to achieve her dream, but she was swindled out of her money. She now works at the cafe where she dreamed of becoming the owner. Akiko (Maki Sakai) is 39-years-old. She works as a music teacher and awaits for the perfect man. Fuyu (Tamaki Ogawa) is 38-years-old. She thinks of herself as an actress.

    Media Info
    Spoiler:show
    Format                                   : Matroska
    Format version                           : Version 2
    File size                                : 548 MiB
    Duration                                 : 28mn 18s
    Overall bit rate                         : 2 707 Kbps
    Encoded date                             : UTC 2015-01-11 06:51:43
    Writing application                      : mkvmerge v7.0.0 ('Where We Going') 32bit built on Jun  9 2014 15:08:34
    Writing library                          : libebml v1.3.0 + libmatroska v1.4.1
    DURATION                                 : 00:28:18.538000000
    NUMBER_OF_FRAMES                         : 79619
    NUMBER_OF_BYTES                          : 40048051
    _STATISTICS_WRITING_APP                  : mkvmerge v7.0.0 ('Where We Going') 32bit built on Jun  9 2014 15:08:34
    _STATISTICS_WRITING_DATE_UTC             : 2015-01-11 06:51:43
    _STATISTICS_TAGS                         : BPS DURATION NUMBER_OF_FRAMES NUMBER_OF_BYTES

    Video
    ID                                       : 1
    Format                                   : AVC
    Format/Info                              : Advanced Video Codec
    Format profile                           : High@L4.1
    Format settings, CABAC                   : Yes
    Format settings, ReFrames                : 8 frames
    Codec ID                                 : V_MPEG4/ISO/AVC
    Duration                                 : 28mn 18s
    Width                                    : 1 280 pixels
    Height                                   : 720 pixels
    Display aspect ratio                     : 16:9
    Frame rate mode                          : Constant
    Frame rate                               : 29.970 fps
    Color space                              : YUV
    Chroma subsampling                       : 4:2:0
    Bit depth                                : 8 bits
    Scan type                                : Progressive
    Writing library                          : x264 core 142 r2431 ac76440
    Encoding settings                        : cabac=1 / ref=8 / deblock=1:-2:-2 / analyse=0x3:0x133 / me=umh / subme=9 / psy=1 / psy_rd=1.00:0.00 / mixed_ref=1 / me_range=16 / chroma_me=1 / trellis=2 / 8x8dct=1 / cqm=0 / deadzone=21,11 / fast_pskip=1 / chroma_qp_offset=-2 / threads=6 / lookahead_threads=1 / sliced_threads=0 / nr=0 / decimate=1 / interlaced=0 / bluray_compat=0 / constrained_intra=0 / bframes=8 / b_pyramid=2 / b_adapt=2 / b_bias=0 / direct=3 / weightb=1 / open_gop=0 / weightp=2 / keyint=300 / keyint_min=29 / scenecut=40 / intra_refresh=0 / rc_lookahead=60 / rc=crf / mbtree=1 / crf=18.0 / qcomp=0.60 / qpmin=0 / qpmax=69 / qpstep=4 / ip_ratio=1.40 / aq=1:1.00
    Language                                 : English
    Default                                  : Yes
    Forced                                   : No
    DURATION                                 : 00:28:18.930000000
    NUMBER_OF_FRAMES                         : 50917
    NUMBER_OF_BYTES                          : 534384530
    _STATISTICS_WRITING_APP                  : mkvmerge v7.0.0 ('Where We Going') 32bit built on Jun  9 2014 15:08:34
    _STATISTICS_WRITING_DATE_UTC             : 2015-01-11 06:51:43
    _STATISTICS_TAGS                         : BPS DURATION NUMBER_OF_FRAMES NUMBER_OF_BYTES

    Audio
    ID                                       : 2
    Format                                   : AAC
    Format/Info                              : Advanced Audio Codec
    Format profile                           : LC
    Codec ID                                 : A_AAC
    Duration                                 : 28mn 18s
    Channel(s)                               : 2 channels
    Channel positions                        : Front: L R
    Sampling rate                            : 48.0 KHz
    Compression mode                         : Lossy
    Delay relative to video                  : 1ms
    Default                                  : Yes
    Forced                                   : No









    0 0

    Original Post: DoS Deka EP07 720p HDTV x264 AAC-DoA

    http://thetvdb.com/?tab=series&id=294718

    Title (romaji): DoS Deka
    Also known as: Ms. Sadistic Detective
    Format: Renzoku
    Genre: Detective comedy
    Episodes: TBD
    Broadcast network: NTV
    Broadcast period: 2015-Apr-11 start
    Air time: Saturday 21:00
    Theme song: Tsuyoku Tsuyoku Tsuyoku by Kanjani8
    Subtitles: English - hikaruisyum
    RAW credit to DoA


    Cast

       Tabe Mikako as Kuroi Maya
       Okura Tadayoshi as Daikanyama Shusuke
       Yoshida Yo as Shirokane Fujiko
       Yaotome Hikaru as Hamda Soichiro
       Nakamura Yasuhi as Nakane Masanobu
       Katsumura Masanobu as Arisugawa Tsuneo
       Ishii Masanori as Yura Fumio
       Mitz Mangrove (ミッツ・マングローブ) as Inui Kenzaburo
       Seto Saori (瀬戸さおり) as Daikanyama Kaori
       Suga Yusuke (菅裕輔) as Ken-chan
       Ibu Masato as Kondo Tokuji
       Kishimoto Kayoko as Daikanyama Keiko


    Synopsis

    An uber-sadistic female detective and her nice-guy cop—an unbeatable partnership?! A delightful police comedy is born!

    She has no loyalty to her organization and doesn't follow any rules. She's a detective who enjoys seeing people's troubled faces. Her name is Kuroi Maya. She chose to become a detective because she thought she could torment bad people all she wants. With her sharp intuition, she finds the suspects quicker than anybody else. Beautiful but also a pain in the neck, she unleashes her sadistic ways to round up the bad people from society. This is a story about a never-before-seen uber-sadistic detective.

    Her unlucky partner? Daikanyama Shusuke, an officer who works in a police box. Caught in between a strong-willed mother and younger sister, he is constantly being pushed around at home. Shusuke and Maya have their chance encounter at a crime scene and the two end up as buddies. -- NTV


    Mediainfo
    Spoiler:show

    Code
    Format                                   : Matroska
    Format version                           : Version 4 / Version 2
    File size                                : 1.29 GiB
    Duration                                 : 46mn 4s
    Overall bit rate                         : 4 023 Kbps
    Movie name                               : ドS刑事 第7話 720p HDTV x264 AAC-DoA
    Encoded date                             : UTC 2015-05-24 04:36:00
    Writing application                      : mkvmerge v7.9.0 ('Birds') 64bit
    Writing library                          : libebml v1.3.1 + libmatroska v1.4.2
    DURATION                                 : 00:46:04.906000000
    NUMBER_OF_FRAMES                         : 129605
    NUMBER_OF_BYTES                          : 65191315
    _STATISTICS_WRITING_APP                  : mkvmerge v7.9.0 ('Birds') 64bit
    _STATISTICS_WRITING_DATE_UTC             : 2015-05-24 04:36:00
    _STATISTICS_TAGS                         : BPS DURATION NUMBER_OF_FRAMES NUMBER_OF_BYTES

    Video
    ID                                       : 1
    Format                                   : AVC
    Format/Info                              : Advanced Video Codec
    Format profile                           : High@L4.1
    Format settings, CABAC                   : Yes
    Format settings, ReFrames                : 9 frames
    Codec ID                                 : V_MPEG4/ISO/AVC
    Duration                                 : 46mn 4s
    Width                                    : 1 280 pixels
    Height                                   : 720 pixels
    Display aspect ratio                     : 16:9
    Frame rate mode                          : Constant
    Frame rate                               : 29.970 fps
    Color space                              : YUV
    Chroma subsampling                       : 4:2:0
    Bit depth                                : 8 bits
    Scan type                                : Progressive
    Title                                    : Encode by TTG-DoA
    Writing library                          : x264 core 146 r2538 121396c
    Encoding settings                        : cabac=1 / ref=9 / deblock=1:-2:-2 / analyse=0x3:0x133 / me=umh / subme=10 / psy=1 / psy_rd=1.00:0.15 / mixed_ref=1 / me_range=48 / chroma_me=1 / trellis=2 / 8x8dct=1 / cqm=0 / deadzone=21,11 / fast_pskip=0 / chroma_qp_offset=-3 / threads=12 / lookahead_threads=2 / sliced_threads=0 / nr=0 / decimate=1 / interlaced=0 / bluray_compat=0 / constrained_intra=0 / bframes=8 / b_pyramid=2 / b_adapt=2 / b_bias=0 / direct=3 / weightb=1 / open_gop=0 / weightp=2 / keyint=300 / keyint_min=29 / scenecut=40 / intra_refresh=0 / rc_lookahead=60 / rc=crf / mbtree=1 / crf=17.4 / qcomp=0.60 / qpmin=0 / qpmax=69 / qpstep=4 / ip_ratio=1.40 / aq=1:1.00
    Language                                 : Japanese
    Default                                  : Yes
    Forced                                   : No
    _STATISTICS_WRITING_APP                  : mkvmerge v7.9.0 ('Birds') 64bit
    _STATISTICS_WRITING_DATE_UTC             : 2015-05-24 04:36:00
    _STATISTICS_TAGS                         : BPS DURATION NUMBER_OF_FRAMES NUMBER_OF_BYTES
    DURATION                                 : 00:46:04.862000000
    NUMBER_OF_FRAMES                         : 82863
    NUMBER_OF_BYTES                          : 1324210347

    Audio
    ID                                       : 2
    Format                                   : AAC
    Format/Info                              : Advanced Audio Codec
    Format profile                           : LC
    Codec ID                                 : A_AAC
    Duration                                 : 46mn 4s
    Channel(s)                               : 2 channels
    Channel positions                        : Front: L R
    Sampling rate                            : 48.0 KHz
    Compression mode                         : Lossy
    Language                                 : Japanese
    Default                                  : Yes
    Forced                                   : No

    Menu
    00:00:00.000                             : ja:Chapter 01
    00:19:04.977                             : ja:Chapter 02
    00:24:59.898                             : ja:Chapter 03
    00:30:35.900                             : ja:Chapter 04








    0 0

    Original Post: Tenshi to Akuma EP07 720p HDTV x264 AAC-DoA

    http://thetvdb.com/?tab=series&id=293165&lid=25

    Title (romaji): Tenshi to Akuma
    Also known as: Angels & Demons
    Tagline: 未解決事件匿名交渉課 / Mikaiketsu Jiken Tokumei Koshouka
    Format: Renzoku
    Genre: Mystery, legal, suspense
    Episodes: TBD
    Broadcast network: TV Asahi
    Broadcast period: 2015-Apr-10 start
    Air time: Friday 23:15
    Theme song: Song for you ~Ashita e Kakeru Hikari~ by Sonar Pocket
    Subtitles: English - ersby 
    Note from ersby: Episode four (subtitles) won't be done for several weeks, since I'm going on holiday (to Japan) so please be patient. Thanks.
    RAW credit to DoA


    Cast

       Gouriki Ayame as Makita Hikari
       Watabe Atsuro as Chajima Ryunosuke
       Hasegawa Tomoharu as Udagawa Ken
       Naito Risa as Hattori Noemi
       Nakamura Shizuka as Eniwa Akane
       Arakawa Yoshiyoshi as Ano Tadaomi
       Uzaki Ryudo (宇崎竜童) as Kagurazaka Ryoichi


    Synopsis

    Gouriki plays the role of a newbie police officer Makita Hikari who trusts others wholeheartedly, keeps making mistakes at work and ends up being sent to work in an insignificant position while Watabe plays Chajima Ryunosuke who is a lawyer with no morals and doesn't believe in people. The two of them who are 24 years apart in age, form an unlikely alliance to crack unresolved cases in the Mikaiketsu Jiken Tokumei Koshoka by using plea deals to get suspects and the accused to testify against the true culprits responsible for committing the crimes. -- Dorama World


    Mediainfo
    Spoiler:show

    Code
    Format                                   : Matroska
    Format version                           : Version 4 / Version 2
    File size                                : 700 MiB
    Duration                                 : 48mn 48s
    Overall bit rate                         : 2 006 Kbps
    Movie name                               : 天使と悪魔-未解決事件匿名交渉課- CASE 7
    Encoded by                               : 愛衣ちゃん大勝利 。゚( ゚இωஇ゚)゚。
    Encoded date                             : UTC 2015-05-24 13:04:59
    Writing application                      : mkvmerge v7.6.0 ('Garden of Dreams') 64bit built on Feb  9 2015 20:32:11
    Writing library                          : libebml v1.3.1 + libmatroska v1.4.2
    DATE_RECORDED                            : JST 2015-05-22 23:14:18
    TITLE                                    : 天使と悪魔-未解決事件匿名交渉課- CASE 7
    TITLE/Url                                : http://www.tv-asahi.co.jp/tenshitoakuma/
    WRITTEN_BY                               : 高橋悠也
    DIRECTOR                                 : 波多野貴文
    COMMENT                                  : ルートスフィア
    ENCODER_SETTINGS                         : wine avs-plus/avs2yuv.exe tenshitoakuma.avs - | x264 -
    ENCODER_SETTINGS/AviSynth                : tfm(mode = 5, pp = 2, clip2 = qtgmc.selecteven, cthresh = 1)
    DURATION                                 : 00:48:48.000000000
    NUMBER_OF_FRAMES                         : 137250
    NUMBER_OF_BYTES                          : 69036750
    _STATISTICS_WRITING_APP                  : mkvmerge v7.6.0 ('Garden of Dreams') 64bit built on Feb  9 2015 20:32:11
    _STATISTICS_WRITING_DATE_UTC             : 2015-05-24 13:04:59
    _STATISTICS_TAGS                         : BPS DURATION NUMBER_OF_FRAMES NUMBER_OF_BYTES

    Video
    ID                                       : 1
    Format                                   : AVC
    Format/Info                              : Advanced Video Codec
    Format profile                           : High@L4
    Format settings, CABAC                   : Yes
    Format settings, ReFrames                : 6 frames
    Codec ID                                 : V_MPEG4/ISO/AVC
    Duration                                 : 48mn 48s
    Width                                    : 1 280 pixels
    Height                                   : 720 pixels
    Display aspect ratio                     : 16:9
    Frame rate mode                          : Constant
    Frame rate                               : 29.970 fps
    Color space                              : YUV
    Chroma subsampling                       : 4:2:0
    Bit depth                                : 8 bits
    Scan type                                : Progressive
    Writing library                          : x264 core 146 r2538 121396c
    Encoding settings                        : cabac=1 / ref=6 / deblock=1:-2:-2 / analyse=0x3:0x133 / me=umh / subme=11 / psy=1 / psy_rd=1.00:0.15 / mixed_ref=1 / me_range=24 / chroma_me=1 / trellis=2 / 8x8dct=1 / cqm=0 / deadzone=21,11 / fast_pskip=1 / chroma_qp_offset=-3 / threads=12 / lookahead_threads=1 / sliced_threads=0 / nr=0 / decimate=1 / interlaced=0 / bluray_compat=0 / constrained_intra=0 / bframes=5 / b_pyramid=2 / b_adapt=2 / b_bias=0 / direct=3 / weightb=1 / open_gop=0 / weightp=2 / keyint=300 / keyint_min=30 / scenecut=40 / intra_refresh=0 / rc_lookahead=60 / rc=crf / mbtree=1 / crf=19.0 / qcomp=0.60 / qpmin=0 / qpmax=69 / qpstep=4 / ip_ratio=1.40 / aq=1:1.00
    Language                                 : Japanese
    Default                                  : Yes
    Forced                                   : No
    DURATION                                 : 00:48:47.991000000
    NUMBER_OF_FRAMES                         : 87752
    NUMBER_OF_BYTES                          : 664349271
    _STATISTICS_WRITING_APP                  : mkvmerge v7.6.0 ('Garden of Dreams') 64bit built on Feb  9 2015 20:32:11
    _STATISTICS_WRITING_DATE_UTC             : 2015-05-24 13:04:59
    _STATISTICS_TAGS                         : BPS DURATION NUMBER_OF_FRAMES NUMBER_OF_BYTES

    Audio
    ID                                       : 2
    Format                                   : AAC
    Format/Info                              : Advanced Audio Codec
    Format profile                           : LC
    Codec ID                                 : A_AAC
    Duration                                 : 48mn 48s
    Channel(s)                               : 2 channels
    Channel positions                        : Front: L R
    Sampling rate                            : 48.0 KHz
    Compression mode                         : Lossy
    Delay relative to video                  : 16ms
    Language                                 : Japanese
    Default                                  : Yes
    Forced                                   : No

    Menu
    00:00:00.000                             : ja:Part A
    00:02:06.025                             : ja:Part B
    00:23:03.014                             : ja:Part C
    00:32:46.998                             : ja:Part D
    00:48:10.988                             : ja:次回予告








    0 0

    Original Post: Yume wo Ataeru EP01 720p HDTV x264 AAC-DoA

    http://thetvdb.com/?tab=series&id=293165&lid=25

    Title (romaji): Yume wo Ataeru
    Format: Renzoku
    Genre: Drama
    Episodes: 4
    Broadcast network: WOWOW
    Broadcast period: 2015-May-16 to 2015-Jun-06
    Air time: Saturday 22:00
    Theme song: dIS de rEAm by Rinbjö
    Subtitles: None - [url=][/url]  
    RAW credit to DoA


    Cast

       Komatsu Nana (小松菜奈) as Abe Yuko
       Tani Kanon as young Yuko
       Kikuchi Rinko as Abe Mimiko
       Ota Shingo (太田信吾)
       Nagaoka Tasuku (永岡佑)
       Kageyama Tai (陰山泰)
       Mackenyu (真剣佑) as Masaaki
       Hamada Tatsuomi
       Tanaka Min
       Kaho
       Asano Kazuyuki
       Odagiri Joe as Murano
       De Lencquesaing Nozomi (ド・ランクザン望) as Abe Tomah
       Bryerly Long (ブライアリー・ロング) as Sarah
       Nakamura Yasuhi

    Synopsis

    13 years ago, the Abe family moved to a town in the suburbs, surrounded by nature. The Abe family consists of their French father Toma (De Lencquesaing Nozomi), his Japanese wife Mikiko (Rinko Kikuchi) and their beautiful daughter Yuko (Kanon Tani). They appear like the perfect family. Mikiko managed to get her daughter Yuko to take part in a CM audition and she was picked by Murano (Joe Odagiri), director of the advertising agency. Yuko is now in show business.

    Several years later, Yuko (Nana Komatsu) transfers to a large entertainment company. As her mother wishes, Yuko is now popular and appears on the cover of magazines, variety shows and drama series. Yuko, though, feels an uncomfortable imbalance between her public image and her real self. During this time, she meets a dancer, Seiko (Mackenyu), who marches to the beat of his own drum, and falls in love with him. The nightmare begins.


    Mediainfo
    Spoiler:show

    Code
    Format                                   : Matroska
    Format version                           : Version 2
    File size                                : 1.09 GiB
    Duration                                 : 55mn 0s
    Overall bit rate                         : 2 845 Kbps
    Encoded date                             : UTC 2015-05-21 16:30:04
    Writing application                      : mkvmerge v4.3.0 ('Escape from the Island') built on Sep  5 2010 10:30:51
    Writing library                          : libebml v1.0.0 + libmatroska v1.0.0

    Video
    ID                                       : 1
    Format                                   : AVC
    Format/Info                              : Advanced Video Codec
    Format profile                           : High@L4.1
    Format settings, CABAC                   : Yes
    Format settings, ReFrames                : 9 frames
    Muxing mode                              : Header stripping
    Codec ID                                 : V_MPEG4/ISO/AVC
    Duration                                 : 55mn 0s
    Nominal bit rate                         : 2 654 Kbps
    Width                                    : 1 280 pixels
    Height                                   : 720 pixels
    Display aspect ratio                     : 16:9
    Frame rate mode                          : Constant
    Frame rate                               : 23.976 fps
    Color space                              : YUV
    Chroma subsampling                       : 4:2:0
    Bit depth                                : 8 bits
    Scan type                                : Progressive
    Bits/(Pixel*Frame)                       : 0.120
    Title                                    : Encode by TTG-DoA
    Writing library                          : x264 core 133 r2334 a3ac64b
    Encoding settings                        : cabac=1 / ref=9 / deblock=1:-3:-3 / analyse=0x3:0x133 / me=umh / subme=10 / psy=1 / psy_rd=1.00:0.15 / mixed_ref=1 / me_range=48 / chroma_me=1 / trellis=2 / 8x8dct=1 / cqm=0 / deadzone=21,11 / fast_pskip=0 / chroma_qp_offset=-3 / threads=12 / lookahead_threads=2 / sliced_threads=0 / nr=0 / decimate=1 / interlaced=0 / bluray_compat=0 / constrained_intra=0 / bframes=8 / b_pyramid=2 / b_adapt=2 / b_bias=0 / direct=3 / weightb=1 / open_gop=0 / weightp=2 / keyint=240 / keyint_min=23 / scenecut=40 / intra_refresh=0 / rc_lookahead=40 / rc=2pass / mbtree=1 / bitrate=2654 / ratetol=1.0 / qcomp=0.60 / qpmin=0 / qpmax=69 / qpstep=4 / cplxblur=20.0 / qblur=0.5 / ip_ratio=1.40 / aq=1:1.00
    Language                                 : English
    Default                                  : Yes
    Forced                                   : No

    Audio
    ID                                       : 2
    Format                                   : AAC
    Format/Info                              : Advanced Audio Codec
    Format profile                           : HE-AAC / LC
    Codec ID                                 : A_AAC
    Duration                                 : 55mn 0s
    Channel(s)                               : 2 channels
    Channel positions                        : Front: L R
    Sampling rate                            : 96.0 KHz / 48.0 KHz
    Compression mode                         : Lossy
    Delay relative to video                  : 11ms
    Language                                 : Japanese
    Default                                  : Yes
    Forced                                   : No








    0 0
  • 05/26/15--04:17: Hwajung E14 XVID LIMO
  • Original Post: Hwajung E14 XVID LIMO

    Details
    Title: 화정 / Hwajung
    Also known as: Splendid Politics
    Previously known as: Princess Jungmyung
    Genre: Historical, political, romance
    Episodes: 50
    Broadcast network: MBC
    Broadcast period: 2015-Apr-13 to 2015-Oct-??
    Air time: Monday & Tuesday 22:00
    Subtitles by Dramafever will be added later
    http://thetvdb.com/?tab=series&id=293910

    Synopsis
    Fair Princess Jungmyung (Lee Yeon Hee) lives a life of the highest privilege, until her half-brother Prince Gwanghae (Cha Seung Won) executes the rightful crown prince and usurps the throne. Exiled from court, Jungmyung goes under disguise as a man and learns to adapt to life as a commoner — never forgetting Gwanghae's wrongdoing. But amidst rampant corruption throughout the kingdom, can Jyungmyung exact her vengeance, restore order and take back her rightful place in the palace?

    Cast

    Main Cast
    Cha Seung Won as Prince Gwanghae
    Lee Tae Hwan as teen Gwanghae
    Lee Yun Hee as Princess Jungmyung
    Jung Chan Bi as teen Jungmyung
    Seo Jung Eun as child Jungmyung
    Kim Jae Won as King Injo
    Seo Kang Joon as Hong Ju Won
    Yoon Chan Young as teen Ju Won
    Choi Kwon Ju as child Ju Won
    Han Joo Wan as Kang In Woo
    Ahn Do Gyu as teen In Woo








    Code
    Video
    ID                                       : 0
    Format                                   : MPEG-4 Visual
    Format profile                           : Advanced Simple@L5
    Format settings, BVOP                    : No
    Format settings, QPel                    : No
    Format settings, GMC                     : No warppoints
    Format settings, Matrix                  : Default (MPEG)
    Codec ID                                 : XVID
    Codec ID/Hint                            : XviD
    Duration                                 : 1h 6mn
    Bit rate                                 : 1 391 Kbps
    Width                                    : 624 pixels
    Height                                   : 352 pixels
    Display aspect ratio                     : 16:9
    Frame rate                               : 29.970 fps
    Color space                              : YUV
    Chroma subsampling                       : 4:2:0
    Bit depth                                : 8 bits
    Scan type                                : Progressive
    Compression mode                         : Lossy
    Bits/(Pixel*Frame)                       : 0.211
    Stream size                              : 660 MiB (87%)
    Writing library                          : XviD 1.2.1 (UTC 2008-12-04)

    Audio
    ID                                       : 1
    Format                                   : MPEG Audio
    Format version                           : Version 1
    Format profile                           : Layer 3
    Mode                                     : Joint stereo
    Mode extension                           : MS Stereo
    Codec ID                                 : 55
    Codec ID/Hint                            : MP3
    Duration                                 : 1h 6mn
    Bit rate mode                            : Constant
    Bit rate                                 : 128 Kbps
    Channel(s)                               : 2 channels
    Sampling rate                            : 48.0 KHz
    Compression mode                         : Lossy
    Stream size                              : 60.8 MiB (8%)
    Alignment                                : Aligned on interleaves
    Writing library                          : LAME3.98.2



    0 0
  • 05/26/15--04:17: Hwajung E14 720p LIMO
  • Original Post: Hwajung E14 720p LIMO

    Details
    Title: 화정 / Hwajung
    Also known as: Splendid Politics
    Previously known as: Princess Jungmyung
    Genre: Historical, political, romance
    Episodes: 50
    Broadcast network: MBC
    Broadcast period: 2015-Apr-13 to 2015-Oct-??
    Air time: Monday & Tuesday 22:00
    Subtitles by Dramafever will be added later
    http://thetvdb.com/?tab=series&id=293910

    Synopsis
    Fair Princess Jungmyung (Lee Yeon Hee) lives a life of the highest privilege, until her half-brother Prince Gwanghae (Cha Seung Won) executes the rightful crown prince and usurps the throne. Exiled from court, Jungmyung goes under disguise as a man and learns to adapt to life as a commoner — never forgetting Gwanghae's wrongdoing. But amidst rampant corruption throughout the kingdom, can Jyungmyung exact her vengeance, restore order and take back her rightful place in the palace?

    Cast

    Main Cast
    Cha Seung Won as Prince Gwanghae
    Lee Tae Hwan as teen Gwanghae
    Lee Yun Hee as Princess Jungmyung
    Jung Chan Bi as teen Jungmyung
    Seo Jung Eun as child Jungmyung
    Kim Jae Won as King Injo
    Seo Kang Joon as Hong Ju Won
    Yoon Chan Young as teen Ju Won
    Choi Kwon Ju as child Ju Won
    Han Joo Wan as Kang In Woo
    Ahn Do Gyu as teen In Woo








    Code
    Video
    ID                             : 0
    Format                         : AVC
    Format/Info                    : Advanced Video Codec
    Format profile                 : High@L5.1
    Format settings, CABAC         : Yes
    Format settings, ReFrames      : 4 frames
    Codec ID                       : H264
    Duration                       : 1h 14mn
    Bit rate                       : 3 000 Kbps
    Width                          : 1 280 pixels
    Height                         : 720 pixels
    Display aspect ratio           : 16:9
    Frame rate mode                : Variable
    Frame rate                     : 29.970 fps
    Color space                    : YUV
    Chroma subsampling             : 4:2:0
    Bit depth                      : 8 bits
    Scan type                      : Progressive
    Bits/(Pixel*Frame)             : 0.109
    Stream size                    : 1.57 GiB (94%)
    Writing library                : x264 core 112
    Encoding settings              : cabac=1 / ref=3 / deblock=1:-1:-1 / analyse=0x3:0x113 / me=hex / subme=6 / psy=1 / psy_rd=1.00:1.00 / mixed_ref=1 / me_range=16 / chroma_me=1 / trellis=1 / 8x8dct=1 / cqm=0 / deadzone=21,11 / fast_pskip=0 / chroma_qp_offset=-4 / threads=12 / sliced_threads=0 / nr=0 / decimate=1 / interlaced=0 / constrained_intra=0 / bframes=3 / b_pyramid=2 / b_adapt=1 / b_bias=1 / direct=3 / weightb=1 / open_gop=0 / weightp=2 / keyint=299 / keyint_min=25 / scenecut=1 / intra_refresh=0 / rc_lookahead=40 / rc=abr / mbtree=1 / bitrate=3000 / ratetol=1.0 / qcomp=0.60 / qpmin=10 / qpmax=51 / qpstep=4 / ip_ratio=1.40 / aq=1:1.00

    Audio
    ID                             : 1
    Format                         : MPEG Audio
    Format version                 : Version 1
    Format profile                 : Layer 3
    Mode                           : Joint stereo
    Mode extension                 : MS Stereo
    Codec ID                       : 55
    Codec ID/Hint                  : MP3
    Duration                       : 1h 14mn
    Bit rate mode                  : Constant
    Bit rate                       : 192 Kbps
    Channel(s)                     : 2 channels
    Sampling rate                  : 48.0 KHz
    Compression mode               : Lossy
    Stream size                    : 102 MiB (6%)
    Alignment                      : Split accross interleaves
    Interleave, duration           : 33 ms (1.00 video frame)
    Interleave, preload duration   : 500 ms
    Writing library                : LAME3.98



    0 0

    Original Post: Who Are You - School 2015 E10 XVID LIMO

    Details

    Title: 후아유 - 학교 2015 / Hooayoo - Hakgyo 2015
    Also known as: 학교 6 (School 6)
    Genre: School, youth, drama, mystery
    Episodes: 16
    Broadcast network: KBS2
    Broadcast period: 2015-Apr-27 to 2015-???-??
    Air time: Monday & Tuesday 22:00
    Original Soundtrack: Who Are You - School 2015 OST
    Related TV Shows: School 1 (KBS2, 1999), School 2 (KBS2, 1999), School 3 (KBS2, 2000), School 4 (KBS2, 2001), School 2013 (KBS2, 2013)
    http://thetvdb.com/?tab=series&id=294815

    Synopsis

    This drama is a latest installment to the famed School Series. It will focus on portraying realistic issues, struggles, and dilemmas of today’s youths.

    Segang High School is a top school located in Gangnam District, Seoul. One of the students, Lee Eun Bi, wake up one day without knowing who she was. After find out that she used to be bullied, she changes herself and becomes popular. She then tries to recover her lost memories, and in the process, discovers the hidden truths behind her famous school.

    Cast
    Main Cast
    Kim So Hyun as Lee Eun Bi / Go Eun Byul
    Nam Joo Hyuk as Han Yi Ahn
    Yook Sung Jae as Gong Tae Kwang
    Extended Cast
    Lee Pil Mo as Teacher Kim Joon Suk
    Lee David as Park Min Joon
    Kim Hee Jung as Cha Song Joo
    Lee Cho Hee as Lee Shi Jin
    Jo Soo Hyang as Kang So Young
    Segang High School's teachers
    Lee Hee Do as Vice Principal
    Shin Jung Geun as Students' Supervisor
    The parents
    Jun Mi Sun as Song Mi Kyung (Eun Byul's mother)
    Lee Dae Yeon as Han Ki Choon (Yi Ahn's father)
    Jun Noh Min as Gong Jae Ho (Tae Kwang's father)
    Kim Jung Nan as Shin Jung Min (Min Joon's mother)
    Jung In Ki as Park Joon Hyung (Min Joon's father)
    Kim Se Ah as Shi Jin's mother
    Class 2-3 students
    Park Doo Shik as Kwon Ki Tae
    Yoo Young as Jo Hae Na
    Jang In Sub as Sung Yoon Jae
    Kim Bo Ra as Seo Young Eun







    Code
    Video
    ID                                       : 0
    Format                                   : MPEG-4 Visual
    Format profile                           : Advanced Simple@L5
    Format settings, BVOP                    : No
    Format settings, QPel                    : No
    Format settings, GMC                     : No warppoints
    Format settings, Matrix                  : Default (MPEG)
    Codec ID                                 : XVID
    Codec ID/Hint                            : XviD
    Duration                                 : 1h 6mn
    Bit rate                                 : 1 391 Kbps
    Width                                    : 624 pixels
    Height                                   : 352 pixels
    Display aspect ratio                     : 16:9
    Frame rate                               : 29.970 fps
    Color space                              : YUV
    Chroma subsampling                       : 4:2:0
    Bit depth                                : 8 bits
    Scan type                                : Progressive
    Compression mode                         : Lossy
    Bits/(Pixel*Frame)                       : 0.211
    Stream size                              : 660 MiB (87%)
    Writing library                          : XviD 1.2.1 (UTC 2008-12-04)

    Audio
    ID                                       : 1
    Format                                   : MPEG Audio
    Format version                           : Version 1
    Format profile                           : Layer 3
    Mode                                     : Joint stereo
    Mode extension                           : MS Stereo
    Codec ID                                 : 55
    Codec ID/Hint                            : MP3
    Duration                                 : 1h 6mn
    Bit rate mode                            : Constant
    Bit rate                                 : 128 Kbps
    Channel(s)                               : 2 channels
    Sampling rate                            : 48.0 KHz
    Compression mode                         : Lossy
    Stream size                              : 60.8 MiB (8%)
    Alignment                                : Aligned on interleaves
    Writing library                          : LAME3.98.2



    0 0

    Original Post: Who Are You - School 2015 E10 720p LIMO

    Details

    Title: 후아유 - 학교 2015 / Hooayoo - Hakgyo 2015
    Also known as: 학교 6 (School 6)
    Genre: School, youth, drama, mystery
    Episodes: 16
    Broadcast network: KBS2
    Broadcast period: 2015-Apr-27 to 2015-???-??
    Air time: Monday & Tuesday 22:00
    Original Soundtrack: Who Are You - School 2015 OST
    Related TV Shows: School 1 (KBS2, 1999), School 2 (KBS2, 1999), School 3 (KBS2, 2000), School 4 (KBS2, 2001), School 2013 (KBS2, 2013)
    http://thetvdb.com/?tab=series&id=294815

    Synopsis

    This drama is a latest installment to the famed School Series. It will focus on portraying realistic issues, struggles, and dilemmas of today’s youths.

    Segang High School is a top school located in Gangnam District, Seoul. One of the students, Lee Eun Bi, wake up one day without knowing who she was. After find out that she used to be bullied, she changes herself and becomes popular. She then tries to recover her lost memories, and in the process, discovers the hidden truths behind her famous school.

    Cast
    Main Cast
    Kim So Hyun as Lee Eun Bi / Go Eun Byul
    Nam Joo Hyuk as Han Yi Ahn
    Yook Sung Jae as Gong Tae Kwang
    Extended Cast
    Lee Pil Mo as Teacher Kim Joon Suk
    Lee David as Park Min Joon
    Kim Hee Jung as Cha Song Joo
    Lee Cho Hee as Lee Shi Jin
    Jo Soo Hyang as Kang So Young
    Segang High School's teachers
    Lee Hee Do as Vice Principal
    Shin Jung Geun as Students' Supervisor
    The parents
    Jun Mi Sun as Song Mi Kyung (Eun Byul's mother)
    Lee Dae Yeon as Han Ki Choon (Yi Ahn's father)
    Jun Noh Min as Gong Jae Ho (Tae Kwang's father)
    Kim Jung Nan as Shin Jung Min (Min Joon's mother)
    Jung In Ki as Park Joon Hyung (Min Joon's father)
    Kim Se Ah as Shi Jin's mother
    Class 2-3 students
    Park Doo Shik as Kwon Ki Tae
    Yoo Young as Jo Hae Na
    Jang In Sub as Sung Yoon Jae
    Kim Bo Ra as Seo Young Eun







    Code
    Video
    ID                             : 0
    Format                         : AVC
    Format/Info                    : Advanced Video Codec
    Format profile                 : High@L5.1
    Format settings, CABAC         : Yes
    Format settings, ReFrames      : 4 frames
    Codec ID                       : H264
    Duration                       : 1h 14mn
    Bit rate                       : 3 000 Kbps
    Width                          : 1 280 pixels
    Height                         : 720 pixels
    Display aspect ratio           : 16:9
    Frame rate mode                : Variable
    Frame rate                     : 29.970 fps
    Color space                    : YUV
    Chroma subsampling             : 4:2:0
    Bit depth                      : 8 bits
    Scan type                      : Progressive
    Bits/(Pixel*Frame)             : 0.109
    Stream size                    : 1.57 GiB (94%)
    Writing library                : x264 core 112
    Encoding settings              : cabac=1 / ref=3 / deblock=1:-1:-1 / analyse=0x3:0x113 / me=hex / subme=6 / psy=1 / psy_rd=1.00:1.00 / mixed_ref=1 / me_range=16 / chroma_me=1 / trellis=1 / 8x8dct=1 / cqm=0 / deadzone=21,11 / fast_pskip=0 / chroma_qp_offset=-4 / threads=12 / sliced_threads=0 / nr=0 / decimate=1 / interlaced=0 / constrained_intra=0 / bframes=3 / b_pyramid=2 / b_adapt=1 / b_bias=1 / direct=3 / weightb=1 / open_gop=0 / weightp=2 / keyint=299 / keyint_min=25 / scenecut=1 / intra_refresh=0 / rc_lookahead=40 / rc=abr / mbtree=1 / bitrate=3000 / ratetol=1.0 / qcomp=0.60 / qpmin=10 / qpmax=51 / qpstep=4 / ip_ratio=1.40 / aq=1:1.00

    Audio
    ID                             : 1
    Format                         : MPEG Audio
    Format version                 : Version 1
    Format profile                 : Layer 3
    Mode                           : Joint stereo
    Mode extension                 : MS Stereo
    Codec ID                       : 55
    Codec ID/Hint                  : MP3
    Duration                       : 1h 14mn
    Bit rate mode                  : Constant
    Bit rate                       : 192 Kbps
    Channel(s)                     : 2 channels
    Sampling rate                  : 48.0 KHz
    Compression mode               : Lossy
    Stream size                    : 102 MiB (6%)
    Alignment                      : Split accross interleaves
    Interleave, duration           : 33 ms (1.00 video frame)
    Interleave, preload duration   : 500 ms
    Writing library                : LAME3.98



    0 0

    Original Post: Heard it Through the Grapevine E28 XVID LIMO

    Details
    Title: 풍문으로 들었소 / Poongmooneuro Deuleoss-so
    Also known as: Heard It as a Rumor / I Heard a Rumor
    Previously known as: War of Brilliant Minds
    Genre: Family, drama, romance, black comedy
    Episodes: 32
    Broadcast network: SBS
    Broadcast period: 2015-Feb-23 to 2015-???-??
    Air time: Monday & Tuesday 22:00
    Original Soundtrack: Heard It Through the Grapevine OST
    http://thetvdb.com/?tab=series&id=292813&

    Synopsis
    This is a black-comedy drama depicting a prestigious family whose lives are suddenly shaken because of a rumor about their teenage son impregnating his schoolmate.

    Choi Yun Hee and Han Jung Ho are a wealthy couple from a prestigious family. Their reputation suddenly turned upside down because of their son's relationship with an ordinary girl. The girl, Seo Bom, determined to endure the humiliation and isolation from the family for the sake of her child's future while the son, Han In Sang, struggles between his love for Seo Bom and his family's high expectation.

    Cast
    Han Jung Ho's family
    Yoo Joon Sang as Han Jung Ho (47)
    Yoo Ho Jung as Choi Yun Hee (45)
    Lee Joon as Han In Sang (18)
    Park So Young as Han Yi Ji (16)








    Code
    Video
    ID                                       : 0
    Format                                   : MPEG-4 Visual
    Format profile                           : Advanced Simple@L5
    Format settings, BVOP                    : No
    Format settings, QPel                    : No
    Format settings, GMC                     : No warppoints
    Format settings, Matrix                  : Default (MPEG)
    Codec ID                                 : XVID
    Codec ID/Hint                            : XviD
    Duration                                 : 1h 6mn
    Bit rate                                 : 1 391 Kbps
    Width                                    : 624 pixels
    Height                                   : 352 pixels
    Display aspect ratio                     : 16:9
    Frame rate                               : 29.970 fps
    Color space                              : YUV
    Chroma subsampling                       : 4:2:0
    Bit depth                                : 8 bits
    Scan type                                : Progressive
    Compression mode                         : Lossy
    Bits/(Pixel*Frame)                       : 0.211
    Stream size                              : 660 MiB (87%)
    Writing library                          : XviD 1.2.1 (UTC 2008-12-04)

    Audio
    ID                                       : 1
    Format                                   : MPEG Audio
    Format version                           : Version 1
    Format profile                           : Layer 3
    Mode                                     : Joint stereo
    Mode extension                           : MS Stereo
    Codec ID                                 : 55
    Codec ID/Hint                            : MP3
    Duration                                 : 1h 6mn
    Bit rate mode                            : Constant
    Bit rate                                 : 128 Kbps
    Channel(s)                               : 2 channels
    Sampling rate                            : 48.0 KHz
    Compression mode                         : Lossy
    Stream size                              : 60.8 MiB (8%)
    Alignment                                : Aligned on interleaves
    Writing library                          : LAME3.98.2



    0 0

    Original Post: Heard it Through the Grapevine E28 450p LIMO

    Details
    Title: 풍문으로 들었소 / Poongmooneuro Deuleoss-so
    Also known as: Heard It as a Rumor / I Heard a Rumor
    Previously known as: War of Brilliant Minds
    Genre: Family, drama, romance, black comedy
    Episodes: 32
    Broadcast network: SBS
    Broadcast period: 2015-Feb-23 to 2015-???-??
    Air time: Monday & Tuesday 22:00
    Original Soundtrack: Heard It Through the Grapevine OST
    http://thetvdb.com/?tab=series&id=292813&

    Synopsis
    This is a black-comedy drama depicting a prestigious family whose lives are suddenly shaken because of a rumor about their teenage son impregnating his schoolmate.

    Choi Yun Hee and Han Jung Ho are a wealthy couple from a prestigious family. Their reputation suddenly turned upside down because of their son's relationship with an ordinary girl. The girl, Seo Bom, determined to endure the humiliation and isolation from the family for the sake of her child's future while the son, Han In Sang, struggles between his love for Seo Bom and his family's high expectation.

    Cast
    Han Jung Ho's family
    Yoo Joon Sang as Han Jung Ho (47)
    Yoo Ho Jung as Choi Yun Hee (45)
    Lee Joon as Han In Sang (18)
    Park So Young as Han Yi Ji (16)








    Code
    Video
    ID                                       : 0
    Format                                   : AVC
    Format/Info                              : Advanced Video Codec
    Format profile                           : High@L5.1
    Format settings, CABAC                   : Yes
    Format settings, ReFrames                : 4 frames
    Codec ID                                 : H264
    Bit rate                                 : 1 500 Kbps
    Width                                    : 800 pixels
    Height                                   : 450 pixels
    Display aspect ratio                     : 16:9
    Frame rate mode                          : Variable
    Frame rate                               : 29.970 fps
    Color space                              : YUV
    Chroma subsampling                       : 4:2:0
    Bit depth                                : 8 bits
    Scan type                                : Progressive
    Bits/(Pixel*Frame)                       : 0.139
    Stream size                              : 686 MiB (88%)
    Writing library                          : x264 core 112

    Audio
    ID                                       : 1
    Format                                   : MPEG Audio
    Format version                           : Version 1
    Format profile                           : Layer 3
    Mode                                     : Joint stereo
    Mode extension                           : MS Stereo
    Codec ID                                 : 55
    Codec ID/Hint                            : MP3
    Bit rate mode                            : Constant
    Bit rate                                 : 192 Kbps
    Channel(s)                               : 2 channels
    Sampling rate                            : 48.0 KHz
    Compression mode                         : Lossy
    Stream size                              : 88.3 MiB (11%)
    Alignment                                : Aligned on interleaves
    Interleave, duration                     : 24 ms (0.72 video frame)
    Writing library                          : LAME3.98.2
    Language                                 : Korean



    0 0

    Original Post: Heard it Through the Grapevine E28 720p LIMO

    Details
    Title: 풍문으로 들었소 / Poongmooneuro Deuleoss-so
    Also known as: Heard It as a Rumor / I Heard a Rumor
    Previously known as: War of Brilliant Minds
    Genre: Family, drama, romance, black comedy
    Episodes: 32
    Broadcast network: SBS
    Broadcast period: 2015-Feb-23 to 2015-???-??
    Air time: Monday & Tuesday 22:00
    Original Soundtrack: Heard It Through the Grapevine OST
    http://thetvdb.com/?tab=series&id=292813&

    Synopsis
    This is a black-comedy drama depicting a prestigious family whose lives are suddenly shaken because of a rumor about their teenage son impregnating his schoolmate.

    Choi Yun Hee and Han Jung Ho are a wealthy couple from a prestigious family. Their reputation suddenly turned upside down because of their son's relationship with an ordinary girl. The girl, Seo Bom, determined to endure the humiliation and isolation from the family for the sake of her child's future while the son, Han In Sang, struggles between his love for Seo Bom and his family's high expectation.

    Cast
    Han Jung Ho's family
    Yoo Joon Sang as Han Jung Ho (47)
    Yoo Ho Jung as Choi Yun Hee (45)
    Lee Joon as Han In Sang (18)
    Park So Young as Han Yi Ji (16)







    Code
    Video
    ID                             : 0
    Format                         : AVC
    Format/Info                    : Advanced Video Codec
    Format profile                 : High@L5.1
    Format settings, CABAC         : Yes
    Format settings, ReFrames      : 4 frames
    Codec ID                       : H264
    Duration                       : 1h 14mn
    Bit rate                       : 3 000 Kbps
    Width                          : 1 280 pixels
    Height                         : 720 pixels
    Display aspect ratio           : 16:9
    Frame rate mode                : Variable
    Frame rate                     : 29.970 fps
    Color space                    : YUV
    Chroma subsampling             : 4:2:0
    Bit depth                      : 8 bits
    Scan type                      : Progressive
    Bits/(Pixel*Frame)             : 0.109
    Stream size                    : 1.57 GiB (94%)
    Writing library                : x264 core 112
    Encoding settings              : cabac=1 / ref=3 / deblock=1:-1:-1 / analyse=0x3:0x113 / me=hex / subme=6 / psy=1 / psy_rd=1.00:1.00 / mixed_ref=1 / me_range=16 / chroma_me=1 / trellis=1 / 8x8dct=1 / cqm=0 / deadzone=21,11 / fast_pskip=0 / chroma_qp_offset=-4 / threads=12 / sliced_threads=0 / nr=0 / decimate=1 / interlaced=0 / constrained_intra=0 / bframes=3 / b_pyramid=2 / b_adapt=1 / b_bias=1 / direct=3 / weightb=1 / open_gop=0 / weightp=2 / keyint=299 / keyint_min=25 / scenecut=1 / intra_refresh=0 / rc_lookahead=40 / rc=abr / mbtree=1 / bitrate=3000 / ratetol=1.0 / qcomp=0.60 / qpmin=10 / qpmax=51 / qpstep=4 / ip_ratio=1.40 / aq=1:1.00

    Audio
    ID                             : 1
    Format                         : MPEG Audio
    Format version                 : Version 1
    Format profile                 : Layer 3
    Mode                           : Joint stereo
    Mode extension                 : MS Stereo
    Codec ID                       : 55
    Codec ID/Hint                  : MP3
    Duration                       : 1h 14mn
    Bit rate mode                  : Constant
    Bit rate                       : 192 Kbps
    Channel(s)                     : 2 channels
    Sampling rate                  : 48.0 KHz
    Compression mode               : Lossy
    Stream size                    : 102 MiB (6%)
    Alignment                      : Split accross interleaves
    Interleave, duration           : 33 ms (1.00 video frame)
    Interleave, preload duration   : 500 ms
    Writing library                : LAME3.98



    0 0

    Original Post: Minna! ESPer Dayo! (2013) 720p Complete (hardsubbed)



    http://wiki.d-addicts.com/Minna!_ESPer_Dayo!
    http://asianwiki.com/All_Esper_Dayo!_-_Drama

    Title:みんな!エスパーだよ!
    Romaji: Minna! ESPer Dayo!
    Format: Renzoku
    Genre: Mystery
    Episodes: 12
    Broadcast network: TV Tokyo
    Broadcast period: 2013-Apr-12 to 2013-Jul-05
    Air time: Friday 24:12
    Theme song: (Where's)THE SILENT MAJORITY by Takahashi Yu
    Language: Japanese
    Country: Japan
    Subtitles: English (hardsubbed)
    all credit goes to AozoraSubs+H!F
    special thanks to SacredCultivator


    Cast
       Sometani Shota as Kamogawa Yoshiro
       Kaho as Hirano Miyuki
       Mano Erina as Asami Sae
       Yasuda Ken as Mysterious Teacher
       Kagurazaka Megumi (神楽坂恵) as Akiyama Takako
       Fukami Motoki as Enomoto Yosuke
       Masaki Reiya as Yabe Naoya
       Suzunosuke as Ishizaki
       Makita Sports as Nagano Terumitsu
       Mogi Kenichiro (茂木健一郎[) as Mogi Kenichiro
       Tsutsui Mariko as Yoshiro's Mom
       Ijiri Okada (イジリー岡田) as Yoshiro's Dad
       Arai Elly (新井エリー) as Indecent woman
       Aizome Kyoko (愛染恭子) as Obachan
       Kurihara Rui (栗原類) as Mitsuru
       Emoto Tokio as Yasu
       Takeda Kohei as Ezaki
       Sato Yoshiki (斎藤嘉樹) as Takeshi
       Tada Masashi (多田昌史) as Kazuo
       Nakao Akiyoshi as Kazama
       Kurihara Hirotaka (栗原寛孝) as Kouji
       Yamanaka Yusuke (山中雄輔) as Masaru
       Adam Torel (アダム・トレル) as Sergei
       Itoh Sairi as Yuko
       Murata Yui (村田唯) as Rena
       Yashiba Toshihiro as Hayashi-sensei
       Ishikawa Yuya (石川ゆうや) as Kumagaya-sensei
       Morita Ayaka as Natsume-sensei

    Synopsis
    Adapted from the popular manga, this drama is set in the town of Higashimikawa in the prefecture of Ehime and is about Kamogawa Yoshiro, an average teenager, with no special talents nor outstanding abilities. Until one day, he could suddenly hear other people's thoughts. He could tell that Hayashi-sensei harbors some ulterior motive when it comes to dealing with the new transfer student, Asami Sae. Yoshiro admires Asami, and thus with his newfound powers, he intends to protect her from Hayashi sensei. With that "I shall protect you" thought, came another, "I shall save the world!". Later that day, at the Cafe where he often hangs out, he realises that his childhood friend, Hirano Miyuki, and the Cafe owner, Nagano Terumitsu, have also acquired new powers. Meanwhile, upon hearing the news of how many townspeople are suddenly acquiring special powers, the mysterious teacher and his assistant decide to move to the town of Higashimikawa... ~ TV Tokyo

    General
    Complete name                  : [AozoraSubs+H!F] Minna! ESPer Dayo! - 01 (1280x720).mp4
    Format                         : MPEG-4
    Format profile                 : Base Media
    Codec ID                       : isom
    File size                      : 367 MiB
    Duration                       : 29mn 9s
    Overall bit rate mode          : Variable
    Overall bit rate               : 1 759 Kbps

    Video
    ID                             : 1
    Format                         : AVC
    Format/Info                    : Advanced Video Codec
    Format profile                 : High@L4.1
    Format settings, CABAC         : Yes
    Format settings, ReFrames      : 5 frames
    Codec ID                       : avc1
    Codec ID/Info                  : Advanced Video Coding
    Duration                       : 29mn 9s
    Bit rate                       : 1 627 Kbps
    Maximum bit rate               : 5 754 Kbps
    Width                          : 1 280 pixels
    Height                         : 720 pixels
    Display aspect ratio           : 16:9
    Frame rate mode                : Constant
    Frame rate                     : 29.970 fps
    Color space                    : YUV
    Chroma subsampling             : 4:2:0
    Bit depth                      : 8 bits
    Scan type                      : Progressive
    Bits/(Pixel*Frame)             : 0.059
    Stream size                    : 339 MiB (92%)

    Audio
    ID                             : 2
    Format                         : AAC
    Format/Info                    : Advanced Audio Codec
    Format profile                 : LC
    Codec ID                       : 40
    Duration                       : 29mn 9s
    Bit rate mode                  : Variable
    Bit rate                       : 128 Kbps
    Maximum bit rate               : 159 Kbps
    Channel(s)                     : 2 channels
    Channel positions              : Front: L R
    Sampling rate                  : 48.0 KHz
    Compression mode               : Lossy







older | 1 | .... | 1351 | 1352 | (Page 1353) | 1354 | 1355 | .... | 1405 | newer