Are you the publisher? Claim or contact us about this channel


Embed this content in your HTML

Search

Report adult content:

click to rate:

Account: (login)

More Channels


Showcase


Channel Catalog


Channel Description:

Asia Torrents RSS Feed

older | 1 | .... | 1354 | 1355 | (Page 1356) | 1357 | 1358 | .... | 1405 | newer

    0 0

    Original Post: Flower.of.Algernon.EP07.720p.HDTV.x264.AAC-DoA

    http://wiki.d-addicts.com/Algernon_ni_Hanataba_wo_%282015%29
    http://asianwiki.com/Flowers_for_Algernon_%28Japanese_Drama%29
    http://thetvdb.com/?tab=series&id=293168&lid=7

    Title: アルジャーノンに花束を
    Title (romaji): Algernon ni Hanataba wo
    Also known as: Flowers for Algernon
    Format: Renzoku
    Genre: Drama
    Episodes: 10
    Broadcast network: TBS
    Broadcast period: 2015-Apr-10 to 2015-Jun-12
    Air time: Friday 22:00
    Related TV shows: Algernon ni Hanataba wo (Fuji TV, 2002), Hello, God (KBS2, 2006)
    Language: Japanese
    Country: Japan
    Subtitles: English here: areea-chan
    RAW credit to DoA

    Cast
       Yamashita Tomohisa as Shiratori Sakuto
       Kuriyama Chiaki as Mochizuki Haruka
       Kubota Masataka as Yanagawa Ryuichi
       Kudo Asuka (工藤阿須加)
       Kikuchi Fuma
       Tanimura Mitsuki
       Oomasa Aya
       Kaai Gamon
       Ishida Issei
       Kusakari Tamiyo
       Nakahara Takeo (special appearance)
       Hagiwara Masato
       Ishimaru Kanji as Hachisuka Daigo

    Synopsis
    Shiratori Sakuto is 28, but has the intelligence of a 6-year-old boy. He works for Dream Flower Service, a flower distribution centre which provides employment for problem youth. One day, he and a colleague, Yanagawa Ryuichi, delivers a rose bouquet to the apartment building where Mochizuki Haruka lives. Because Haruka does not know that the deliveryman is mentally challenged, she is shocked by his response and tries to call the police. Haruka works for a brain physiology research centre where Professor Hachisuka Daigo has been studying the improvement of mental performance. He has succeeded in lab experiments on a white mouse called Algernon. Sakuto is transformed into a genius through surgery. But Algernon's new intelligence begins to fade, and he dies. Sakuto realises that his genius, too, is destined to leave him.

    General
    Complete name                  : Flower.of.Algernon.EP07.720p.HDTV.x264.AAC-DoA.mkv
    Format                         : Matroska
    Format version                 : Version 4 / Version 2
    File size                      : 828 MiB
    Duration                       : 46mn 34s
    Overall bit rate               : 2 485 Kbps

    Video
    ID                             : 1
    Format                         : AVC
    Format/Info                    : Advanced Video Codec
    Format profile                 : High@L4.1
    Format settings, CABAC         : Yes
    Format settings, ReFrames      : 9 frames
    Codec ID                       : V_MPEG4/ISO/AVC
    Duration                       : 46mn 34s
    Width                          : 1 280 pixels
    Height                         : 720 pixels
    Display aspect ratio           : 16:9
    Frame rate mode                : Constant
    Frame rate                     : 29.970 fps
    Color space                    : YUV
    Chroma subsampling             : 4:2:0
    Bit depth                      : 8 bits
    Scan type                      : Progressive
    Title                          : Encode by DoA

    Audio
    ID                             : 2
    Format                         : AAC
    Format/Info                    : Advanced Audio Codec
    Format profile                 : LC
    Codec ID                       : A_AAC
    Duration                       : 46mn 34s
    Channel count                  : 2 channels
    Channel positions              : Front: L R
    Sampling rate                  : 48.0 KHz
    Compression mode               : Lossy







    0 0
  • 05/28/15--05:27: Dr. Rintaro ep07 480p
  • Original Post: Dr. Rintaro ep07 480p

    http://wiki.d-addicts.com/Dr._Rintaro
    http://asianwiki.com/Dr._Rintaro
    http://thetvdb.com/?tab=series&id=293875&lid=7

    Title: Dr.倫太郎
    Title (romaji): Dr. Rintaro
    Format: Renzoku
    Genre: Medical
    Episodes: 10
    Broadcast network: NTV
    Broadcast period: 2015-Apr-15 to 2015-Jun-17
    Air time: Wednesday 22:00
    Language: Japanese
    Country: Japan
    Subtitles: English here: torachan2006 (members only)
    RAW credit to furransu

    Cast
       Sakai Masato as Hino Rintaro
       Aoi Yu as Yumeno
       Kichise Michiko as Mizushima Yuriko
       Uchida Yuki as Kiryuu Kaoru
       Takanashi Rin as Kawakami Yoko
       Takahashi Issei as Fukuhara Daisaku
       Matobu Sei as Yabe Machiko
       Nakanishi Miho (中西美帆) as Koyume
       Yo Kimiko as Masuda Ikumi
       Endo Kenichi as Araki Shigeto
       Sakai Wakana as Nakahata Madoka
       Nagatsuka Keishi (長塚圭史) as Miyagawa Takahiro
       Matsushige Yutaka as Hasumi Eisuke
       Ishibashi Renji as Ike Masayuki
       Takahata Atsuko as Aizawa Ruriko
       Kohinata Fumiyo as Ennouji Kazuo

    Synopsis
    His name is Hino Rintaro. He listens closely to the aching hearts of people and relieves them of their pain. He is published and makes television appearances. The number of people waiting to receive his consultation continues to grow. Despite his achievements, Dr. Rintaro falls short in one department: love. He even dismisses it by saying “Falling in love is just like a passing mental illness.” One day, during a meal with the president of the university, Rintaro meets a woman. Her name is Yumeno, a highly sought-after geisha in Shimbashi. Little did Rintaro know that this encounter would drastically change his life. ~ NTV

    General
    Complete name                  : Dr. Rintaro ep07 (848x480 x264).mp4
    Format                         : MPEG-4
    Format profile                 : Base Media
    Codec ID                       : isom
    File size                      : 268 MiB
    Duration                       : 51mn 19s
    Overall bit rate mode          : Variable
    Overall bit rate               : 731 Kbps

    Video
    ID                             : 1
    Format                         : AVC
    Format/Info                    : Advanced Video Codec
    Format profile                 : High@L4.1
    Format settings, CABAC         : Yes
    Format settings, ReFrames      : 4 frames
    Codec ID                       : avc1
    Codec ID/Info                  : Advanced Video Coding
    Duration                       : 51mn 19s
    Bit rate                       : 598 Kbps
    Maximum bit rate               : 2 248 Kbps
    Width                          : 848 pixels
    Height                         : 480 pixels
    Display aspect ratio           : 16:9
    Frame rate mode                : Constant
    Frame rate                     : 29.970 fps
    Color space                    : YUV
    Chroma subsampling             : 4:2:0
    Bit depth                      : 8 bits
    Scan type                      : Progressive
    Bits/(Pixel*Frame)             : 0.049
    Stream size                    : 220 MiB (82%)

    Audio
    ID                             : 2
    Format                         : AAC
    Format/Info                    : Advanced Audio Codec
    Format profile                 : LC
    Codec ID                       : 40
    Duration                       : 51mn 19s
    Bit rate mode                  : Variable
    Bit rate                       : 128 Kbps
    Maximum bit rate               : 137 Kbps
    Channel count                  : 2 channels
    Channel positions              : Front: L R
    Sampling rate                  : 48.0 KHz
    Compression mode               : Lossy







    0 0

    Original Post: TVB Wudang Rules E02 HDTV H264 1080p TVBDO [Chi/Eng DVB Subs]



    If you like my upload, please press the "Thank You" buttoncool2.gif

    English Title: Wudang Rules
    Chinese Title:潮拜武當
    Network: TVB
    Release Date: May 25, 2015
    Episodes: 20
    Country: Hong Kong
    Audio: Cantonese (AC-3 6 Channels)
    Subtitles: Chinese, English (DVB Subtitles)
    Genre: Modern, Wu Xia
    Cast: Chin Siu Ho, Yuen Chau, Tavia Yeung, Derek Kwok, Timmy Hung, Jonathan Cheung, Toby Leung, Jason Chan, Hinson Chow, Regen Cheung

    Synopsis: Bao Gai Chung (Chin Siu Ho) used to be an undercover cop; however after an extreme setback, who moves himself to the Wudang Mountains, where he meets his senior, Mo Yee San (Yuen Chau). Yi San runs an inn and teaches martial arts; she lets Gai Chung stay with her to work as a cook and Ho Jing Dong (Derek Kwok) who has a mysterious background.






    If you like my upload, please press the "Thank You" buttoncool2.gif


    Code

    General
    ID                                       : 1 (0x1)
    Complete name                            : Wudang.Rules.Ep02.HDTV.1080p.H264-TVBDO.ts
    Format                                   : MPEG-TS
    File size                                : 2.67 GiB
    Duration                                 : 44mn 6s
    Overall bit rate mode                    : Variable
    Overall bit rate                         : 8 672 Kbps

    Video
    ID                                       : 851 (0x353)
    Menu ID                                  : 1 (0x1)
    Format                                   : AVC
    Format/Info                              : Advanced Video Codec
    Format profile                           : High@L4.1
    Format settings, CABAC                   : Yes
    Format settings, ReFrames                : 3 frames
    Codec ID                                 : 27
    Duration                                 : 44mn 6s
    Bit rate mode                            : Constant
    Bit rate                                 : 8 000 Kbps
    Width                                    : 1 920 pixels
    Height                                   : 1 080 pixels
    Display aspect ratio                     : 16:9
    Frame rate                               : 25.000 fps
    Standard                                 : PAL
    Color space                              : YUV
    Chroma subsampling                       : 4:2:0
    Bit depth                                : 8 bits
    Scan type                                : Progressive
    Bits/(Pixel*Frame)                       : 0.154
    Stream size                              : 2.42 GiB (91%)
    Color primaries                          : BT.709
    Transfer characteristics                 : BT.709
    Matrix coefficients                      : BT.709
    Color range                              : Limited

    Audio
    ID                                       : 853 (0x355)
    Menu ID                                  : 1 (0x1)
    Format                                   : AC-3
    Format/Info                              : Audio Coding 3
    Mode extension                           : CM (complete main)
    Format settings, Endianness              : Big
    Codec ID                                 : 6
    Duration                                 : 44mn 6s
    Bit rate mode                            : Constant
    Bit rate                                 : 384 Kbps
    Channel(s)                               : 6 channels
    Channel positions                        : Front: L C R, Side: L R, LFE
    Sampling rate                            : 48.0 KHz
    Bit depth                                : 16 bits
    Compression mode                         : Lossy
    Stream size                              : 121 MiB (4%)
    Language                                 : English

    Text #1
    ID                                       : 855 (0x357)
    Menu ID                                  : 1 (0x1)
    Format                                   : DVB Subtitle
    Codec ID                                 : 6
    Language                                 : Chinese

    Text #2
    ID                                       : 856 (0x358)
    Menu ID                                  : 1 (0x1)
    Format                                   : DVB Subtitle
    Codec ID                                 : 6
    Language                                 : English

    Text #3
    ID                                       : 857 (0x359)
    Menu ID                                  : 1 (0x1)
    Format                                   : DVB Subtitle
    Codec ID                                 : 6
    Language                                 : chs



    *** I recommend using Media Player Classic for playback since these are DVB Subtitles***


    0 0

    Original Post: Kokoro ga Pokkito ne ep08 480p

    http://wiki.d-addicts.com/Kokoro_ga_Pokitto_ne
    http://thetvdb.com/?tab=series&id=294579&lid=7

    Title: 心がポキッとね
    Title (romaji): Kokoro ga Pokitto ne
    Also known as: Crazy for Me
    Format: Renzoku
    Genre: Love comedy
    Episodes: 10
    Broadcast network: Fuji TV
    Broadcast period: 2015-Apr-08 to 2015-Jun-10
    Air time: Wednesday 22:00
    Theme song: SUN by Hoshino Gen
    Language: Japanese
    Country: Japan
    Subtitles: will be added when available
    RAW credit to furransu

    Cast
       Abe Sadao as Kojima Haruta
       Mizuhara Kiko as Hayama Miyako
       Fujiki Naohito as Otake Shin
       Yamaguchi Tomoko as Kamoda Shizuka
       Tokunaga Eri as Itoyama Fumi
       Yamashita Rio as Makino Eriko
       Nagase Tasuku
       Ikezu Shoko
       Yamanishi Atsushi (山西惇)

    Synopsis
    Set in Tokyo, the story follows Kojima Haruta, a 40-year-old man who hits the rock bottom as he fell mentally ill which led him to lose his job, family, and even a place to live. After a certain turn of events, Haruta encounters Otake Shin, the owner of an antique furniture shop who takes Haruta in and hires him as a furniture repairman in the shop. Touched by such kindness, Haruta promised himself to try to put his life back together but kept himself isolated in order to avoid any additional stress being created. However, things suddenly starts to change as Haruta encounters Hayama Miyako, a 26-year-old woman who has a tendency to become overly dependent and extremely obsessed with a man she falls in love with... ~ Fuji TV

    General
    Complete name                  : Kokoro ga Pokkito ne ep08 (848x480 x264).mp4
    Format                         : MPEG-4
    Format profile                 : Base Media
    Codec ID                       : isom
    File size                      : 414 MiB
    Duration                       : 46mn 24s
    Overall bit rate mode          : Variable
    Overall bit rate               : 1 246 Kbps

    Video
    ID                             : 1
    Format                         : AVC
    Format/Info                    : Advanced Video Codec
    Format profile                 : High@L4.1
    Format settings, CABAC         : Yes
    Format settings, ReFrames      : 4 frames
    Codec ID                       : avc1
    Codec ID/Info                  : Advanced Video Coding
    Duration                       : 46mn 24s
    Bit rate                       : 1 114 Kbps
    Maximum bit rate               : 7 977 Kbps
    Width                          : 848 pixels
    Height                         : 480 pixels
    Display aspect ratio           : 16:9
    Frame rate mode                : Constant
    Frame rate                     : 29.970 fps
    Color space                    : YUV
    Chroma subsampling             : 4:2:0
    Bit depth                      : 8 bits
    Scan type                      : Progressive
    Bits/(Pixel*Frame)             : 0.091
    Stream size                    : 370 MiB (89%)

    Audio
    ID                             : 2
    Format                         : AAC
    Format/Info                    : Advanced Audio Codec
    Format profile                 : LC
    Codec ID                       : 40
    Duration                       : 46mn 24s
    Bit rate mode                  : Variable
    Bit rate                       : 128 Kbps
    Maximum bit rate               : 133 Kbps
    Channel count                  : 2 channels
    Channel positions              : Front: L R
    Sampling rate                  : 48.0 KHz
    Compression mode               : Lossy







    0 0

    Original Post: [Mini Album] SEVENTEEN – 17 CARAT [1st Mini Album]



    [EP] 세븐틴 – Seventeen 1st Mini Album ’17 Carat’
    Release Date: 2015.05.29
    Genre: Dance
    Language: Korean
    Bit Rate: MP3-320kbps
    credit to k2nblog

    Pledis Entertainment, the agency of After School and NU’EST, is debuting the new boy band Seventeen. The group has been on the fan radar for a long time thanks to the pre-debut show Seventeen TV which followed the members as trainees, and their debut process is being documented in the MBC Music reality program Seventeen Project. The 13-member group is formed by S.coups, Hoshi, Jeong Han, Vernon, THE8, Woozi, Min Gyu, DK, Won Woo, Seung Kwan, Jun, Dino and Joshua.The boys’ debut mini-album 17 Carat features five tracks including the title song “I Cherish You” and Shining Diamond.

    Track List:

    01. Shining Diamond
    02. 아낀다 (Adore U)
    03. Ah Yeah
    04. Jam Jam
    05. 20



    0 0

    Original Post: Producer.E05.150529.HDTV.X264-LIMO

    http://thetvdb.com/?tab=series&id=294814
    Details
    Title: 프로듀사 / Peurodyusa
    Genre: Drama
    Episodes: 12
    Broadcast network: KBS2
    Broadcast period: 2015-May-15 to 2015-Jun-20
    Air time: Friday & Saturday 21:15
    Original Soundtrack: Producer OST

    Synopsis
    A group of young television producers — Ra Jun Mo (Cha Tae Hyun), Baek Sung Chan (Kim Soo Hyun), Tak Ye Ji (Gong Hyo Jin), and Cindy (IU) — work tirelessly around the clock within the entertainment division of a major broadcasting network. Amidst their dynamic and challenging workloads, serious drama reaches new heights in this backstage glimpse of the people who make television magic happen.

    Main Cast
    Cha Tae Hyun as Ra Joon Mo (35, 2 Days & 1 Night's PD)
    Kim Soo Hyun as Baek Seung Chan (27, KBS Entertainment World newbie PD)
    Gong Hyo Jin as Tak Ye Jin (35, Music Bank's PD)
    IU as Cindy (23, singer)










    Code
    Video
    ID                             : 1
    Format                         : AVC
    Format/Info                    : Advanced Video Codec
    Format profile                 : Main@L4.0
    Format settings, CABAC         : Yes
    Format settings, ReFrames      : 4 frames
    Codec ID                       : V_MPEG4/ISO/AVC
    Duration                       : 58mn 44s
    Bit rate                       : 450 Kbps
    Width                          : 624 pixels
    Height                         : 350 pixels
    Display aspect ratio           : 16:9
    Frame rate mode                : Constant
    Frame rate                     : 29.970 fps
    Color space                    : YUV
    Chroma subsampling             : 4:2:0
    Bit depth                      : 8 bits
    Scan type                      : Progressive
    Bits/(Pixel*Frame)             : 0.069
    Stream size                    : 190 MiB (76%)
    Writing library                : x264 core 130 r2273 b3065e6
    Encoding settings              : cabac=1 / ref=1 / deblock=1:0:0 / analyse=0x1:0x111 / me=hex / subme=2 / psy=1 / psy_rd=1.00:0.00 / mixed_ref=0 / me_range=16 / chroma_me=1 / trellis=0 / 8x8dct=0 / cqm=0 / deadzone=21,11 / fast_pskip=1 / chroma_qp_offset=0 / threads=1 / lookahead_threads=1 / sliced_threads=0 / nr=0 / decimate=1 / interlaced=0 / bluray_compat=0 / constrained_intra=0 / bframes=3 / b_pyramid=2 / b_adapt=1 / b_bias=0 / direct=1 / weightb=1 / open_gop=0 / weightp=1 / keyint=300 / keyint_min=30 / scenecut=40 / intra_refresh=0 / rc_lookahead=10 / rc=abr / mbtree=1 / bitrate=450 / ratetol=1.0 / qcomp=0.60 / qpmin=0 / qpmax=69 / qpstep=4 / vbv_maxrate=20000 / vbv_bufsize=25000 / nal_hrd=none / ip_ratio=1.40 / aq=1:1.00
    Language                       : English
    Default                        : Yes
    Forced                         : No
    Color primaries                : BT.601 NTSC
    Transfer characteristics       : BT.709
    Matrix coefficients            : BT.601

    Audio
    ID                             : 2
    Format                         : MPEG Audio
    Format version                 : Version 1
    Format profile                 : Layer 3
    Mode                           : Joint stereo
    Mode extension                 : MS Stereo
    Codec ID                       : A_MPEG/L3
    Codec ID/Hint                  : MP3
    Duration                       : 58mn 44s
    Bit rate mode                  : Constant
    Bit rate                       : 128 Kbps
    Channel(s)                     : 2 channels
    Sampling rate                  : 48.0 KHz
    Compression mode               : Lossy
    Stream size                    : 53.8 MiB (22%)
    Default                        : Yes
    Forced                         : No



    0 0

    Original Post: Producer.E05.150529.HDTV.H264.450p-LIMO

    http://thetvdb.com/?tab=series&id=294814
    Details
    Title: 프로듀사 / Peurodyusa
    Genre: Drama
    Episodes: 12
    Broadcast network: KBS2
    Broadcast period: 2015-May-15 to 2015-Jun-20
    Air time: Friday & Saturday 21:15
    Original Soundtrack: Producer OST

    Synopsis
    A group of young television producers — Ra Jun Mo (Cha Tae Hyun), Baek Sung Chan (Kim Soo Hyun), Tak Ye Ji (Gong Hyo Jin), and Cindy (IU) — work tirelessly around the clock within the entertainment division of a major broadcasting network. Amidst their dynamic and challenging workloads, serious drama reaches new heights in this backstage glimpse of the people who make television magic happen.

    Main Cast
    Cha Tae Hyun as Ra Joon Mo (35, 2 Days & 1 Night's PD)
    Kim Soo Hyun as Baek Seung Chan (27, KBS Entertainment World newbie PD)
    Gong Hyo Jin as Tak Ye Jin (35, Music Bank's PD)
    IU as Cindy (23, singer)










    Code
    Video
    ID                               : 0
    Format                           : AVC
    Format/Info                      : Advanced Video Codec
    Format profile                   : High@L5.1
    Format settings, CABAC           : Yes
    Format settings, ReFrames        : 4 frames
    Codec ID                         : H264
    Duration                         : 1h 4mn
    Bit rate                         : 3 000 Kbps
    Width                            : 1 280 pixels
    Height                           : 720 pixels
    Display aspect ratio             : 16:9
    Frame rate mode                  : Variable
    Frame rate                       : 29.970 fps
    Color space                      : YUV
    Chroma subsampling               : 4:2:0
    Bit depth                        : 8 bits
    Scan type                        : Progressive
    Bits/(Pixel*Frame)               : 0.109
    Stream size                      : 1.35 GiB (94%)
    Writing library                  : x264 core 112
    Encoding settings                : cabac=1 / ref=3 / deblock=1:-1:-1 / analyse=0x3:0x113 / me=hex / subme=6 / psy=1 / psy_rd=1.00:1.00 / mixed_ref=1 / me_range=16 / chroma_me=1 / trellis=1 / 8x8dct=1 / cqm=0 / deadzone=21,11 / fast_pskip=0 / chroma_qp_offset=-4 / threads=12 / sliced_threads=0 / nr=0 / decimate=1 / interlaced=0 / constrained_intra=0 / bframes=3 / b_pyramid=2 / b_adapt=1 / b_bias=1 / direct=3 / weightb=1 / open_gop=0 / weightp=2 / keyint=299 / keyint_min=25 / scenecut=1 / intra_refresh=0 / rc_lookahead=40 / rc=abr / mbtree=1 / bitrate=3000 / ratetol=1.0 / qcomp=0.60 / qpmin=10 / qpmax=51 / qpstep=4 / ip_ratio=1.40 / aq=1:1.00

    Audio
    ID                               : 1
    Format                           : MPEG Audio
    Format version                   : Version 1
    Format profile                   : Layer 3
    Mode                             : Joint stereo
    Mode extension                   : MS Stereo
    Codec ID                         : 55
    Codec ID/Hint                    : MP3
    Duration                         : 1h 4mn
    Bit rate mode                    : Constant
    Bit rate                         : 192 Kbps
    Channel(s)                       : 2 channels
    Sampling rate                    : 48.0 KHz
    Stream size                      : 88.0 MiB (6%)
    Alignment                        : Split accross interleaves
    Interleave, duration             : 33 ms (1.00 video frame)
    Interleave, preload duration     : 500 ms
    Writing library                  : LAME3.98.2



    0 0

    Original Post: Producer.E05.150529.HDTV.H264.720p-LIMO

    http://thetvdb.com/?tab=series&id=294814
    Details
    Title: 프로듀사 / Peurodyusa
    Genre: Drama
    Episodes: 12
    Broadcast network: KBS2
    Broadcast period: 2015-May-15 to 2015-Jun-20
    Air time: Friday & Saturday 21:15
    Original Soundtrack: Producer OST

    Synopsis
    A group of young television producers — Ra Jun Mo (Cha Tae Hyun), Baek Sung Chan (Kim Soo Hyun), Tak Ye Ji (Gong Hyo Jin), and Cindy (IU) — work tirelessly around the clock within the entertainment division of a major broadcasting network. Amidst their dynamic and challenging workloads, serious drama reaches new heights in this backstage glimpse of the people who make television magic happen.

    Main Cast
    Cha Tae Hyun as Ra Joon Mo (35, 2 Days & 1 Night's PD)
    Kim Soo Hyun as Baek Seung Chan (27, KBS Entertainment World newbie PD)
    Gong Hyo Jin as Tak Ye Jin (35, Music Bank's PD)
    IU as Cindy (23, singer)










    Code
    Video
    ID                               : 0
    Format                           : AVC
    Format/Info                      : Advanced Video Codec
    Format profile                   : High@L5.1
    Format settings, CABAC           : Yes
    Format settings, ReFrames        : 4 frames
    Codec ID                         : H264
    Duration                         : 1h 4mn
    Bit rate                         : 3 000 Kbps
    Width                            : 1 280 pixels
    Height                           : 720 pixels
    Display aspect ratio             : 16:9
    Frame rate mode                  : Variable
    Frame rate                       : 29.970 fps
    Color space                      : YUV
    Chroma subsampling               : 4:2:0
    Bit depth                        : 8 bits
    Scan type                        : Progressive
    Bits/(Pixel*Frame)               : 0.109
    Stream size                      : 1.35 GiB (94%)
    Writing library                  : x264 core 112
    Encoding settings                : cabac=1 / ref=3 / deblock=1:-1:-1 / analyse=0x3:0x113 / me=hex / subme=6 / psy=1 / psy_rd=1.00:1.00 / mixed_ref=1 / me_range=16 / chroma_me=1 / trellis=1 / 8x8dct=1 / cqm=0 / deadzone=21,11 / fast_pskip=0 / chroma_qp_offset=-4 / threads=12 / sliced_threads=0 / nr=0 / decimate=1 / interlaced=0 / constrained_intra=0 / bframes=3 / b_pyramid=2 / b_adapt=1 / b_bias=1 / direct=3 / weightb=1 / open_gop=0 / weightp=2 / keyint=299 / keyint_min=25 / scenecut=1 / intra_refresh=0 / rc_lookahead=40 / rc=abr / mbtree=1 / bitrate=3000 / ratetol=1.0 / qcomp=0.60 / qpmin=10 / qpmax=51 / qpstep=4 / ip_ratio=1.40 / aq=1:1.00

    Audio
    ID                               : 1
    Format                           : MPEG Audio
    Format version                   : Version 1
    Format profile                   : Layer 3
    Mode                             : Joint stereo
    Mode extension                   : MS Stereo
    Codec ID                         : 55
    Codec ID/Hint                    : MP3
    Duration                         : 1h 4mn
    Bit rate mode                    : Constant
    Bit rate                         : 192 Kbps
    Channel(s)                       : 2 channels
    Sampling rate                    : 48.0 KHz
    Stream size                      : 88.0 MiB (6%)
    Alignment                        : Split accross interleaves
    Interleave, duration             : 33 ms (1.00 video frame)
    Interleave, preload duration     : 500 ms
    Writing library                  : LAME3.98.2



    0 0

    Original Post: My.Love.Eun.Dong.E01.150529.HDTV.XviD-WITH

    http://thetvdb.com/index.php?tab=series&id=296108
    Subtitles will be added later

    The story of Eun-Ho, a man who has it all, but the love of Eun-Dong, the woman whom he has been loving for the past 20 years,, unable to forget her.









    Code
    Video
    ID                                       : 0
    Format                                   : MPEG-4 Visual
    Format profile                           : Advanced Simple@L5
    Format settings, BVOP                    : 2
    Format settings, QPel                    : No
    Format settings, GMC                     : No warppoints
    Format settings, Matrix                  : Default (H.263)
    Muxing mode                              : Packed bitstream
    Codec ID                                 : XVID
    Codec ID/Hint                            : XviD
    Duration                                 : 1h 2mn
    Bit rate                                 : 1 237 Kbps
    Width                                    : 640 pixels
    Height                                   : 352 pixels
    Display aspect ratio                     : 16:9
    Frame rate                               : 29.970 fps
    Color space                              : YUV
    Chroma subsampling                       : 4:2:0
    Bit depth                                : 8 bits
    Scan type                                : Progressive
    Compression mode                         : Lossy
    Bits/(Pixel*Frame)                       : 0.183
    Stream size                              : 550 MiB (90%)
    Writing library                          : XviD 58

    Audio
    ID                                       : 1
    Format                                   : MPEG Audio
    Format version                           : Version 1
    Format profile                           : Layer 3
    Mode                                     : Joint stereo
    Mode extension                           : MS Stereo
    Codec ID                                 : 55
    Codec ID/Hint                            : MP3
    Duration                                 : 1h 2mn
    Bit rate mode                            : Constant
    Bit rate                                 : 128 Kbps
    Channel(s)                               : 2 channels
    Sampling rate                            : 48.0 KHz
    Compression mode                         : Lossy
    Stream size                              : 56.9 MiB (9%)
    Alignment                                : Aligned on interleaves
    Interleave, duration                     : 33 ms (1.00 video frame)
    Interleave, preload duration             : 504 ms



    0 0

    Original Post: My.Love.Eun.Dong.E01.150529.HDTV.H264.720p-WITH

    http://thetvdb.com/index.php?tab=series&id=296108
    Subtitles will be added later

    The story of Eun-Ho, a man who has it all, but the love of Eun-Dong, the woman whom he has been loving for the past 20 years,, unable to forget her.









    Code
    Video
    ID                                       : 1
    Format                                   : AVC
    Format/Info                              : Advanced Video Codec
    Format profile                           : Baseline@L1.3
    Format settings, CABAC                   : No
    Format settings, ReFrames                : 1 frame
    Codec ID                                 : avc1
    Codec ID/Info                            : Advanced Video Coding
    Duration                                 : 1h 3mn
    Bit rate                                 : 2 200 Kbps
    Maximum bit rate                         : 6 012 Kbps
    Width                                    : 1 280 pixels
    Height                                   : 720 pixels
    Display aspect ratio                     : 16:9
    Frame rate mode                          : Constant
    Frame rate                               : 29.970 fps
    Color space                              : YUV
    Chroma subsampling                       : 4:2:0
    Bit depth                                : 8 bits
    Scan type                                : Progressive
    Bits/(Pixel*Frame)                       : 0.080
    Stream size                              : 1 018 MiB (90%)
    Writing library                          : x264 core 128 r2216 198a7ea
    Encoding settings                        : cabac=0 / ref=1 / deblock=1:0:0 / analyse=0x1:0x111 / me=hex / subme=7 / psy=1 / psy_rd=1.00:0.00 / mixed_ref=0 / me_range=16 / chroma_me=1 / trellis=1 / 8x8dct=0 / cqm=0 / deadzone=21,11 / fast_pskip=1 / chroma_qp_offset=-2 / threads=12 / lookahead_threads=2 / sliced_threads=0 / nr=0 / decimate=1 / interlaced=0 / bluray_compat=0 / constrained_intra=0 / bframes=0 / weightp=0 / keyint=250 / keyint_min=25 / scenecut=40 / intra_refresh=0 / rc_lookahead=40 / rc=abr / mbtree=1 / bitrate=2200 / ratetol=1.0 / qcomp=0.60 / qpmin=0 / qpmax=69 / qpstep=4 / vbv_maxrate=50000 / vbv_bufsize=50000 / nal_hrd=none / ip_ratio=1.40 / aq=1:1.00


    Audio
    ID                                       : 2
    Format                                   : AAC
    Format/Info                              : Advanced Audio Codec
    Format profile                           : LC
    Codec ID                                 : 40
    Duration                                 : 1h 3mn
    Bit rate mode                            : Variable
    Bit rate                                 : 256 Kbps
    Maximum bit rate                         : 262 Kbps
    Channel(s)                               : 2 channels
    Channel positions                        : Front: L R
    Sampling rate                            : 48.0 KHz
    Compression mode                         : Lossy
    Stream size                              : 117 MiB (10%)



    0 0

    Original Post: Orange.Marmalade.E04.150529.HDTV.X264-LIMO

    http://www.thetvdb.com/?tab=series&id=295007
    Details
    Title: 오렌지마말레이드 / Orenji Marmaleideu
    Genre: School, fantasy, romance
    Episodes: 12
    Broadcast network: KBS2
    Broadcast period: 2015-May-15 to 2015-???-??
    Air time: Friday 22:35
    Original Soundtrack: Orange Marmalade OST

    Synopsis
    Despite a 200-year-old treaty between humans and vampires, both races still don't get along. Amidst the looming tension, Jung Jae Min (Yeo Jin Goo), a posh yet kindhearted high school student, quickly falls for the mysterious new girl Baek Ma Ri (Seol Hyun). But can Ma Ri conceal her true vampire identity and give love an honest chance? If these star-crossed lovers can find the courage to make the leap, Jae Min and Ma Ri may just be the key to a final resolution between humans and vampires...

    Main Cast
    Yeo Jin Goo as Jung Jae Min (18)
    Kim Seol Hyun as Baek Ma Ri (18)
    Lee Jong Hyun as Han Shi Hoo (18)
    Gil Eun Hye as Jo Ah Ra (18)










    Code
    Video
    ID                             : 1
    Format                         : AVC
    Format/Info                    : Advanced Video Codec
    Format profile                 : Main@L4.0
    Format settings, CABAC         : Yes
    Format settings, ReFrames      : 4 frames
    Codec ID                       : V_MPEG4/ISO/AVC
    Duration                       : 58mn 44s
    Bit rate                       : 450 Kbps
    Width                          : 624 pixels
    Height                         : 350 pixels
    Display aspect ratio           : 16:9
    Frame rate mode                : Constant
    Frame rate                     : 29.970 fps
    Color space                    : YUV
    Chroma subsampling             : 4:2:0
    Bit depth                      : 8 bits
    Scan type                      : Progressive
    Bits/(Pixel*Frame)             : 0.069
    Stream size                    : 190 MiB (76%)
    Writing library                : x264 core 130 r2273 b3065e6
    Encoding settings              : cabac=1 / ref=1 / deblock=1:0:0 / analyse=0x1:0x111 / me=hex / subme=2 / psy=1 / psy_rd=1.00:0.00 / mixed_ref=0 / me_range=16 / chroma_me=1 / trellis=0 / 8x8dct=0 / cqm=0 / deadzone=21,11 / fast_pskip=1 / chroma_qp_offset=0 / threads=1 / lookahead_threads=1 / sliced_threads=0 / nr=0 / decimate=1 / interlaced=0 / bluray_compat=0 / constrained_intra=0 / bframes=3 / b_pyramid=2 / b_adapt=1 / b_bias=0 / direct=1 / weightb=1 / open_gop=0 / weightp=1 / keyint=300 / keyint_min=30 / scenecut=40 / intra_refresh=0 / rc_lookahead=10 / rc=abr / mbtree=1 / bitrate=450 / ratetol=1.0 / qcomp=0.60 / qpmin=0 / qpmax=69 / qpstep=4 / vbv_maxrate=20000 / vbv_bufsize=25000 / nal_hrd=none / ip_ratio=1.40 / aq=1:1.00
    Language                       : English
    Default                        : Yes
    Forced                         : No
    Color primaries                : BT.601 NTSC
    Transfer characteristics       : BT.709
    Matrix coefficients            : BT.601

    Audio
    ID                             : 2
    Format                         : MPEG Audio
    Format version                 : Version 1
    Format profile                 : Layer 3
    Mode                           : Joint stereo
    Mode extension                 : MS Stereo
    Codec ID                       : A_MPEG/L3
    Codec ID/Hint                  : MP3
    Duration                       : 58mn 44s
    Bit rate mode                  : Constant
    Bit rate                       : 128 Kbps
    Channel(s)                     : 2 channels
    Sampling rate                  : 48.0 KHz
    Compression mode               : Lossy
    Stream size                    : 53.8 MiB (22%)
    Default                        : Yes
    Forced                         : No



    0 0

    Original Post: Orange.Marmalade.E04.150529.HDTV.H264.450p-LIMO

    http://www.thetvdb.com/?tab=series&id=295007
    Details
    Title: 오렌지마말레이드 / Orenji Marmaleideu
    Genre: School, fantasy, romance
    Episodes: 12
    Broadcast network: KBS2
    Broadcast period: 2015-May-15 to 2015-???-??
    Air time: Friday 22:35
    Original Soundtrack: Orange Marmalade OST

    Synopsis
    Despite a 200-year-old treaty between humans and vampires, both races still don't get along. Amidst the looming tension, Jung Jae Min (Yeo Jin Goo), a posh yet kindhearted high school student, quickly falls for the mysterious new girl Baek Ma Ri (Seol Hyun). But can Ma Ri conceal her true vampire identity and give love an honest chance? If these star-crossed lovers can find the courage to make the leap, Jae Min and Ma Ri may just be the key to a final resolution between humans and vampires...

    Main Cast
    Yeo Jin Goo as Jung Jae Min (18)
    Kim Seol Hyun as Baek Ma Ri (18)
    Lee Jong Hyun as Han Shi Hoo (18)
    Gil Eun Hye as Jo Ah Ra (18)










    Code
    Video
    ID                                       : 0
    Format                                   : AVC
    Format/Info                              : Advanced Video Codec
    Format profile                           : High@L5.1
    Format settings, CABAC                   : Yes
    Format settings, ReFrames                : 4 frames
    Codec ID                                 : H264
    Bit rate                                 : 1 500 Kbps
    Width                                    : 800 pixels
    Height                                   : 450 pixels
    Display aspect ratio                     : 16:9
    Frame rate mode                          : Variable
    Frame rate                               : 29.970 fps
    Color space                              : YUV
    Chroma subsampling                       : 4:2:0
    Bit depth                                : 8 bits
    Scan type                                : Progressive
    Bits/(Pixel*Frame)                       : 0.139
    Stream size                              : 686 MiB (88%)
    Writing library                          : x264 core 112

    Audio
    ID                                       : 1
    Format                                   : MPEG Audio
    Format version                           : Version 1
    Format profile                           : Layer 3
    Mode                                     : Joint stereo
    Mode extension                           : MS Stereo
    Codec ID                                 : 55
    Codec ID/Hint                            : MP3
    Bit rate mode                            : Constant
    Bit rate                                 : 192 Kbps
    Channel(s)                               : 2 channels
    Sampling rate                            : 48.0 KHz
    Compression mode                         : Lossy
    Stream size                              : 88.3 MiB (11%)
    Alignment                                : Aligned on interleaves
    Interleave, duration                     : 24 ms (0.72 video frame)
    Writing library                          : LAME3.98.2
    Language                                 : Korean



    0 0

    Original Post: Orange.Marmalade.E04.150529.HDTV.H264.720p-LIMO

    http://www.thetvdb.com/?tab=series&id=295007
    Details
    Title: 오렌지마말레이드 / Orenji Marmaleideu
    Genre: School, fantasy, romance
    Episodes: 12
    Broadcast network: KBS2
    Broadcast period: 2015-May-15 to 2015-???-??
    Air time: Friday 22:35
    Original Soundtrack: Orange Marmalade OST

    Synopsis
    Despite a 200-year-old treaty between humans and vampires, both races still don't get along. Amidst the looming tension, Jung Jae Min (Yeo Jin Goo), a posh yet kindhearted high school student, quickly falls for the mysterious new girl Baek Ma Ri (Seol Hyun). But can Ma Ri conceal her true vampire identity and give love an honest chance? If these star-crossed lovers can find the courage to make the leap, Jae Min and Ma Ri may just be the key to a final resolution between humans and vampires...

    Main Cast
    Yeo Jin Goo as Jung Jae Min (18)
    Kim Seol Hyun as Baek Ma Ri (18)
    Lee Jong Hyun as Han Shi Hoo (18)
    Gil Eun Hye as Jo Ah Ra (18)










    Code
    Video
    ID                               : 0
    Format                           : AVC
    Format/Info                      : Advanced Video Codec
    Format profile                   : High@L5.1
    Format settings, CABAC           : Yes
    Format settings, ReFrames        : 4 frames
    Codec ID                         : H264
    Duration                         : 1h 4mn
    Bit rate                         : 3 000 Kbps
    Width                            : 1 280 pixels
    Height                           : 720 pixels
    Display aspect ratio             : 16:9
    Frame rate mode                  : Variable
    Frame rate                       : 29.970 fps
    Color space                      : YUV
    Chroma subsampling               : 4:2:0
    Bit depth                        : 8 bits
    Scan type                        : Progressive
    Bits/(Pixel*Frame)               : 0.109
    Stream size                      : 1.35 GiB (94%)
    Writing library                  : x264 core 112
    Encoding settings                : cabac=1 / ref=3 / deblock=1:-1:-1 / analyse=0x3:0x113 / me=hex / subme=6 / psy=1 / psy_rd=1.00:1.00 / mixed_ref=1 / me_range=16 / chroma_me=1 / trellis=1 / 8x8dct=1 / cqm=0 / deadzone=21,11 / fast_pskip=0 / chroma_qp_offset=-4 / threads=12 / sliced_threads=0 / nr=0 / decimate=1 / interlaced=0 / constrained_intra=0 / bframes=3 / b_pyramid=2 / b_adapt=1 / b_bias=1 / direct=3 / weightb=1 / open_gop=0 / weightp=2 / keyint=299 / keyint_min=25 / scenecut=1 / intra_refresh=0 / rc_lookahead=40 / rc=abr / mbtree=1 / bitrate=3000 / ratetol=1.0 / qcomp=0.60 / qpmin=10 / qpmax=51 / qpstep=4 / ip_ratio=1.40 / aq=1:1.00

    Audio
    ID                               : 1
    Format                           : MPEG Audio
    Format version                   : Version 1
    Format profile                   : Layer 3
    Mode                             : Joint stereo
    Mode extension                   : MS Stereo
    Codec ID                         : 55
    Codec ID/Hint                    : MP3
    Duration                         : 1h 4mn
    Bit rate mode                    : Constant
    Bit rate                         : 192 Kbps
    Channel(s)                       : 2 channels
    Sampling rate                    : 48.0 KHz
    Stream size                      : 88.0 MiB (6%)
    Alignment                        : Split accross interleaves
    Interleave, duration             : 33 ms (1.00 video frame)
    Interleave, preload duration     : 500 ms
    Writing library                  : LAME3.98.2



    0 0

    Original Post: Ex-Girlfriend's.Club.E07.150529.HDTV.XviD-WITH

    http://thetvdb.com/index.php?tab=series&id=294484
    Details
    Title: 구여친클럽 / Guyeochinkeulleob
    Genre: Romance, Comedy
    Episodes: TBA
    Broadcast network: tvN
    Broadcast period: 2015-May-8 to TBA
    Air time: Friday & Saturday 20:30
    Original Soundtrack: Ex-Girlfriend Club OST
    Synopsis
    The story centered around a famous webtoon writer named Bang Myung Soo (Byun Yo Han) that write webtoon based on his past relationship with all his ex-girlfriends. Kim Soo Jin (Song Ji Hyo) is a producer who is assigned to make his webtoon into a movie.

    Cast
    Song Ji Hyo as Kim Soo Jin (32)
    Byun Yo Han as Bang Myung Soo (32)
    Lee Yoon Ji as Jang Hwa Young (31, Myung Soo's first love)
    Jang Ji Eun (장지은) as Na Ji Ah (34, Myung Soo's second love)
    Ryu Hwa Young as Ra Ra (27, Myung Soo's third love)









    Code
    Video
    ID                                       : 0
    Format                                   : MPEG-4 Visual
    Format profile                           : Advanced Simple@L5
    Format settings, BVOP                    : 2
    Format settings, QPel                    : No
    Format settings, GMC                     : No warppoints
    Format settings, Matrix                  : Default (H.263)
    Muxing mode                              : Packed bitstream
    Codec ID                                 : XVID
    Codec ID/Hint                            : XviD
    Duration                                 : 58mn 22s
    Bit rate                                 : 1 239 Kbps
    Width                                    : 640 pixels
    Height                                   : 352 pixels
    Display aspect ratio                     : 16:9
    Frame rate                               : 29.970 fps
    Color space                              : YUV
    Chroma subsampling                       : 4:2:0
    Bit depth                                : 8 bits
    Scan type                                : Progressive
    Compression mode                         : Lossy
    Bits/(Pixel*Frame)                       : 0.184
    Stream size                              : 517 MiB (90%)
    Writing library                          : XviD 58

    Audio
    ID                                       : 1
    Format                                   : MPEG Audio
    Format version                           : Version 1
    Format profile                           : Layer 3
    Mode                                     : Joint stereo
    Mode extension                           : MS Stereo
    Codec ID                                 : 55
    Codec ID/Hint                            : MP3
    Duration                                 : 58mn 22s
    Bit rate mode                            : Constant
    Bit rate                                 : 128 Kbps
    Channel(s)                               : 2 channels
    Sampling rate                            : 48.0 KHz
    Compression mode                         : Lossy
    Stream size                              : 53.4 MiB (9%)
    Alignment                                : Aligned on interleaves
    Interleave, duration                     : 33 ms (1.00 video frame)
    Interleave, preload duration             : 504 ms



    0 0

    Original Post: Ex-Girlfriend's.Club.E07.150529.HDTV.H264.720p-WITH

    http://thetvdb.com/index.php?tab=series&id=294484
    Details
    Title: 구여친클럽 / Guyeochinkeulleob
    Genre: Romance, Comedy
    Episodes: TBA
    Broadcast network: tvN
    Broadcast period: 2015-May-8 to TBA
    Air time: Friday & Saturday 20:30
    Original Soundtrack: Ex-Girlfriend Club OST
    Synopsis
    The story centered around a famous webtoon writer named Bang Myung Soo (Byun Yo Han) that write webtoon based on his past relationship with all his ex-girlfriends. Kim Soo Jin (Song Ji Hyo) is a producer who is assigned to make his webtoon into a movie.

    Cast
    Song Ji Hyo as Kim Soo Jin (32)
    Byun Yo Han as Bang Myung Soo (32)
    Lee Yoon Ji as Jang Hwa Young (31, Myung Soo's first love)
    Jang Ji Eun (장지은) as Na Ji Ah (34, Myung Soo's second love)
    Ryu Hwa Young as Ra Ra (27, Myung Soo's third love)










    Code
    Video
    ID                                       : 1
    Format                                   : AVC
    Format/Info                              : Advanced Video Codec
    Format profile                           : Baseline@L1.3
    Format settings, CABAC                   : No
    Format settings, ReFrames                : 1 frame
    Codec ID                                 : avc1
    Codec ID/Info                            : Advanced Video Coding
    Duration                                 : 58mn 22s
    Bit rate                                 : 2 200 Kbps
    Maximum bit rate                         : 5 302 Kbps
    Width                                    : 1 280 pixels
    Height                                   : 720 pixels
    Display aspect ratio                     : 16:9
    Frame rate mode                          : Constant
    Frame rate                               : 29.970 fps
    Color space                              : YUV
    Chroma subsampling                       : 4:2:0
    Bit depth                                : 8 bits
    Scan type                                : Progressive
    Bits/(Pixel*Frame)                       : 0.080
    Stream size                              : 922 MiB (90%)
    Writing library                          : x264 core 128 r2216 198a7ea
    Encoding settings                        : cabac=0 / ref=1 / deblock=1:0:0 / analyse=0x1:0x111 / me=hex / subme=7 / psy=1 / psy_rd=1.00:0.00 / mixed_ref=0 / me_range=16 / chroma_me=1 / trellis=1 / 8x8dct=0 / cqm=0 / deadzone=21,11 / fast_pskip=1 / chroma_qp_offset=-2 / threads=12 / lookahead_threads=2 / sliced_threads=0 / nr=0 / decimate=1 / interlaced=0 / bluray_compat=0 / constrained_intra=0 / bframes=0 / weightp=0 / keyint=250 / keyint_min=25 / scenecut=40 / intra_refresh=0 / rc_lookahead=40 / rc=abr / mbtree=1 / bitrate=2200 / ratetol=1.0 / qcomp=0.60 / qpmin=0 / qpmax=69 / qpstep=4 / vbv_maxrate=50000 / vbv_bufsize=50000 / nal_hrd=none / ip_ratio=1.40 / aq=1:1.00
    Encoded date                             : UTC 2015-05-08 12:47:49
    Tagged date                              : UTC 2015-05-08 12:52:53

    Audio
    ID                                       : 2
    Format                                   : AAC
    Format/Info                              : Advanced Audio Codec
    Format profile                           : LC
    Codec ID                                 : 40
    Duration                                 : 58mn 22s
    Bit rate mode                            : Variable
    Bit rate                                 : 256 Kbps
    Maximum bit rate                         : 262 Kbps
    Channel(s)                               : 2 channels
    Channel positions                        : Front: L R
    Sampling rate                            : 48.0 KHz
    Compression mode                         : Lossy
    Stream size                              : 107 MiB (10%)
    Encoded date                             : UTC 2015-05-08 12:52:48
    Tagged date                              : UTC 2015-05-08 12:52:53



    0 0

    Original Post: Hong Gil Dong (1998) SDTV Complete go^^

    Title:홍길동 / Hong Gil Dong (1998)
    Genre: Romance, action, drama
    Episodes: 16
    Broadcast network: SBS
    Broadcast period: 1998-Jul-22 to 1998-Sep-10
    Air time: Wednesday & Thursday 21:55
    Subtitles:NONE

    Synopsis
    Based on a fictional book about a Robin Hood in Korea, Hong Gildong, this drama is very loosely based off of that book and the time it was set in.

    Cast
    Kim Suk Hoon as Hong Gil Dong
    Kim Won Hee as Kim In Wook
    Park Sang Ah as Seol Hee
    Lee Jong Won as Woo Yong Doo
    Lee Duk Hwa as Im Sung Joong
    Kim Sang Joong as Lee Eop
    No Young Kook as Wang
    Kim Gyu Chul as 왕의 이복동생
    Yoo Tae Woong as 임성중의 충복
    Jun Woon as Hong Gil Dong's father
    Song Kwi Hyun
    Yoo Hyung Kwan
    Lee Kye In
    Yoon Chul Young (윤철영)
    Kim Heung Ki as
    Jung Sung Mo as
    Park Byung Hoon as 홍길동 외조부
    Jo Sung Kyu

    Screenwriter: Jung Se Ho
    Director: Lee Han Ho




    This is old school release, so every episode has got size limit 1CD (700MB), hasn't got fix bitrate.

    Code
    Video
    ID                          : 0
    Format                      : MPEG-4 Visual
    Format profile              : Advanced Simple@L5
    Format settings, BVOP       : 2
    Format settings, QPel       : No
    Format settings, GMC        : No warppoints
    Format settings, Matrix     : Default (H.263)
    Muxing mode                 : Packed bitstream
    Codec ID                    : XVID
    Codec ID/Hint               : XviD
    Duration                    : 44mn 44s
    Bit rate                    : 2 051 Kbps
    Width                       : 640 pixels
    Height                      : 480 pixels
    Display aspect ratio        : 4:3
    Frame rate                  : 29.970 fps
    Color space                 : YUV
    Chroma subsampling          : 4:2:0
    Bit depth                   : 8 bits
    Scan type                   : Progressive
    Compression mode            : Lossy
    Bits/(Pixel*Frame)          : 0.223
    Stream size                 : 656 MiB (94%)
    Writing library             : XviD 1.2.1 (UTC 2008-12-04)

    Audio
    ID                          : 1
    Format                      : AC-3
    Format/Info                 : Audio Coding 3
    Mode extension              : CM (complete main)
    Format settings, Endianness : Big
    Codec ID                    : 2000
    Duration                    : 44mn 44s
    Bit rate mode               : Constant
    Bit rate                    : 128 Kbps
    Channel(s)                  : 2 channels
    Channel positions           : Front: L R
    Sampling rate               : 48.0 KHz
    Compression mode            : Lossy
    Stream size                 : 41.0 MiB (6%)
    Alignment                   : Aligned on interleaves
    Interleave, duration        : 240 ms (7.19 video frames)
    Interleave, preload duratio : 480 ms



    0 0

    Original Post: Various Artists – Missing Noir M Original Score (2CD)



    Various Artists – 실종느와르 M (OCN 토요드라마) Original Score
    Release Date: 2015.05.29
    Genre: OST
    Language: Korean
    Bit Rate: MP3-320kbps
    credit to k2nblog

    Track List:

    - CD1 -
    01. Was Justice Delivered – 노형우
    02. The Beginning – 마상우
    03. Puzzle – 노형우
    04. The Box Of Pandora – 마상우
    05. Detective Oh ; On The Move – 노형우
    06. The Kidnap – 마상우
    07. Anybody There – 마상우
    08. He Did It Again – 노형우
    09. Gil Soo Hyun ; Finding Way – 노형우
    10. Time Limit – 마상우
    11. Gil Soo Hyun ; Gazing In The Dark – 노형우
    12. Tell Me Why – 이태현 [OST]
    13. The Sound Of Slience – 이태현 [OST]
    14. Labyrinth – 노형우
    15. Dead End – 노형우
    16. Brainstorming – 마상우
    17. Law And Justice – 주인로

    - CD2 -
    01. Classified Information – 마상우
    02. Memory Of Murder – 노형우
    03. Gil Soo Hyun ; Insomnia – 노형우
    04. Intended Disappearance – 주인로
    05. Detective Oh ; Struggle – 노형우
    06. Good Detective – 마상우
    07. Message From The Suspect – 마상우
    08. Time To Choose – 노형우
    09. Need Help – 마상우
    10. Something To Talk About – 노형우
    11. Sacrifice – 마상우
    12. This Is Personal – 노형우
    13. Duel – 노형우
    14. Memories – 주인로
    15. Story Of The Victim – 노형우
    16. Way Back – 마상우
    17. Was Justice Delvered (TV ver.) – 노형우


    0 0
  • 05/29/15--07:08: No One Is Innocent (1981)
  • Original Post: No One Is Innocent (1981)

    Title: No One Is Innocent
    Revised romanization: Jok gor juk
    Hangul: 逐个捉
    Director: Johnnie To, Clarence Fok
    Release Date: 1981
    Runtime: 10 x 42-45 mins
    Genre: Comedy | Mystery
    Language: Cantonese
    Country: Hong Kong
    Subtitles: None
    IMDB URL: http://www.imdb.com/title/tt0816227/

    Cast: Shi Jian, Summer, Carol Cheng, Louise Lee, Wong Man, Dengbi Yun, Lam Ka Wah, Stanley Fung, Zhang Guoqiang, Chen goods, Yu Ming, Lo Hoi-Pang, Liu Guocheng,  Huang Wenhui, Paul Chun, Chen Boshen, Chen Fusheng

    Synopsis:  Zhuangzhi Ren (Shi Jian) is a handsome Hong Kong film industry tycoon, who has just returned from traveling abroad, after he personally supervised the production of a new movie. Sexy actress Ha Lamlam (Carol 'Do Do' Cheng), new martial arts film actor Muscle (Ka Wah Lam), entertainment reporter Monatan (Shui-Fan Fung), female director Ni Jinhua (Dengbi Yun) and Red White Hibiscus (Louise Lee) learned and of this, and hoping to find a
    benefit in Zhuangzhi Ren, they have requested to meet.

    On Zhuangzhi's attorney's arrangements, everyone is invited to the villa resort located on the outlying islands. The private detective's investigation into the landlady for payment of wages to Zhuangzhi Ren, also comes up. Monatan suspects Zhuangzhi Ren of seducing his wife, so he brings along a variety of special instruments of death, ready to kill Zhuangzhi Ren in the villa, to clear off his wife's hate.

    Unexpectedly, after everyone reaches the villa, they find a large house which from time to time is heard bursts of strange sounds, but even more bizarre is the sudden disappearance of the village, which with everyone on the island already divided into factions, grow more suspicious, and panic.













    General
    Unique ID                                : 205640935636924697385370174423790657432 (0x9AB500EA31511C068A9D2FF875FE1F98)
    Complete name                            : No.One.Is.Innocent.1981.E01.TVRip.AAC.x264-isyljj.mkv
    Format                                   : Matroska
    Format version                           : Version 2
    File size                                : 351 MiB
    Duration                                 : 44mn 26s
    Overall bit rate                         : 1 104 Kbps
    Encoded date                             : UTC 2012-09-13 08:51:26
    Writing application                      : mkvmerge v2.9.0 ('Moanin'') built on May 22 2009 17:46:31
    Writing library                          : libebml v0.7.7 + libmatroska v0.8.1

    Video
    ID                                       : 1
    Format                                   : AVC
    Format/Info                              : Advanced Video Codec
    Format profile                           : High@L4.1
    Format settings, CABAC                   : Yes
    Format settings, ReFrames                : 2 frames
    Codec ID                                 : V_MPEG4/ISO/AVC
    Duration                                 : 44mn 26s
    Nominal bit rate                         : 910 Kbps
    Width                                    : 720 pixels
    Height                                   : 540 pixels
    Display aspect ratio                     : 4:3
    Frame rate mode                          : Constant
    Frame rate                               : 25.000 fps
    Color space                              : YUV
    Chroma subsampling                       : 4:2:0
    Bit depth                                : 8 bits
    Scan type                                : Progressive
    Bits/(Pixel*Frame)                       : 0.094
    Writing library                          : x264 core 67 r1162M f7bfcfa
    Encoding settings                        : cabac=1 / ref=1 / deblock=0:0:0 / analyse=0x3:0x113 / me=dia / subme=2 / psy_rd=0.0:0.0 / mixed_ref=0 / me_range=16 / chroma_me=1 / trellis=2 / 8x8dct=1 / cqm=0 / deadzone=21,11 / chroma_qp_offset=0 / threads=3 / nr=0 / decimate=1 / mbaff=0 / bframes=1 / b_pyramid=0 / b_adapt=1 / b_bias=0 / direct=3 / wpredb=0 / keyint=250 / keyint_min=25 / scenecut=20 / rc=abr / bitrate=910 / ratetol=1.0 / qcomp=0.60 / qpmin=10 / qpmax=51 / qpstep=4 / ip_ratio=1.40 / pb_ratio=1.30 / aq=1:1.00
    Default                                  : Yes
    Forced                                   : No

    Audio
    ID                                       : 2
    Format                                   : AAC
    Format/Info                              : Advanced Audio Codec
    Format profile                           : LC
    Codec ID                                 : A_AAC
    Duration                                 : 44mn 26s
    Channel(s)                               : 2 channels
    Channel positions                        : Front: L R
    Sampling rate                            : 44.1 KHz
    Compression mode                         : Lossy
    Default                                  : Yes
    Forced                                   : No

    Menu
    00:00:00.059                             : en:00:00:00.059


    0 0

    Original Post: Let's.Eat.S2.E14.150519.HDTV.XviD-WITH

    http://thetvdb.com/?tab=series&id=275850
    Title: ??? ??? 2 / Siksyareul Habsida 2
    Episodes: 18
    Broadcast period: 2015-Apr-06 to 2015-???-??
    Air time: Monday & Tuesday 23:00
    Original soundtrack: Let's Eat 2 OST


    Synopsis
    Goo Dae youngs rivals have appeared! Food blogger Goo Dae young, the fourth year freelancer, Bae Soo ji on one meal per day diet, who regards him as an enemy, and the vegetarian government worker, Lee Sang Woo. This drama depicts the spicy and tasteful lives of the single dwellers in Sejong Villa, who has each ones own unique taste

    Cast
    Yoon Doo Joon as Goo Dae Young
    Seo Hyun Jin as Baek Soo Ji
    Kwon Yool as Lee Sang Woo
    Kim Hee Won as Im Taek Soo
    Hwang Seung Eon as Hwang Hye Rim
    Jo Eun Ji as Hong In Ah
    Hwang Suk Jung as Kim Mo Ran
    Lee Joo Seung as mysterious man









    Code
    Video
    ID                                       : 0
    Format                                   : MPEG-4 Visual
    Format profile                           : Advanced Simple@L5
    Format settings, BVOP                    : No
    Format settings, QPel                    : No
    Format settings, GMC                     : No warppoints
    Format settings, Matrix                  : Default (MPEG)
    Codec ID                                 : XVID
    Codec ID/Hint                            : XviD
    Bit rate                                 : 1 391 Kbps
    Width                                    : 624 pixels
    Height                                   : 352 pixels
    Display aspect ratio                     : 16:9
    Frame rate                               : 29.970 fps
    Color space                              : YUV
    Chroma subsampling                       : 4:2:0
    Bit depth                                : 8 bits
    Scan type                                : Progressive
    Compression mode                         : Lossy
    Bits/(Pixel*Frame)                       : 0.211
    Stream size                              : 660 MiB (87%)
    Writing library                          : XviD 1.2.1 (UTC 2008-12-04)

    Audio
    ID                                       : 1
    Format                                   : MPEG Audio
    Format version                           : Version 1
    Format profile                           : Layer 3
    Mode                                     : Joint stereo
    Mode extension                           : MS Stereo
    Codec ID                                 : 55
    Codec ID/Hint                            : MP3
    Bit rate mode                            : Constant
    Bit rate                                 : 128 Kbps
    Channel(s)                               : 2 channels
    Sampling rate                            : 48.0 KHz
    Compression mode                         : Lossy
    Stream size                              : 60.8 MiB (8%)
    Alignment                                : Aligned on interleaves
    Writing library                          : LAME3.98.2



    0 0

    Original Post: Let's.Eat.S2.E14.150519.HDTV.H264.720p-WITH

    http://thetvdb.com/?tab=series&id=275850
    Title: 식샤를 합시다 2 / Siksyareul Habsida 2
    Episodes: 18
    Broadcast period: 2015-Apr-06 to 2015-???-??
    Air time: Monday & Tuesday 23:00
    Original soundtrack: Let's Eat 2 OST


    Synopsis
    Goo Dae youngs rivals have appeared! Food blogger Goo Dae young, the fourth year freelancer, Bae Soo ji on one meal per day diet, who regards him as an enemy, and the vegetarian government worker, Lee Sang Woo. This drama depicts the spicy and tasteful lives of the single dwellers in Sejong Villa, who has each one’s own unique taste

    Cast
    Yoon Doo Joon as Goo Dae Young
    Seo Hyun Jin as Baek Soo Ji
    Kwon Yool as Lee Sang Woo
    Kim Hee Won as Im Taek Soo
    Hwang Seung Eon as Hwang Hye Rim
    Jo Eun Ji as Hong In Ah
    Hwang Suk Jung as Kim Mo Ran
    Lee Joo Seung as mysterious man









    Code
    Video
    ID                                       : 0
    Format                                   : AVC
    Format/Info                              : Advanced Video Codec
    Format profile                           : Baseline@L3.1
    Format settings, CABAC                   : No
    Format settings, ReFrames                : 1 frame
    Codec ID                                 : H264
    Bit rate                                 : 3 017 Kbps
    Width                                    : 1 280 pixels
    Height                                   : 720 pixels
    Display aspect ratio                     : 16:9
    Frame rate mode                          : Variable
    Frame rate                               : 29.970 fps
    Color space                              : YUV
    Chroma subsampling                       : 4:2:0
    Bit depth                                : 8 bits
    Scan type                                : Progressive
    Bits/(Pixel*Frame)                       : 0.109

    Audio
    ID                                       : 1
    Format                                   : MPEG Audio
    Format version                           : Version 1
    Format profile                           : Layer 3
    Mode                                     : Joint stereo
    Mode extension                           : MS Stereo
    Codec ID                                 : 55
    Codec ID/Hint                            : MP3
    Bit rate mode                            : Constant
    Bit rate                                 : 128 Kbps
    Channel(s)                               : 2 channels
    Sampling rate                            : 44.1 KHz
    Compression mode                         : Lossy
    Stream size                              : 62.1 MiB (4%)
    Alignment                                : Aligned on interleaves
    Interleave, duration                     : 26 ms (0.78 video frame)
    Writing library                          : LAME3.98.2



older | 1 | .... | 1354 | 1355 | (Page 1356) | 1357 | 1358 | .... | 1405 | newer