Are you the publisher? Claim or contact us about this channel


Embed this content in your HTML

Search

Report adult content:

click to rate:

Account: (login)

More Channels


Showcase


Channel Catalog


Channel Description:

Asia Torrents RSS Feed

older | 1 | .... | 1356 | 1357 | (Page 1358) | 1359 | 1360 | .... | 1405 | newer

    0 0

    Original Post: Going by the Book (2007) DVDrip x264 AC3



    Title: Going by the Book
    AKA: Bareuge salja
    Original: 바르게 살자
    Director: Ra Hee-chan
    Release Date: 18 October 2007
    Runtime: 102 min.
    Genre: Comedy, Crime, Drama
    Language: Korean
    Country: South Korea
    Subtitles: English
    Source: DVD9 uploaded by lingyi to ADC
    IMDB URL: http://www.imdb.com/title/tt1193460

    Produced & written by Jang Jin

    Cast: Jung Jae-Young, Son Byung-Ho, Uhm Soo-Jung, Lee Young-Eun, Ko Chang-Seok

    Synopsis: Jung Do-man is a low-ranking traffic cop whose tendency to do things "by the book" sometimes gets him in trouble, such as when he pulls over his new boss, newly instated police chief Lee Seung-man, and issues him with a traffic ticket. Though surprised and annoyed by the unexpected fine, the police chief has bigger problems; the town of Sampo has been hit by a string of bank robberies, and to reassure the public he decides to carry out a realistic drill which will demonstrate the police force's capability.




















    Mediainfo :
    Format                                   : Matroska
    Format version                           : Version 2
    File size                                : 1.47 GiB
    Duration                                 : 1h 43mn
    Overall bit rate                         : 2 036 Kbps
    Writing application                      : HandBrake 0.10.1 2015030800
    Writing library                          : Lavf55.12.0

    Video
    ID                                       : 1
    Format                                   : AVC
    Format/Info                              : Advanced Video Codec
    Format profile                           : High@L3.1
    Format settings, CABAC                   : Yes
    Format settings, ReFrames                : 16 frames
    Codec ID                                 : V_MPEG4/ISO/AVC
    Duration                                 : 1h 43mn
    Bit rate                                 : 1 547 Kbps
    Width                                    : 714 pixels
    Height                                   : 310 pixels
    Display aspect ratio                     : 2.35:1
    Frame rate mode                          : Constant
    Frame rate                               : 23.976 fps
    Color space                              : YUV
    Chroma subsampling                       : 4:2:0
    Bit depth                                : 8 bits
    Scan type                                : Progressive
    Bits/(Pixel*Frame)                       : 0.292
    Stream size                              : 1.11 GiB (76%)
    Writing library                          : x264 core 142 r2479 dd79a61
    Encoding settings                        : cabac=1 / ref=16 / deblock=1:0:0 / analyse=0x3:0x133 / me=umh / subme=10 / psy=1 / psy_rd=1.00:0.00 / mixed_ref=1 / me_range=24 / chroma_me=1 / trellis=2 / 8x8dct=1 / cqm=0 / deadzone=21,11 / fast_pskip=1 / chroma_qp_offset=-2 / threads=6 / lookahead_threads=1 / sliced_threads=0 / nr=0 / decimate=1 / interlaced=0 / bluray_compat=0 / constrained_intra=0 / bframes=8 / b_pyramid=2 / b_adapt=2 / b_bias=0 / direct=3 / weightb=1 / open_gop=0 / weightp=2 / keyint=240 / keyint_min=24 / scenecut=40 / intra_refresh=0 / rc_lookahead=60 / rc=crf / mbtree=1 / crf=15.0 / qcomp=0.60 / qpmin=0 / qpmax=69 / qpstep=4 / ip_ratio=1.40 / aq=1:1.00
    Default                                  : Yes
    Forced                                   : No
    Color primaries                          : BT.601 NTSC
    Transfer characteristics                 : BT.709
    Matrix coefficients                      : BT.601
    Color range                              : Limited

    Audio
    ID                                       : 2
    Format                                   : AC-3
    Format/Info                              : Audio Coding 3
    Mode extension                           : CM (complete main)
    Format settings, Endianness              : Big
    Codec ID                                 : A_AC3
    Duration                                 : 1h 43mn
    Bit rate mode                            : Constant
    Bit rate                                 : 448 Kbps
    Channel(s)                               : 6 channels
    Channel positions                        : Front: L C R, Side: L R, LFE
    Sampling rate                            : 48.0 KHz
    Bit depth                                : 16 bits
    Compression mode                         : Lossy
    Stream size                              : 330 MiB (22%)
    Title                                    : Surround
    Language                                 : Korean
    Default                                  : Yes
    Forced                                   : No



    0 0

    Original Post: Suzuki Koji:Real Horror SP 2015 720p HDTV x264 AAC DoA Complete



    Title (romaji): Real Horror / リアルホラー
    Format: Tanpatsu
    Genre: Horror
    Episodes: 3
    Broadcast network: BS Fuji TV
    Broadcast period: 15 March 2015 start
    Subtitles: None
    RAW credit to DoA

    Cast
    Sei Ashina
    Airi Kamino
    Shidô Nakamura
    Eriko Satô
    Shinji Takeda
    Yûsuke Yamamoto
    Norito Yashima

    Synopsis
    "Ring", "Spiral", "Dark Water" short stories that given by maestro horror world, Suzuki Koji, titled in "Eyes" (Novel by Kadokawa Publishing). The story is lurking in between daily and non-daily ultimate fear. "It was drawn in a scary story that was really full-scale drama of the real horror.
    This 6 different short story collection was worked by some of "gorgeous cast" who delivered the story in a great way.

    Media Info
    Spoiler:show
    Format                                   : Matroska
    Format version                           : Version 4 / Version 2
    File size                                : 1.45 GiB
    Duration                                 : 49mn 59s
    Overall bit rate                         : 4 151 Kbps
    Encoded date                             : UTC 2015-05-14 00:38:19
    Writing application                      : mkvmerge v7.9.0 ('Birds') 64bit
    Writing library                          : libebml v1.3.1 + libmatroska v1.4.2
    DURATION                                 : 00:49:59.552000000
    NUMBER_OF_FRAMES                         : 140604
    NUMBER_OF_BYTES                          : 58179802
    _STATISTICS_WRITING_APP                  : mkvmerge v7.9.0 ('Birds') 64bit
    _STATISTICS_WRITING_DATE_UTC             : 2015-05-14 00:38:19
    _STATISTICS_TAGS                         : BPS DURATION NUMBER_OF_FRAMES NUMBER_OF_BYTES

    Video
    ID                                       : 1
    Format                                   : AVC
    Format/Info                              : Advanced Video Codec
    Format profile                           : High@L4.1
    Format settings, CABAC                   : Yes
    Format settings, ReFrames                : 9 frames
    Codec ID                                 : V_MPEG4/ISO/AVC
    Duration                                 : 49mn 59s
    Width                                    : 1 280 pixels
    Height                                   : 720 pixels
    Display aspect ratio                     : 16:9
    Frame rate mode                          : Constant
    Frame rate                               : 29.970 fps
    Color space                              : YUV
    Chroma subsampling                       : 4:2:0
    Bit depth                                : 8 bits
    Scan type                                : Progressive
    Writing library                          : x264 core 146 r2538kMod 121396c
    Encoding settings                        : cabac=1 / ref=9 / deblock=1:-3:-3 / analyse=0x3:0x133 / me=umh / subme=10 / psy=1 / fade_compensate=0.00 / psy_rd=1.00:0.15 / mixed_ref=1 / me_range=64 / chroma_me=1 / trellis=2 / 8x8dct=1 / cqm=0 / deadzone=21,11 / fast_pskip=0 / chroma_qp_offset=-3 / threads=12 / lookahead_threads=2 / sliced_threads=0 / nr=0 / decimate=1 / interlaced=0 / bluray_compat=0 / constrained_intra=0 / fgo=0 / bframes=8 / b_pyramid=2 / b_adapt=2 / b_bias=0 / direct=3 / weightb=1 / open_gop=0 / weightp=2 / keyint=300 / keyint_min=29 / scenecut=40 / intra_refresh=0 / rc_lookahead=120 / rc=crf / mbtree=1 / crf=18.0000 / qcomp=0.60 / qpmin=0 / qpmax=69 / qpstep=4 / ip_ratio=1.40 / aq=3:1.00
    Default                                  : Yes
    Forced                                   : No

    Audio
    ID                                       : 2
    Format                                   : AAC
    Format/Info                              : Advanced Audio Codec
    Format profile                           : LC
    Codec ID                                 : A_AAC
    Duration                                 : 49mn 59s
    Channel(s)                               : 2 channels
    Channel positions                        : Front: L R
    Sampling rate                            : 48.0 KHz
    Compression mode                         : Lossy
    Delay relative to video                  : 20ms
    Default                                  : Yes
    Forced                                   : No







    0 0
  • 05/30/15--06:00: Fuben na Benriya ep08 480p
  • Original Post: Fuben na Benriya ep08 480p



    http://wiki.d-addicts.com/Fuben_na_Benriya
    http://asianwiki.com/Fuben_na_Benriya
    http://thetvdb.com/?tab=series&id=294580

    Title: 不便な便利屋
    Title (romaji): Fuben na Benriya
    Format: Renzoku
    Genre: Comedy
    Episodes: 12
    Broadcast network: TV Tokyo
    Broadcast period: 2015-Apr-10 to 2015-Jun-27
    Air time: Friday 24:12
    Theme song: The Place Has No Name by Straightener
    Language: Japanese
    Country: Japan
    Subtitles: English here: Monchi
    RAW credit tot furransu

    Cast
       Okada Masaki as Takeyama Jun
       Suzuki Kosuke as Matsui Hideo
       Endo Kenichi as Umemoto Soichi
       Moriyama Eiji (森山栄治)
       Triendl Reina
       Morisaka Hiroyuki (森崎博之)
       Sakuma Mio (さくまみお)
       Tanaka Yoji
       Inoue Takashi

    Guests
       Tokito Saburo (ep1)
       Otoo Takuma (ep1)
       Shiratori Kumiko (白鳥久美子) (ep1)
       Uchiyama Rina
       Kohinata Fumiyo
       Sato Megumi
       Suzuki Fuku
       Takei Ryosuke (竹井亮介)
       Tanaka Misako
       Yanagisawa Shingo
       Yamashita Rio

    Synopsis
    Matsui runs a benriya (odd jobs for hire) in a small nameless Hokkaido village. Umemoto has divorced 3 times. Screenwriter Takeyama (Masaki Okada) wants to go to Furano, but the bus to Furano becomes stranded due to a snowstorm. Takeyama stops at a bar to eat something, but at the bar he loses his wallet and cellphone. Takeyama is now obliged to stay in the small and nameless village. Matsui, Umemoto and Takeyama are now all at Matsui’s Benriya.

    General
    Complete name                  : Fuben na Benriya ep08 (848x480 x264).mp4
    Format                         : MPEG-4
    Format profile                 : Base Media
    Codec ID                       : isom
    File size                      : 211 MiB
    Duration                       : 29mn 9s
    Overall bit rate mode          : Variable
    Overall bit rate               : 1 013 Kbps

    Video
    ID                             : 1
    Format                         : AVC
    Format/Info                    : Advanced Video Codec
    Format profile                 : High@L4.1
    Format settings, CABAC         : Yes
    Format settings, ReFrames      : 4 frames
    Codec ID                       : avc1
    Codec ID/Info                  : Advanced Video Coding
    Duration                       : 29mn 8s
    Bit rate                       : 882 Kbps
    Maximum bit rate               : 4 461 Kbps
    Width                          : 848 pixels
    Height                         : 480 pixels
    Display aspect ratio           : 16:9
    Frame rate mode                : Constant
    Frame rate                     : 29.970 fps
    Color space                    : YUV
    Chroma subsampling             : 4:2:0
    Bit depth                      : 8 bits
    Scan type                      : Progressive
    Bits/(Pixel*Frame)             : 0.072
    Stream size                    : 184 MiB (87%)

    Audio
    ID                             : 2
    Format                         : AAC
    Format/Info                    : Advanced Audio Codec
    Format profile                 : LC
    Codec ID                       : 40
    Duration                       : 29mn 9s
    Bit rate mode                  : Variable
    Bit rate                       : 128 Kbps
    Maximum bit rate               : 133 Kbps
    Channel count                  : 2 channels
    Channel positions              : Front: L R
    Sampling rate                  : 48.0 KHz
    Compression mode               : Lossy







    0 0
  • 05/30/15--06:04: I'm Home ep07 480p
  • Original Post: I'm Home ep07 480p



    http://wiki.d-addicts.com/I%27m_Home_%28TV_Asahi%29
    http://asianwiki.com/I%27m_Home
    http://thetvdb.com/?tab=series&id=293799&lid=7

    Title: アイムホーム
    Title (English): I'm home
    Format: Renzoku
    Genre: Family mystery
    Broadcast network: TV Asahi
    Episodes: 10
    Broadcast period: 2015-Apr-16 to 2015-Jun-18
    Air time: Thursday 21:00
    Language: Japanese
    Country: Japan
    Subtitles: English here: Watanuki and Chiyoko Fansub
    RAW credit to furransu

    Cast
       Kimura Takuya as Ieji Hisashi
       Ueto Aya as Ieji Megumi
       Mizuno Miki as Nozawa Kaoru
       Tanaka Kei as Honjo Tsuyoshi
       Suzuki Kosuke as Watanuki Shinji
       Yoshimoto Miyu as Takanashi Yua
       Ino Manabu (猪野学) as Hifumi Tsutomu
       Anami Atsuko as Isami Yoko
       Nomaguchi Toru as Iwashita Noboru
       Yano Masato as Tokura Shingo
       Takahashi Rai (高橋來) as Ieji Yoshio
       Yamaguchi Mayu (山口まゆ) as Nozawa Subaru
       Arai Hirofumi as Kuroki Jin
       Mitsuishi Ken as Todoroki Haruki
       Watanabe Ikkei as Teshigawara Yosuke
       Oikawa Mitsuhiro as Tsukuba Yoshiaki
       Nishida Toshiyuki as Kozukue Yukio

    Synopsis
    Ieji Hisashi, a salaryman who works for a securities company, has a fuzzy memory of the recent five years because of an accident at his job posting. His wife of five years, Megumi and their 4-year-old son seem to wear masks. He can neither tell their facial expressions nor their emotions. He also struggles about his love for them. On the other hand, Ieji feels an attachment to his ex-wife, whom he divorced five years ago, and their daughter. What sort of days did he have in those five years which are a blank to him? Ieji sets out on a journey to find his past self with a mysterious bunch of 10 keys that he has. He becomes aware that he was a cold, career-minded man before the accident, and the persona that is gradually revealed is beyond the imagination of his present kindhearted self.

    General
    Complete name                  : I'm Home ep07 (848x480 x264).mp4
    Format                         : MPEG-4
    Format profile                 : Base Media
    Codec ID                       : isom
    File size                      : 342 MiB
    Duration                       : 46mn 56s
    Overall bit rate mode          : Variable
    Overall bit rate               : 1 017 Kbps

    Video
    ID                             : 1
    Format                         : AVC
    Format/Info                    : Advanced Video Codec
    Format profile                 : High@L4.1
    Format settings, CABAC         : Yes
    Format settings, ReFrames      : 4 frames
    Codec ID                       : avc1
    Codec ID/Info                  : Advanced Video Coding
    Duration                       : 46mn 56s
    Bit rate                       : 884 Kbps
    Maximum bit rate               : 6 735 Kbps
    Width                          : 848 pixels
    Height                         : 480 pixels
    Display aspect ratio           : 16:9
    Frame rate mode                : Constant
    Frame rate                     : 29.970 fps
    Color space                    : YUV
    Chroma subsampling             : 4:2:0
    Bit depth                      : 8 bits
    Scan type                      : Progressive
    Bits/(Pixel*Frame)             : 0.073
    Stream size                    : 297 MiB (87%)

    Audio
    ID                             : 2
    Format                         : AAC
    Format/Info                    : Advanced Audio Codec
    Format profile                 : LC
    Codec ID                       : 40
    Duration                       : 46mn 56s
    Bit rate mode                  : Variable
    Bit rate                       : 128 Kbps
    Maximum bit rate               : 135 Kbps
    Channel count                  : 2 channels
    Channel positions              : Front: L R
    Sampling rate                  : 48.0 KHz
    Compression mode               : Lossy







    0 0

    Original Post: The.Return.of.Superman.E080.150531.HDTV.H264.720p-LIMO


    The Return of Superman

    Originally aired: November 3, 2013 – present
    Cast: Lee Hwi-jae, Choo Sung-hoon, Jang Hyeon-seong, Tablo
    Subtitles will be added later

    Synopsis

    Fathers may not be perfect.. but that's alright if they aren't perfect! There's nothing like a father's love to boost our spirits. The dads who used to spend all their time working have returned home on 'The Return of Superman'.







    Code
    Video
    ID                               : 0
    Format                           : AVC
    Format/Info                      : Advanced Video Codec
    Format profile                   : High@L5.1
    Format settings, CABAC           : Yes
    Format settings, ReFrames        : 4 frames
    Codec ID                         : H264
    Duration                         : 1h 4mn
    Bit rate                         : 3 000 Kbps
    Width                            : 1 280 pixels
    Height                           : 720 pixels
    Display aspect ratio             : 16:9
    Frame rate mode                  : Variable
    Frame rate                       : 29.970 fps
    Color space                      : YUV
    Chroma subsampling               : 4:2:0
    Bit depth                        : 8 bits
    Scan type                        : Progressive
    Bits/(Pixel*Frame)               : 0.109
    Stream size                      : 1.35 GiB (94%)
    Writing library                  : x264 core 112
    Encoding settings                : cabac=1 / ref=3 / deblock=1:-1:-1 / analyse=0x3:0x113 / me=hex / subme=6 / psy=1 / psy_rd=1.00:1.00 / mixed_ref=1 / me_range=16 / chroma_me=1 / trellis=1 / 8x8dct=1 / cqm=0 / deadzone=21,11 / fast_pskip=0 / chroma_qp_offset=-4 / threads=12 / sliced_threads=0 / nr=0 / decimate=1 / interlaced=0 / constrained_intra=0 / bframes=3 / b_pyramid=2 / b_adapt=1 / b_bias=1 / direct=3 / weightb=1 / open_gop=0 / weightp=2 / keyint=299 / keyint_min=25 / scenecut=1 / intra_refresh=0 / rc_lookahead=40 / rc=abr / mbtree=1 / bitrate=3000 / ratetol=1.0 / qcomp=0.60 / qpmin=10 / qpmax=51 / qpstep=4 / ip_ratio=1.40 / aq=1:1.00

    Audio
    ID                               : 1
    Format                           : MPEG Audio
    Format version                   : Version 1
    Format profile                   : Layer 3
    Mode                             : Joint stereo
    Mode extension                   : MS Stereo
    Codec ID                         : 55
    Codec ID/Hint                    : MP3
    Duration                         : 1h 4mn
    Bit rate mode                    : Constant
    Bit rate                         : 192 Kbps
    Channel(s)                       : 2 channels
    Sampling rate                    : 48.0 KHz
    Stream size                      : 88.0 MiB (6%)
    Alignment                        : Split accross interleaves
    Interleave, duration             : 33 ms (1.00 video frame)
    Interleave, preload duration     : 500 ms
    Writing library                  : LAME3.98.2



    0 0

    Original Post: Highway of Love 2015 1080p WEB-DL x264 AAC-SeeHD





    Detail:
    Title: Highway of Love
    Genre: Drama, Romance
    Release Date: 2015
    Runtime: 100 mins
    Director: Fei Ke
    Country: China
    Language: Mandarin
    Subtitles:Chinese, English Hardcoded

    Synopsis:
    Beauty writer Anton ni to promote his new book and took part in the popular TV marriage programs “love you”, and accidentally hand Han Tibetan fans photographer show bar, with He went to the Meili Snow Mountain. Jenny fell in love with Anton boyfriend of three years, a lingerie company CEO Zeng Hao for this all the way to La chasing his girlfriend, which met Tibetan woman driver Minqiong. persistent heart of Zeng Hao Zeng Hao is kindness touched, in the pursuit of Anton Minnie makes a series of road had, sensitive intelligence to sublimate the events. When the four respective back into position when, in a sudden accident and eventually opened a the mystery of life, but also to understand Zeng Hao more to their inner being. This is a “fled to the horizon can escape love” occurs in the present Tibetan legend. …

    Cast:
    Qi Xi
    Zhang Nianhua
    Song Ning
    Kalsang Drolma
    Yu Rongguang
    Wang Ji
    Yu Entai
    Zhong Tongxi








    Code

    Video
    ID                                       : 1
    Format                                   : AVC
    Format/Info                              : Advanced Video Codec
    Format profile                           : Main@L4.0
    Format settings, CABAC                   : Yes
    Format settings, ReFrames                : 2 frames
    Codec ID                                 : V_MPEG4/ISO/AVC
    Duration                                 : 1h 40mn
    Width                                    : 1 920 pixels
    Height                                   : 1 080 pixels
    Display aspect ratio                     : 16:9
    Frame rate mode                          : Variable
    Frame rate                               : 25.000 fps
    Color space                              : YUV
    Chroma subsampling                       : 4:2:0
    Bit depth                                : 8 bits
    Scan type                                : Progressive
    Writing library                          : avc encoder v1.9
    Default                                  : Yes
    Forced                                   : No

    Audio
    ID                                       : 2
    Format                                   : AAC
    Format/Info                              : Advanced Audio Codec
    Format profile                           : LC
    Codec ID                                 : A_AAC
    Duration                                 : 1h 40mn
    Channel(s)                               : 2 channels
    Channel positions                        : Front: L R
    Sampling rate                            : 44.1 KHz
    Compression mode                         : Lossy
    Default                                  : Yes
    Forced                                   : No



    0 0

    Original Post: Running.Man.E249.150531.HDTV.XviD-LIMO

    Plot/Synopsis:
    Running Man (Korean: 런닝맨) is a South Korean variety show; a part of SBS's Good Sunday lineup, along with K-pop Star (K팝 스타). It was first aired on July 11, 2010. This show is classified as an "urban action variety"; a never-before-seen new genre of variety shows. The MCs and guests complete missions in a landmark to win the race. It has garnered attention as being the come-back program for Yu Jae-suk, the main MC of the program, after leaving Good Sunday's Family Outing in February 2010.

    Subtitles by Dramafever will be added later.
    There will be a 24hr delay for each person that annoys me for subtitles.

    http://thetvdb.com/?tab=series&id=248870






    Code
    Video
    ID                                       : 0
    Format                                   : MPEG-4 Visual
    Format profile                           : Advanced Simple@L5
    Format settings, BVOP                    : No
    Format settings, QPel                    : No
    Format settings, GMC                     : No warppoints
    Format settings, Matrix                  : Default (MPEG)
    Codec ID                                 : XVID
    Codec ID/Hint                            : XviD
    Duration                                 : 1h 29mn
    Bit rate                                 : 1 388 Kbps
    Width                                    : 624 pixels
    Height                                   : 352 pixels
    Display aspect ratio                     : 16:9
    Frame rate                               : 29.970 fps
    Color space                              : YUV
    Chroma subsampling                       : 4:2:0
    Bit depth                                : 8 bits
    Scan type                                : Progressive
    Compression mode                         : Lossy
    Bits/(Pixel*Frame)                       : 0.211
    Stream size                              : 886 MiB (87%)
    Writing library                          : XviD 1.2.1 (UTC 2008-12-04)

    Audio
    ID                                       : 1
    Format                                   : MPEG Audio
    Format version                           : Version 1
    Format profile                           : Layer 3
    Mode                                     : Joint stereo
    Mode extension                           : MS Stereo
    Codec ID                                 : 55
    Codec ID/Hint                            : MP3
    Duration                                 : 1h 29mn
    Bit rate mode                            : Constant
    Bit rate                                 : 128 Kbps
    Channel(s)                               : 2 channels
    Sampling rate                            : 48.0 KHz
    Compression mode                         : Lossy
    Stream size                              : 81.7 MiB (8%)
    Alignment                                : Aligned on interleaves
    Writing library                          : LAME3.98.2
    Language                                 : un



    0 0

    Original Post: Running.Man.E249.150531.HDTV.H264.720p-LIMO

    Plot/Synopsis:
    Running Man (Korean: 런닝맨) is a South Korean variety show; a part of SBS's Good Sunday lineup, along with K-pop Star (K팝 스타). It was first aired on July 11, 2010. This show is classified as an "urban action variety"; a never-before-seen new genre of variety shows. The MCs and guests complete missions in a landmark to win the race. It has garnered attention as being the come-back program for Yu Jae-suk, the main MC of the program, after leaving Good Sunday's Family Outing in February 2010.

    http://thetvdb.com/?tab=series&id=248870

    Subtitles by Dramafever will be added later.
    There will be a 24hr delay for each person that annoys me for subtitles.







    Code
    Video
    ID                             : 1
    Format                         : AVC
    Format/Info                    : Advanced Video Codec
    Format profile                 : High@L5.1
    Format settings, CABAC         : Yes
    Format settings, ReFrames      : 4 frames
    Codec ID                       : V_MPEG4/ISO/AVC
    Duration                       : 1h 24mn
    Bit rate                       : 887 Kbps
    Nominal bit rate               : 2 496 Kbps
    Width                          : 1 280 pixels
    Height                         : 720 pixels
    Display aspect ratio           : 16:9
    Frame rate mode                : Constant
    Frame rate                     : 29.970 fps
    Color space                    : YUV
    Chroma subsampling             : 4:2:0
    Bit depth                      : 8 bits
    Scan type                      : Progressive
    Bits/(Pixel*Frame)             : 0.032
    Stream size                    : 535 MiB (68%)
    Writing library                : x264 core 130 r2273 b3065e6
    Encoding settings              : cabac=1 / ref=3 / deblock=1:0:0 / analyse=0x3:0x113 / me=hex / subme=7 / psy=1 / psy_rd=1.00:0.00 / mixed_ref=1 / me_range=16 / chroma_me=1 / trellis=1 / 8x8dct=1 / cqm=0 / deadzone=21,11 / fast_pskip=1 / chroma_qp_offset=-2 / threads=1 / lookahead_threads=1 / sliced_threads=0 / nr=0 / decimate=1 / interlaced=0 / bluray_compat=0 / constrained_intra=0 / bframes=3 / b_pyramid=2 / b_adapt=1 / b_bias=0 / direct=1 / weightb=1 / open_gop=0 / weightp=2 / keyint=300 / keyint_min=29 / scenecut=40 / intra_refresh=0 / rc_lookahead=40 / rc=2pass / mbtree=1 / bitrate=2496 / ratetol=1.0 / qcomp=0.60 / qpmin=0 / qpmax=69 / qpstep=4 / cplxblur=20.0 / qblur=0.5 / vbv_maxrate=300000 / vbv_bufsize=300000 / nal_hrd=none / ip_ratio=1.40 / aq=1:1.00
    Default                        : Yes
    Forced                         : No

    Audio
    ID                             : 2
    Format                         : AC-3
    Format/Info                    : Audio Coding 3
    Mode extension                 : CM (complete main)
    Format settings, Endianness    : Big
    Codec ID                       : A_AC3
    Duration                       : 1h 24mn
    Bit rate mode                  : Constant
    Bit rate                       : 384 Kbps
    Channel(s)                     : 2 channels
    Channel positions              : Front: L R
    Sampling rate                  : 44.1 KHz
    Bit depth                      : 16 bits
    Compression mode               : Lossy
    Stream size                    : 232 MiB (30%)
    Language                       : Korean
    Default                        : Yes
    Forced                         : No



    0 0

    Original Post: 1N2D.E396.150531.HDTV.XviD-LIMO

    Info
    Title: 1 Night 2 Days
    Broadcast Network: KBS2
    Genre: Reality television
    Subtitles by Dramafever will be added later
    http://thetvdb.com/?tab=series&id=212151

    S3 Cast Members
    Kim Joo Hyuk, Joon Ho Kim, Defconn, Jung Joon-young, Cha Tae Hyun, Kim Jong-min

    Summary
    The second season is a continuation of the first season but with four new members (joining three returning members) and a new PD. The members go off on a trip to a Korean village and try to survive. Throughout the show, there are several mini-games played to see who will eat dinner (as opposed to a simple snack), who will serve the most work that are given during each journey every week and also, who will sleep comfortably.






    Code
    Video
    ID                                       : 0
    Format                                   : MPEG-4 Visual
    Format profile                           : Advanced Simple@L5
    Format settings, BVOP                    : No
    Format settings, QPel                    : No
    Format settings, GMC                     : No warppoints
    Format settings, Matrix                  : Default (MPEG)
    Codec ID                                 : XVID
    Codec ID/Hint                            : XviD
    Duration                                 : 1h 22mn
    Bit rate                                 : 1 446 Kbps
    Width                                    : 624 pixels
    Height                                   : 352 pixels
    Display aspect ratio                     : 16:9
    Frame rate                               : 29.970 fps
    Color space                              : YUV
    Chroma subsampling                       : 4:2:0
    Bit depth                                : 8 bits
    Scan type                                : Progressive
    Compression mode                         : Lossy
    Bits/(Pixel*Frame)                       : 0.220
    Stream size                              : 849 MiB (91%)
    Writing library                          : XviD 1.2.1 (UTC 2008-12-04)

    Audio
    ID                                       : 1
    Format                                   : MPEG Audio
    Format version                           : Version 1
    Format profile                           : Layer 3
    Mode                                     : Joint stereo
    Mode extension                           : MS Stereo
    Codec ID                                 : 55
    Codec ID/Hint                            : MP3
    Duration                                 : 1h 22mn
    Bit rate mode                            : Constant
    Bit rate                                 : 128 Kbps
    Channel(s)                               : 2 channels
    Sampling rate                            : 48.0 KHz
    Compression mode                         : Lossy
    Stream size                              : 75.2 MiB (8%)
    Alignment                                : Aligned on interleaves
    Interleave, duration                     : 24 ms (0.72 video frame)
    Writing library                          : LAME3.98.2



    0 0

    Original Post: 1N2D.E396.150531.HDTV.H264.720p-LIMO



    Info
    Broadcast Network: KBS2
    Genre: Reality television
    Subtitles by Dramafever will be added later

    S3 Cast Members
    Kim Joo Hyuk, Joon Ho Kim, Defconn, Jung Joon Young, Cha Tae Hyun, Kim Jong Min

    Summary
    The second season is a continuation of the first season but with four new members (joining three returning members) and a new PD. The members go off on a trip to a Korean village and try to survive. Throughout the show, there are several mini-games played to see who will eat dinner (as opposed to a simple snack), who will serve the most work that are given during each journey every week and also, who will sleep comfortably.






    Code
    Video
    ID                             : 1
    Format                         : AVC
    Format/Info                    : Advanced Video Codec
    Format profile                 : High@L5.1
    Format settings, CABAC         : Yes
    Format settings, ReFrames      : 4 frames
    Codec ID                       : V_MPEG4/ISO/AVC
    Duration                       : 1h 24mn
    Bit rate                       : 887 Kbps
    Nominal bit rate               : 2 496 Kbps
    Width                          : 1 280 pixels
    Height                         : 720 pixels
    Display aspect ratio           : 16:9
    Frame rate mode                : Constant
    Frame rate                     : 29.970 fps
    Color space                    : YUV
    Chroma subsampling             : 4:2:0
    Bit depth                      : 8 bits
    Scan type                      : Progressive
    Bits/(Pixel*Frame)             : 0.032
    Stream size                    : 535 MiB (68%)
    Writing library                : x264 core 130 r2273 b3065e6
    Encoding settings              : cabac=1 / ref=3 / deblock=1:0:0 / analyse=0x3:0x113 / me=hex / subme=7 / psy=1 / psy_rd=1.00:0.00 / mixed_ref=1 / me_range=16 / chroma_me=1 / trellis=1 / 8x8dct=1 / cqm=0 / deadzone=21,11 / fast_pskip=1 / chroma_qp_offset=-2 / threads=1 / lookahead_threads=1 / sliced_threads=0 / nr=0 / decimate=1 / interlaced=0 / bluray_compat=0 / constrained_intra=0 / bframes=3 / b_pyramid=2 / b_adapt=1 / b_bias=0 / direct=1 / weightb=1 / open_gop=0 / weightp=2 / keyint=300 / keyint_min=29 / scenecut=40 / intra_refresh=0 / rc_lookahead=40 / rc=2pass / mbtree=1 / bitrate=2496 / ratetol=1.0 / qcomp=0.60 / qpmin=0 / qpmax=69 / qpstep=4 / cplxblur=20.0 / qblur=0.5 / vbv_maxrate=300000 / vbv_bufsize=300000 / nal_hrd=none / ip_ratio=1.40 / aq=1:1.00
    Default                        : Yes
    Forced                         : No

    Audio
    ID                             : 2
    Format                         : AC-3
    Format/Info                    : Audio Coding 3
    Mode extension                 : CM (complete main)
    Format settings, Endianness    : Big
    Codec ID                       : A_AC3
    Duration                       : 1h 24mn
    Bit rate mode                  : Constant
    Bit rate                       : 384 Kbps
    Channel(s)                     : 2 channels
    Channel positions              : Front: L R
    Sampling rate                  : 44.1 KHz
    Bit depth                      : 16 bits
    Compression mode               : Lossy
    Stream size                    : 232 MiB (30%)
    Language                       : Korean
    Default                        : Yes
    Forced                         : No



    0 0

    Original Post: Renai Jidai EP09 720p HDTV x264 AAC DoA

    Title (romaji): Renai Jidai
    Format: Renzoku
    Genre: Romance
    Episodes: TBD
    Broadcast network: NTV / YTV
    Broadcast period: 2015-Apr-02 start
    Air time: Thursday 23:59
    Theme song: Arigatou Forever... by Nishiuchi Mariya
    Subtitles: English - sakotea
    RAW credit to DoA

     
    Cast

       Higa Manami as Eto Haru
       Mitsushima Shinnosuke as Hayase Riichiro
       Satsukawa Aimi as Ogasawara Kasumi
       Fuchikami Yasushi (淵上泰史) as Nagatomi Shohei
       Nakao Akiyoshi as Kaieda Mamoru
       Eguchi Noriko as Aramaki Sayuri
       Matsukawa Akari (松川星) as Eto Shizuka
       Yokoyama Mei (横山芽生) as Ogasawara Aya
       Oishi Goro as Eto Ginichi
       Kashii Yu as Oda Tamiko
       Sato Ryuta as Kitajima Ryuichi


    Synopsis

    Haru Eto (Manami Higa) works at a sports gym and Riichiro Hayase (Shinnosuke Mitsushima) works at a book store. After a fateful meeting, they eventually marry, but, due to a reason, they divorce only a year and a half later. Even after their divorce, the couple continue to see each other. On their wedding anniversary they have dinner together. Due to a petty quarrel, they begin to search for a potential spouse for each other.

    Mediainfo
    Spoiler:show

    Code
    Format                                   : Matroska
    Format version                           : Version 4 / Version 2
    File size                                : 937 MiB
    Duration                                 : 42mn 59s
    Overall bit rate                         : 3 047 Kbps
    Movie name                               : 恋愛時代 #09 720p HDTV x264 AAC-DoA
    Encoded date                             : UTC 2015-05-29 10:22:46
    Writing application                      : mkvmerge v7.8.0 ('River Man') 64bit built on Mar 27 2015 16:31:37
    Writing library                          : libebml v1.3.1 + libmatroska v1.4.2
    DURATION                                 : 00:42:59.285000000
    NUMBER_OF_FRAMES                         : 120904
    NUMBER_OF_BYTES                          : 60814670
    _STATISTICS_WRITING_APP                  : mkvmerge v7.8.0 ('River Man') 64bit built on Mar 27 2015 16:31:37
    _STATISTICS_WRITING_DATE_UTC             : 2015-05-29 10:22:46
    _STATISTICS_TAGS                         : BPS DURATION NUMBER_OF_FRAMES NUMBER_OF_BYTES

    Video
    ID                                       : 1
    Format                                   : AVC
    Format/Info                              : Advanced Video Codec
    Format profile                           : High@L4.1
    Format settings, CABAC                   : Yes
    Format settings, ReFrames                : 9 frames
    Codec ID                                 : V_MPEG4/ISO/AVC
    Duration                                 : 42mn 59s
    Width                                    : 1 280 pixels
    Height                                   : 720 pixels
    Display aspect ratio                     : 16:9
    Frame rate mode                          : Constant
    Frame rate                               : 29.970 fps
    Color space                              : YUV
    Chroma subsampling                       : 4:2:0
    Bit depth                                : 8 bits
    Scan type                                : Progressive
    Title                                    : Encode by DoA
    Writing library                          : x264 core 130 r2273 b3065e6
    Encoding settings                        : cabac=1 / ref=9 / deblock=1:-2:-2 / analyse=0x3:0x133 / me=umh / subme=10 / psy=1 / psy_rd=1.00:0.15 / mixed_ref=1 / me_range=48 / chroma_me=1 / trellis=2 / 8x8dct=1 / cqm=0 / deadzone=21,11 / fast_pskip=0 / chroma_qp_offset=-3 / threads=12 / lookahead_threads=2 / sliced_threads=0 / nr=0 / decimate=1 / interlaced=0 / bluray_compat=0 / constrained_intra=0 / bframes=8 / b_pyramid=2 / b_adapt=2 / b_bias=0 / direct=3 / weightb=1 / open_gop=0 / weightp=2 / keyint=300 / keyint_min=29 / scenecut=40 / intra_refresh=0 / rc_lookahead=60 / rc=crf / mbtree=1 / crf=18.0 / qcomp=0.60 / qpmin=0 / qpmax=69 / qpstep=4 / ip_ratio=1.40 / aq=1:1.00
    Language                                 : Japanese
    Default                                  : Yes
    Forced                                   : No
    DURATION                                 : 00:42:59.643000000
    NUMBER_OF_FRAMES                         : 77312
    NUMBER_OF_BYTES                          : 920945506
    _STATISTICS_WRITING_APP                  : mkvmerge v7.8.0 ('River Man') 64bit built on Mar 27 2015 16:31:37
    _STATISTICS_WRITING_DATE_UTC             : 2015-05-29 10:22:46
    _STATISTICS_TAGS                         : BPS DURATION NUMBER_OF_FRAMES NUMBER_OF_BYTES

    Audio
    ID                                       : 2
    Format                                   : AAC
    Format/Info                              : Advanced Audio Codec
    Format profile                           : LC
    Codec ID                                 : A_AAC
    Duration                                 : 42mn 59s
    Channel(s)                               : 2 channels
    Channel positions                        : Front: L R
    Sampling rate                            : 48.0 KHz
    Compression mode                         : Lossy
    Delay relative to video                  : 18ms
    Language                                 : Japanese
    Default                                  : Yes
    Forced                                   : No

    Menu
    00:00:00.000                             : ja:恋愛時代 #09 Part 1
    00:04:16.923                             : ja:オープニング
    00:04:28.935                             : ja:恋愛時代 #09 Part 2
    00:15:14.980                             : ja:提供
    00:15:19.919                             : ja:恋愛時代 #09 Part 3
    00:22:53.839                             : ja:恋愛時代 #09 Part 4
    00:29:55.727                             : ja:恋愛時代 #09 Part 5
    00:38:45.656                             : ja:恋愛時代 #09 Part 6
    00:42:39.623                             : ja:次回予告








    0 0

    Original Post: Zenryoku Rikon Sodan 2015 720p HDTV x264 AAC DoA Complete



    Title: 全力離婚相談
    Title (romaji): Zenryoku Rikon Sodan
    Format: Renzoku
    Genre: Human Drama
    Episodes: 7
    Broadcast network: NHK
    Broadcast period: 2015-Jan-06 to 2015-Feb-12
    Air time: Thursday 22:00
    Subtitles: None
    RAW credit to DoA

    Synopsis
    Takeuchi Miharu (Maya Miki) is a capable lawyer with a law firm in Nagoya who gets to handle a divorce case assigned by their head Mizuno Toyohiko (Tachi Hiroshi). Gohara Naoki (Yoshizawa Hisashi), the president of the company, wants to divorce his wife Nobue (Kone Hana) who left their 5-year-old son behind and moved out. Nobue does not want to give up her child. The case seems to complicate Miharu because she had experienced divorce too and was deprived of custody of her daughter Kanae, who she has not seen in 10 years. She hesitantly starts working on the case but gradually gets absorbed in it.

    While she is the husband’s attorney, the solution she offers reflects Nobue’s feelings. This offends the client company and the law firm’s advisory contract is terminated. She resigned.

    Nobue arrives with the twin sisters. She believes they can count on Miharu who identified with her own divorce issues. Miharu does all in her power to try to pull the twins’ broken family together. She got convinced to start a divorce counselling centre. On the day of the opening of ‘Takeuchi Harumi Divorce Counselling Centre’, a young lady stares at the signboard of the centre with a surly expression. She is Miharu’s daughter, Kanae (Taketomi Seika), who is now an adult.

    Cast

    Maya Miki
    Tachi Hiroshi
    Kamiji Yusuke
    Taketomi Sei
    Seki Megumi
    Konoe Hana
    Riju Go
    Watanabe Tetsu
    Nakao Mie

    Guest

    Ishibashi Renji
    Yoshizawa Yu
    Ujiki Tsuyoshi
    Ando Tamae
    Otake Makoto
    Iwai Hideto
    Yamada Masa

    Production Credits

    Screenwriter: Komatsu Yoshiko, Ide Mari
    Chief Producer: Aoki Shinya
    Executive Chief Director: Shibata Takeshi
    Music: Eto Naoko

    Media Info :
    Spoiler:show
    Format                                   : Matroska
    Format version                           : Version 4 / Version 2
    File size                                : 1.20 GiB
    Duration                                 : 47mn 59s
    Overall bit rate                         : 3 590 Kbps
    Movie name                               : 全力離婚相談 第1回 720p HDTV x264 AAC-DoA
    Encoded date                             : UTC 2015-01-10 01:55:27
    Writing application                      : mkvmerge v7.5.0 ('Glass Culture') 64bit built on Jan  4 2015 16:48:44
    Writing library                          : libebml v1.3.1 + libmatroska v1.4.2
    DURATION                                 : 00:47:59.723000000
    NUMBER_OF_FRAMES                         : 134987
    NUMBER_OF_BYTES                          : 50619778
    _STATISTICS_WRITING_APP                  : mkvmerge v7.5.0 ('Glass Culture') 64bit built on Jan  4 2015 16:48:44
    _STATISTICS_WRITING_DATE_UTC             : 2015-01-10 01:55:27
    _STATISTICS_TAGS                         : BPS DURATION NUMBER_OF_FRAMES NUMBER_OF_BYTES

    Video
    ID                                       : 1
    Format                                   : AVC
    Format/Info                              : Advanced Video Codec
    Format profile                           : High@L4.1
    Format settings, CABAC                   : Yes
    Format settings, ReFrames                : 9 frames
    Codec ID                                 : V_MPEG4/ISO/AVC
    Duration                                 : 47mn 59s
    Width                                    : 1 280 pixels
    Height                                   : 720 pixels
    Display aspect ratio                     : 16:9
    Frame rate mode                          : Constant
    Frame rate                               : 29.970 fps
    Color space                              : YUV
    Chroma subsampling                       : 4:2:0
    Bit depth                                : 8 bits
    Scan type                                : Progressive
    Title                                    : Encode by TTG-DoA
    Writing library                          : x264 core 144 r2525 40bb568
    Encoding settings                        : cabac=1 / ref=9 / deblock=1:-3:-3 / analyse=0x3:0x133 / me=umh / subme=10 / psy=1 / psy_rd=1.00:0.15 / mixed_ref=1 / me_range=48 / chroma_me=1 / trellis=2 / 8x8dct=1 / cqm=0 / deadzone=21,11 / fast_pskip=0 / chroma_qp_offset=-3 / threads=12 / lookahead_threads=2 / sliced_threads=0 / nr=0 / decimate=1 / interlaced=0 / bluray_compat=0 / constrained_intra=0 / bframes=8 / b_pyramid=2 / b_adapt=2 / b_bias=0 / direct=3 / weightb=1 / open_gop=0 / weightp=2 / keyint=300 / keyint_min=29 / scenecut=40 / intra_refresh=0 / rc_lookahead=60 / rc=crf / mbtree=1 / crf=17.0 / qcomp=0.60 / qpmin=0 / qpmax=69 / qpstep=4 / ip_ratio=1.40 / aq=1:1.00
    Language                                 : Japanese
    Default                                  : Yes
    Forced                                   : No
    DURATION                                 : 00:47:59.880000000
    NUMBER_OF_FRAMES                         : 89037
    NUMBER_OF_BYTES                          : 1240724270
    _STATISTICS_WRITING_APP                  : mkvmerge v7.5.0 ('Glass Culture') 64bit built on Jan  4 2015 16:48:44
    _STATISTICS_WRITING_DATE_UTC             : 2015-01-10 01:55:27
    _STATISTICS_TAGS                         : BPS DURATION NUMBER_OF_FRAMES NUMBER_OF_BYTES

    Audio
    ID                                       : 2
    Format                                   : AAC
    Format/Info                              : Advanced Audio Codec
    Format profile                           : LC
    Codec ID                                 : A_AAC
    Duration                                 : 47mn 59s
    Channel(s)                               : 2 channels
    Channel positions                        : Front: L R
    Sampling rate                            : 48.0 KHz
    Compression mode                         : Lossy
    Delay relative to video                  : 10ms
    Language                                 : Japanese
    Default                                  : Yes
    Forced                                   : No






    0 0

    Original Post: Bluebird's.House.E30.150531.HDTV.XviD-LIMO

    http://thetvdb.com/?tab=series&id=292405&lid=7
    Details
    Title: 파랑새의 집 / Parangsaeui Jib
    Also known as: Bluebird's Nest
    Genre: Family, human, romance, comedy
    Episodes: 50
    Broadcast network: KBS2
    Broadcast period: 2015-Feb-21 to 2015-???-??
    Air time: Saturday & Sunday Night 19:55
    Original Soundtrack: Bluebird's House OST
    Synopsis
    A drama that tells the story of strong bond between the members of a family even though they are not blood-related. This drama also portrays the hope of parents toward their children's success and how difficult for fresh university graduates to get respectable and well-paid jobs.

    Cast
    Main Cast
    Lee Joon Hyuk as Kim Ji Wan (29)
    Chae Soo Bin as Han Eun Soo (24)
    Lee Sang Yeob as Jang Hyun Do (28)
    Kyung Soo Jin as Kang Young Joo (25)
    Kim Ji Wan's family
    Choi Myung Gil as Han Sun Hee (55)
    Jung Jae Soon as Lee Jin Yi (70)
    Jang Hyun Do's family
    Chun Ho Jin as Jang Tae Soo (55)
    Lee Hye Sook as Jung Soo Kyung (52)
    Kang Young Joo's family
    Song Ok Sook as Oh Min Ja (55)
    Jung Won Joong as Kang Jae Chul (53)
    Others
    Uhm Hyun Kyung as Seo Mi Ji (29)
    Nam Kyung Eup as Shin Young Hwan (50)






    Code
    Video
    ID                                       : 0
    Format                                   : MPEG-4 Visual
    Format profile                           : Advanced Simple@L5
    Format settings, BVOP                    : No
    Format settings, QPel                    : No
    Format settings, GMC                     : No warppoints
    Format settings, Matrix                  : Default (MPEG)
    Codec ID                                 : XVID
    Codec ID/Hint                            : XviD
    Duration                                 : 1h 29mn
    Bit rate                                 : 1 388 Kbps
    Width                                    : 624 pixels
    Height                                   : 352 pixels
    Display aspect ratio                     : 16:9
    Frame rate                               : 29.970 fps
    Color space                              : YUV
    Chroma subsampling                       : 4:2:0
    Bit depth                                : 8 bits
    Scan type                                : Progressive
    Compression mode                         : Lossy
    Bits/(Pixel*Frame)                       : 0.211
    Stream size                              : 886 MiB (87%)
    Writing library                          : XviD 1.2.1 (UTC 2008-12-04)

    Audio
    ID                                       : 1
    Format                                   : MPEG Audio
    Format version                           : Version 1
    Format profile                           : Layer 3
    Mode                                     : Joint stereo
    Mode extension                           : MS Stereo
    Codec ID                                 : 55
    Codec ID/Hint                            : MP3
    Duration                                 : 1h 29mn
    Bit rate mode                            : Constant
    Bit rate                                 : 128 Kbps
    Channel(s)                               : 2 channels
    Sampling rate                            : 48.0 KHz
    Compression mode                         : Lossy
    Stream size                              : 81.7 MiB (8%)
    Alignment                                : Aligned on interleaves
    Writing library                          : LAME3.98.2



    0 0

    Original Post: Bluebird's.House.E30.150531.HDTV.H264.720p-LIMO

    http://thetvdb.com/?tab=series&id=292405&lid=7
    Details
    Title: 파랑새의 집 / Parangsaeui Jib
    Also known as: Bluebird's Nest
    Genre: Family, human, romance, comedy
    Episodes: 50
    Broadcast network: KBS2
    Broadcast period: 2015-Feb-21 to 2015-???-??
    Air time: Saturday & Sunday Night 19:55
    Original Soundtrack: Bluebird's House OST
    Synopsis
    A drama that tells the story of strong bond between the members of a family even though they are not blood-related. This drama also portrays the hope of parents toward their children's success and how difficult for fresh university graduates to get respectable and well-paid jobs.

    Cast
    Main Cast
    Lee Joon Hyuk as Kim Ji Wan (29)
    Chae Soo Bin as Han Eun Soo (24)
    Lee Sang Yeob as Jang Hyun Do (28)
    Kyung Soo Jin as Kang Young Joo (25)
    Kim Ji Wan's family
    Choi Myung Gil as Han Sun Hee (55)
    Jung Jae Soon as Lee Jin Yi (70)
    Jang Hyun Do's family
    Chun Ho Jin as Jang Tae Soo (55)
    Lee Hye Sook as Jung Soo Kyung (52)
    Kang Young Joo's family
    Song Ok Sook as Oh Min Ja (55)
    Jung Won Joong as Kang Jae Chul (53)
    Others
    Uhm Hyun Kyung as Seo Mi Ji (29)
    Nam Kyung Eup as Shin Young Hwan (50)






    Code
    Video
    ID                             : 1
    Format                         : AVC
    Format/Info                    : Advanced Video Codec
    Format profile                 : High@L5.1
    Format settings, CABAC         : Yes
    Format settings, ReFrames      : 4 frames
    Codec ID                       : V_MPEG4/ISO/AVC
    Duration                       : 1h 24mn
    Bit rate                       : 887 Kbps
    Nominal bit rate               : 2 496 Kbps
    Width                          : 1 280 pixels
    Height                         : 720 pixels
    Display aspect ratio           : 16:9
    Frame rate mode                : Constant
    Frame rate                     : 29.970 fps
    Color space                    : YUV
    Chroma subsampling             : 4:2:0
    Bit depth                      : 8 bits
    Scan type                      : Progressive
    Bits/(Pixel*Frame)             : 0.032
    Stream size                    : 535 MiB (68%)
    Writing library                : x264 core 130 r2273 b3065e6
    Encoding settings              : cabac=1 / ref=3 / deblock=1:0:0 / analyse=0x3:0x113 / me=hex / subme=7 / psy=1 / psy_rd=1.00:0.00 / mixed_ref=1 / me_range=16 / chroma_me=1 / trellis=1 / 8x8dct=1 / cqm=0 / deadzone=21,11 / fast_pskip=1 / chroma_qp_offset=-2 / threads=1 / lookahead_threads=1 / sliced_threads=0 / nr=0 / decimate=1 / interlaced=0 / bluray_compat=0 / constrained_intra=0 / bframes=3 / b_pyramid=2 / b_adapt=1 / b_bias=0 / direct=1 / weightb=1 / open_gop=0 / weightp=2 / keyint=300 / keyint_min=29 / scenecut=40 / intra_refresh=0 / rc_lookahead=40 / rc=2pass / mbtree=1 / bitrate=2496 / ratetol=1.0 / qcomp=0.60 / qpmin=0 / qpmax=69 / qpstep=4 / cplxblur=20.0 / qblur=0.5 / vbv_maxrate=300000 / vbv_bufsize=300000 / nal_hrd=none / ip_ratio=1.40 / aq=1:1.00
    Default                        : Yes
    Forced                         : No

    Audio
    ID                             : 2
    Format                         : AC-3
    Format/Info                    : Audio Coding 3
    Mode extension                 : CM (complete main)
    Format settings, Endianness    : Big
    Codec ID                       : A_AC3
    Duration                       : 1h 24mn
    Bit rate mode                  : Constant
    Bit rate                       : 384 Kbps
    Channel(s)                     : 2 channels
    Channel positions              : Front: L R
    Sampling rate                  : 44.1 KHz
    Bit depth                      : 16 bits
    Compression mode               : Lossy
    Stream size                    : 232 MiB (30%)
    Language                       : Korean
    Default                        : Yes
    Forced                         : No



    0 0

    Original Post: Make.A.Woman.Cry.E14.150531.HDTV.XviD-LIMO

    http://thetvdb.com/?tab=series&id=294274&lid=7
    Details
    Title: 여자를 울려 / Yeojareul Woolryeo
    Also known as: Let the Woman Cry
    Genre: Family, drama, romance
    Episodes: 50
    Broadcast network: MBC
    Broadcast period: 2015-Apr-18 to 2015-???-??
    Air time: Saturday & Sunday 20:45
    Original Soundtrack: Make a Woman Cry OST

    Synopsis
    Jung Duk In was a former detective who resigned after her son died. She then opens a food stall in front of her son's school to preserves the memory of him and to protects the other students. Along the way she will struggle to forgive people who were responsible for her son's death.

    Cast

    Main Cast
    Kim Jung Eun as Jung Duk In
    Song Chang Ui as Kang Jin Woo
    Lee Soon Jae as Kang Tae Hwan
    Ha Hee Ra as Na Eun Soo
    Oh Dae Gyu as Kang Jin Myung
    Lee Tae Ran as Choi Hong Ran






    Code
    Video
    ID                                       : 0
    Format                                   : MPEG-4 Visual
    Format profile                           : Advanced Simple@L5
    Format settings, BVOP                    : No
    Format settings, QPel                    : No
    Format settings, GMC                     : No warppoints
    Format settings, Matrix                  : Default (MPEG)
    Codec ID                                 : XVID
    Codec ID/Hint                            : XviD
    Duration                                 : 1h 29mn
    Bit rate                                 : 1 388 Kbps
    Width                                    : 624 pixels
    Height                                   : 352 pixels
    Display aspect ratio                     : 16:9
    Frame rate                               : 29.970 fps
    Color space                              : YUV
    Chroma subsampling                       : 4:2:0
    Bit depth                                : 8 bits
    Scan type                                : Progressive
    Compression mode                         : Lossy
    Bits/(Pixel*Frame)                       : 0.211
    Stream size                              : 886 MiB (87%)
    Writing library                          : XviD 1.2.1 (UTC 2008-12-04)

    Audio
    ID                                       : 1
    Format                                   : MPEG Audio
    Format version                           : Version 1
    Format profile                           : Layer 3
    Mode                                     : Joint stereo
    Mode extension                           : MS Stereo
    Codec ID                                 : 55
    Codec ID/Hint                            : MP3
    Duration                                 : 1h 29mn
    Bit rate mode                            : Constant
    Bit rate                                 : 128 Kbps
    Channel(s)                               : 2 channels
    Sampling rate                            : 48.0 KHz
    Compression mode                         : Lossy
    Stream size                              : 81.7 MiB (8%)
    Alignment                                : Aligned on interleaves
    Writing library                          : LAME3.98.2



    0 0

    Original Post: Make.A.Woman.Cry.E14.150531.HDTV.H264.720p-LIMO

    http://thetvdb.com/?tab=series&id=294274&lid=7
    Details
    Title: 여자를 울려 / Yeojareul Woolryeo
    Also known as: Let the Woman Cry
    Genre: Family, drama, romance
    Episodes: 50
    Broadcast network: MBC
    Broadcast period: 2015-Apr-18 to 2015-???-??
    Air time: Saturday & Sunday 20:45
    Original Soundtrack: Make a Woman Cry OST

    Synopsis
    Jung Duk In was a former detective who resigned after her son died. She then opens a food stall in front of her son's school to preserves the memory of him and to protects the other students. Along the way she will struggle to forgive people who were responsible for her son's death.

    Cast

    Main Cast
    Kim Jung Eun as Jung Duk In
    Song Chang Ui as Kang Jin Woo
    Lee Soon Jae as Kang Tae Hwan
    Ha Hee Ra as Na Eun Soo
    Oh Dae Gyu as Kang Jin Myung
    Lee Tae Ran as Choi Hong Ran






    Code
    Video
    ID                             : 1
    Format                         : AVC
    Format/Info                    : Advanced Video Codec
    Format profile                 : High@L5.1
    Format settings, CABAC         : Yes
    Format settings, ReFrames      : 4 frames
    Codec ID                       : V_MPEG4/ISO/AVC
    Duration                       : 1h 24mn
    Bit rate                       : 887 Kbps
    Nominal bit rate               : 2 496 Kbps
    Width                          : 1 280 pixels
    Height                         : 720 pixels
    Display aspect ratio           : 16:9
    Frame rate mode                : Constant
    Frame rate                     : 29.970 fps
    Color space                    : YUV
    Chroma subsampling             : 4:2:0
    Bit depth                      : 8 bits
    Scan type                      : Progressive
    Bits/(Pixel*Frame)             : 0.032
    Stream size                    : 535 MiB (68%)
    Writing library                : x264 core 130 r2273 b3065e6
    Encoding settings              : cabac=1 / ref=3 / deblock=1:0:0 / analyse=0x3:0x113 / me=hex / subme=7 / psy=1 / psy_rd=1.00:0.00 / mixed_ref=1 / me_range=16 / chroma_me=1 / trellis=1 / 8x8dct=1 / cqm=0 / deadzone=21,11 / fast_pskip=1 / chroma_qp_offset=-2 / threads=1 / lookahead_threads=1 / sliced_threads=0 / nr=0 / decimate=1 / interlaced=0 / bluray_compat=0 / constrained_intra=0 / bframes=3 / b_pyramid=2 / b_adapt=1 / b_bias=0 / direct=1 / weightb=1 / open_gop=0 / weightp=2 / keyint=300 / keyint_min=29 / scenecut=40 / intra_refresh=0 / rc_lookahead=40 / rc=2pass / mbtree=1 / bitrate=2496 / ratetol=1.0 / qcomp=0.60 / qpmin=0 / qpmax=69 / qpstep=4 / cplxblur=20.0 / qblur=0.5 / vbv_maxrate=300000 / vbv_bufsize=300000 / nal_hrd=none / ip_ratio=1.40 / aq=1:1.00
    Default                        : Yes
    Forced                         : No

    Audio
    ID                             : 2
    Format                         : AC-3
    Format/Info                    : Audio Coding 3
    Mode extension                 : CM (complete main)
    Format settings, Endianness    : Big
    Codec ID                       : A_AC3
    Duration                       : 1h 24mn
    Bit rate mode                  : Constant
    Bit rate                       : 384 Kbps
    Channel(s)                     : 2 channels
    Channel positions              : Front: L R
    Sampling rate                  : 44.1 KHz
    Bit depth                      : 16 bits
    Compression mode               : Lossy
    Stream size                    : 232 MiB (30%)
    Language                       : Korean
    Default                        : Yes
    Forced                         : No



    0 0

    Original Post: Algernon ni Hanataba o ep08 480p



    http://wiki.d-addicts.com/Algernon_ni_Hanataba_wo_%282015%29
    http://asianwiki.com/Flowers_for_Algernon_%28Japanese_Drama%29
    http://thetvdb.com/?tab=series&id=293168&lid=7

    Title: アルジャーノンに花束を
    Title (romaji): Algernon ni Hanataba wo
    Also known as: Flowers for Algernon
    Format: Renzoku
    Genre: Drama
    Episodes: 10
    Broadcast network: TBS
    Broadcast period: 2015-Apr-10 to 2015-Jun-12
    Air time: Friday 22:00
    Related TV shows: Algernon ni Hanataba wo (Fuji TV, 2002), Hello, God (KBS2, 2006)
    Language: Japanese
    Country: Japan
    Subtitles: English here: areea-chan
    RAW credit to furransu

    Cast
       Yamashita Tomohisa as Shiratori Sakuto
       Kuriyama Chiaki as Mochizuki Haruka
       Kubota Masataka as Yanagawa Ryuichi
       Kudo Asuka (工藤阿須加)
       Kikuchi Fuma
       Tanimura Mitsuki
       Oomasa Aya
       Kaai Gamon
       Ishida Issei
       Kusakari Tamiyo
       Nakahara Takeo (special appearance)
       Hagiwara Masato
       Ishimaru Kanji as Hachisuka Daigo

    Synopsis
    Shiratori Sakuto is 28, but has the intelligence of a 6-year-old boy. He works for Dream Flower Service, a flower distribution centre which provides employment for problem youth. One day, he and a colleague, Yanagawa Ryuichi, delivers a rose bouquet to the apartment building where Mochizuki Haruka lives. Because Haruka does not know that the deliveryman is mentally challenged, she is shocked by his response and tries to call the police. Haruka works for a brain physiology research centre where Professor Hachisuka Daigo has been studying the improvement of mental performance. He has succeeded in lab experiments on a white mouse called Algernon. Sakuto is transformed into a genius through surgery. But Algernon's new intelligence begins to fade, and he dies. Sakuto realises that his genius, too, is destined to leave him.

    General
    Complete name                  : Algernon ni Hanataba o ep08 (848x480 x264).mp4
    Format                         : MPEG-4
    Format profile                 : Base Media
    Codec ID                       : isom
    File size                      : 259 MiB
    Duration                       : 46mn 32s
    Overall bit rate mode          : Variable
    Overall bit rate               : 778 Kbps

    Video
    ID                             : 1
    Format                         : AVC
    Format/Info                    : Advanced Video Codec
    Format profile                 : High@L4.1
    Format settings, CABAC         : Yes
    Format settings, ReFrames      : 4 frames
    Codec ID                       : avc1
    Codec ID/Info                  : Advanced Video Coding
    Duration                       : 46mn 32s
    Bit rate                       : 646 Kbps
    Maximum bit rate               : 3 730 Kbps
    Width                          : 848 pixels
    Height                         : 480 pixels
    Display aspect ratio           : 16:9
    Frame rate mode                : Constant
    Frame rate                     : 29.970 fps
    Color space                    : YUV
    Chroma subsampling             : 4:2:0
    Bit depth                      : 8 bits
    Scan type                      : Progressive
    Bits/(Pixel*Frame)             : 0.053
    Stream size                    : 215 MiB (83%)

    Audio
    ID                             : 2
    Format                         : AAC
    Format/Info                    : Advanced Audio Codec
    Format profile                 : LC
    Codec ID                       : 40
    Duration                       : 46mn 32s
    Bit rate mode                  : Variable
    Bit rate                       : 128 Kbps
    Maximum bit rate               : 137 Kbps
    Channel count                  : 2 channels
    Channel positions              : Front: L R
    Sampling rate                  : 48.0 KHz
    Compression mode               : Lossy







    0 0

    Original Post: Queen's.Flower.E24.150531.HDTV.XviD-LIMO

    http://thetvdb.com/?tab=series&id=293195
    Details
    Title: 여왕의 꽃 / Yeowangeui Ggot
    Previously known as: 적도의 꽃 (Flower of the Equator)
    Genre: Melodrama
    Episodes: 50
    Broadcast network: MBC
    Broadcast period: 2015-Mar-14 to 2015-???-??
    Air time: Saturday & Sunday 21:55

    Synopsis
    Rena Jung (Kim Sung Ryung) is a beautiful, but ambitious star chef who hosts her own cooking show. Her husband, Park Min-Joon (Lee Jong Hyuk), is the first son of a family that runs a large company. Their relationship is not so good, but they try to show other people they are still in love.

    In the past, Rena Jung abandoned her daughter for a chance at success. Now, her daughter, Kang Yi Sol (Lee Sung Kyung) appears in front of her. Kang Yi Sol resents her mother for abandoning her.

    Park Jae Joon (Yoon Park) is the husband's younger brother. He is popular with women, but he is attracted to Kang Yi-Sol.

    Cast
    Kim Sung Ryung as Rena Jung / Jung Eun Hye
    Lee Sung Kyung as Kang Yi Sol
    Yoon Park as Park Jae Joon
    Lee Jong Hyuk as Park Min Joon








    Code
    Video
    ID                                       : 0
    Format                                   : MPEG-4 Visual
    Format profile                           : Advanced Simple@L5
    Format settings, BVOP                    : No
    Format settings, QPel                    : No
    Format settings, GMC                     : No warppoints
    Format settings, Matrix                  : Default (MPEG)
    Codec ID                                 : XVID
    Codec ID/Hint                            : XviD
    Duration                                 : 1h 29mn
    Bit rate                                 : 1 388 Kbps
    Width                                    : 624 pixels
    Height                                   : 352 pixels
    Display aspect ratio                     : 16:9
    Frame rate                               : 29.970 fps
    Color space                              : YUV
    Chroma subsampling                       : 4:2:0
    Bit depth                                : 8 bits
    Scan type                                : Progressive
    Compression mode                         : Lossy
    Bits/(Pixel*Frame)                       : 0.211
    Stream size                              : 886 MiB (87%)
    Writing library                          : XviD 1.2.1 (UTC 2008-12-04)

    Audio
    ID                                       : 1
    Format                                   : MPEG Audio
    Format version                           : Version 1
    Format profile                           : Layer 3
    Mode                                     : Joint stereo
    Mode extension                           : MS Stereo
    Codec ID                                 : 55
    Codec ID/Hint                            : MP3
    Duration                                 : 1h 29mn
    Bit rate mode                            : Constant
    Bit rate                                 : 128 Kbps
    Channel(s)                               : 2 channels
    Sampling rate                            : 48.0 KHz
    Compression mode                         : Lossy
    Stream size                              : 81.7 MiB (8%)
    Alignment                                : Aligned on interleaves
    Writing library                          : LAME3.98.2



    0 0

    Original Post: Queen's.Flower.E24.150531.HDTV.H264.720p-LIMO

    http://thetvdb.com/?tab=series&id=293195
    Title: 여왕의 꽃 / Yeowangeui Ggot
    Previously known as: 적도의 꽃 (Flower of the Equator)
    Genre: Melodrama
    Episodes: 50
    Broadcast network: MBC
    Broadcast period: 2015-Mar-14 to 2015-???-??
    Air time: Saturday & Sunday 21:55

    Synopsis
    Rena Jung (Kim Sung Ryung) is a beautiful, but ambitious star chef who hosts her own cooking show. Her husband, Park Min-Joon (Lee Jong Hyuk), is the first son of a family that runs a large company. Their relationship is not so good, but they try to show other people they are still in love.

    In the past, Rena Jung abandoned her daughter for a chance at success. Now, her daughter, Kang Yi Sol (Lee Sung Kyung) appears in front of her. Kang Yi Sol resents her mother for abandoning her.

    Park Jae Joon (Yoon Park) is the husband's younger brother. He is popular with women, but he is attracted to Kang Yi-Sol.

    Cast
    Kim Sung Ryung as Rena Jung / Jung Eun Hye
    Lee Sung Kyung as Kang Yi Sol
    Yoon Park as Park Jae Joon
    Lee Jong Hyuk as Park Min Joon






    Code
    Video
    ID                             : 1
    Format                         : AVC
    Format/Info                    : Advanced Video Codec
    Format profile                 : High@L5.1
    Format settings, CABAC         : Yes
    Format settings, ReFrames      : 4 frames
    Codec ID                       : V_MPEG4/ISO/AVC
    Duration                       : 1h 24mn
    Bit rate                       : 887 Kbps
    Nominal bit rate               : 2 496 Kbps
    Width                          : 1 280 pixels
    Height                         : 720 pixels
    Display aspect ratio           : 16:9
    Frame rate mode                : Constant
    Frame rate                     : 29.970 fps
    Color space                    : YUV
    Chroma subsampling             : 4:2:0
    Bit depth                      : 8 bits
    Scan type                      : Progressive
    Bits/(Pixel*Frame)             : 0.032
    Stream size                    : 535 MiB (68%)
    Writing library                : x264 core 130 r2273 b3065e6
    Encoding settings              : cabac=1 / ref=3 / deblock=1:0:0 / analyse=0x3:0x113 / me=hex / subme=7 / psy=1 / psy_rd=1.00:0.00 / mixed_ref=1 / me_range=16 / chroma_me=1 / trellis=1 / 8x8dct=1 / cqm=0 / deadzone=21,11 / fast_pskip=1 / chroma_qp_offset=-2 / threads=1 / lookahead_threads=1 / sliced_threads=0 / nr=0 / decimate=1 / interlaced=0 / bluray_compat=0 / constrained_intra=0 / bframes=3 / b_pyramid=2 / b_adapt=1 / b_bias=0 / direct=1 / weightb=1 / open_gop=0 / weightp=2 / keyint=300 / keyint_min=29 / scenecut=40 / intra_refresh=0 / rc_lookahead=40 / rc=2pass / mbtree=1 / bitrate=2496 / ratetol=1.0 / qcomp=0.60 / qpmin=0 / qpmax=69 / qpstep=4 / cplxblur=20.0 / qblur=0.5 / vbv_maxrate=300000 / vbv_bufsize=300000 / nal_hrd=none / ip_ratio=1.40 / aq=1:1.00
    Default                        : Yes
    Forced                         : No

    Audio
    ID                             : 2
    Format                         : AC-3
    Format/Info                    : Audio Coding 3
    Mode extension                 : CM (complete main)
    Format settings, Endianness    : Big
    Codec ID                       : A_AC3
    Duration                       : 1h 24mn
    Bit rate mode                  : Constant
    Bit rate                       : 384 Kbps
    Channel(s)                     : 2 channels
    Channel positions              : Front: L R
    Sampling rate                  : 44.1 KHz
    Bit depth                      : 16 bits
    Compression mode               : Lossy
    Stream size                    : 232 MiB (30%)
    Language                       : Korean
    Default                        : Yes
    Forced                         : No



    0 0

    Original Post: Divorce.Lawyer.In.Love.E14.150531.HDTV.XviD-LIMO

    http://thetvdb.com/?tab=series&id=293864&lid=7
    Details
    Title: 이혼변호사는 연애중 / Yihonbyunhosaneun Yeonaejoong
    Genre: Romance, comedy
    Episodes: 16
    Broadcast network: SBS
    Broadcast period: 2015-Apr-18 to 2015-TBA
    Air time: Saturday & Sunday 22:00
    Original Soundtrack: Divorce Lawyer in Love OST
    Synopsis
    Go Cheok Hee is a successful divorce lawyer who treated So Jung Woo terribly when he was her firm's office manager. The tables are turned when Cheok Hee loses her license and can no longer practice law and Jung Woo has become a successful lawyer. The two cross paths again when Cheok Hee becomes Jung Woo's office manager.

    Cast
    Jo Yeo Jung as Go Cheok Hee
    Lee Bit Na as young Go Cheok Hee
    Yun Woo Jin as So Jung Woo
    Shim Hyung Tak as Bong Min Kyu
    Wang Ji Won as Jo Soo Ah








    Code
    Video
    ID                                       : 0
    Format                                   : MPEG-4 Visual
    Format profile                           : Advanced Simple@L5
    Format settings, BVOP                    : No
    Format settings, QPel                    : No
    Format settings, GMC                     : No warppoints
    Format settings, Matrix                  : Default (MPEG)
    Codec ID                                 : XVID
    Codec ID/Hint                            : XviD
    Duration                                 : 1h 29mn
    Bit rate                                 : 1 388 Kbps
    Width                                    : 624 pixels
    Height                                   : 352 pixels
    Display aspect ratio                     : 16:9
    Frame rate                               : 29.970 fps
    Color space                              : YUV
    Chroma subsampling                       : 4:2:0
    Bit depth                                : 8 bits
    Scan type                                : Progressive
    Compression mode                         : Lossy
    Bits/(Pixel*Frame)                       : 0.211
    Stream size                              : 886 MiB (87%)
    Writing library                          : XviD 1.2.1 (UTC 2008-12-04)

    Audio
    ID                                       : 1
    Format                                   : MPEG Audio
    Format version                           : Version 1
    Format profile                           : Layer 3
    Mode                                     : Joint stereo
    Mode extension                           : MS Stereo
    Codec ID                                 : 55
    Codec ID/Hint                            : MP3
    Duration                                 : 1h 29mn
    Bit rate mode                            : Constant
    Bit rate                                 : 128 Kbps
    Channel(s)                               : 2 channels
    Sampling rate                            : 48.0 KHz
    Compression mode                         : Lossy
    Stream size                              : 81.7 MiB (8%)
    Alignment                                : Aligned on interleaves
    Writing library                          : LAME3.98.2



older | 1 | .... | 1356 | 1357 | (Page 1358) | 1359 | 1360 | .... | 1405 | newer