Are you the publisher? Claim or contact us about this channel


Embed this content in your HTML

Search

Report adult content:

click to rate:

Account: (login)

More Channels


Showcase


Channel Catalog


Channel Description:

Asia Torrents RSS Feed

older | 1 | .... | 1359 | 1360 | (Page 1361) | 1362 | 1363 | .... | 1405 | newer

    0 0

    Original Post: TVB The.Empress.of.China.E34.HDTV.H264.2Audio.720p-CensoredCleavages

    Detail:
    Title: Empress Of China
    AKA:武媚娘傳奇
    Genre: Historical fiction
    Release Date: April 26, 2015 - July 4, 2015
    Episodes: 70
    Director: Go Yik Chun
    Country: China
    Language: Track 1: Mandarin/ Track 2: Cantonese dub
    Subtitles: English (srt embedded)
    http://thetvdb.com/?tab=series&id=289782

    Fan Bingbing as Wu Meiniang
    Zhang Fengyi as Li Shimin
    Aarif Rahman as Li Zhi
    Janine Chang as Xu Hui
    Li Chen as Li Mu
    Chang Ting as Consort Wei
    Wu Xiubo as Zhang Jianzhi
    Viann Zhang as Consort Xiao
    Kathy Chow as Consort Yang
    Wang Huichun as Zhangsun Wuji
    Lee Lee-jen as Li Chengqian
    Li Jie as Li Ke
    Yu Haoming as Li Chunfeng

    Before she was the most famous female ruler in Chinese history, Wu Mei Liang was a woman vying for her husbands’ love. While her first husband kept her at arm’s length by a prophecy foretelling a woman of Wu stealing the Tang Dynasty, her second husband welcomed her with open arms. During her time as a minor consort to Li Shi Min, she learned how an effective Emperor rule his court. Using that knowledge, she helped Li Zhi take back power from his Regent, and herself into the position of Empress. She co-ruled with Li Zhi until his death, after which she ruled the country in her own right.






    Code
    Video
    ID                             : 1
    Format                         : AVC
    Format/Info                    : Advanced Video Codec
    Format profile                 : Main@L4.0
    Format settings, CABAC         : Yes
    Format settings, ReFrames      : 4 frames
    Codec ID                       : V_MPEG4/ISO/AVC
    Bit rate                       : 4 500 Kbps
    Width                          : 1 280 pixels
    Height                         : 720 pixels
    Display aspect ratio           : 16:9
    Frame rate mode                : Variable
    Color space                    : YUV
    Chroma subsampling             : 4:2:0
    Bit depth                      : 8 bits
    Scan type                      : Progressive
    Title                          : The.Empress.of.China.E34.HDTV.H264.2Audio.720p-CensoredCleavages
    Writing library                : x264 core 130 r2273 b3065e6
    Language                       : Chinese
    Default                        : Yes
    Forced                         : No
    Color primaries                : BT.709
    Transfer characteristics       : BT.709
    Matrix coefficients            : BT.709

    Audio #1
    ID                             : 2
    Format                         : AC-3
    Format/Info                    : Audio Coding 3
    Mode extension                 : CM (complete main)
    Format settings, Endianness    : Big
    Codec ID                       : A_AC3
    Duration                       : 44mn 27s
    Bit rate mode                  : Constant
    Bit rate                       : 384 Kbps
    Channel(s)                     : 6 channels
    Channel positions              : Front: L C R, Side: L R, LFE
    Sampling rate                  : 48.0 KHz
    Bit depth                      : 16 bits
    Compression mode               : Lossy
    Stream size                    : 122 MiB (8%)
    Title                          : Mandarin
    Language                       : Chinese
    Default                        : Yes
    Forced                         : No

    Audio #2
    ID                             : 3
    Format                         : AC-3
    Format/Info                    : Audio Coding 3
    Mode extension                 : CM (complete main)
    Format settings, Endianness    : Big
    Codec ID                       : A_AC3
    Duration                       : 44mn 27s
    Bit rate mode                  : Constant
    Bit rate                       : 192 Kbps
    Channel(s)                     : 2 channels
    Channel positions              : Front: L R
    Sampling rate                  : 48.0 KHz
    Bit depth                      : 16 bits
    Compression mode               : Lossy
    Stream size                    : 61.1 MiB (4%)
    Title                          : Cantonese
    Language                       : Chinese
    Default                        : No
    Forced                         : No

    Text
    ID                             : 4
    Format                         : UTF-8
    Codec ID                       : S_TEXT/UTF8
    Codec ID/Info                  : UTF-8 Plain Text
    Default                        : Yes
    Forced                         : No



    0 0

    Original Post: TVB The.Empress.of.China.E35.HDTV.H264.2Audio.720p-CensoredCleavages

    Detail:
    Title: Empress Of China
    AKA:武媚娘傳奇
    Genre: Historical fiction
    Release Date: April 26, 2015 - July 4, 2015
    Episodes: 70
    Director: Go Yik Chun
    Country: China
    Language: Track 1: Mandarin/ Track 2: Cantonese dub
    Subtitles: English (srt embedded)
    http://thetvdb.com/?tab=series&id=289782

    Fan Bingbing as Wu Meiniang
    Zhang Fengyi as Li Shimin
    Aarif Rahman as Li Zhi
    Janine Chang as Xu Hui
    Li Chen as Li Mu
    Chang Ting as Consort Wei
    Wu Xiubo as Zhang Jianzhi
    Viann Zhang as Consort Xiao
    Kathy Chow as Consort Yang
    Wang Huichun as Zhangsun Wuji
    Lee Lee-jen as Li Chengqian
    Li Jie as Li Ke
    Yu Haoming as Li Chunfeng

    Before she was the most famous female ruler in Chinese history, Wu Mei Liang was a woman vying for her husbands’ love. While her first husband kept her at arm’s length by a prophecy foretelling a woman of Wu stealing the Tang Dynasty, her second husband welcomed her with open arms. During her time as a minor consort to Li Shi Min, she learned how an effective Emperor rule his court. Using that knowledge, she helped Li Zhi take back power from his Regent, and herself into the position of Empress. She co-ruled with Li Zhi until his death, after which she ruled the country in her own right.






    Code
    Video
    ID                             : 1
    Format                         : AVC
    Format/Info                    : Advanced Video Codec
    Format profile                 : Main@L4.0
    Format settings, CABAC         : Yes
    Format settings, ReFrames      : 4 frames
    Codec ID                       : V_MPEG4/ISO/AVC
    Bit rate                       : 4 500 Kbps
    Width                          : 1 280 pixels
    Height                         : 720 pixels
    Display aspect ratio           : 16:9
    Frame rate mode                : Variable
    Color space                    : YUV
    Chroma subsampling             : 4:2:0
    Bit depth                      : 8 bits
    Scan type                      : Progressive
    Title                          : The.Empress.of.China.E35.HDTV.H264.2Audio.720p-CensoredCleavages
    Writing library                : x264 core 130 r2273 b3065e6
    Language                       : Chinese
    Default                        : Yes
    Forced                         : No
    Color primaries                : BT.709
    Transfer characteristics       : BT.709
    Matrix coefficients            : BT.709

    Audio #1
    ID                             : 2
    Format                         : AC-3
    Format/Info                    : Audio Coding 3
    Mode extension                 : CM (complete main)
    Format settings, Endianness    : Big
    Codec ID                       : A_AC3
    Duration                       : 44mn 27s
    Bit rate mode                  : Constant
    Bit rate                       : 384 Kbps
    Channel(s)                     : 6 channels
    Channel positions              : Front: L C R, Side: L R, LFE
    Sampling rate                  : 48.0 KHz
    Bit depth                      : 16 bits
    Compression mode               : Lossy
    Stream size                    : 122 MiB (8%)
    Title                          : Mandarin
    Language                       : Chinese
    Default                        : Yes
    Forced                         : No

    Audio #2
    ID                             : 3
    Format                         : AC-3
    Format/Info                    : Audio Coding 3
    Mode extension                 : CM (complete main)
    Format settings, Endianness    : Big
    Codec ID                       : A_AC3
    Duration                       : 44mn 27s
    Bit rate mode                  : Constant
    Bit rate                       : 192 Kbps
    Channel(s)                     : 2 channels
    Channel positions              : Front: L R
    Sampling rate                  : 48.0 KHz
    Bit depth                      : 16 bits
    Compression mode               : Lossy
    Stream size                    : 61.1 MiB (4%)
    Title                          : Cantonese
    Language                       : Chinese
    Default                        : No
    Forced                         : No

    Text
    ID                             : 4
    Format                         : UTF-8
    Codec ID                       : S_TEXT/UTF8
    Codec ID/Info                  : UTF-8 Plain Text
    Default                        : Yes
    Forced                         : No



    0 0

    Original Post: My.Unfortunate.Boyfriend.E16.END.150530.HDTV.H264.720p-WITH

    Drama: My Unfortunate Boyfriend (literal title)
    Revised romanization: Naui Yoogamseureowoon Namjachingoo
    Hangul: 나의 유감스러운 남자친구
    Director: Nam Ki-Hoon
    Writer: Lee Jae-Yoon
    Network: MBC Drama
    Episodes: 16
    Release Date: April 10 - May 30, 2015
    Runtime: Fri & Sat 20:00
    Language: Korean
    Country: South Korea

    http://thetvdb.com/?tab=series&id=293885

    Plot

    Yoo Ji Na (Yang Jin Sung) is a budding career woman who has absolutely no issues with lying to get what she wants. But when she falls for the innocent and naive Yoon Tae Woon (No Min Woo), who is truthful to a fault, their budding romance becomes a liability for Ji Na's cutthroat corporate job. Can these unlikely lovers stay true to themselves and manage to stay together?

    Cast

    No Min-Woo - Yoon Tae-Woon
    Yang Jin-Sung - Yoo Ji-Na
    Yoon Hak - Hee-Chul
    Kwak Ji-Min - Hye-Mi
    Kim Eun-Jung - Julia
    Kim Byeong-Se
    Yun Ju-Sang
    Kim Jin-Geun
    Kil Yong-Woo
    Park Jin-Joo
    Lee Yong-Joo






    Code

    Video
    ID                             : 0
    Format                         : AVC
    Format/Info                    : Advanced Video Codec
    Format profile                 : High@L4.1
    Format settings, CABAC         : Yes
    Format settings, ReFrames      : 3 frames
    Codec ID                       : H264
    Duration                       : 48mn 59s
    Bit rate                       : 2 518 Kbps
    Width                          : 1 280 pixels
    Height                         : 720 pixels
    Display aspect ratio           : 16:9
    Frame rate                     : 29.970 fps
    Color space                    : YUV
    Chroma subsampling             : 4:2:0
    Bit depth                      : 8 bits
    Scan type                      : Progressive
    Bits/(Pixel*Frame)             : 0.091
    Stream size                    : 882 MiB (93%)

    Audio
    ID                             : 1
    Format                         : MPEG Audio
    Format version                 : Version 1
    Format profile                 : Layer 3
    Mode                           : Joint stereo
    Codec ID                       : 55
    Codec ID/Hint                  : MP3
    Duration                       : 48mn 59s
    Bit rate mode                  : Constant
    Bit rate                       : 192 Kbps
    Channel(s)                     : 2 channels
    Sampling rate                  : 48.0 KHz
    Compression mode               : Lossy
    Delay relative to video        : 11ms
    Stream size                    : 67.3 MiB (7%)
    Alignment                      : Split accross interleaves
    Interleave, duration           : 33 ms (1.00 video frame)
    Interleave, preload duration   : 500 ms




    0 0

    Original Post: My Unfortunate Boyfriend (2015) Complete 720p

    Drama: My Unfortunate Boyfriend (literal title)
    Revised romanization: Naui Yoogamseureowoon Namjachingoo
    Hangul: 나의 유감스러운 남자친구
    Director: Nam Ki-Hoon
    Writer: Lee Jae-Yoon
    Network: MBC Drama
    Episodes: 16
    Release Date: April 10 - May 30, 2015
    Runtime: Fri & Sat 20:00
    Language: Korean
    Country: South Korea

    http://thetvdb.com/?tab=series&id=293885

    Plot

    Yoo Ji Na (Yang Jin Sung) is a budding career woman who has absolutely no issues with lying to get what she wants. But when she falls for the innocent and naive Yoon Tae Woon (No Min Woo), who is truthful to a fault, their budding romance becomes a liability for Ji Na's cutthroat corporate job. Can these unlikely lovers stay true to themselves and manage to stay together?

    Cast

    No Min-Woo - Yoon Tae-Woon
    Yang Jin-Sung - Yoo Ji-Na
    Yoon Hak - Hee-Chul
    Kwak Ji-Min - Hye-Mi
    Kim Eun-Jung - Julia
    Kim Byeong-Se
    Yun Ju-Sang
    Kim Jin-Geun
    Kil Yong-Woo
    Park Jin-Joo
    Lee Yong-Joo






    Code

    Video
    ID                             : 0
    Format                         : AVC
    Format/Info                    : Advanced Video Codec
    Format profile                 : High@L4.1
    Format settings, CABAC         : Yes
    Format settings, ReFrames      : 3 frames
    Codec ID                       : H264
    Duration                       : 48mn 59s
    Bit rate                       : 2 518 Kbps
    Width                          : 1 280 pixels
    Height                         : 720 pixels
    Display aspect ratio           : 16:9
    Frame rate                     : 29.970 fps
    Color space                    : YUV
    Chroma subsampling             : 4:2:0
    Bit depth                      : 8 bits
    Scan type                      : Progressive
    Bits/(Pixel*Frame)             : 0.091
    Stream size                    : 882 MiB (93%)

    Audio
    ID                             : 1
    Format                         : MPEG Audio
    Format version                 : Version 1
    Format profile                 : Layer 3
    Mode                           : Joint stereo
    Codec ID                       : 55
    Codec ID/Hint                  : MP3
    Duration                       : 48mn 59s
    Bit rate mode                  : Constant
    Bit rate                       : 192 Kbps
    Channel(s)                     : 2 channels
    Sampling rate                  : 48.0 KHz
    Compression mode               : Lossy
    Delay relative to video        : 11ms
    Stream size                    : 67.3 MiB (7%)
    Alignment                      : Split accross interleaves
    Interleave, duration           : 33 ms (1.00 video frame)
    Interleave, preload duration   : 500 ms




    0 0

    Original Post: Kabukimono Keiji EP08 720p HDTV x264 AAC-DoA

    Title: Kabukimono Keiji
    Genre: jidaigeki
    Number of Episodes: 11
    Broadcaster NHK
    Air date: 04/09/2015 - 06/18/2015
    Air time: Thursday, 20:00
    Subtitles: None - [url=][/url]
    RAW credit to DoA


    Cast
    Spoiler:show

       Fuji Tatsuya as Maeda Keiji
       Nakamura Aoi as Maeda Shinkurou
       Nishiuchi Mariya as Maeda Sano
       Kudo Asuka as Yasuda Katsunoshin
       Enami Kyoko as Maeda Mitsu
       Aoyama Noriko as Maeda Hana
       Dan Mitsu as Shizuku
       Yoo Min as Yukiyo
       Tabata Tomoko as Take
       Maeda Beverly as Izumi-kyoku
       Kakuda Nobuaki as Kitagawa Jiuemon
       Ibu Masato as Tentoku Osho
       Hino Shohei as Matayoshi


    Synopsis
    Spoiler:show

    1608 (Keichou 13) was the year Tokugawa Ieyasu won the Battle of Sekigahara. Under Ieyasu’s reign the Uesugis had their vast 1,200,000 koku holdings in Aizu drastically curtailed to 300,000 koku in Yonezawa, Dewa Province. Many vassals give up on the future and leave the Uesugis. In the midst of this, Maeda Keiji continues to remain in Yonezawa and chooses to live with people trying to cope with difficult times. Over 60, he lives in a shabby, secluded hut and contemplates the “right time”. On the other hand, his son, Shinkuro, objects to him being fond of drinking and absorbed in cultural pursuits such as poetry, painting and calligraphy, and nothing like the brave general he is famed to be with the rumours of the Tokugawa plotting the demise of the Uesugis. However, Keiji “performs” when it comes to the crunch. Although he has considered retirement, he is willing to sacrifice himself in order to protect the Uesugis. Shinkuro is gradually fascinated by his magnanimity and his way of life. Keiji is in no hurry to hand over the reins of the family to Shinkuro. Furthermore, Keiji’s daughter, Sano, comes from the Maedas of Kaga to bring her father back and both Shinkuro and Sano are shocked to learn of the existence of a sibling for the first time. In the midst of this, Kitagawa Jiemon a wandering samurai who once fought with Keiji, challenges him to a duel.


    Mediainfo
    Spoiler:show

    Code
    Format                                   : Matroska
    Format version                           : Version 4 / Version 2
    File size                                : 879 MiB
    Duration                                 : 42mn 59s
    Overall bit rate                         : 2 859 Kbps
    Encoded date                             : UTC 2015-06-01 14:23:05
    Writing application                      : mkvmerge v7.0.0 ('Where We Going') 32bit built on Jun  9 2014 15:08:34
    Writing library                          : libebml v1.3.0 + libmatroska v1.4.1
    DURATION                                 : 00:42:59.711000000
    NUMBER_OF_FRAMES                         : 120924
    NUMBER_OF_BYTES                          : 45346744
    _STATISTICS_WRITING_APP                  : mkvmerge v7.0.0 ('Where We Going') 32bit built on Jun  9 2014 15:08:34
    _STATISTICS_WRITING_DATE_UTC             : 2015-06-01 14:23:05
    _STATISTICS_TAGS                         : BPS DURATION NUMBER_OF_FRAMES NUMBER_OF_BYTES

    Video
    ID                                       : 1
    Format                                   : AVC
    Format/Info                              : Advanced Video Codec
    Format profile                           : High@L4.1
    Format settings, CABAC                   : Yes
    Format settings, ReFrames                : 9 frames
    Codec ID                                 : V_MPEG4/ISO/AVC
    Duration                                 : 42mn 59s
    Width                                    : 1 280 pixels
    Height                                   : 720 pixels
    Display aspect ratio                     : 16:9
    Frame rate mode                          : Constant
    Frame rate                               : 29.970 fps
    Color space                              : YUV
    Chroma subsampling                       : 4:2:0
    Bit depth                                : 8 bits
    Scan type                                : Progressive
    Writing library                          : x264 core 146 r2538 121396c
    Encoding settings                        : cabac=1 / ref=9 / deblock=1:-3:-3 / analyse=0x3:0x133 / me=umh / subme=10 / psy=1 / psy_rd=1.00:0.00 / mixed_ref=1 / me_range=48 / chroma_me=1 / trellis=2 / 8x8dct=1 / cqm=0 / deadzone=21,11 / fast_pskip=0 / chroma_qp_offset=-2 / threads=12 / lookahead_threads=2 / sliced_threads=0 / nr=0 / decimate=1 / interlaced=0 / bluray_compat=0 / constrained_intra=0 / bframes=8 / b_pyramid=2 / b_adapt=2 / b_bias=0 / direct=3 / weightb=1 / open_gop=0 / weightp=2 / keyint=300 / keyint_min=29 / scenecut=40 / intra_refresh=0 / rc_lookahead=60 / rc=crf / mbtree=1 / crf=18.0 / qcomp=0.60 / qpmin=0 / qpmax=69 / qpstep=4 / ip_ratio=1.40 / aq=1:1.00
    Language                                 : English
    Default                                  : Yes
    Forced                                   : No
    DURATION                                 : 00:42:59.810000000
    NUMBER_OF_FRAMES                         : 77317
    NUMBER_OF_BYTES                          : 875850121
    _STATISTICS_WRITING_APP                  : mkvmerge v7.0.0 ('Where We Going') 32bit built on Jun  9 2014 15:08:34
    _STATISTICS_WRITING_DATE_UTC             : 2015-06-01 14:23:05
    _STATISTICS_TAGS                         : BPS DURATION NUMBER_OF_FRAMES NUMBER_OF_BYTES

    Audio
    ID                                       : 2
    Format                                   : AAC
    Format/Info                              : Advanced Audio Codec
    Format profile                           : LC
    Codec ID                                 : A_AAC
    Duration                                 : 42mn 59s
    Channel(s)                               : 2 channels
    Channel positions                        : Front: L R
    Sampling rate                            : 48.0 KHz
    Compression mode                         : Lossy
    Delay relative to video                  : 2ms
    Default                                  : Yes
    Forced                                   : No








    0 0

    Original Post: Wild Heroes EP05 720p HDTV x264 AAC-DoA

    Title (English): Wild Heroes
    Format: Renzoku
    Genre: Action
    Episodes: TBD
    Broadcast network: NTV
    Broadcast period: 2015-Apr-19 start
    Air time: Sunday 22:30
    Theme song: Kimi ga Ita kara by Crystal Kay
    Subtitles: None - [url=/][/url]
    RAW credit to DoA


    Cast
    Spoiler:show


       TAKAHIRO as Segawa Kiichi
       Aoyagi Sho
       Iwata Takanori
       Nogae Shuhei (野替愁平)
       Yagi Masayasu (八木将康)
       Sato Taiki (佐藤大樹)
       Kuroki Keiji (黒木啓司)
       Sakurada Hiyori (桜田ひより) as Hikari
       Mizusawa Elena
       Hasegawa Hatsunori
       Asaka Mayumi
       Tobita Hikari (飛田光里)
       Kusamura Reiko
       Sakai Miki
       Nakamura Shizuka
       Ninomiya Ai (二宮愛)
       Kazuki Saya
       Hirata Kaoru
       Tsukamoto Takashi
       Naitou Takashi


    Synopsis
    Spoiler:show

    A former delinquent, Segawa Kiichi (TAKAHIRO), happens to encounter a lonely 10-year-old girl, Hikari (Sakurada Hiyori), who looks like she is going to be killed by a gangster. He saves her by reflex, but does not get an answer when he asks what is going on. Because of that, he is mysteriously attacked time and again. With his own life in sudden danger, he calls on six friends (Aoyagi Sho, Iwata Takanori, Sato Taiki, Nogae Shuhei, Yagi Masayasu, Kuroki Keiji) from his high school days as a delinquent. These enthusiastic, single-minded men band together to protect her to the end.


    Mediainfo
    Spoiler:show

    Code
    Format                                   : Matroska
    Format version                           : Version 4 / Version 2
    File size                                : 735 MiB
    Duration                                 : 46mn 24s
    Overall bit rate                         : 2 214 Kbps
    Encoded date                             : UTC 2015-06-01 14:23:49
    Writing application                      : mkvmerge v7.0.0 ('Where We Going') 32bit built on Jun  9 2014 15:08:34
    Writing library                          : libebml v1.3.0 + libmatroska v1.4.1
    DURATION                                 : 00:46:24.405000000
    NUMBER_OF_FRAMES                         : 130519
    NUMBER_OF_BYTES                          : 65651057
    _STATISTICS_WRITING_APP                  : mkvmerge v7.0.0 ('Where We Going') 32bit built on Jun  9 2014 15:08:34
    _STATISTICS_WRITING_DATE_UTC             : 2015-06-01 14:23:49
    _STATISTICS_TAGS                         : BPS DURATION NUMBER_OF_FRAMES NUMBER_OF_BYTES

    Video
    ID                                       : 1
    Format                                   : AVC
    Format/Info                              : Advanced Video Codec
    Format profile                           : High@L4.1
    Format settings, CABAC                   : Yes
    Format settings, ReFrames                : 9 frames
    Codec ID                                 : V_MPEG4/ISO/AVC
    Duration                                 : 46mn 24s
    Width                                    : 1 280 pixels
    Height                                   : 720 pixels
    Display aspect ratio                     : 16:9
    Frame rate mode                          : Constant
    Frame rate                               : 29.970 fps
    Color space                              : YUV
    Chroma subsampling                       : 4:2:0
    Bit depth                                : 8 bits
    Scan type                                : Progressive
    Writing library                          : x264 core 146 r2538 121396c
    Encoding settings                        : cabac=1 / ref=9 / deblock=1:-3:-3 / analyse=0x3:0x133 / me=umh / subme=10 / psy=1 / psy_rd=1.00:0.00 / mixed_ref=1 / me_range=48 / chroma_me=1 / trellis=2 / 8x8dct=1 / cqm=0 / deadzone=21,11 / fast_pskip=0 / chroma_qp_offset=-2 / threads=12 / lookahead_threads=2 / sliced_threads=0 / nr=0 / decimate=1 / interlaced=0 / bluray_compat=0 / constrained_intra=0 / bframes=8 / b_pyramid=2 / b_adapt=2 / b_bias=0 / direct=3 / weightb=1 / open_gop=0 / weightp=2 / keyint=300 / keyint_min=29 / scenecut=40 / intra_refresh=0 / rc_lookahead=60 / rc=crf / mbtree=1 / crf=19.0 / qcomp=0.60 / qpmin=0 / qpmax=69 / qpstep=4 / ip_ratio=1.40 / aq=1:1.00
    Language                                 : English
    Default                                  : Yes
    Forced                                   : No
    DURATION                                 : 00:46:24.782000000
    NUMBER_OF_FRAMES                         : 83460
    NUMBER_OF_BYTES                          : 703999842
    _STATISTICS_WRITING_APP                  : mkvmerge v7.0.0 ('Where We Going') 32bit built on Jun  9 2014 15:08:34
    _STATISTICS_WRITING_DATE_UTC             : 2015-06-01 14:23:49
    _STATISTICS_TAGS                         : BPS DURATION NUMBER_OF_FRAMES NUMBER_OF_BYTES

    Audio
    ID                                       : 2
    Format                                   : AAC
    Format/Info                              : Advanced Audio Codec
    Format profile                           : LC
    Codec ID                                 : A_AAC
    Duration                                 : 46mn 24s
    Channel(s)                               : 2 channels
    Channel positions                        : Front: L R
    Sampling rate                            : 48.0 KHz
    Compression mode                         : Lossy
    Delay relative to video                  : 8ms
    Default                                  : Yes
    Forced                                   : No








    0 0

    Original Post: Fuben na Benriya EP08 720p HDTV x264 AAC DoA

    Title (romaji): Fuben na Benriya
    Format: Renzoku
    Genre: Comedy
    Episodes: TBD
    Broadcast network: TV Tokyo
    Broadcast period: 2015-Apr-10 start
    Air time: Friday 24:12
    Theme song: The Place Has No Name by Straightener
    Subtitles: English - Monchi  
    RAW credit to DoA


    Cast

       Okada Masaki as Takeyama Jun
       Suzuki Kosuke as Matsui Hideo
       Endo Kenichi as Umemoto Soichi
       Moriyama Eiji (森山栄治)
       Triendl Reina
       Morisaka Hiroyuki (森崎博之)
       Sakuma Mio (さくまみお)
       Tanaka Yoji
       Inoue Takashi


    Synopsis

    Matsui runs a benriya (odd jobs for hire) in a small nameless Hokkaido village. Umemoto has divorced 3 times. Screenwriter Takeyama (Masaki Okada) wants to go to Furano, but the bus to Furano becomes stranded due to a snowstorm. Takeyama stops at a bar to eat something, but at the bar he loses his wallet and cellphone. Takeyama is now obliged to stay in the small and nameless village.

    Matsui, Umemoto and Takeyama are now all at Matsui’s Benriya.  


    Mediainfo
    Spoiler:show

    Code
    Format                                   : Matroska
    Format version                           : Version 4 / Version 2
    File size                                : 787 MiB
    Duration                                 : 29mn 14s
    Overall bit rate                         : 3 762 Kbps
    Encoded date                             : UTC 2015-06-01 14:21:43
    Writing application                      : mkvmerge v7.9.0 ('Birds') 64bit
    Writing library                          : libebml v1.3.1 + libmatroska v1.4.2
    DURATION                                 : 00:29:13.962000000
    NUMBER_OF_FRAMES                         : 82217
    NUMBER_OF_BYTES                          : 41355129
    _STATISTICS_WRITING_APP                  : mkvmerge v7.9.0 ('Birds') 64bit
    _STATISTICS_WRITING_DATE_UTC             : 2015-06-01 14:21:43
    _STATISTICS_TAGS                         : BPS DURATION NUMBER_OF_FRAMES NUMBER_OF_BYTES

    Video
    ID                                       : 1
    Format                                   : AVC
    Format/Info                              : Advanced Video Codec
    Format profile                           : High@L4.1
    Format settings, CABAC                   : Yes
    Format settings, ReFrames                : 9 frames
    Codec ID                                 : V_MPEG4/ISO/AVC
    Duration                                 : 29mn 14s
    Width                                    : 1 280 pixels
    Height                                   : 720 pixels
    Display aspect ratio                     : 16:9
    Frame rate mode                          : Constant
    Frame rate                               : 29.970 fps
    Color space                              : YUV
    Chroma subsampling                       : 4:2:0
    Bit depth                                : 8 bits
    Scan type                                : Progressive
    Writing library                          : x264 core 146 r2538 121396c
    Encoding settings                        : cabac=1 / ref=9 / deblock=1:-3:-3 / analyse=0x3:0x133 / me=umh / subme=10 / psy=1 / psy_rd=1.00:0.15 / mixed_ref=1 / me_range=48 / chroma_me=1 / trellis=2 / 8x8dct=1 / cqm=0 / deadzone=21,11 / fast_pskip=0 / chroma_qp_offset=-3 / threads=12 / lookahead_threads=2 / sliced_threads=0 / nr=0 / decimate=1 / interlaced=0 / bluray_compat=0 / stitchable=1 / constrained_intra=0 / bframes=9 / b_pyramid=2 / b_adapt=2 / b_bias=0 / direct=3 / weightb=1 / open_gop=0 / weightp=2 / keyint=250 / keyint_min=25 / scenecut=40 / intra_refresh=0 / rc_lookahead=250 / rc=crf / mbtree=1 / crf=17.5 / qcomp=0.60 / qpmin=0 / qpmax=69 / qpstep=4 / ip_ratio=1.40 / aq=1:1.00
    Language                                 : Japanese
    Default                                  : Yes
    Forced                                   : No

    Audio #1
    ID                                       : 2
    Format                                   : AAC
    Format/Info                              : Advanced Audio Codec
    Format profile                           : LC
    Codec ID                                 : A_AAC
    Duration                                 : 29mn 14s
    Channel(s)                               : 2 channels
    Channel positions                        : Front: L R
    Sampling rate                            : 48.0 KHz
    Compression mode                         : Lossy
    Delay relative to video                  : 9ms
    Title                                    : Japanese 2.0 AAC
    Language                                 : Japanese
    Default                                  : Yes
    Forced                                   : No

    Audio #2
    ID                                       : 3
    Format                                   : AAC
    Format/Info                              : Advanced Audio Codec
    Format profile                           : LC
    Codec ID                                 : A_AAC
    Duration                                 : 29mn 14s
    Channel(s)                               : 2 channels
    Channel positions                        : Front: L R
    Sampling rate                            : 48.0 KHz
    Compression mode                         : Lossy
    Delay relative to video                  : 9ms
    Title                                    : Commentary by Director Suzui Takayuki
    Language                                 : Japanese
    Default                                  : No
    Forced                                   : No

    Menu
    00:00:00.000                             : ja:Preview
    00:00:05.005                             : ja:Section I
    00:01:07.567                             : ja:Opening
    00:02:01.922                             : ja:Section II
    00:08:05.986                             : ja:Section III
    00:14:42.982                             : ja:Section IV
    00:21:18.944                             : ja:Section V
    00:27:34.853                             : ja:Credits
    00:28:44.923                             : ja:Trailer
    00:28:59.938                             : ja:Advertisement








    0 0

    Original Post: [Album] EXO – LOVE ME RIGHT – The 2nd Album Repackage (2CD)



    http://en.wikipedia.org/wiki/Exo_%28band%29

    EXO – LOVE ME RIGHT – The 2nd Album Repackage
    Release Date: 2015.06.03
    Genre: Dance
    Bit Rate: MP3-320kbps
    credit to hulkpop

    Track List:

    – CD1 –
    01. LOVE ME RIGHT
    02. TENDER LOVE
    03. CALL ME BABY
    04. TRANSFORMER
    05. 시선 둘, 시선 하나 (What If..)
    06. MY ANSWER
    07. EXODUS
    08. EL DORADO
    09. PLAYBOY
    10. FIRST LOVE
    11. HURT
    12. 유성우 [流星雨] (Lady Luck)
    13. BEAUTIFUL
    14. 약속 (EXO 2014)

    – CD2 –
    01. LOVE ME RIGHT (漫遊宇宙)
    02. TENDER LOVE (就是愛)
    03. CALL ME BABY (叫我)
    04. TRANSFORMER (變形女)
    05. 兩個視線, 一個視線 (What If..)
    06. MY ANSWER (我的答案)
    07. EXODUS (逃脫)
    08. EL DORADO (黃金國)
    09. PLAYBOY (壞男孩)
    10. FIRST LOVE (初戀)
    11. HURT (傷害)
    12. 流星雨 (Lady Luck)
    13. BEAUTIFUL (美)
    14. 約定 (EXO 2014)



    0 0

    Original Post: Jigoku de naze warui a.k.a. Why Don't You Play in Hell 2013 1080p Blu-ray Remux AVC DTS-HD MA 5.1 - KRaLiMaRKo - [Extreme Violence & Gore]

    Jigoku de naze warui a.k.a. Why Don't You Play in Hell 2013 1080p Blu-ray Remux AVC DTS-HD MA 5.1 - KRaLiMaRKo


    POSTER



    Profile
    Movie: Why Don't You Play in Hell?
    Romaji: Jigoku de Naze Warui Why Don't You Play in Hell?
    Japanese: 地獄でなぜ悪い Why don’t you play in hell?
    iMDB Rating: 7.3/10
    World Premiere: August 29, 2013 (Venice Film Festival)
    Release Date: September 28, 2013
    Runtime: 129 min.
    Genre: Action  |  Drama  |  Comedy  |  Gangster  |  Filmmaking
    Production Company: Bitters End / T-Joy
    Distributor: T-Joy
    Language: Japanese
    Country: Japan
    Director: Sion Sono
    Writer: Sion Sono
    Producer: Takuyuki Matsuno, Atsushi Moriyama, Tsuyoshi Suzuki
    Cinematographer: Hideo Yamamoto




    Cast:
    Jun Kunimura as Muto
    Shinichi Tsutsumi as Ikegami
    Fumi Nikaido as Michiko
    Hiroki Hasegawa as Director Hirata
    Gen Hoshino as Koji Hashimoto
    Tomochika as Shizue



    Additional Cast Members:
    Itsuji Itao - Masuda
    Hiroyuki Onoue - Detective Tanaka
    Tetsu Watanabe - Detective Kimura
    Tasuku Nagaoka - Mitsuo Yoshimura
    Akihiro Kitamura - hitman
    Megumi Kagurazaka - Junko
    Motoki Fukami - master
    Taro Suwa - Sumita
    Donpei Tsuchihira - Kunihiro Yoshida
    Takamitsu Nonaka - Tetsuo Komuro
    Hideo Nakaizumi - Toshihiro Iizuka
    Nanoka Hara - Michiko (young)
    Tatsuya Nakayama - Director Hirata (young)
    Tsugumi - Ikegami's woman
    Kotou Lorena - Mayu Otsuki
    Ryou Itou - Koji Hashimoto (young)
    Riko Narumi - Yoshiko
    Denden - shopkeeper
    Kyoko Enami - theater employee Ootani
    Kenjiro Ishimaru - Producer Kinoshita
    Daisuke Kuroda
    Kazuki Namioka
    Shinji Kasahara
    Yuya Kawamura
    Aya Yasuda
    Fumi Miyake
    Jun Uchida
    Nobuhiro Nishihara
    Chiba Kazuma
    Kenjiro Nishimoto
    Raiki Yonemoto
    Yoshino Imamura
    Satoshi Shimizu
    Hakase Suidobashi
    Kenji Kawahara
    Akira Yamamoto



    Plot:
    Muto (Jun Kunimura) and Ikegami (Shinichi Tsutsumi) are two gangsters who hate each other, but Ikegami is in love with Muto's actress daughter Michiko (Fumi Nikaido). Meanwhile, Muto attempts to make his wife Shizue's (Tomochika) dream come true which is to have their daughter appear in a movie.

    Koji (Gen Hoshino), who is just a passerby, is mistaken for a movie director. Koji then requests to independent film director Hirata (Hiroki Hasegawa) to cast Michiko as the leading actress in his film. Their situation soon goes completely wrong.



    Spoiler:show
    Violence & Gore: Not Recommended for Anyone 16 or Under.

    Intense violent scenes with plenty of blood and gore. Typical for a Japanese action movie. Most of it can be cartoonish, but still frightening.

    High amounts of gore and violence, although many of it is done comically or in a cartoon-like fashion.

    A woman kills multiple men with a knife. Most of it is done off-screen, save for one who is stabbed many times, where his blood drips down on various on-lookers. A little girl comes across the aftermath.

    A woman kisses a man with glass in his mouth. You see the glass protruding out of his cheek in a semi-realistic fashion. Very intense and violent

    Many shootouts with blood splatters.

    A man is killed with a shovel, but only blood fills the screen, hiding it from view.

    The last scenes of the movie are extremely gory and violent, with two gangs fighting with swords, slashing and cutting each other. Limbs and heads are cut off. A sword cuts through the middle of a man's head and sticks there, but he survives from it. He walks around with the sword still stuck there.

    Four characters get into a fistfight.

    A man gets punched in the face repeatedly. Blood comes down his nose and mouth.



    Review by  Simon Abrams:

    "Sion Sono trawls sub-Tarantino B-movie-pastiche territory with this tedious, over-the-top gorefest."

    "Why Don't You Play in Hell" is a blood-soaked farce about the glory of guerrilla filmmaking: a comedy about a clan of movie brats called "The Fuck Bombers" who insert themselves into a gang war so they can fulfill a high-school pact to create "the greatest movie ever made."  It is also the post-punk writer/director Sion Sono's most accessible film: a middle-aged filmmaker's tribute to the kind of epic-sized gangster-romance he used to fantasize about making.


    It all starts with a infectious toothpaste ad starring young Mitsuko (Nanoka Hara), the daughter of a preening mobster named Muto (Jun Kunimura). The impact of Mitsuko's jingle grows in the minds of everyone around her. Ten years after its appearance, everyone in Mitsuko's (now Fumi Nikaido) orbit remembers her for her rousing toothpaste song, including her dad's rival Ikegami (Shinichi Tsutsumi) and her wide-eyed love interest Koji (Gen Hoshino).

    But while Mitsuko's ad inspires everyone who sees it, it's only the catalyst that motivates the Bombers to make the deranged movie within Sono's movie. The heroine is important in two ways: as both the movie's lead character, and as a muse inspiring the Bombers and Koji (a dejected film buff) to team up, and enlist Muto and Ikegami in making a bloody action spectacular.

    The quality of the Bombers' film is of secondary importance to the at-all-costs energy that leads them to make the film in the first place. They've dreamed of creating a gory action film ever since they were seventeen-year old 35mm fetishists worshipping at the alter of an imaginary Movie God. That dream is realized in a climactic set piece starring legions of "actors" (ie: yakuza thugs) who "really" slaughter each other for their director's pleasure. It's a deliriously cartoon-like orgy of violence that brings to Joe Dante and Tim Burton's grotesque black comedies, the seemingly never-ending climax of "Kill Bill Vol. 1," and Sono's own 1995 Shakespeare-on-speed tragicomedy "Bad Film."

    Sono seems to love the fact that the Bombers are brazen and motivated enough to gravitate towards making a really violent entertainment. There are no body doubles in their film, just a lot of guys stabbing and shooting at each other. Think of "Why Don't You Play in Hell" as a "Let's put on a show!" backstage musical, but instead of music, there's gunshots, swordplay, and projectile vomiting.

    In its roundabout way, "Why Don't You Play in Hell" has a lot to say about the younger generation's relationship to movie history and technology. It's a movie about kids who fondle hand-held 16mm film cameras, and treasure "real" violence that their own director Sono shot with digital cameras and soaked in computer-generated splatter effects. These kids are seriously naive, and wind up sacrificing everything to get their film made. The film's drama resists death-of-cinema nostalgia by cheering on amateurs who are at once reverential and excited about the past, but also uninterested in self-analysis. The Bombers only know what they like. There's a certain beauty and terror in that, and it makes sense that their muse Mitsuko is beautiful because, and not in spite of, her monstrous narcissism. Koji tellingly falls in love with the heroine when she lazily dangles her spike heel in front of him and distractedly tells him to tie the strap for her. In Sono's eyes, she's a lovely and hysterical monster.

    "Hell" is a characteristically slippery mix of naive optimism, and gross-out, midnight-movie humor. It has the dense, novelistic structure of Sono's most elaborate scenarios, but isn't as convoluted as, say, his film "Love Exposure," an four-hour drama about the redeeming spiritual and romantic power of sexual deviancy. It's full of earthy pleasures, and  infectiously charming, in its unrepentantly bratty way. This is an inclusive cult movie that might appeal to both the director's diehard fans and people who've never seen a Sono film. To quote a famous ad for Alka-Seltzer: Try it, you'll like it!




    SCREENS








    Technical Info:

    --(GENERAL)---

    Container.......: Matroska
    Size............: 27.2 GB
    Duration........: 2:09:50 (h:m:s)
    Source(s).......: JAP Blu-ray 1080p AVC DTS-HD MA 5.1 (thanks!)
                            USA Blu-ray 1080p AVC DTS-HD MA 5.1 - UNRELiABLE (thanks!)
    Chapters........: Yes (named)
    Compression.....: no zlib, no header stripping
    Release date....: 08.04.2015


    ---(VIDEO)----

    Codec...........: AVC
    Type............: progressive
    Resolution......: 1920x1080
    Bit rate........: 27.5 Mbps
    Frame rate......: 23.976 fps


    ---(AUDIO)----

    Format..........: DTS-HD MA
    Channels........: 5.1
    Bit depth.......: 16 bits
    Sample rate.....: 48 kHz
    Bit rate........: 2668 kbps
    Language........: Japanese


    -(SUBTITLES)--

    Format..........: PGS (original)
    Language(s).....: English


    ---(NOTES)----

    I have used the JAP Blu-ray for video source because it has better picture quality
    and the USA Blu-ray for audio source because it has 1536 kbps DTS core from DTS-HD
    MA 5.1 audio track as opposed to only 768 kbps DTS core from DTS-HD MA 5.1 audio
    track on JAP Blu-ray. Subtitles from USA Blu-ray have been synced and muxed.

    eac3to wrote for the audio from USA Blu-ray: Original audio track: max 24 bits,
    average 16 bits, most common 16 bits.



    Code
    General
    Unique ID                                : 174297762900667962694504042120223259965 (0x83208730512CE83A80A4B0384115FD3D)
    Complete name                            : F:☛ UPLOADSJigoku de naze warui a.k.a. Why Don't You Play in Hell 2013 1080p Blu-ray Remux AVC DTS-HD MA 5.1 - KRaLiMaRKoJigoku de naze warui a.k.a. Why Don't You Play in Hell 2013 1080p Blu-ray Remux AVC DTS-HD MA 5.1 - KRaLiMaRKo.mkv
    Format                                   : Matroska
    Format version                           : Version 4 / Version 2
    File size                                : 27.2 GiB
    Duration                                 : 2h 9mn
    Overall bit rate mode                    : Variable
    Overall bit rate                         : 30.0 Mbps
    Movie name                               : Jigoku de naze warui 2013 1080p Blu-ray Remux AVC DTS-HD MA 5.1 - KRaLiMaRKo
    Encoded date                             : UTC 2015-04-08 08:47:26
    Writing application                      : mkvmerge v7.8.0 ('River Man') 64bit built on Mar 27 2015 16:31:37
    Writing library                          : libebml v1.3.1 + libmatroska v1.4.2
    DURATION                                 : 02:09:07.365000000
    NUMBER_OF_FRAMES                         : 3404
    NUMBER_OF_BYTES                          : 22697214
    _STATISTICS_WRITING_APP                  : mkvmerge v7.8.0 ('River Man') 64bit built on Mar 27 2015 16:31:37
    _STATISTICS_WRITING_DATE_UTC             : 2015-04-08 08:47:26
    _STATISTICS_TAGS                         : BPS DURATION NUMBER_OF_FRAMES NUMBER_OF_BYTES

    Video
    ID                                       : 1
    Format                                   : AVC
    Format/Info                              : Advanced Video Codec
    Format profile                           : High@L4.1
    Format settings, CABAC                   : Yes
    Format settings, ReFrames                : 4 frames
    Codec ID                                 : V_MPEG4/ISO/AVC
    Duration                                 : 2h 9mn
    Bit rate mode                            : Variable
    Maximum bit rate                         : 40.0 Mbps
    Width                                    : 1 920 pixels
    Height                                   : 1 080 pixels
    Display aspect ratio                     : 16:9
    Frame rate mode                          : Constant
    Frame rate                               : 23.976 fps
    Color space                              : YUV
    Chroma subsampling                       : 4:2:0
    Bit depth                                : 8 bits
    Scan type                                : Progressive
    Language                                 : Japanese
    Default                                  : No
    Forced                                   : No
    DURATION                                 : 02:09:49.782000000
    NUMBER_OF_FRAMES                         : 186768
    NUMBER_OF_BYTES                          : 26633290605
    _STATISTICS_WRITING_APP                  : mkvmerge v7.8.0 ('River Man') 64bit built on Mar 27 2015 16:31:37
    _STATISTICS_WRITING_DATE_UTC             : 2015-04-08 08:47:26
    _STATISTICS_TAGS                         : BPS DURATION NUMBER_OF_FRAMES NUMBER_OF_BYTES

    Audio
    ID                                       : 2
    Format                                   : DTS
    Format/Info                              : Digital Theater Systems
    Format profile                           : MA / Core
    Mode                                     : 16
    Format settings, Endianness              : Big
    Codec ID                                 : A_DTS
    Duration                                 : 2h 9mn
    Bit rate mode                            : Variable
    Bit rate                                 : Unknown / 1 509 Kbps
    Channel(s)                               : 6 channels
    Channel positions                        : Front: L C R, Side: L R, LFE
    Sampling rate                            : 48.0 KHz
    Bit depth                                : 24 bits
    Compression mode                         : Lossless / Lossy
    Language                                 : Japanese
    Default                                  : Yes
    Forced                                   : No

    Text
    ID                                       : 3
    Format                                   : PGS
    Codec ID                                 : S_HDMV/PGS
    Codec ID/Info                            : The same subtitle format used on BDs/HD-DVDs
    Language                                 : English
    Default                                  : Yes
    Forced                                   : No

    Menu
    00:00:00.000                             : en:Same As Before
    00:05:43.009                             : en:Truce
    00:10:01.226                             : en:Lovers For A Day
    00:26:27.336                             : en:Kiss Goodbye
    00:37:48.600                             : en:Captured
    00:46:01.050                             : en:A Real Auteur
    00:57:12.179                             : en:Movie Of A Lifetime
    01:14:58.911                             : en:Plan In Place
    01:39:06.732                             : en:Killing Between Takes
    01:53:53.744                             : en:The Hand That Brought Us Together
    01:59:40.965                             : en:Same As Before
    02:03:39.454                             : en:Credits





    ----(NOTES)----

    ☛ First all, I would like to express my sincere appreciation and i would like also to say heartfelt thanks to the original Encoder and Up loader for his hard work. Original credit goes to the ✪ KRaLiMaRKo ✪


    0 0

    Original Post: [Album] EXO – LOVE ME RIGHT (2015) [FLAC]



    http://en.wikipedia.org/wiki/Exo_%28band%29

    EXO – LOVE ME RIGHT – The 2nd Album Repackage
    Release Date: 2015.06.03
    Genre: Dance
    Format: FLAC
    credit to hulkpop

    Track List:

    – CD1 –
    01. LOVE ME RIGHT
    02. TENDER LOVE
    03. CALL ME BABY
    04. TRANSFORMER
    05. 시선 둘, 시선 하나 (What If..)
    06. MY ANSWER
    07. EXODUS
    08. EL DORADO
    09. PLAYBOY
    10. FIRST LOVE
    11. HURT
    12. 유성우 [流星雨] (Lady Luck)
    13. BEAUTIFUL
    14. 약속 (EXO 2014)

    – CD2 –
    01. LOVE ME RIGHT (漫遊宇宙)
    02. TENDER LOVE (就是愛)
    03. CALL ME BABY (叫我)
    04. TRANSFORMER (變形女)
    05. 兩個視線, 一個視線 (What If..)
    06. MY ANSWER (我的答案)
    07. EXODUS (逃脫)
    08. EL DORADO (黃金國)
    09. PLAYBOY (壞男孩)
    10. FIRST LOVE (初戀)
    11. HURT (傷害)
    12. 流星雨 (Lady Luck)
    13. BEAUTIFUL (美)
    14. 約定 (EXO 2014)

    Audio
    Format                         : FLAC
    Format/Info                    : Free Lossless Audio Codec
    Duration                       : 3mn 25s
    Bit rate mode                  : Variable
    Bit rate                       : 1 104 Kbps
    Channel count                  : 2 channels
    Sampling rate                  : 44.1 KHz
    Bit depth                      : 16 bits
    Stream size                    : 27.0 MiB (100%)
    Writing library                : libFLAC 1.3.0



    0 0

    Original Post: Mask.E03.150603.HDTV.X264-LIMO

    Details
    Title: 가면 / Gamyun
    Genre: Romance, melodrama
    Episodes: TBA
    Broadcast network: SBS
    Broadcast period: 2015-May-27 to 2015-???-??
    Air time: Wednesday & Thursday 22:00
    Original Soundtrack: Mask OST
    http://thetvdb.com/index.php?tab=series&id=295976

    Synopsis
    Byun Ji Sook has always had a hard life with her father constantly going into debt and being chased by loan sharks. She desperately wants to know what life is like if she was born into a better family and didn’t have to worry about money all the time. When a series of circumstances brings Ji Sook to Eun Ha, a woman from a wealthy family who strongly resembles Ji Sook, she grabs hold of the chance for a better life and assumes Eun Ha’s identity and begins to live her elite life. She meets Min Woo, a chaebol heir who is mistrusting of the people around him. But when he realizes that Ji Sook is not like the other women he has met, he is drawn to her. How long can Ji Sook keep up the charade and hide her true identity?


    Main Cast
    Soo Ae as Byun Ji Sook (29) / Seo Eun Ha (27)
    Joo Ji Hoon as Choi Min Woo (30)
    Yun Jung Hoon as Min Suk Hoon (34, Mi Yun's husband)
    Yoo In Young as Choi Mi Yun (31, Min Woo's elder sister)
    Byun Ji Sook's family
    Jung Dong Hwan as Byun Dae Sung (50s, Ji Sook's father)
    Yang Mi Kyung as Kang Ok Soon (50s, Ji Sook's mother)
    Hoya as Byun Ji Hyuk (25, Ji Sook's younger brother)
    Choi Min Woo's family
    Jun Gook Hwan as President Choi Doo Hyun (60s, Min Woo's father)
    Park Joon Geum as Mrs. Song (50s, Min Woo's stepmother, Mi Yun's biological mother)
    Seo Eun Ha's family
    Park Yong Soo as Congressman Seo Jong Hoon (60s, Eun Ha's father)
    Lee Jong Nam as Mrs. Lee (50s, Eun Ha's stepmother)
    Others
    Kim Byung Ok as Director Shim (40s, loan shark)
    Jo Han Sun as Kim Jung Tae (29, 3rd generation of Chaebol)
    Park Yun Soo (박연수) as Myung Hwa (24, Ji Sook's colleague)
    Hwang Suk Jung as Mal Ja (late 50s, Ji Sook's colleague)
    Park Joon Myun as Yeo Bu Jang (40s)
    Joo Jin Mo as Professor Kim (60s, a psychiatrist)
    Kim Ji Min (김지민)as Kim Yun Soo (30s)
    Moon Sung Ho (문성호) as Nam Chul (40s)
    Jo Yoon Woo as Oh Chang Soo (20s, Min Woo's secretary)
    Sung Chang Hoon (성창훈) as Bbul Te (30s)









    Code
    Video
    ID                             : 1
    Format                         : AVC
    Format/Info                    : Advanced Video Codec
    Format profile                 : Main@L4.0
    Format settings, CABAC         : Yes
    Format settings, ReFrames      : 4 frames
    Codec ID                       : V_MPEG4/ISO/AVC
    Duration                       : 58mn 44s
    Bit rate                       : 450 Kbps
    Width                          : 624 pixels
    Height                         : 350 pixels
    Display aspect ratio           : 16:9
    Frame rate mode                : Constant
    Frame rate                     : 29.970 fps
    Color space                    : YUV
    Chroma subsampling             : 4:2:0
    Bit depth                      : 8 bits
    Scan type                      : Progressive
    Bits/(Pixel*Frame)             : 0.069
    Stream size                    : 190 MiB (76%)
    Writing library                : x264 core 130 r2273 b3065e6
    Encoding settings              : cabac=1 / ref=1 / deblock=1:0:0 / analyse=0x1:0x111 / me=hex / subme=2 / psy=1 / psy_rd=1.00:0.00 / mixed_ref=0 / me_range=16 / chroma_me=1 / trellis=0 / 8x8dct=0 / cqm=0 / deadzone=21,11 / fast_pskip=1 / chroma_qp_offset=0 / threads=1 / lookahead_threads=1 / sliced_threads=0 / nr=0 / decimate=1 / interlaced=0 / bluray_compat=0 / constrained_intra=0 / bframes=3 / b_pyramid=2 / b_adapt=1 / b_bias=0 / direct=1 / weightb=1 / open_gop=0 / weightp=1 / keyint=300 / keyint_min=30 / scenecut=40 / intra_refresh=0 / rc_lookahead=10 / rc=abr / mbtree=1 / bitrate=450 / ratetol=1.0 / qcomp=0.60 / qpmin=0 / qpmax=69 / qpstep=4 / vbv_maxrate=20000 / vbv_bufsize=25000 / nal_hrd=none / ip_ratio=1.40 / aq=1:1.00
    Language                       : English
    Default                        : Yes
    Forced                         : No
    Color primaries                : BT.601 NTSC
    Transfer characteristics       : BT.709
    Matrix coefficients            : BT.601

    Audio
    ID                             : 2
    Format                         : MPEG Audio
    Format version                 : Version 1
    Format profile                 : Layer 3
    Mode                           : Joint stereo
    Mode extension                 : MS Stereo
    Codec ID                       : A_MPEG/L3
    Codec ID/Hint                  : MP3
    Duration                       : 58mn 44s
    Bit rate mode                  : Constant
    Bit rate                       : 128 Kbps
    Channel(s)                     : 2 channels
    Sampling rate                  : 48.0 KHz
    Compression mode               : Lossy
    Stream size                    : 53.8 MiB (22%)
    Default                        : Yes
    Forced                         : No



    0 0

    Original Post: Mask.E03.150603.HDTV.H264.450p-LIMO

    Details
    Title: 가면 / Gamyun
    Genre: Romance, melodrama
    Episodes: TBA
    Broadcast network: SBS
    Broadcast period: 2015-May-27 to 2015-???-??
    Air time: Wednesday & Thursday 22:00
    Original Soundtrack: Mask OST
    http://thetvdb.com/index.php?tab=series&id=295976

    Synopsis
    Byun Ji Sook has always had a hard life with her father constantly going into debt and being chased by loan sharks. She desperately wants to know what life is like if she was born into a better family and didn’t have to worry about money all the time. When a series of circumstances brings Ji Sook to Eun Ha, a woman from a wealthy family who strongly resembles Ji Sook, she grabs hold of the chance for a better life and assumes Eun Ha’s identity and begins to live her elite life. She meets Min Woo, a chaebol heir who is mistrusting of the people around him. But when he realizes that Ji Sook is not like the other women he has met, he is drawn to her. How long can Ji Sook keep up the charade and hide her true identity?


    Main Cast
    Soo Ae as Byun Ji Sook (29) / Seo Eun Ha (27)
    Joo Ji Hoon as Choi Min Woo (30)
    Yun Jung Hoon as Min Suk Hoon (34, Mi Yun's husband)
    Yoo In Young as Choi Mi Yun (31, Min Woo's elder sister)
    Byun Ji Sook's family
    Jung Dong Hwan as Byun Dae Sung (50s, Ji Sook's father)
    Yang Mi Kyung as Kang Ok Soon (50s, Ji Sook's mother)
    Hoya as Byun Ji Hyuk (25, Ji Sook's younger brother)
    Choi Min Woo's family
    Jun Gook Hwan as President Choi Doo Hyun (60s, Min Woo's father)
    Park Joon Geum as Mrs. Song (50s, Min Woo's stepmother, Mi Yun's biological mother)
    Seo Eun Ha's family
    Park Yong Soo as Congressman Seo Jong Hoon (60s, Eun Ha's father)
    Lee Jong Nam as Mrs. Lee (50s, Eun Ha's stepmother)
    Others
    Kim Byung Ok as Director Shim (40s, loan shark)
    Jo Han Sun as Kim Jung Tae (29, 3rd generation of Chaebol)
    Park Yun Soo (박연수) as Myung Hwa (24, Ji Sook's colleague)
    Hwang Suk Jung as Mal Ja (late 50s, Ji Sook's colleague)
    Park Joon Myun as Yeo Bu Jang (40s)
    Joo Jin Mo as Professor Kim (60s, a psychiatrist)
    Kim Ji Min (김지민)as Kim Yun Soo (30s)
    Moon Sung Ho (문성호) as Nam Chul (40s)
    Jo Yoon Woo as Oh Chang Soo (20s, Min Woo's secretary)
    Sung Chang Hoon (성창훈) as Bbul Te (30s)










    Code
    Video
    ID                                       : 0
    Format                                   : AVC
    Format/Info                              : Advanced Video Codec
    Format profile                           : High@L5.1
    Format settings, CABAC                   : Yes
    Format settings, ReFrames                : 4 frames
    Codec ID                                 : H264
    Bit rate                                 : 1 500 Kbps
    Width                                    : 800 pixels
    Height                                   : 450 pixels
    Display aspect ratio                     : 16:9
    Frame rate mode                          : Variable
    Frame rate                               : 29.970 fps
    Color space                              : YUV
    Chroma subsampling                       : 4:2:0
    Bit depth                                : 8 bits
    Scan type                                : Progressive
    Bits/(Pixel*Frame)                       : 0.139
    Stream size                              : 686 MiB (88%)
    Writing library                          : x264 core 112

    Audio
    ID                                       : 1
    Format                                   : MPEG Audio
    Format version                           : Version 1
    Format profile                           : Layer 3
    Mode                                     : Joint stereo
    Mode extension                           : MS Stereo
    Codec ID                                 : 55
    Codec ID/Hint                            : MP3
    Bit rate mode                            : Constant
    Bit rate                                 : 192 Kbps
    Channel(s)                               : 2 channels
    Sampling rate                            : 48.0 KHz
    Compression mode                         : Lossy
    Stream size                              : 88.3 MiB (11%)
    Alignment                                : Aligned on interleaves
    Interleave, duration                     : 24 ms (0.72 video frame)
    Writing library                          : LAME3.98.2
    Language                                 : Korean



    0 0

    Original Post: Mask.E03.150603.HDTV.H264.720p-LIMO

    Details
    Title: 가면 / Gamyun
    Genre: Romance, melodrama
    Episodes: TBA
    Broadcast network: SBS
    Broadcast period: 2015-May-27 to 2015-???-??
    Air time: Wednesday & Thursday 22:00
    Original Soundtrack: Mask OST
    http://thetvdb.com/index.php?tab=series&id=295976

    Synopsis
    Byun Ji Sook has always had a hard life with her father constantly going into debt and being chased by loan sharks. She desperately wants to know what life is like if she was born into a better family and didn’t have to worry about money all the time. When a series of circumstances brings Ji Sook to Eun Ha, a woman from a wealthy family who strongly resembles Ji Sook, she grabs hold of the chance for a better life and assumes Eun Ha’s identity and begins to live her elite life. She meets Min Woo, a chaebol heir who is mistrusting of the people around him. But when he realizes that Ji Sook is not like the other women he has met, he is drawn to her. How long can Ji Sook keep up the charade and hide her true identity?


    Main Cast
    Soo Ae as Byun Ji Sook (29) / Seo Eun Ha (27)
    Joo Ji Hoon as Choi Min Woo (30)
    Yun Jung Hoon as Min Suk Hoon (34, Mi Yun's husband)
    Yoo In Young as Choi Mi Yun (31, Min Woo's elder sister)
    Byun Ji Sook's family
    Jung Dong Hwan as Byun Dae Sung (50s, Ji Sook's father)
    Yang Mi Kyung as Kang Ok Soon (50s, Ji Sook's mother)
    Hoya as Byun Ji Hyuk (25, Ji Sook's younger brother)
    Choi Min Woo's family
    Jun Gook Hwan as President Choi Doo Hyun (60s, Min Woo's father)
    Park Joon Geum as Mrs. Song (50s, Min Woo's stepmother, Mi Yun's biological mother)
    Seo Eun Ha's family
    Park Yong Soo as Congressman Seo Jong Hoon (60s, Eun Ha's father)
    Lee Jong Nam as Mrs. Lee (50s, Eun Ha's stepmother)
    Others
    Kim Byung Ok as Director Shim (40s, loan shark)
    Jo Han Sun as Kim Jung Tae (29, 3rd generation of Chaebol)
    Park Yun Soo (박연수) as Myung Hwa (24, Ji Sook's colleague)
    Hwang Suk Jung as Mal Ja (late 50s, Ji Sook's colleague)
    Park Joon Myun as Yeo Bu Jang (40s)
    Joo Jin Mo as Professor Kim (60s, a psychiatrist)
    Kim Ji Min (김지민)as Kim Yun Soo (30s)
    Moon Sung Ho (문성호) as Nam Chul (40s)
    Jo Yoon Woo as Oh Chang Soo (20s, Min Woo's secretary)
    Sung Chang Hoon (성창훈) as Bbul Te (30s)









    Code
    Video
    ID                               : 0
    Format                           : AVC
    Format/Info                      : Advanced Video Codec
    Format profile                   : High@L5.1
    Format settings, CABAC           : Yes
    Format settings, ReFrames        : 4 frames
    Codec ID                         : H264
    Duration                         : 1h 4mn
    Bit rate                         : 3 000 Kbps
    Width                            : 1 280 pixels
    Height                           : 720 pixels
    Display aspect ratio             : 16:9
    Frame rate mode                  : Variable
    Frame rate                       : 29.970 fps
    Color space                      : YUV
    Chroma subsampling               : 4:2:0
    Bit depth                        : 8 bits
    Scan type                        : Progressive
    Bits/(Pixel*Frame)               : 0.109
    Stream size                      : 1.35 GiB (94%)
    Writing library                  : x264 core 112
    Encoding settings                : cabac=1 / ref=3 / deblock=1:-1:-1 / analyse=0x3:0x113 / me=hex / subme=6 / psy=1 / psy_rd=1.00:1.00 / mixed_ref=1 / me_range=16 / chroma_me=1 / trellis=1 / 8x8dct=1 / cqm=0 / deadzone=21,11 / fast_pskip=0 / chroma_qp_offset=-4 / threads=12 / sliced_threads=0 / nr=0 / decimate=1 / interlaced=0 / constrained_intra=0 / bframes=3 / b_pyramid=2 / b_adapt=1 / b_bias=1 / direct=3 / weightb=1 / open_gop=0 / weightp=2 / keyint=299 / keyint_min=25 / scenecut=1 / intra_refresh=0 / rc_lookahead=40 / rc=abr / mbtree=1 / bitrate=3000 / ratetol=1.0 / qcomp=0.60 / qpmin=10 / qpmax=51 / qpstep=4 / ip_ratio=1.40 / aq=1:1.00

    Audio
    ID                               : 1
    Format                           : MPEG Audio
    Format version                   : Version 1
    Format profile                   : Layer 3
    Mode                             : Joint stereo
    Mode extension                   : MS Stereo
    Codec ID                         : 55
    Codec ID/Hint                    : MP3
    Duration                         : 1h 4mn
    Bit rate mode                    : Constant
    Bit rate                         : 192 Kbps
    Channel(s)                       : 2 channels
    Sampling rate                    : 48.0 KHz
    Stream size                      : 88.0 MiB (6%)
    Alignment                        : Split accross interleaves
    Interleave, duration             : 33 ms (1.00 video frame)
    Interleave, preload duration     : 500 ms
    Writing library                  : LAME3.98.2



    0 0

    Original Post: Masked.Prosecutor.E05.150603.HDTV.X264-LIMO

    Details
    Title: 복면검사 / Bogmyeongeomsa
    Genre: Action, thriller
    Episodes:
    Broadcast network: KBS2
    Broadcast period: 2015-May-20 to 2015-??-??
    Air time: Wednesday & Thursday 22:00
    http://thetvdb.com/?tab=series&id=295948&lid=7

    Synopsis
    The story is about a man, played by Joo Sang Wook with a double identity. He's a normal prosecutor during the day and a masked vigilante at night. Kim Sun Ah will play a role of detective chief in the violent crimes unit.

    Cast
    Joo Sang Wook as Ha Dae Chul (33, Prosecutor at Southern District)
    Kim Sun Ah as a Yoo Min Hee (33, Chief at Gangnam Police Station, Crime Division)
    Uhm Ki Joon as Kang Hyun Woong (30, Prosecutor at Seoul District)
    Jun Kwang Ryul as Jo Sang Taek (50s, former detective)









    Code
    Video
    ID                             : 1
    Format                         : AVC
    Format/Info                    : Advanced Video Codec
    Format profile                 : Main@L4.0
    Format settings, CABAC         : Yes
    Format settings, ReFrames      : 4 frames
    Codec ID                       : V_MPEG4/ISO/AVC
    Duration                       : 58mn 44s
    Bit rate                       : 450 Kbps
    Width                          : 624 pixels
    Height                         : 350 pixels
    Display aspect ratio           : 16:9
    Frame rate mode                : Constant
    Frame rate                     : 29.970 fps
    Color space                    : YUV
    Chroma subsampling             : 4:2:0
    Bit depth                      : 8 bits
    Scan type                      : Progressive
    Bits/(Pixel*Frame)             : 0.069
    Stream size                    : 190 MiB (76%)
    Writing library                : x264 core 130 r2273 b3065e6
    Encoding settings              : cabac=1 / ref=1 / deblock=1:0:0 / analyse=0x1:0x111 / me=hex / subme=2 / psy=1 / psy_rd=1.00:0.00 / mixed_ref=0 / me_range=16 / chroma_me=1 / trellis=0 / 8x8dct=0 / cqm=0 / deadzone=21,11 / fast_pskip=1 / chroma_qp_offset=0 / threads=1 / lookahead_threads=1 / sliced_threads=0 / nr=0 / decimate=1 / interlaced=0 / bluray_compat=0 / constrained_intra=0 / bframes=3 / b_pyramid=2 / b_adapt=1 / b_bias=0 / direct=1 / weightb=1 / open_gop=0 / weightp=1 / keyint=300 / keyint_min=30 / scenecut=40 / intra_refresh=0 / rc_lookahead=10 / rc=abr / mbtree=1 / bitrate=450 / ratetol=1.0 / qcomp=0.60 / qpmin=0 / qpmax=69 / qpstep=4 / vbv_maxrate=20000 / vbv_bufsize=25000 / nal_hrd=none / ip_ratio=1.40 / aq=1:1.00
    Language                       : English
    Default                        : Yes
    Forced                         : No
    Color primaries                : BT.601 NTSC
    Transfer characteristics       : BT.709
    Matrix coefficients            : BT.601

    Audio
    ID                             : 2
    Format                         : MPEG Audio
    Format version                 : Version 1
    Format profile                 : Layer 3
    Mode                           : Joint stereo
    Mode extension                 : MS Stereo
    Codec ID                       : A_MPEG/L3
    Codec ID/Hint                  : MP3
    Duration                       : 58mn 44s
    Bit rate mode                  : Constant
    Bit rate                       : 128 Kbps
    Channel(s)                     : 2 channels
    Sampling rate                  : 48.0 KHz
    Compression mode               : Lossy
    Stream size                    : 53.8 MiB (22%)
    Default                        : Yes
    Forced                         : No



    0 0

    Original Post: Masked.Prosecutor.E05.150603.HDTV.H264.450p-LIMO

    Details
    Title: 복면검사 / Bogmyeongeomsa
    Genre: Action, thriller
    Episodes:
    Broadcast network: KBS2
    Broadcast period: 2015-May-20 to 2015-??-??
    Air time: Wednesday & Thursday 22:00
    http://thetvdb.com/?tab=series&id=295948&lid=7

    Synopsis
    The story is about a man, played by Joo Sang Wook with a double identity. He's a normal prosecutor during the day and a masked vigilante at night. Kim Sun Ah will play a role of detective chief in the violent crimes unit.

    Cast
    Joo Sang Wook as Ha Dae Chul (33, Prosecutor at Southern District)
    Kim Sun Ah as a Yoo Min Hee (33, Chief at Gangnam Police Station, Crime Division)
    Uhm Ki Joon as Kang Hyun Woong (30, Prosecutor at Seoul District)
    Jun Kwang Ryul as Jo Sang Taek (50s, former detective)










    Code
    Video
    ID                                       : 0
    Format                                   : AVC
    Format/Info                              : Advanced Video Codec
    Format profile                           : High@L5.1
    Format settings, CABAC                   : Yes
    Format settings, ReFrames                : 4 frames
    Codec ID                                 : H264
    Bit rate                                 : 1 500 Kbps
    Width                                    : 800 pixels
    Height                                   : 450 pixels
    Display aspect ratio                     : 16:9
    Frame rate mode                          : Variable
    Frame rate                               : 29.970 fps
    Color space                              : YUV
    Chroma subsampling                       : 4:2:0
    Bit depth                                : 8 bits
    Scan type                                : Progressive
    Bits/(Pixel*Frame)                       : 0.139
    Stream size                              : 686 MiB (88%)
    Writing library                          : x264 core 112

    Audio
    ID                                       : 1
    Format                                   : MPEG Audio
    Format version                           : Version 1
    Format profile                           : Layer 3
    Mode                                     : Joint stereo
    Mode extension                           : MS Stereo
    Codec ID                                 : 55
    Codec ID/Hint                            : MP3
    Bit rate mode                            : Constant
    Bit rate                                 : 192 Kbps
    Channel(s)                               : 2 channels
    Sampling rate                            : 48.0 KHz
    Compression mode                         : Lossy
    Stream size                              : 88.3 MiB (11%)
    Alignment                                : Aligned on interleaves
    Interleave, duration                     : 24 ms (0.72 video frame)
    Writing library                          : LAME3.98.2
    Language                                 : Korean



    0 0

    Original Post: Masked.Prosecutor.E05.150527.HDTV.H264.720p-LIMO

    Details
    Title: 복면검사 / Bogmyeongeomsa
    Genre: Action, thriller
    Episodes:
    Broadcast network: KBS2
    Broadcast period: 2015-May-20 to 2015-??-??
    Air time: Wednesday & Thursday 22:00
    http://thetvdb.com/?tab=series&id=295948&lid=7

    Synopsis
    The story is about a man, played by Joo Sang Wook with a double identity. He's a normal prosecutor during the day and a masked vigilante at night. Kim Sun Ah will play a role of detective chief in the violent crimes unit.

    Cast
    Joo Sang Wook as Ha Dae Chul (33, Prosecutor at Southern District)
    Kim Sun Ah as a Yoo Min Hee (33, Chief at Gangnam Police Station, Crime Division)
    Uhm Ki Joon as Kang Hyun Woong (30, Prosecutor at Seoul District)
    Jun Kwang Ryul as Jo Sang Taek (50s, former detective)









    Code
    Video
    ID                               : 0
    Format                           : AVC
    Format/Info                      : Advanced Video Codec
    Format profile                   : High@L5.1
    Format settings, CABAC           : Yes
    Format settings, ReFrames        : 4 frames
    Codec ID                         : H264
    Duration                         : 1h 4mn
    Bit rate                         : 3 000 Kbps
    Width                            : 1 280 pixels
    Height                           : 720 pixels
    Display aspect ratio             : 16:9
    Frame rate mode                  : Variable
    Frame rate                       : 29.970 fps
    Color space                      : YUV
    Chroma subsampling               : 4:2:0
    Bit depth                        : 8 bits
    Scan type                        : Progressive
    Bits/(Pixel*Frame)               : 0.109
    Stream size                      : 1.35 GiB (94%)
    Writing library                  : x264 core 112
    Encoding settings                : cabac=1 / ref=3 / deblock=1:-1:-1 / analyse=0x3:0x113 / me=hex / subme=6 / psy=1 / psy_rd=1.00:1.00 / mixed_ref=1 / me_range=16 / chroma_me=1 / trellis=1 / 8x8dct=1 / cqm=0 / deadzone=21,11 / fast_pskip=0 / chroma_qp_offset=-4 / threads=12 / sliced_threads=0 / nr=0 / decimate=1 / interlaced=0 / constrained_intra=0 / bframes=3 / b_pyramid=2 / b_adapt=1 / b_bias=1 / direct=3 / weightb=1 / open_gop=0 / weightp=2 / keyint=299 / keyint_min=25 / scenecut=1 / intra_refresh=0 / rc_lookahead=40 / rc=abr / mbtree=1 / bitrate=3000 / ratetol=1.0 / qcomp=0.60 / qpmin=10 / qpmax=51 / qpstep=4 / ip_ratio=1.40 / aq=1:1.00

    Audio
    ID                               : 1
    Format                           : MPEG Audio
    Format version                   : Version 1
    Format profile                   : Layer 3
    Mode                             : Joint stereo
    Mode extension                   : MS Stereo
    Codec ID                         : 55
    Codec ID/Hint                    : MP3
    Duration                         : 1h 4mn
    Bit rate mode                    : Constant
    Bit rate                         : 192 Kbps
    Channel(s)                       : 2 channels
    Sampling rate                    : 48.0 KHz
    Stream size                      : 88.0 MiB (6%)
    Alignment                        : Split accross interleaves
    Interleave, duration             : 33 ms (1.00 video frame)
    Interleave, preload duration     : 500 ms
    Writing library                  : LAME3.98.2



    0 0

    Original Post: Warm.and.Cozy.E07.150603.HDTV.X264-LIMO

    Details
    Title: 맨도롱 또똣 / Maendorong Ttottos
    Previously known as: 제주도 개츠비 / Jeju Island Gatsby
    Genre: Romance
    Episodes: 16
    Broadcast network: MBC
    Broadcast period: 2015-May-13 to 2015-Jul-??
    Air time: Wednesday & Thursday 22:00
    Subtitles will be added later
    http://thetvdb.com/?tab=series&id=295029&lid=7

    Synopsis
    Desperate to escape the drama and stress of modern life in the city, Baek Gun Woo (Yoo Yeon Seok) and Lee Jung Joo (Kang So Ra) take off to South Korea's idyllic Jeju Island. But when these two urbane strangers meet on the island, they discover the magical island's restorative qualities include unexpected romance.

    Cast
    Main Cast
    Yoo Yun Suk as Baek Gun Woo
    Kang So Ra as Lee Jung Joo










    Code
    Video
    ID                             : 1
    Format                         : AVC
    Format/Info                    : Advanced Video Codec
    Format profile                 : Main@L4.0
    Format settings, CABAC         : Yes
    Format settings, ReFrames      : 4 frames
    Codec ID                       : V_MPEG4/ISO/AVC
    Duration                       : 58mn 44s
    Bit rate                       : 450 Kbps
    Width                          : 624 pixels
    Height                         : 350 pixels
    Display aspect ratio           : 16:9
    Frame rate mode                : Constant
    Frame rate                     : 29.970 fps
    Color space                    : YUV
    Chroma subsampling             : 4:2:0
    Bit depth                      : 8 bits
    Scan type                      : Progressive
    Bits/(Pixel*Frame)             : 0.069
    Stream size                    : 190 MiB (76%)
    Writing library                : x264 core 130 r2273 b3065e6
    Encoding settings              : cabac=1 / ref=1 / deblock=1:0:0 / analyse=0x1:0x111 / me=hex / subme=2 / psy=1 / psy_rd=1.00:0.00 / mixed_ref=0 / me_range=16 / chroma_me=1 / trellis=0 / 8x8dct=0 / cqm=0 / deadzone=21,11 / fast_pskip=1 / chroma_qp_offset=0 / threads=1 / lookahead_threads=1 / sliced_threads=0 / nr=0 / decimate=1 / interlaced=0 / bluray_compat=0 / constrained_intra=0 / bframes=3 / b_pyramid=2 / b_adapt=1 / b_bias=0 / direct=1 / weightb=1 / open_gop=0 / weightp=1 / keyint=300 / keyint_min=30 / scenecut=40 / intra_refresh=0 / rc_lookahead=10 / rc=abr / mbtree=1 / bitrate=450 / ratetol=1.0 / qcomp=0.60 / qpmin=0 / qpmax=69 / qpstep=4 / vbv_maxrate=20000 / vbv_bufsize=25000 / nal_hrd=none / ip_ratio=1.40 / aq=1:1.00
    Language                       : English
    Default                        : Yes
    Forced                         : No
    Color primaries                : BT.601 NTSC
    Transfer characteristics       : BT.709
    Matrix coefficients            : BT.601

    Audio
    ID                             : 2
    Format                         : MPEG Audio
    Format version                 : Version 1
    Format profile                 : Layer 3
    Mode                           : Joint stereo
    Mode extension                 : MS Stereo
    Codec ID                       : A_MPEG/L3
    Codec ID/Hint                  : MP3
    Duration                       : 58mn 44s
    Bit rate mode                  : Constant
    Bit rate                       : 128 Kbps
    Channel(s)                     : 2 channels
    Sampling rate                  : 48.0 KHz
    Compression mode               : Lossy
    Stream size                    : 53.8 MiB (22%)
    Default                        : Yes
    Forced                         : No



    0 0

    Original Post: Warm.and.Cozy.E07.150603.HDTV.H264.450p-LIMO

    Details
    Title: 맨도롱 또똣 / Maendorong Ttottos
    Previously known as: 제주도 개츠비 / Jeju Island Gatsby
    Genre: Romance
    Episodes: 16
    Broadcast network: MBC
    Broadcast period: 2015-May-13 to 2015-Jul-??
    Air time: Wednesday & Thursday 22:00
    Subtitles will be added later
    http://thetvdb.com/?tab=series&id=295029&lid=7

    Synopsis
    Desperate to escape the drama and stress of modern life in the city, Baek Gun Woo (Yoo Yeon Seok) and Lee Jung Joo (Kang So Ra) take off to South Korea's idyllic Jeju Island. But when these two urbane strangers meet on the island, they discover the magical island's restorative qualities include unexpected romance.

    Cast
    Main Cast
    Yoo Yun Suk as Baek Gun Woo
    Kang So Ra as Lee Jung Joo









    Code
    Video
    ID                                       : 0
    Format                                   : AVC
    Format/Info                              : Advanced Video Codec
    Format profile                           : High@L5.1
    Format settings, CABAC                   : Yes
    Format settings, ReFrames                : 4 frames
    Codec ID                                 : H264
    Bit rate                                 : 1 500 Kbps
    Width                                    : 800 pixels
    Height                                   : 450 pixels
    Display aspect ratio                     : 16:9
    Frame rate mode                          : Variable
    Frame rate                               : 29.970 fps
    Color space                              : YUV
    Chroma subsampling                       : 4:2:0
    Bit depth                                : 8 bits
    Scan type                                : Progressive
    Bits/(Pixel*Frame)                       : 0.139
    Stream size                              : 686 MiB (88%)
    Writing library                          : x264 core 112

    Audio
    ID                                       : 1
    Format                                   : MPEG Audio
    Format version                           : Version 1
    Format profile                           : Layer 3
    Mode                                     : Joint stereo
    Mode extension                           : MS Stereo
    Codec ID                                 : 55
    Codec ID/Hint                            : MP3
    Bit rate mode                            : Constant
    Bit rate                                 : 192 Kbps
    Channel(s)                               : 2 channels
    Sampling rate                            : 48.0 KHz
    Compression mode                         : Lossy
    Stream size                              : 88.3 MiB (11%)
    Alignment                                : Aligned on interleaves
    Interleave, duration                     : 24 ms (0.72 video frame)
    Writing library                          : LAME3.98.2
    Language                                 : Korean



    0 0

    Original Post: Warm.and.Cozy.E07.150603.HDTV.H264.720p-LIMO

    Details
    Title: 맨도롱 또똣 / Maendorong Ttottos
    Previously known as: 제주도 개츠비 / Jeju Island Gatsby
    Genre: Romance
    Episodes: 16
    Broadcast network: MBC
    Broadcast period: 2015-May-13 to 2015-Jul-??
    Air time: Wednesday & Thursday 22:00
    Subtitles will be added later
    http://thetvdb.com/?tab=series&id=295029&lid=7

    Synopsis
    Desperate to escape the drama and stress of modern life in the city, Baek Gun Woo (Yoo Yeon Seok) and Lee Jung Joo (Kang So Ra) take off to South Korea's idyllic Jeju Island. But when these two urbane strangers meet on the island, they discover the magical island's restorative qualities include unexpected romance.

    Cast
    Main Cast
    Yoo Yun Suk as Baek Gun Woo
    Kang So Ra as Lee Jung Joo









    Code
    Video
    ID                               : 0
    Format                           : AVC
    Format/Info                      : Advanced Video Codec
    Format profile                   : High@L5.1
    Format settings, CABAC           : Yes
    Format settings, ReFrames        : 4 frames
    Codec ID                         : H264
    Duration                         : 1h 4mn
    Bit rate                         : 3 000 Kbps
    Width                            : 1 280 pixels
    Height                           : 720 pixels
    Display aspect ratio             : 16:9
    Frame rate mode                  : Variable
    Frame rate                       : 29.970 fps
    Color space                      : YUV
    Chroma subsampling               : 4:2:0
    Bit depth                        : 8 bits
    Scan type                        : Progressive
    Bits/(Pixel*Frame)               : 0.109
    Stream size                      : 1.35 GiB (94%)
    Writing library                  : x264 core 112
    Encoding settings                : cabac=1 / ref=3 / deblock=1:-1:-1 / analyse=0x3:0x113 / me=hex / subme=6 / psy=1 / psy_rd=1.00:1.00 / mixed_ref=1 / me_range=16 / chroma_me=1 / trellis=1 / 8x8dct=1 / cqm=0 / deadzone=21,11 / fast_pskip=0 / chroma_qp_offset=-4 / threads=12 / sliced_threads=0 / nr=0 / decimate=1 / interlaced=0 / constrained_intra=0 / bframes=3 / b_pyramid=2 / b_adapt=1 / b_bias=1 / direct=3 / weightb=1 / open_gop=0 / weightp=2 / keyint=299 / keyint_min=25 / scenecut=1 / intra_refresh=0 / rc_lookahead=40 / rc=abr / mbtree=1 / bitrate=3000 / ratetol=1.0 / qcomp=0.60 / qpmin=10 / qpmax=51 / qpstep=4 / ip_ratio=1.40 / aq=1:1.00

    Audio
    ID                               : 1
    Format                           : MPEG Audio
    Format version                   : Version 1
    Format profile                   : Layer 3
    Mode                             : Joint stereo
    Mode extension                   : MS Stereo
    Codec ID                         : 55
    Codec ID/Hint                    : MP3
    Duration                         : 1h 4mn
    Bit rate mode                    : Constant
    Bit rate                         : 192 Kbps
    Channel(s)                       : 2 channels
    Sampling rate                    : 48.0 KHz
    Stream size                      : 88.0 MiB (6%)
    Alignment                        : Split accross interleaves
    Interleave, duration             : 33 ms (1.00 video frame)
    Interleave, preload duration     : 500 ms
    Writing library                  : LAME3.98.2



    0 0

    Original Post: Garasu no Ashi 2015 720p HDTV x264 AAC DoA Complete



    Title :   Garasu no Ashi / 硝子の葦  
    Format: Renzoku
    Genre: Drama
    Episodes: 4
    Network: WOWOW
    Release Date:  Saturdays, 10.00 – 11.00 p.m. from 21 February 2015
    Language: Japanese
    Subtitles: None
    RAW credit to DoA

    Synopsis
    Koda Setsuko is the wife of the owner of Hotel Royal, a love hotel which looks out on the Kushiro Marsh. Her husband Kiichiro is old enough to be her father. In fact, Kiichiro was a lover of Setsuko’s free-spirited mother, Fujishima Ritsuko, when Setsuko was a child. One morning, Setsuko takes breakfast with Kiichiro. Her interest is tanka poetry. Kiichiro sings a favourite poem to himself. He feels Setsuko’s sense of emptiness and weariness, and on the other hand the intense emotions coursing deep inside her, contained in that poem. She had recorded and published an anthology of poems called “Glass Reed” at his suggestion. That afternoon, while Setsuko is in bed with her lover, the consulting tax attorney Sawaki Masahiro, she receives word from the police that the car her husband had been driving has met with an accident. At the hospital, she is told by the doctor that he suffered serious brain injuries and has no hope of regaining consciousness. Then Setsuko runs into Ritsuko who has just arrived. Setsuko suffered abuse in her childhood and hates her mother fiercely. As Ritsuko proceeds to shout abuse at her, the darkness which Setsuko has repressed all this while, starts to overflow


    Cast
    Aibu Saki as Koda Setsuko
    The wife of the owner of the love hotel, Hotel Royal. Her mother is her husband ex-lover. She lives, keeping her emotions in check, but she has fortitude. Her interest is tanka poetry.

    Ozawa Yukiyoshi as Sawaki Masahiro
    Hotel Royal’s tax consultant. He is Koda Setsuko’s former employer and is now having an affair with her.

    Okuda Eiji as Koda Kiichiro
    The owner of Hotel Royal. Koda Setsuko’s husband. His previous two marriages failed and Setsuko is his third wife. He is cheerful, does not worry about small details and has a free spirit. His interest is opera watching.

    Nakamura Yuri as Sano Rinko
    Koda Setsuko’s singing buddy. She puts on the act of having a happy family. But her husband, Wataru, has failed in his business and has a huge debt.

    Morikawa Aoi as Koda Kozue
    The daughter of Koda Kiichiro’s second wife. She has been leading a dissolute life, but is actually gentle.

    Takigawa Yumi as Fujishima Ritsuko
    Koda Setsuko’s mother. She runs a bar called Babiana. She is uninhibited and flashy.

    Media Info:
    Spoiler:show
    Format                                   : Matroska
    Format version                           : Version 4 / Version 2
    File size                                : 1.02 GiB
    Duration                                 : 53mn 59s
    Overall bit rate                         : 2 706 Kbps
    Encoded date                             : UTC 2015-03-30 13:43:48
    Writing application                      : mkvmerge v6.0.0 ('Coming Up For Air') built on Jan 20 2013 09:52:00
    Writing library                          : libebml v1.3.0 + libmatroska v1.4.0

    Video
    ID                                       : 2
    Format                                   : AVC
    Format/Info                              : Advanced Video Codec
    Format profile                           : High@L4.1
    Format settings, CABAC                   : Yes
    Format settings, ReFrames                : 9 frames
    Codec ID                                 : V_MPEG4/ISO/AVC
    Duration                                 : 53mn 59s
    Width                                    : 1 280 pixels
    Height                                   : 720 pixels
    Display aspect ratio                     : 16:9
    Frame rate mode                          : Constant
    Frame rate                               : 23.976 fps
    Color space                              : YUV
    Chroma subsampling                       : 4:2:0
    Bit depth                                : 8 bits
    Scan type                                : Progressive
    Writing library                          : x264 core 129 r2230 1cffe9f
    Encoding settings                        : cabac=1 / ref=9 / deblock=1:-3:-3 / analyse=0x3:0x133 / me=umh / subme=10 / psy=1 / psy_rd=1.00:0.15 / mixed_ref=1 / me_range=48 / chroma_me=1 / trellis=2 / 8x8dct=1 / cqm=0 / deadzone=21,11 / fast_pskip=0 / chroma_qp_offset=-3 / threads=6 / lookahead_threads=1 / sliced_threads=0 / nr=0 / decimate=1 / interlaced=0 / bluray_compat=0 / constrained_intra=0 / bframes=8 / b_pyramid=2 / b_adapt=2 / b_bias=0 / direct=3 / weightb=1 / open_gop=0 / weightp=2 / keyint=240 / keyint_min=23 / scenecut=40 / intra_refresh=0 / rc_lookahead=60 / rc=crf / mbtree=1 / crf=17.5 / qcomp=0.60 / qpmin=0 / qpmax=69 / qpstep=4 / ip_ratio=1.40 / aq=1:1.00
    Language                                 : English
    Default                                  : Yes
    Forced                                   : No

    Audio
    ID                                       : 1
    Format                                   : AAC
    Format/Info                              : Advanced Audio Codec
    Format profile                           : LC
    Codec ID                                 : A_AAC
    Duration                                 : 53mn 59s
    Channel(s)                               : 2 channels
    Channel positions                        : Front: L R
    Sampling rate                            : 48.0 KHz
    Compression mode                         : Lossy
    Delay relative to video                  : 4ms
    Default                                  : Yes
    Forced                                   : No







older | 1 | .... | 1359 | 1360 | (Page 1361) | 1362 | 1363 | .... | 1405 | newer