Are you the publisher? Claim or contact us about this channel


Embed this content in your HTML

Search

Report adult content:

click to rate:

Account: (login)

More Channels


Showcase


Channel Catalog


Channel Description:

Asia Torrents RSS Feed

older | 1 | .... | 1360 | 1361 | (Page 1362) | 1363 | 1364 | .... | 1405 | newer

    0 0

    Original Post: EPIK HIGH – THE BEST OF EPIK HIGH (2015) [FLAC]



    http://en.wikipedia.org/wiki/Epik_High

    EPIK HIGH – THE BEST OF EPIK HIGH ~SHOW MUST GO ON~
    Release Date: 2015.04.29
    Genre: Hip-Hop, Pop Rap
    Format: FLAC
    credit to hulkpop

    Track List:

    01. I REMEMBER ft. KENSIE
    02. PEACE DAY
    03. FLY ft. AMIN. J (from SOULCIETY)
    04. PARIS ft. JISUN (from LOVEHOLIC)
    05. FAN
    06. LOVE LOVE LOVE ft. YOONGJIN (from CASKER)
    07. ONE ft. JISUN
    08. UMBRELLA ft. YOUNHA
    09. 1 MINUTE 1 SECOND ft. TARU
    10. MAP THE SOUL ft. MYK
    11. TROT
    12. HIGH TECHNOLOGY
    13. I’TS COLD ft. LEE HI
    14. UP ft. BOM (from 2NE1)
    15. DON’T HATE ME
    16. BORN HATER ft. B.I, BOBBY, MINHO (from WINNER)
    17. HAPPEN ENDING ft. JOE WON SUN (from ROLLERCOASTER)
    18. SPOILER

    Audio
    Format                         : FLAC
    Format/Info                    : Free Lossless Audio Codec
    Duration                       : 4mn 25s
    Bit rate mode                  : Variable
    Bit rate                       : 872 Kbps
    Channel count                  : 2 channels
    Sampling rate                  : 44.1 KHz
    Bit depth                      : 16 bits
    Stream size                    : 27.6 MiB (100%)
    Writing library                : libFLAC 1.3.1



    0 0

    Original Post: Lucky Star 2015 1080p BluRay AVC TrueHD 5.1



    Detail:
    Title: Lucky Star
    Genre: Comedy
    Release Date: 19 Feb 2015
    Runtime: 1 Hour 28 Minutes
    Director: Sunny
    Country: Hong Kong
    Language: Mandarin, Cantonese
    Subtitles: English, Chinese

    Synopsis:
    "Lucky Star 2015" is a Chinese New Year comedy film starring an ensemble cast featuring Eric Tsang, Wong Cho-lam, Ella Chen from S.H.E, Dada Chan, King Tan Yuen and Yuen Qiu. The film is about a Wong Cho-lam look-alike who is invited to perform at a birthday party of a local tycoon. He brings along a group of look-alike artistes for his show. However, the local tycoon sees through his trick. The comedy film also features cameo appearances from Andy Lau, Nicholas Tse, Chow Yun Fat, Julian Cheung and many more.

    Cast:
    Eric Tsang, Wong Cho-lam, Ella Chen, Dada Chan Ching, Yuen King-Tan

    http://www.imdb.com/title/tt4483094/

    DISC INFO:

    Disc Title:     Lucky.Star.2015.1080p.BluRay.AVC.TrueHD.5.1
    Disc Size:      24,817,245,905 bytes
    Protection:     AACS
    BD-Java:        No
    BDInfo:         0.5.8

    PLAYLIST REPORT:

    Name:                   00001.MPLS
    Length:                 1:27:47.708 (h:m:s.ms)
    Size:                   22,993,840,128 bytes
    Total Bitrate:          34.92 Mbps

    VIDEO:

    Codec                   Bitrate             Description    
    -----                   -------             -----------    
    MPEG-4 AVC Video        23562 kbps          1080p / 24 fps / 16:9 / High Profile 4.1

    AUDIO:

    Codec                           Language        Bitrate         Description    
    -----                           --------        -------         -----------    
    Dolby TrueHD Audio              Cantonese         3199 kbps       5.1 / 96 kHz / 3199 kbps / 16-bit
    (AC3 Embedded: 5.1 / 48 kHz / 640 kbps)
    Dolby TrueHD Audio              Mandarin         3213 kbps       5.1 / 96 kHz / 3213 kbps / 16-bit
    (AC3 Embedded: 5.1 / 48 kHz / 640 kbps)

    SUBTITLES:

    Codec                           Language        Bitrate         Description    
    -----                           --------        -------         -----------    
    Presentation Graphics           Chinese         42.793 kbps                    
    Presentation Graphics           Chinese         41.893 kbps                    
    Presentation Graphics           English         56.501 kbps



    0 0

    Original Post: 12 Golden Ducks 2015 1080p BluRay AVC TrueHD 5.1



    Detail:
    Title: 12 Golden Ducks
    Genre: Comedy
    Release Date: 2015
    Runtime: 84 min
    Director: Matt Chow
    Rating: 5.6/10 from 48 users
    Country: Hong Kong
    Language: Cantonese
    Subtitles: English, Chinese

    Synopsis:
    Devastated by a love affair, former in-demand gigolo Future Cheung retreats to Thailand. With the help of his friend Rocky, a gym trainer, he works hard to get back into shape, determined to make a comeback in the “duck” (Male escort) trade.

    Cast:
    Sandra Kwan Yue Ng, Wei Zhao, Fiona Sit


    http://www.imdb.com/title/tt4409852/

    DISC INFO:

    Disc Title:     12.Golden.Ducks.2015.1080p.BluRay.AVC.TrueHD.5.1
    Disc Size:      24,334,460,923 bytes
    Protection:     AACS
    BD-Java:        No
    BDInfo:         0.5.8

    PLAYLIST REPORT:

    Name:                   00001.MPLS
    Length:                 1:24:47.250 (h:m:s.ms)
    Size:                   21,593,628,672 bytes
    Total Bitrate:          33.96 Mbps

    VIDEO:

    Codec                   Bitrate             Description    
    -----                   -------             -----------    
    MPEG-4 AVC Video        27926 kbps          1080p / 24 fps / 16:9 / High Profile 4.1

    AUDIO:

    Codec                           Language        Bitrate         Description    
    -----                           --------        -------         -----------    
    Dolby TrueHD Audio              Chinese         2667 kbps       5.1 / 96 kHz / 2667 kbps / 16-bit
    (AC3 Embedded: 5.1 / 48 kHz / 640 kbps)

    SUBTITLES:

    Codec                           Language        Bitrate         Description    
    -----                           --------        -------         -----------    
    Presentation Graphics           Chinese         35.022 kbps                    
    Presentation Graphics           English         38.423 kbps



    0 0

    Original Post: Letters from Nirai Kanai 2005 DVDRip x264 AC3 Naoto Kumazawa



    Letters from Nirai Kanai

    Original Title:ニライカナイからの手紙
    IMDb:http://www.imdb.com/title/tt0471282
    AsianWiki:http://asianwiki.com/Letters_from_Kanai_Nirai

    Director: Naoto Kumazawa
    Writer: Naoto Kumazawa
    Genre: Drama
    Release Date: 4 June 2005
    Runtime: 113 min
    Country: Japan
    Language: Japanese
    Subtitles: English, Japanese
    Source: Pony Canyon R2J DVD9 (Thanks to ericf @ ADC for the custom disc and to Stythe for the English translation)
    Stythe :
    This is the copy to archive - all changes to the script were approved by me, and ericf has put in a lot of his own time improving the presentation of the script.

    The title of the torrent, Letters from Nirai Kanai, is to my knowledge the only correct English title to be found anywhere. All sources I've ever found had it written as Kanai Nirai under the erroneous assumption that Nirai Kanai is a person, but it is a location - an island in Okinawan beliefs. It never should have been flipped.

    Synopsis: Fuki who lives with her grandfather Shoei in Taketomi Island, Okinawa, dreams of becoming a photographer. In her childhood, her mother Masami left Fuki to live in Tokyo. Although Masami has not come back, Fuki receives birthday cards from Masami every year on her birthday. On Fuki's fourteenth birthday, Masami promises to confess everything when Fuki becomes 20 years old. After her graduation from high school, Fuki moves to Tokyo to work as a camera assistant. Fuki starts off her hectic life in Tokyo, and soon, her nineteenth birthday comes. As usual, she receives a birthday card from Masami. A year later...

    Uploader's Comments: If you're looking for a relaxing film, this might be you're looking for. I just wish they'd toned down the dorama shenanigans that really spoils the later part, at least for me. But Yu is, as always, sweeter than sugar and could probably melt all the ice of Antarctica if she wanted to. So that lessens the blow considerably.

    Many thanks to Stythe for once again being the hero we need but perhaps doesn't quite deserve... closedeyes.gif

    MediaInfo
    Spoiler:show
    General
    Unique ID : 221071490661461860735713173698338025976 (0xA650D203DE3EF590AE101E5B2732F1F8)
    Complete name : Letters.from.Nirai.Kanai.2005.DVDRip.x264.AC3-Jongl0.mkv
    Format : Matroska
    Format version : Version 4 / Version 2
    File size : 1.77 GiB
    Duration : 1h 52mn
    Overall bit rate : 2 259 Kbps
    Encoded date : UTC 2015-06-03 18:01:28
    Writing application : mkvmerge v7.6.0 ('Garden of Dreams') 64bit built on Feb 8 2015 13:04:34
    Writing library : libebml v1.3.1 + libmatroska v1.4.2
    DURATION : 01:52:09.184000000
    NUMBER_OF_FRAMES : 210287
    NUMBER_OF_BYTES : 376834304
    _STATISTICS_WRITING_APP : mkvmerge v7.6.0 ('Garden of Dreams') 64bit built on Feb 8 2015 13:04:34
    _STATISTICS_WRITING_DATE_UTC : 2015-06-03 18:01:28
    _STATISTICS_TAGS : BPS DURATION NUMBER_OF_FRAMES NUMBER_OF_BYTES

    Video
    ID : 1
    Format : AVC
    Format/Info : Advanced Video Codec
    Format profile : High@L4.1
    Format settings, CABAC : Yes
    Format settings, ReFrames : 16 frames
    Codec ID : V_MPEG4/ISO/AVC
    Duration : 1h 52mn
    Bit rate : 1 766 Kbps
    Width : 716 pixels
    Height : 480 pixels
    Display aspect ratio : 16:9
    Original display aspect ratio : 16:9
    Frame rate mode : Constant
    Frame rate : 23.976 fps
    Color space : YUV
    Chroma subsampling : 4:2:0
    Bit depth : 8 bits
    Scan type : Progressive
    Bits/(Pixel*Frame) : 0.214
    Stream size : 1.38 GiB (78%)
    Writing library : x264 core 142 r2431 ac76440
    Encoding settings : cabac=1 / ref=16 / deblock=1:-3:-3 / analyse=0x3:0x133 / me=umh / subme=10 / psy=1 / psy_rd=0.90:0.10 / mixed_ref=1 / me_range=32 / chroma_me=1 / trellis=2 / 8x8dct=1 / cqm=0 / deadzone=21,11 / fast_pskip=0 / chroma_qp_offset=-3 / threads=12 / lookahead_threads=3 / sliced_threads=0 / nr=0 / decimate=0 / interlaced=0 / bluray_compat=0 / constrained_intra=0 / bframes=12 / b_pyramid=2 / b_adapt=2 / b_bias=0 / direct=3 / weightb=1 / open_gop=0 / weightp=2 / keyint=240 / keyint_min=23 / scenecut=40 / intra_refresh=0 / rc_lookahead=240 / rc=crf / mbtree=1 / crf=17.0 / qcomp=0.60 / qpmin=0 / qpmax=69 / qpstep=4 / vbv_maxrate=14000 / vbv_bufsize=14000 / crf_max=0.0 / nal_hrd=none / filler=0 / ip_ratio=1.40 / aq=1:0.85
    Default : Yes
    Forced : No
    DURATION : 01:52:09.390000000
    NUMBER_OF_FRAMES : 161344
    NUMBER_OF_BYTES : 1519362412
    _STATISTICS_WRITING_APP : mkvmerge v7.6.0 ('Garden of Dreams') 64bit built on Feb 8 2015 13:04:34
    _STATISTICS_WRITING_DATE_UTC : 2015-06-03 18:01:28
    _STATISTICS_TAGS : BPS DURATION NUMBER_OF_FRAMES NUMBER_OF_BYTES

    Audio
    ID : 2
    Format : AC-3
    Format/Info : Audio Coding 3
    Format profile : Dolby Digital
    Mode extension : CM (complete main)
    Format settings, Endianness : Big
    Codec ID : A_AC3
    Duration : 1h 52mn
    Bit rate mode : Constant
    Bit rate : 448 Kbps
    Channel(s) : 2 channels
    Channel positions : Front: L R
    Sampling rate : 48.0 KHz
    Bit depth : 16 bits
    Compression mode : Lossy
    Stream size : 359 MiB (20%)
    Language : Japanese
    Default : Yes
    Forced : No

    Text #1
    ID : 3
    Format : UTF-8
    Codec ID : S_TEXT/UTF8
    Codec ID/Info : UTF-8 Plain Text
    Language : English
    Default : Yes
    Forced : No

    Text #2
    ID : 4
    Format : ASS
    Codec ID : S_TEXT/ASS
    Codec ID/Info : Advanced Sub Station Alpha
    Compression mode : Lossless
    Language : English
    Default : No
    Forced : No

    Text #3
    ID : 5
    Format : VobSub
    Codec ID : S_VOBSUB
    Codec ID/Info : The same subtitle format used on DVDs
    Language : Japanese
    Default : No
    Forced : No

    Text #4
    ID : 6
    Format : VobSub
    Codec ID : S_VOBSUB
    Codec ID/Info : The same subtitle format used on DVDs
    Language : English
    Default : No
    Forced : No

    Menu
    00:00:00.000 : en:Chapter 1
    00:11:07.166 : en:Chapter 2
    00:17:29.948 : en:Chapter 3
    00:29:01.173 : en:Chapter 4
    00:40:33.532 : en:Chapter 5
    00:48:02.447 : en:Chapter 6
    00:59:43.282 : en:Chapter 7
    01:11:33.793 : en:Chapter 8
    01:15:42.108 : en:Chapter 9
    01:25:34.668 : en:Chapter 10
    01:30:28.462 : en:Chapter 11
    01:44:01.441 : en:Chapter 12




    0 0

    Original Post: Helios 2015 1080p.WEB-DL.x264.AAC-SeeHD





    Detail:
    Title: Helios
    Genre: Action/Thriller
    Release Date:
    Runtime: 118 mins
    Director: Leung Lok-Man
    Country: China
    Language: Mandarin
    Subtitles:Chinese Hardcoded

    Synopsis:
    Helios, a most wanted criminal in the global radar, has stolen the South Korean military’s latest mass destruction weapon: a handheld nuclear device DC8 and 16 uranium spheres. An underground trading of the stolen weapon is due to take place in Hong Kong. Chinese envoy Song An, Hong Kong’s Counter Terrorism Response Unit Chief Inspector Lee Yin-ming and South Korean weapon expert Choi Min Ho are all gathered in Hong Kong on a mission to recover the weapon. Physics professor Siu Chi-yan joins the team as consultant. Beneath the shared goal of recovering the weapon, the three regions’ representatives are all armed with hidden agendas. Choi not only has to capture Helios and recover the weapon but needs to prevent the leaking of national classified information. Song has China’s interests in mind. And on top of resolving the unit’s biggest crisis since its conception, Lee and Siu have to grapple with the tension between the two countries. Although the Hong Kong police manage to capture Helios’s assistant and recover the weapon, a diplomatic dispute between China and South Korea on who owns the confiscated nuclear device is unleashed. Meanwhile, Helios pops up in Macau, determined to reclaim the weapon and avenge his earlier defeat. In the final showdown, no one is safe from the danger and conspiracies that lurk underneath.

    Cast:
    Nick Cheung, Jacky Cheung, Shawn Yue, Chang Chen, Wang Xueqi, Janice Man, Choi Si-Won, Ji Jin-Hee, Joyce Feng, Yoon Jin-Yi








    Code

    Video
    ID                                       : 1
    Format                                   : AVC
    Format/Info                              : Advanced Video Codec
    Format profile                           : High@L4.0
    Format settings, CABAC                   : Yes
    Format settings, ReFrames                : 4 frames
    Codec ID                                 : avc1
    Codec ID/Info                            : Advanced Video Coding
    Duration                                 : 1h 58mn
    Bit rate                                 : 3 063 Kbps
    Maximum bit rate                         : 12.0 Mbps
    Width                                    : 1 920 pixels
    Height                                   : 816 pixels
    Display aspect ratio                     : 2.35:1
    Frame rate mode                          : Variable
    Frame rate                               : 24.000 fps
    Minimum frame rate                       : 23.835 fps
    Maximum frame rate                       : 24.246 fps
    Color space                              : YUV
    Chroma subsampling                       : 4:2:0
    Bit depth                                : 8 bits
    Scan type                                : Progressive
    Bits/(Pixel*Frame)                       : 0.081
    Stream size                              : 2.54 GiB (96%)
    Writing library                          : Provided by x264  :: H.264/MPEG-4 AVC codec -V 1.6.08
    Encoded date                             : UTC 2015-06-03 06:55:34
    Tagged date                              : UTC 2015-06-03 08:01:30
    Color primaries                          : BT.709-5, BT.1361, IEC 61966-2-4, SMPTE RP177
    Transfer characteristics                 : BT.709-5, BT.1361
    Matrix coefficients                      : BT.709-5, BT.1361, IEC 61966-2-4 709, SMPTE RP177

    Audio
    ID                                       : 2
    Format                                   : AAC
    Format/Info                              : Advanced Audio Codec
    Format profile                           : LC
    Codec ID                                 : 40
    Duration                                 : 1h 58mn
    Bit rate mode                            : Variable
    Bit rate                                 : 128 Kbps
    Maximum bit rate                         : 135 Kbps
    Channel(s)                               : 2 channels
    Channel positions                        : Front: L R
    Sampling rate                            : 44.1 KHz
    Compression mode                         : Lossy
    Delay relative to video                  : -12s 500ms
    Stream size                              : 109 MiB (4%)
    Language                                 : Chinese
    Encoded date                             : UTC 2015-06-03 08:01:29
    Tagged date                              : UTC 2015-06-03 08:01:30



    0 0

    Original Post: Hana to Arisu a.k.a. Hana and Alice 2004 1080p Blu-ray Remux AVC DTS-HD MA 2.0 - KRaLiMaRKo

    Hana to Arisu a.k.a. Hana and Alice 2004 1080p Blu-ray Remux AVC DTS-HD MA 2.0 - KRaLiMaRKo


    POSTER



    Profile
    Movie: Hana and Alice
    Romaji: Hana to Arisu
    Japanese: 花とアリス
    Director: Shunji Iwai
    Writer: Shunji Iwai
    Producer: Shunji Iwai
    Cinematographer: Noboru Shinoda
    Release Date: March 13, 2004
    Runtime: 135 min.
    Distributor: Toho
    Language: Japanese
    Country: Japan



    Cast:
    Yu Aoi - Setsuko "Alice" Arisugawa
    Tomohiro Kaku - Masashi Miyamoto
    Shoko Aida - Alice's Mother
    Hiroshi Abe - Alice's Mother's Companion
    Sei Hiraizumi - Alice's Father
    Tae Kimura - Ballet Teacher
    Takao Osawa - Photographer
    Ryoko Hirosue - Editor
    Makoto Sakamoto - Ataro The Crazed
    Eri Fuse
    Ayumi Ito
    Kazusa Matsuda
    Nao Omori
    Hiroyuki Nakano
    Zen Kajihara
    Lou Oshiba
    Reiko Matsuo - Harumi (model audition participant)
    Ami Ikenaga
    Terry Ito  



    Plot:
    Hana and Alice are friends from childhood. Alice is lively but a bit reckless, and Hana is always picking up after her friend’s messes. But Alice is capable of doing good deeds as well, like introducing Hana to her first crush. Alice believes in love at first sight, and she acts on her belief, pursuing a high school student and dragging along the reluctant Hana. Then Alice suggests to Hana to consider the boy’s friend, Miyamoto, as a possible boyfriend. Although she doesn’t seem interested at first, Hana soon finds herself accepting her friend’s recommendation and falling for him.  



    Review
    The two leads are absolutely charming. Hana and Alice comes alive whenever the two share the screen thanks to their chemistry. They have such rapport playing best friends that it's hard to imagine they are anything less than that in real life. Of course, the fact that they're playing their own age doesn't hurt either. What's even better is that the two leads are just as good on their own. Anne Suzuki gives an enchanting performance as the head-over-heels in love Hana. Even though her character threatens to become one-note, she still has a few good dramatic moments. However, it's Yu Aoi who has some of the film's best moments, including a memorable dance performance in the end.

    The crew behind the camera is excellent as well. Every technical detail in Hana and Alice is probably helped by the fact that Iwai not only wrote and directed, but also composed the music and edited the entire film as well. For their final collaboration, cinematographer Noboru Shinoda (who passed away before the film's release) stunningly retains Iwai's signature soft-lighting from film to digital. The result is a teenage fairy tale given a truly magical atmosphere that is rarely seen in Western films.

    Shunji Iwai as always remains true to his style and enchants the viewer with warm and dreamy pictures, which are mainly created by the strong use of soft sunlight shining through windows. The camera movements sometimes remind us of a hand camera, which still is something I can't get used to, but the music by Shunji Iwai himself fits perfectly into the rest, even if some of the piano pieces are a little bit too complex to be used as background music. Classic music is nothing to be listened to passively, but you have to get involved with it in a more active way of listening. This is why a few pieces feel a bit inappropriate.

    With its running time of 135 minutes "Hana and Alice" seems to be quite long, but apart from a greater slowdown in the middle the film fortunately proves to be really entertaining and in addition also provides us with a nice subtle humour. As it is typical with Iwai the movie's strength lies in its heart-warming atmosphere, which makes the end product, despite some rather emotional scenes, not really a drama. It's just a movie about the friendship of two girls and their path of becoming mature. At the end, when the ending credits hit the screen you will be strongly satisfied, although you might find it hard to pinpoint why, because "Hana and Alice" surely has some sore points. However, there is something with Iwai's movies that always manages to touch you - like a warm ray of sunshine touching your face...




    One of my favourite great scene: “Ballet Scene” from Hana and Alice.
    From Alice’s use of paper cups and tape as ballet shoes to the viewers shocked and amazed looks, the scene struck a chord with me as it undoubtedly does with most viewers.  The ballet is unexpected and impressive, demonstrating Alice’s incredible desire to prove herself.  Despite the fact that this is an audition for some sort of acting job, she decides to use the skill that she has already mastered–ballet.  The cinematography is intimate and brilliant, showing Alice and the room from every possible angle–from extreme close ups on certain parts of Alice’s body and the viewers faces to long crane shots of the entire room.  The use of slow motion and repetition also adds to the beauty of the dance and the emotional impact that it has on the viewer.  Incredible.  By including it at the very end of his film, Iwai gives the viewer reason to feel emotionally touched by this simple act of ballet.  The music is beautifully composed by Iwai himself.  If a film can go from silly comedy to a scene like this and evoke emotions, it is a truly great film.  Aoi Yu is truly one of Japanese cinema’s great actresses and Iwai Shunji is one of its great directors.  Watch Hana and Alice and experience the film in its entirety to completely appreciate the scene.



    SCREENS









    Technical Info:

    --(GENERAL)---

    Container.......: Matroska
    Size............: 37.2 GB
    Duration........: 2:15:12 (h:m:s)
    Chapters........: Yes (named)
    Compression.....: no zlib, no header stripping
    Release date....: 20.05.2015

    ---(VIDEO)----

    Codec...........: AVC
    Type............: progressive
    Resolution......: 1920x1080
    Bit rate........: 39.1 Mbps
    Frame rate......: 23.976 fps

    ---(AUDIO)----

    Format..........: DTS-HD MA
    Channels........: 2.0
    Bit depth.......: 16 bits
    Sample rate.....: 48 kHz
    Bit rate........: 811 kbps
    Language........: Japanese

    -(SUBTITLES)--

    Language(s).....: Japanese PGS (Original) - (Internal)
    English (SRT)

    ---(NOTES)----

    eac3to wrote: The original audio track has a constant bit depth of 16 bits.

    Audio is transcoded losslessly to DTS-HD MA via DTS-HD Master Audio Suite.



    Code
    General
    Unique ID                                : 205672827031754025680998669004695077656 (0x9ABB25482FA7342697A44AC3924B0318)
    Complete name                            : F:☛ UPLOADSHana to Arisu a.k.a. Hana and Alice 2004 1080p Blu-ray Remux AVC DTS-HD MA 2.0 - KRaLiMaRKoHana to Arisu a.k.a. Hana and Alice 2004 1080p Blu-ray Remux AVC DTS-HD MA 2.0 - KRaLiMaRKo.mkv
    Format                                   : Matroska
    Format version                           : Version 4 / Version 2
    File size                                : 37.2 GiB
    Duration                                 : 2h 15mn
    Overall bit rate mode                    : Variable
    Overall bit rate                         : 39.4 Mbps
    Movie name                               : Hana to Arisu 2004 1080p Blu-ray Remux AVC DTS-HD MA 2.0 - KRaLiMaRKo
    Encoded date                             : UTC 2015-05-20 16:05:31
    Writing application                      : mkvmerge v7.9.0 ('Birds') 64bit
    Writing library                          : libebml v1.3.1 + libmatroska v1.4.2
    DURATION                                 : 02:10:18.686000000
    NUMBER_OF_FRAMES                         : 8024
    NUMBER_OF_BYTES                          : 140251597
    _STATISTICS_WRITING_APP                  : mkvmerge v7.9.0 ('Birds') 64bit
    _STATISTICS_WRITING_DATE_UTC             : 2015-05-20 16:05:31
    _STATISTICS_TAGS                         : BPS DURATION NUMBER_OF_FRAMES NUMBER_OF_BYTES

    Video
    ID                                       : 1
    Format                                   : AVC
    Format/Info                              : Advanced Video Codec
    Format profile                           : High@L4.1
    Format settings, CABAC                   : Yes
    Format settings, ReFrames                : 4 frames
    Format settings, GOP                     : M=3, N=12
    Codec ID                                 : V_MPEG4/ISO/AVC
    Duration                                 : 2h 15mn
    Bit rate mode                            : Variable
    Maximum bit rate                         : 40.0 Mbps
    Width                                    : 1 920 pixels
    Height                                   : 1 080 pixels
    Display aspect ratio                     : 16:9
    Frame rate mode                          : Constant
    Frame rate                               : 23.976 fps
    Color space                              : YUV
    Chroma subsampling                       : 4:2:0
    Bit depth                                : 8 bits
    Scan type                                : Progressive
    Language                                 : Japanese
    Default                                  : Yes
    Forced                                   : No

    Audio
    ID                                       : 2
    Format                                   : DTS
    Format/Info                              : Digital Theater Systems
    Format profile                           : MA / Core
    Mode                                     : 16
    Format settings, Endianness              : Big
    Codec ID                                 : A_DTS
    Duration                                 : 2h 15mn
    Bit rate mode                            : Variable
    Bit rate                                 : Unknown / 255 Kbps
    Channel(s)                               : 2 channels
    Channel positions                        : Front: L R
    Sampling rate                            : 48.0 KHz
    Bit depth                                : 16 bits
    Compression mode                         : Lossless / Lossy
    Language                                 : Japanese
    Default                                  : Yes
    Forced                                   : No

    Text
    ID                                       : 3
    Format                                   : PGS
    Codec ID                                 : S_HDMV/PGS
    Codec ID/Info                            : The same subtitle format used on BDs/HD-DVDs
    Language                                 : Japanese
    Default                                  : Yes
    Forced                                   : No

    Menu
    00:00:00.000                             : en:Main Title; Stalkers on a Train
    00:07:42.545                             : en:Comedy Club
    00:22:15.666                             : en:The Discovery
    00:33:01.354                             : en:No Longer Friends
    00:39:42.002                             : en:Wo Ai Nee
    00:45:44.992                             : en:Making Memories
    00:54:53.706                             : en:Déjá Vu
    01:18:23.948                             : en:The Ace of Hearts
    01:26:49.494                             : en:Annual School Festival
    01:37:51.406                             : en:The Audition
    01:55:04.354                             : en:Cover Girl
    02:11:30.881                             : en:End Credits





    ---(NOTES)----

    ☛ First all, I would like to express my sincere appreciation and i would like also to say heartfelt thanks to the original Encoder and Up loader for his hard work. Original credit goes to the ✪ KRaLiMaRKo ✪


    0 0

    Original Post: Royal Warriors.1986.1080p.BluRay.Remux.HUN-CHI-69



    Royal Warriors (1986) 1080p

    Imdb: http://www.imdb.com/title/tt0091229
    Cast: Michelle Yeoh, Michael Wong, Hiroyuki Sanada, Ying Bai, Dennis Chan
    Directed: David Chung
    Genre:  Action, Drama
    Runtime: 01h 36mn 013s
    Also Known As: Wong ga jin si, Ultra Force
    Country: Hong Kong
    Language: Hungarian, Chinese
    Subtitles: Hungarian, Egnlish

    Plot/Synopsis:

    Michelle Yip of the Hong Kong police is a mild-mannered Kung Fu expert; Michael Wong from air security is happy-go-lucky, stuck on himself, constantly talking, and smitten by her; Yamamoto is quiet, hard-boiled, leaving the Tokyo police to spend time with his wife and daughter. They form an alliance when they foil a hijacking on a plane flying a mob prisoner from Tokyo to Hong Kong. The mobster and his would-be rescuer die; this sets off two avengers who were their blood brothers. Our three cops become the targets. A high-speed chase, a car bomb, the destruction of a nightclub, a spectacular suicide, dead bystanders, and a flying coffin litter the landscape by the end.

    Video
    ID                                       : 1
    Format                                   : AVC
    Format/Info                              : Advanced Video Codec
    Format profile                           : High@L4.1
    Format settings, CABAC                   : Yes
    Format settings, ReFrames                : 4 frames
    Codec ID                                 : V_MPEG4/ISO/AVC
    Duration                                 : 1h 36mn
    Bit rate mode                            : Variable
    Maximum bit rate                         : 30.0 Mbps
    Width                                    : 1 920 pixels
    Height                                   : 1 080 pixels
    Display aspect ratio                     : 16:9
    Frame rate mode                          : Constant
    Frame rate                               : 23.976 fps
    Standard                                 : NTSC
    Color space                              : YUV
    Chroma subsampling                       : 4:2:0
    Bit depth                                : 8 bits
    Scan type                                : Progressive
    Default                                  : Yes
    Forced                                   : No
    Color primaries                          : BT.709
    Transfer characteristics                 : BT.709
    Matrix coefficients                      : BT.709

    Audio #1
    ID                                       : 2
    Format                                   : AC-3
    Format/Info                              : Audio Coding 3
    Mode extension                           : CM (complete main)
    Format settings, Endianness              : Big
    Codec ID                                 : A_AC3
    Duration                                 : 1h 36mn
    Bit rate mode                            : Constant
    Bit rate                                 : 192 Kbps
    Channel(s)                               : 2 channels
    Channel positions                        : Front: L R
    Sampling rate                            : 48.0 KHz
    Bit depth                                : 16 bits
    Compression mode                         : Lossy
    Stream size                              : 132 MiB (1%)
    Title                                    : Royal Warriors HUN AC3
    Language                                 : Hungarian
    Default                                  : Yes
    Forced                                   : No

    Audio #2
    ID                                       : 5
    Format                                   : TrueHD
    Codec ID                                 : A_TRUEHD
    Duration                                 : 1h 36mn
    Bit rate mode                            : Variable
    Maximum bit rate                         : 4 125 Kbps
    Channel(s)                               : 8 channels
    Channel positions                        : Front: L C R, Side: L R, Back: L R, LFE
    Sampling rate                            : 48.0 KHz
    Compression mode                         : Lossless
    Title                                    : Royal Warriors CHI TrueHD
    Language                                 : Chinese
    Default                                  : No
    Forced                                   : No

    Text #1
    ID                                       : 3
    Format                                   : UTF-8
    Codec ID                                 : S_TEXT/UTF8
    Codec ID/Info                            : UTF-8 Plain Text
    Title                                    : Royal Warriors HUN
    Language                                 : Hungarian
    Default                                  : No
    Forced                                   : No

    Text #2
    ID                                       : 4
    Format                                   : UTF-8
    Codec ID                                 : S_TEXT/UTF8
    Codec ID/Info                            : UTF-8 Plain Text
    Title                                    : Royal Warriors ENG
    Language                                 : English
    Default                                  : No
    Forced                                   : No





    0 0

    Original Post: Eien no Zero 2015 720p HDTV x264 AAC DoA Complete



    Title : Eien no Zero / 永遠の0
    Format: Tanpatsu
    Genre: War
    Episodes: 3
    Network: TV Tokyo
    Release Date: 11-Feb-2015
    Language: Japanese
    Subtitles: None
    RAW credit to DoA

    Synopsis
    In the summer of 2004, 60 years after the end of World War II, Saeki Kentaro (Kiritani Kenta) is asked by his older sister, Keiko (Hirosue Ryoko), a freelance writer, to start looking into their grandfather, Miyabe Kyuzo (Mukai Osamu) for her boyfriend, newspaper reporter Takayama Ryuji’s (Yamaguchi Makiya) ’60th Anniversary Post-war Project’. When their maternal grandmother, Matsuno, passed away six years ago, their grandfather, Oishi Kenichiro (Ito Shiro), told them that he is not their actual grandfather. Even their mother, Kiyoko (Takahata Atsuko), only knows that her biological father died in the war. Keiko sends a query to the Ministry of Health, Labour and Welfare. Miyabe is only mentioned in one line. He died in the Ryukyu Islands as a kamikaze pilot just before the end of the war. They check the association for former soldiers and search for people who knew Miyabe at that time. A man called Hasegawa Umeo (Sasano Takashi) replies. When Kentaro and Keiko visit him, they are speechless at the sight of his missing left arm. Hasegawa tells them that their grandfather was the “greatest coward of the navy’s pilots” and starts to talk about his memories of the fierce battles waged in Rabaul and Guadalcanal. At a camp for non-commissioned officers at the Rabaul base in the autumn of 1942, Hasegawa (Nakao Akiyoshi) and other pilots encouraged each other to risk their lives for the sake of the country while many Zero fighter planes went sorties to Guadalcanal never to return. However, Miyabe declared that he would come back alive. This unacceptable statement earned him a punch from Hasegawa. Hasegawa remembers feeling disgusted by how Miyabe fought. Miyabe would always come back without any injuries. Even when Hasegawa himself lost his left arm in combat. Hasegawa, who still hates Miyabe’s cowardice to this day, is meeting Keiko and Kentaro because he wants to hear about how Miyabe had been after the war. He is shocked to learn that Miyabe died in the suicide mission. On the other hand, Keiko and Kentaro are taken aback that their grandfather was a coward. However, they want to know why this “coward” went on a “suicide mission” and died in the war. They conduct interviews with former Zero fighter pilots Ito Kanji (Tsukayama Masane/Chihara Seiji) who was together with Miyabe for more than half a year from the Battle of Pearl Harbour to the Battle of Midway Island, and Isaki Genjiro (Kondo Masaomi/ Mitsushima Shinnosuke) whose life was saved by Miyabe, former maintenance officer Nagai Kiyotaka (Kobayashi Katsuya/Kaku Kento) as well as others … … The image of Miyabe changes completely depending on the witnesses. What kind of person was Miyabe Kyuzo? And there is the question that presents itself. Why did Miyabe get into a Zero fighter plane and lose his life if he kept saying that he was honouring a promise to his wife not to die until he meets their daughter? Ryuji sees the interview records so far, and is amused that these will become the special feature of the ’60th Anniversary Post-war Project’. However, Keiko has mixed feelings. Ryuji proposes that they get married once this work is done. When Kentaro hears about that, he asks his sister if it is not Fujiki Shuichi (Harada Taizo), who used to work for their grandfather, that she likes. She retorts that she neither received a confession of his feelings nor went on a date alone. Their next interviewee is former navy lieutenant Tanigawa Masao (Ishibashi Renji). Tanigawa who has not talked much about the war so far recalls Miyabe with anguish. “He was a very brave fighter pilot who knew no fear,” he starts to tell them. Keiko and Kentaro are surprised by these unexpected words


    Cast
    Mukai Osamu as Miyabe Kyuzo
    Kiritani Kenta
    Hirosue Ryoko
    Tabe Mikako
    Onoe Matsuya as Kageura Kaizen
    Nakamura Aoi as Oishi Kenichiro
    Watanabe Dai as Murata Yasuhiko
    Kudo Asuka as Takeda Takanori
    Mitsushima Shinnosuke
    Nakao Akiyoshi
    Ishiguro Hideo
    Kaku Kento
    Kanai Yuta
    Owada Kensuke

    Media Info:
    Spoiler:show
    Format                                   : Matroska
    Format version                           : Version 4 / Version 2
    File size                                : 3.21 GiB
    Duration                                 : 2h 1mn
    Overall bit rate                         : 3 790 Kbps
    Encoded date                             : UTC 2015-03-18 12:13:20
    Writing application                      : mkvmerge v6.0.0 ('Coming Up For Air') built on Jan 20 2013 09:52:00
    Writing library                          : libebml v1.3.0 + libmatroska v1.4.0

    Video
    ID                                       : 2
    Format                                   : AVC
    Format/Info                              : Advanced Video Codec
    Format profile                           : High@L4.1
    Format settings, CABAC                   : Yes
    Format settings, ReFrames                : 9 frames
    Codec ID                                 : V_MPEG4/ISO/AVC
    Duration                                 : 2h 1mn
    Width                                    : 1 280 pixels
    Height                                   : 720 pixels
    Display aspect ratio                     : 16:9
    Frame rate mode                          : Constant
    Frame rate                               : 29.970 fps
    Color space                              : YUV
    Chroma subsampling                       : 4:2:0
    Bit depth                                : 8 bits
    Scan type                                : Progressive
    Writing library                          : x264 core 129 r2230 1cffe9f
    Encoding settings                        : cabac=1 / ref=9 / deblock=1:-3:-3 / analyse=0x3:0x133 / me=umh / subme=10 / psy=1 / psy_rd=1.00:0.15 / mixed_ref=1 / me_range=48 / chroma_me=1 / trellis=2 / 8x8dct=1 / cqm=0 / deadzone=21,11 / fast_pskip=0 / chroma_qp_offset=-3 / threads=6 / lookahead_threads=1 / sliced_threads=0 / nr=0 / decimate=1 / interlaced=0 / bluray_compat=0 / constrained_intra=0 / bframes=8 / b_pyramid=2 / b_adapt=2 / b_bias=0 / direct=3 / weightb=1 / open_gop=0 / weightp=2 / keyint=300 / keyint_min=29 / scenecut=40 / intra_refresh=0 / rc_lookahead=60 / rc=crf / mbtree=1 / crf=18.0 / qcomp=0.60 / qpmin=0 / qpmax=69 / qpstep=4 / ip_ratio=1.40 / aq=1:1.00
    Language                                 : English
    Default                                  : Yes
    Forced                                   : No

    Audio
    ID                                       : 1
    Format                                   : AAC
    Format/Info                              : Advanced Audio Codec
    Format profile                           : LC
    Codec ID                                 : A_AAC
    Duration                                 : 2h 1mn
    Channel(s)                               : 2 channels
    Channel positions                        : Front: L R
    Sampling rate                            : 48.0 KHz
    Compression mode                         : Lossy
    Delay relative to video                  : 8ms
    Default                                  : Yes
    Forced                                   : No







    0 0

    Original Post: Mask.E04.150604.HDTV.X264-LIMO

    Details
    Title: 가면 / Gamyun
    Genre: Romance, melodrama
    Episodes: TBA
    Broadcast network: SBS
    Broadcast period: 2015-May-27 to 2015-???-??
    Air time: Wednesday & Thursday 22:00
    Original Soundtrack: Mask OST
    http://thetvdb.com/index.php?tab=series&id=295976

    Synopsis
    Byun Ji Sook has always had a hard life with her father constantly going into debt and being chased by loan sharks. She desperately wants to know what life is like if she was born into a better family and didn’t have to worry about money all the time. When a series of circumstances brings Ji Sook to Eun Ha, a woman from a wealthy family who strongly resembles Ji Sook, she grabs hold of the chance for a better life and assumes Eun Ha’s identity and begins to live her elite life. She meets Min Woo, a chaebol heir who is mistrusting of the people around him. But when he realizes that Ji Sook is not like the other women he has met, he is drawn to her. How long can Ji Sook keep up the charade and hide her true identity?


    Main Cast
    Soo Ae as Byun Ji Sook (29) / Seo Eun Ha (27)
    Joo Ji Hoon as Choi Min Woo (30)
    Yun Jung Hoon as Min Suk Hoon (34, Mi Yun's husband)
    Yoo In Young as Choi Mi Yun (31, Min Woo's elder sister)
    Byun Ji Sook's family
    Jung Dong Hwan as Byun Dae Sung (50s, Ji Sook's father)
    Yang Mi Kyung as Kang Ok Soon (50s, Ji Sook's mother)
    Hoya as Byun Ji Hyuk (25, Ji Sook's younger brother)
    Choi Min Woo's family
    Jun Gook Hwan as President Choi Doo Hyun (60s, Min Woo's father)
    Park Joon Geum as Mrs. Song (50s, Min Woo's stepmother, Mi Yun's biological mother)
    Seo Eun Ha's family
    Park Yong Soo as Congressman Seo Jong Hoon (60s, Eun Ha's father)
    Lee Jong Nam as Mrs. Lee (50s, Eun Ha's stepmother)
    Others
    Kim Byung Ok as Director Shim (40s, loan shark)
    Jo Han Sun as Kim Jung Tae (29, 3rd generation of Chaebol)
    Park Yun Soo (박연수) as Myung Hwa (24, Ji Sook's colleague)
    Hwang Suk Jung as Mal Ja (late 50s, Ji Sook's colleague)
    Park Joon Myun as Yeo Bu Jang (40s)
    Joo Jin Mo as Professor Kim (60s, a psychiatrist)
    Kim Ji Min (김지민)as Kim Yun Soo (30s)
    Moon Sung Ho (문성호) as Nam Chul (40s)
    Jo Yoon Woo as Oh Chang Soo (20s, Min Woo's secretary)
    Sung Chang Hoon (성창훈) as Bbul Te (30s)









    Code
    Video
    ID                             : 1
    Format                         : AVC
    Format/Info                    : Advanced Video Codec
    Format profile                 : Main@L4.0
    Format settings, CABAC         : Yes
    Format settings, ReFrames      : 4 frames
    Codec ID                       : V_MPEG4/ISO/AVC
    Duration                       : 58mn 44s
    Bit rate                       : 450 Kbps
    Width                          : 624 pixels
    Height                         : 350 pixels
    Display aspect ratio           : 16:9
    Frame rate mode                : Constant
    Frame rate                     : 29.970 fps
    Color space                    : YUV
    Chroma subsampling             : 4:2:0
    Bit depth                      : 8 bits
    Scan type                      : Progressive
    Bits/(Pixel*Frame)             : 0.069
    Stream size                    : 190 MiB (76%)
    Writing library                : x264 core 130 r2273 b3065e6
    Encoding settings              : cabac=1 / ref=1 / deblock=1:0:0 / analyse=0x1:0x111 / me=hex / subme=2 / psy=1 / psy_rd=1.00:0.00 / mixed_ref=0 / me_range=16 / chroma_me=1 / trellis=0 / 8x8dct=0 / cqm=0 / deadzone=21,11 / fast_pskip=1 / chroma_qp_offset=0 / threads=1 / lookahead_threads=1 / sliced_threads=0 / nr=0 / decimate=1 / interlaced=0 / bluray_compat=0 / constrained_intra=0 / bframes=3 / b_pyramid=2 / b_adapt=1 / b_bias=0 / direct=1 / weightb=1 / open_gop=0 / weightp=1 / keyint=300 / keyint_min=30 / scenecut=40 / intra_refresh=0 / rc_lookahead=10 / rc=abr / mbtree=1 / bitrate=450 / ratetol=1.0 / qcomp=0.60 / qpmin=0 / qpmax=69 / qpstep=4 / vbv_maxrate=20000 / vbv_bufsize=25000 / nal_hrd=none / ip_ratio=1.40 / aq=1:1.00
    Language                       : English
    Default                        : Yes
    Forced                         : No
    Color primaries                : BT.601 NTSC
    Transfer characteristics       : BT.709
    Matrix coefficients            : BT.601

    Audio
    ID                             : 2
    Format                         : MPEG Audio
    Format version                 : Version 1
    Format profile                 : Layer 3
    Mode                           : Joint stereo
    Mode extension                 : MS Stereo
    Codec ID                       : A_MPEG/L3
    Codec ID/Hint                  : MP3
    Duration                       : 58mn 44s
    Bit rate mode                  : Constant
    Bit rate                       : 128 Kbps
    Channel(s)                     : 2 channels
    Sampling rate                  : 48.0 KHz
    Compression mode               : Lossy
    Stream size                    : 53.8 MiB (22%)
    Default                        : Yes
    Forced                         : No



    0 0

    Original Post: Mask.E04.150604.HDTV.H264.450p-LIMO

    Details
    Title: 가면 / Gamyun
    Genre: Romance, melodrama
    Episodes: TBA
    Broadcast network: SBS
    Broadcast period: 2015-May-27 to 2015-???-??
    Air time: Wednesday & Thursday 22:00
    Original Soundtrack: Mask OST
    http://thetvdb.com/index.php?tab=series&id=295976

    Synopsis
    Byun Ji Sook has always had a hard life with her father constantly going into debt and being chased by loan sharks. She desperately wants to know what life is like if she was born into a better family and didn’t have to worry about money all the time. When a series of circumstances brings Ji Sook to Eun Ha, a woman from a wealthy family who strongly resembles Ji Sook, she grabs hold of the chance for a better life and assumes Eun Ha’s identity and begins to live her elite life. She meets Min Woo, a chaebol heir who is mistrusting of the people around him. But when he realizes that Ji Sook is not like the other women he has met, he is drawn to her. How long can Ji Sook keep up the charade and hide her true identity?


    Main Cast
    Soo Ae as Byun Ji Sook (29) / Seo Eun Ha (27)
    Joo Ji Hoon as Choi Min Woo (30)
    Yun Jung Hoon as Min Suk Hoon (34, Mi Yun's husband)
    Yoo In Young as Choi Mi Yun (31, Min Woo's elder sister)
    Byun Ji Sook's family
    Jung Dong Hwan as Byun Dae Sung (50s, Ji Sook's father)
    Yang Mi Kyung as Kang Ok Soon (50s, Ji Sook's mother)
    Hoya as Byun Ji Hyuk (25, Ji Sook's younger brother)
    Choi Min Woo's family
    Jun Gook Hwan as President Choi Doo Hyun (60s, Min Woo's father)
    Park Joon Geum as Mrs. Song (50s, Min Woo's stepmother, Mi Yun's biological mother)
    Seo Eun Ha's family
    Park Yong Soo as Congressman Seo Jong Hoon (60s, Eun Ha's father)
    Lee Jong Nam as Mrs. Lee (50s, Eun Ha's stepmother)
    Others
    Kim Byung Ok as Director Shim (40s, loan shark)
    Jo Han Sun as Kim Jung Tae (29, 3rd generation of Chaebol)
    Park Yun Soo (박연수) as Myung Hwa (24, Ji Sook's colleague)
    Hwang Suk Jung as Mal Ja (late 50s, Ji Sook's colleague)
    Park Joon Myun as Yeo Bu Jang (40s)
    Joo Jin Mo as Professor Kim (60s, a psychiatrist)
    Kim Ji Min (김지민)as Kim Yun Soo (30s)
    Moon Sung Ho (문성호) as Nam Chul (40s)
    Jo Yoon Woo as Oh Chang Soo (20s, Min Woo's secretary)
    Sung Chang Hoon (성창훈) as Bbul Te (30s)










    Code
    Video
    ID                                       : 0
    Format                                   : AVC
    Format/Info                              : Advanced Video Codec
    Format profile                           : High@L5.1
    Format settings, CABAC                   : Yes
    Format settings, ReFrames                : 4 frames
    Codec ID                                 : H264
    Bit rate                                 : 1 500 Kbps
    Width                                    : 800 pixels
    Height                                   : 450 pixels
    Display aspect ratio                     : 16:9
    Frame rate mode                          : Variable
    Frame rate                               : 29.970 fps
    Color space                              : YUV
    Chroma subsampling                       : 4:2:0
    Bit depth                                : 8 bits
    Scan type                                : Progressive
    Bits/(Pixel*Frame)                       : 0.139
    Stream size                              : 686 MiB (88%)
    Writing library                          : x264 core 112

    Audio
    ID                                       : 1
    Format                                   : MPEG Audio
    Format version                           : Version 1
    Format profile                           : Layer 3
    Mode                                     : Joint stereo
    Mode extension                           : MS Stereo
    Codec ID                                 : 55
    Codec ID/Hint                            : MP3
    Bit rate mode                            : Constant
    Bit rate                                 : 192 Kbps
    Channel(s)                               : 2 channels
    Sampling rate                            : 48.0 KHz
    Compression mode                         : Lossy
    Stream size                              : 88.3 MiB (11%)
    Alignment                                : Aligned on interleaves
    Interleave, duration                     : 24 ms (0.72 video frame)
    Writing library                          : LAME3.98.2
    Language                                 : Korean



    0 0

    Original Post: Mask.E04.150604.HDTV.H264.720p-LIMO

    Details
    Title: 가면 / Gamyun
    Genre: Romance, melodrama
    Episodes: TBA
    Broadcast network: SBS
    Broadcast period: 2015-May-27 to 2015-???-??
    Air time: Wednesday & Thursday 22:00
    Original Soundtrack: Mask OST
    http://thetvdb.com/index.php?tab=series&id=295976

    Synopsis
    Byun Ji Sook has always had a hard life with her father constantly going into debt and being chased by loan sharks. She desperately wants to know what life is like if she was born into a better family and didn’t have to worry about money all the time. When a series of circumstances brings Ji Sook to Eun Ha, a woman from a wealthy family who strongly resembles Ji Sook, she grabs hold of the chance for a better life and assumes Eun Ha’s identity and begins to live her elite life. She meets Min Woo, a chaebol heir who is mistrusting of the people around him. But when he realizes that Ji Sook is not like the other women he has met, he is drawn to her. How long can Ji Sook keep up the charade and hide her true identity?


    Main Cast
    Soo Ae as Byun Ji Sook (29) / Seo Eun Ha (27)
    Joo Ji Hoon as Choi Min Woo (30)
    Yun Jung Hoon as Min Suk Hoon (34, Mi Yun's husband)
    Yoo In Young as Choi Mi Yun (31, Min Woo's elder sister)
    Byun Ji Sook's family
    Jung Dong Hwan as Byun Dae Sung (50s, Ji Sook's father)
    Yang Mi Kyung as Kang Ok Soon (50s, Ji Sook's mother)
    Hoya as Byun Ji Hyuk (25, Ji Sook's younger brother)
    Choi Min Woo's family
    Jun Gook Hwan as President Choi Doo Hyun (60s, Min Woo's father)
    Park Joon Geum as Mrs. Song (50s, Min Woo's stepmother, Mi Yun's biological mother)
    Seo Eun Ha's family
    Park Yong Soo as Congressman Seo Jong Hoon (60s, Eun Ha's father)
    Lee Jong Nam as Mrs. Lee (50s, Eun Ha's stepmother)
    Others
    Kim Byung Ok as Director Shim (40s, loan shark)
    Jo Han Sun as Kim Jung Tae (29, 3rd generation of Chaebol)
    Park Yun Soo (박연수) as Myung Hwa (24, Ji Sook's colleague)
    Hwang Suk Jung as Mal Ja (late 50s, Ji Sook's colleague)
    Park Joon Myun as Yeo Bu Jang (40s)
    Joo Jin Mo as Professor Kim (60s, a psychiatrist)
    Kim Ji Min (김지민)as Kim Yun Soo (30s)
    Moon Sung Ho (문성호) as Nam Chul (40s)
    Jo Yoon Woo as Oh Chang Soo (20s, Min Woo's secretary)
    Sung Chang Hoon (성창훈) as Bbul Te (30s)









    Code
    Video
    ID                               : 0
    Format                           : AVC
    Format/Info                      : Advanced Video Codec
    Format profile                   : High@L5.1
    Format settings, CABAC           : Yes
    Format settings, ReFrames        : 4 frames
    Codec ID                         : H264
    Duration                         : 1h 4mn
    Bit rate                         : 3 000 Kbps
    Width                            : 1 280 pixels
    Height                           : 720 pixels
    Display aspect ratio             : 16:9
    Frame rate mode                  : Variable
    Frame rate                       : 29.970 fps
    Color space                      : YUV
    Chroma subsampling               : 4:2:0
    Bit depth                        : 8 bits
    Scan type                        : Progressive
    Bits/(Pixel*Frame)               : 0.109
    Stream size                      : 1.35 GiB (94%)
    Writing library                  : x264 core 112
    Encoding settings                : cabac=1 / ref=3 / deblock=1:-1:-1 / analyse=0x3:0x113 / me=hex / subme=6 / psy=1 / psy_rd=1.00:1.00 / mixed_ref=1 / me_range=16 / chroma_me=1 / trellis=1 / 8x8dct=1 / cqm=0 / deadzone=21,11 / fast_pskip=0 / chroma_qp_offset=-4 / threads=12 / sliced_threads=0 / nr=0 / decimate=1 / interlaced=0 / constrained_intra=0 / bframes=3 / b_pyramid=2 / b_adapt=1 / b_bias=1 / direct=3 / weightb=1 / open_gop=0 / weightp=2 / keyint=299 / keyint_min=25 / scenecut=1 / intra_refresh=0 / rc_lookahead=40 / rc=abr / mbtree=1 / bitrate=3000 / ratetol=1.0 / qcomp=0.60 / qpmin=10 / qpmax=51 / qpstep=4 / ip_ratio=1.40 / aq=1:1.00

    Audio
    ID                               : 1
    Format                           : MPEG Audio
    Format version                   : Version 1
    Format profile                   : Layer 3
    Mode                             : Joint stereo
    Mode extension                   : MS Stereo
    Codec ID                         : 55
    Codec ID/Hint                    : MP3
    Duration                         : 1h 4mn
    Bit rate mode                    : Constant
    Bit rate                         : 192 Kbps
    Channel(s)                       : 2 channels
    Sampling rate                    : 48.0 KHz
    Stream size                      : 88.0 MiB (6%)
    Alignment                        : Split accross interleaves
    Interleave, duration             : 33 ms (1.00 video frame)
    Interleave, preload duration     : 500 ms
    Writing library                  : LAME3.98.2



    0 0

    Original Post: Masked.Prosecutor.E06.150604.HDTV.X264-LIMO

    Details
    Title: 복면검사 / Bogmyeongeomsa
    Genre: Action, thriller
    Episodes:
    Broadcast network: KBS2
    Broadcast period: 2015-May-20 to 2015-??-??
    Air time: Wednesday & Thursday 22:00
    http://thetvdb.com/?tab=series&id=295948&lid=7

    Synopsis
    The story is about a man, played by Joo Sang Wook with a double identity. He's a normal prosecutor during the day and a masked vigilante at night. Kim Sun Ah will play a role of detective chief in the violent crimes unit.

    Cast
    Joo Sang Wook as Ha Dae Chul (33, Prosecutor at Southern District)
    Kim Sun Ah as a Yoo Min Hee (33, Chief at Gangnam Police Station, Crime Division)
    Uhm Ki Joon as Kang Hyun Woong (30, Prosecutor at Seoul District)
    Jun Kwang Ryul as Jo Sang Taek (50s, former detective)









    Code
    Video
    ID                             : 1
    Format                         : AVC
    Format/Info                    : Advanced Video Codec
    Format profile                 : Main@L4.0
    Format settings, CABAC         : Yes
    Format settings, ReFrames      : 4 frames
    Codec ID                       : V_MPEG4/ISO/AVC
    Duration                       : 58mn 44s
    Bit rate                       : 450 Kbps
    Width                          : 624 pixels
    Height                         : 350 pixels
    Display aspect ratio           : 16:9
    Frame rate mode                : Constant
    Frame rate                     : 29.970 fps
    Color space                    : YUV
    Chroma subsampling             : 4:2:0
    Bit depth                      : 8 bits
    Scan type                      : Progressive
    Bits/(Pixel*Frame)             : 0.069
    Stream size                    : 190 MiB (76%)
    Writing library                : x264 core 130 r2273 b3065e6
    Encoding settings              : cabac=1 / ref=1 / deblock=1:0:0 / analyse=0x1:0x111 / me=hex / subme=2 / psy=1 / psy_rd=1.00:0.00 / mixed_ref=0 / me_range=16 / chroma_me=1 / trellis=0 / 8x8dct=0 / cqm=0 / deadzone=21,11 / fast_pskip=1 / chroma_qp_offset=0 / threads=1 / lookahead_threads=1 / sliced_threads=0 / nr=0 / decimate=1 / interlaced=0 / bluray_compat=0 / constrained_intra=0 / bframes=3 / b_pyramid=2 / b_adapt=1 / b_bias=0 / direct=1 / weightb=1 / open_gop=0 / weightp=1 / keyint=300 / keyint_min=30 / scenecut=40 / intra_refresh=0 / rc_lookahead=10 / rc=abr / mbtree=1 / bitrate=450 / ratetol=1.0 / qcomp=0.60 / qpmin=0 / qpmax=69 / qpstep=4 / vbv_maxrate=20000 / vbv_bufsize=25000 / nal_hrd=none / ip_ratio=1.40 / aq=1:1.00
    Language                       : English
    Default                        : Yes
    Forced                         : No
    Color primaries                : BT.601 NTSC
    Transfer characteristics       : BT.709
    Matrix coefficients            : BT.601

    Audio
    ID                             : 2
    Format                         : MPEG Audio
    Format version                 : Version 1
    Format profile                 : Layer 3
    Mode                           : Joint stereo
    Mode extension                 : MS Stereo
    Codec ID                       : A_MPEG/L3
    Codec ID/Hint                  : MP3
    Duration                       : 58mn 44s
    Bit rate mode                  : Constant
    Bit rate                       : 128 Kbps
    Channel(s)                     : 2 channels
    Sampling rate                  : 48.0 KHz
    Compression mode               : Lossy
    Stream size                    : 53.8 MiB (22%)
    Default                        : Yes
    Forced                         : No



    0 0

    Original Post: Masked.Prosecutor.E06.150604.HDTV.H264.450p-LIMO

    Details
    Title: 복면검사 / Bogmyeongeomsa
    Genre: Action, thriller
    Episodes:
    Broadcast network: KBS2
    Broadcast period: 2015-May-20 to 2015-??-??
    Air time: Wednesday & Thursday 22:00
    http://thetvdb.com/?tab=series&id=295948&lid=7

    Synopsis
    The story is about a man, played by Joo Sang Wook with a double identity. He's a normal prosecutor during the day and a masked vigilante at night. Kim Sun Ah will play a role of detective chief in the violent crimes unit.

    Cast
    Joo Sang Wook as Ha Dae Chul (33, Prosecutor at Southern District)
    Kim Sun Ah as a Yoo Min Hee (33, Chief at Gangnam Police Station, Crime Division)
    Uhm Ki Joon as Kang Hyun Woong (30, Prosecutor at Seoul District)
    Jun Kwang Ryul as Jo Sang Taek (50s, former detective)










    Code
    Video
    ID                                       : 0
    Format                                   : AVC
    Format/Info                              : Advanced Video Codec
    Format profile                           : High@L5.1
    Format settings, CABAC                   : Yes
    Format settings, ReFrames                : 4 frames
    Codec ID                                 : H264
    Bit rate                                 : 1 500 Kbps
    Width                                    : 800 pixels
    Height                                   : 450 pixels
    Display aspect ratio                     : 16:9
    Frame rate mode                          : Variable
    Frame rate                               : 29.970 fps
    Color space                              : YUV
    Chroma subsampling                       : 4:2:0
    Bit depth                                : 8 bits
    Scan type                                : Progressive
    Bits/(Pixel*Frame)                       : 0.139
    Stream size                              : 686 MiB (88%)
    Writing library                          : x264 core 112

    Audio
    ID                                       : 1
    Format                                   : MPEG Audio
    Format version                           : Version 1
    Format profile                           : Layer 3
    Mode                                     : Joint stereo
    Mode extension                           : MS Stereo
    Codec ID                                 : 55
    Codec ID/Hint                            : MP3
    Bit rate mode                            : Constant
    Bit rate                                 : 192 Kbps
    Channel(s)                               : 2 channels
    Sampling rate                            : 48.0 KHz
    Compression mode                         : Lossy
    Stream size                              : 88.3 MiB (11%)
    Alignment                                : Aligned on interleaves
    Interleave, duration                     : 24 ms (0.72 video frame)
    Writing library                          : LAME3.98.2
    Language                                 : Korean



    0 0

    Original Post: Masked.Prosecutor.E06.150604.HDTV.H264.720p-LIMO

    Details
    Title: 복면검사 / Bogmyeongeomsa
    Genre: Action, thriller
    Episodes:
    Broadcast network: KBS2
    Broadcast period: 2015-May-20 to 2015-??-??
    Air time: Wednesday & Thursday 22:00
    http://thetvdb.com/?tab=series&id=295948&lid=7

    Synopsis
    The story is about a man, played by Joo Sang Wook with a double identity. He's a normal prosecutor during the day and a masked vigilante at night. Kim Sun Ah will play a role of detective chief in the violent crimes unit.

    Cast
    Joo Sang Wook as Ha Dae Chul (33, Prosecutor at Southern District)
    Kim Sun Ah as a Yoo Min Hee (33, Chief at Gangnam Police Station, Crime Division)
    Uhm Ki Joon as Kang Hyun Woong (30, Prosecutor at Seoul District)
    Jun Kwang Ryul as Jo Sang Taek (50s, former detective)









    Code
    Video
    ID                               : 0
    Format                           : AVC
    Format/Info                      : Advanced Video Codec
    Format profile                   : High@L5.1
    Format settings, CABAC           : Yes
    Format settings, ReFrames        : 4 frames
    Codec ID                         : H264
    Duration                         : 1h 4mn
    Bit rate                         : 3 000 Kbps
    Width                            : 1 280 pixels
    Height                           : 720 pixels
    Display aspect ratio             : 16:9
    Frame rate mode                  : Variable
    Frame rate                       : 29.970 fps
    Color space                      : YUV
    Chroma subsampling               : 4:2:0
    Bit depth                        : 8 bits
    Scan type                        : Progressive
    Bits/(Pixel*Frame)               : 0.109
    Stream size                      : 1.35 GiB (94%)
    Writing library                  : x264 core 112
    Encoding settings                : cabac=1 / ref=3 / deblock=1:-1:-1 / analyse=0x3:0x113 / me=hex / subme=6 / psy=1 / psy_rd=1.00:1.00 / mixed_ref=1 / me_range=16 / chroma_me=1 / trellis=1 / 8x8dct=1 / cqm=0 / deadzone=21,11 / fast_pskip=0 / chroma_qp_offset=-4 / threads=12 / sliced_threads=0 / nr=0 / decimate=1 / interlaced=0 / constrained_intra=0 / bframes=3 / b_pyramid=2 / b_adapt=1 / b_bias=1 / direct=3 / weightb=1 / open_gop=0 / weightp=2 / keyint=299 / keyint_min=25 / scenecut=1 / intra_refresh=0 / rc_lookahead=40 / rc=abr / mbtree=1 / bitrate=3000 / ratetol=1.0 / qcomp=0.60 / qpmin=10 / qpmax=51 / qpstep=4 / ip_ratio=1.40 / aq=1:1.00

    Audio
    ID                               : 1
    Format                           : MPEG Audio
    Format version                   : Version 1
    Format profile                   : Layer 3
    Mode                             : Joint stereo
    Mode extension                   : MS Stereo
    Codec ID                         : 55
    Codec ID/Hint                    : MP3
    Duration                         : 1h 4mn
    Bit rate mode                    : Constant
    Bit rate                         : 192 Kbps
    Channel(s)                       : 2 channels
    Sampling rate                    : 48.0 KHz
    Stream size                      : 88.0 MiB (6%)
    Alignment                        : Split accross interleaves
    Interleave, duration             : 33 ms (1.00 video frame)
    Interleave, preload duration     : 500 ms
    Writing library                  : LAME3.98.2



    0 0

    Original Post: Warm.and.Cozy.E08.150604.HDTV.X264-LIMO

    Details
    Title: 맨도롱 또똣 / Maendorong Ttottos
    Previously known as: 제주도 개츠비 / Jeju Island Gatsby
    Genre: Romance
    Episodes: 16
    Broadcast network: MBC
    Broadcast period: 2015-May-13 to 2015-Jul-??
    Air time: Wednesday & Thursday 22:00
    Subtitles will be added later
    http://thetvdb.com/?tab=series&id=295029&lid=7

    Synopsis
    Desperate to escape the drama and stress of modern life in the city, Baek Gun Woo (Yoo Yeon Seok) and Lee Jung Joo (Kang So Ra) take off to South Korea's idyllic Jeju Island. But when these two urbane strangers meet on the island, they discover the magical island's restorative qualities include unexpected romance.

    Cast
    Main Cast
    Yoo Yun Suk as Baek Gun Woo
    Kang So Ra as Lee Jung Joo










    Code
    Video
    ID                             : 1
    Format                         : AVC
    Format/Info                    : Advanced Video Codec
    Format profile                 : Main@L4.0
    Format settings, CABAC         : Yes
    Format settings, ReFrames      : 4 frames
    Codec ID                       : V_MPEG4/ISO/AVC
    Duration                       : 58mn 44s
    Bit rate                       : 450 Kbps
    Width                          : 624 pixels
    Height                         : 350 pixels
    Display aspect ratio           : 16:9
    Frame rate mode                : Constant
    Frame rate                     : 29.970 fps
    Color space                    : YUV
    Chroma subsampling             : 4:2:0
    Bit depth                      : 8 bits
    Scan type                      : Progressive
    Bits/(Pixel*Frame)             : 0.069
    Stream size                    : 190 MiB (76%)
    Writing library                : x264 core 130 r2273 b3065e6
    Encoding settings              : cabac=1 / ref=1 / deblock=1:0:0 / analyse=0x1:0x111 / me=hex / subme=2 / psy=1 / psy_rd=1.00:0.00 / mixed_ref=0 / me_range=16 / chroma_me=1 / trellis=0 / 8x8dct=0 / cqm=0 / deadzone=21,11 / fast_pskip=1 / chroma_qp_offset=0 / threads=1 / lookahead_threads=1 / sliced_threads=0 / nr=0 / decimate=1 / interlaced=0 / bluray_compat=0 / constrained_intra=0 / bframes=3 / b_pyramid=2 / b_adapt=1 / b_bias=0 / direct=1 / weightb=1 / open_gop=0 / weightp=1 / keyint=300 / keyint_min=30 / scenecut=40 / intra_refresh=0 / rc_lookahead=10 / rc=abr / mbtree=1 / bitrate=450 / ratetol=1.0 / qcomp=0.60 / qpmin=0 / qpmax=69 / qpstep=4 / vbv_maxrate=20000 / vbv_bufsize=25000 / nal_hrd=none / ip_ratio=1.40 / aq=1:1.00
    Language                       : English
    Default                        : Yes
    Forced                         : No
    Color primaries                : BT.601 NTSC
    Transfer characteristics       : BT.709
    Matrix coefficients            : BT.601

    Audio
    ID                             : 2
    Format                         : MPEG Audio
    Format version                 : Version 1
    Format profile                 : Layer 3
    Mode                           : Joint stereo
    Mode extension                 : MS Stereo
    Codec ID                       : A_MPEG/L3
    Codec ID/Hint                  : MP3
    Duration                       : 58mn 44s
    Bit rate mode                  : Constant
    Bit rate                       : 128 Kbps
    Channel(s)                     : 2 channels
    Sampling rate                  : 48.0 KHz
    Compression mode               : Lossy
    Stream size                    : 53.8 MiB (22%)
    Default                        : Yes
    Forced                         : No



    0 0

    Original Post: Warm.and.Cozy.E08.150604.HDTV.H264.450p-LIMO

    Details
    Title: 맨도롱 또똣 / Maendorong Ttottos
    Previously known as: 제주도 개츠비 / Jeju Island Gatsby
    Genre: Romance
    Episodes: 16
    Broadcast network: MBC
    Broadcast period: 2015-May-13 to 2015-Jul-??
    Air time: Wednesday & Thursday 22:00
    Subtitles will be added later
    http://thetvdb.com/?tab=series&id=295029&lid=7

    Synopsis
    Desperate to escape the drama and stress of modern life in the city, Baek Gun Woo (Yoo Yeon Seok) and Lee Jung Joo (Kang So Ra) take off to South Korea's idyllic Jeju Island. But when these two urbane strangers meet on the island, they discover the magical island's restorative qualities include unexpected romance.

    Cast
    Main Cast
    Yoo Yun Suk as Baek Gun Woo
    Kang So Ra as Lee Jung Joo









    Code
    Video
    ID                                       : 0
    Format                                   : AVC
    Format/Info                              : Advanced Video Codec
    Format profile                           : High@L5.1
    Format settings, CABAC                   : Yes
    Format settings, ReFrames                : 4 frames
    Codec ID                                 : H264
    Bit rate                                 : 1 500 Kbps
    Width                                    : 800 pixels
    Height                                   : 450 pixels
    Display aspect ratio                     : 16:9
    Frame rate mode                          : Variable
    Frame rate                               : 29.970 fps
    Color space                              : YUV
    Chroma subsampling                       : 4:2:0
    Bit depth                                : 8 bits
    Scan type                                : Progressive
    Bits/(Pixel*Frame)                       : 0.139
    Stream size                              : 686 MiB (88%)
    Writing library                          : x264 core 112

    Audio
    ID                                       : 1
    Format                                   : MPEG Audio
    Format version                           : Version 1
    Format profile                           : Layer 3
    Mode                                     : Joint stereo
    Mode extension                           : MS Stereo
    Codec ID                                 : 55
    Codec ID/Hint                            : MP3
    Bit rate mode                            : Constant
    Bit rate                                 : 192 Kbps
    Channel(s)                               : 2 channels
    Sampling rate                            : 48.0 KHz
    Compression mode                         : Lossy
    Stream size                              : 88.3 MiB (11%)
    Alignment                                : Aligned on interleaves
    Interleave, duration                     : 24 ms (0.72 video frame)
    Writing library                          : LAME3.98.2
    Language                                 : Korean



    0 0

    Original Post: Warm.and.Cozy.E08.150604.HDTV.H264.720p-LIMO

    Details
    Title: 맨도롱 또똣 / Maendorong Ttottos
    Previously known as: 제주도 개츠비 / Jeju Island Gatsby
    Genre: Romance
    Episodes: 16
    Broadcast network: MBC
    Broadcast period: 2015-May-13 to 2015-Jul-??
    Air time: Wednesday & Thursday 22:00
    Subtitles will be added later
    http://thetvdb.com/?tab=series&id=295029&lid=7

    Synopsis
    Desperate to escape the drama and stress of modern life in the city, Baek Gun Woo (Yoo Yeon Seok) and Lee Jung Joo (Kang So Ra) take off to South Korea's idyllic Jeju Island. But when these two urbane strangers meet on the island, they discover the magical island's restorative qualities include unexpected romance.

    Cast
    Main Cast
    Yoo Yun Suk as Baek Gun Woo
    Kang So Ra as Lee Jung Joo









    Code
    Video
    ID                               : 0
    Format                           : AVC
    Format/Info                      : Advanced Video Codec
    Format profile                   : High@L5.1
    Format settings, CABAC           : Yes
    Format settings, ReFrames        : 4 frames
    Codec ID                         : H264
    Duration                         : 1h 4mn
    Bit rate                         : 3 000 Kbps
    Width                            : 1 280 pixels
    Height                           : 720 pixels
    Display aspect ratio             : 16:9
    Frame rate mode                  : Variable
    Frame rate                       : 29.970 fps
    Color space                      : YUV
    Chroma subsampling               : 4:2:0
    Bit depth                        : 8 bits
    Scan type                        : Progressive
    Bits/(Pixel*Frame)               : 0.109
    Stream size                      : 1.35 GiB (94%)
    Writing library                  : x264 core 112
    Encoding settings                : cabac=1 / ref=3 / deblock=1:-1:-1 / analyse=0x3:0x113 / me=hex / subme=6 / psy=1 / psy_rd=1.00:1.00 / mixed_ref=1 / me_range=16 / chroma_me=1 / trellis=1 / 8x8dct=1 / cqm=0 / deadzone=21,11 / fast_pskip=0 / chroma_qp_offset=-4 / threads=12 / sliced_threads=0 / nr=0 / decimate=1 / interlaced=0 / constrained_intra=0 / bframes=3 / b_pyramid=2 / b_adapt=1 / b_bias=1 / direct=3 / weightb=1 / open_gop=0 / weightp=2 / keyint=299 / keyint_min=25 / scenecut=1 / intra_refresh=0 / rc_lookahead=40 / rc=abr / mbtree=1 / bitrate=3000 / ratetol=1.0 / qcomp=0.60 / qpmin=10 / qpmax=51 / qpstep=4 / ip_ratio=1.40 / aq=1:1.00

    Audio
    ID                               : 1
    Format                           : MPEG Audio
    Format version                   : Version 1
    Format profile                   : Layer 3
    Mode                             : Joint stereo
    Mode extension                   : MS Stereo
    Codec ID                         : 55
    Codec ID/Hint                    : MP3
    Duration                         : 1h 4mn
    Bit rate mode                    : Constant
    Bit rate                         : 192 Kbps
    Channel(s)                       : 2 channels
    Sampling rate                    : 48.0 KHz
    Stream size                      : 88.0 MiB (6%)
    Alignment                        : Split accross interleaves
    Interleave, duration             : 33 ms (1.00 video frame)
    Interleave, preload duration     : 500 ms
    Writing library                  : LAME3.98.2



    0 0
  • 06/04/15--06:06: Dr. Rintaro ep08 480p
  • Original Post: Dr. Rintaro ep08 480p



    http://wiki.d-addicts.com/Dr._Rintaro
    http://asianwiki.com/Dr._Rintaro
    http://thetvdb.com/?tab=series&id=293875&lid=7

    Title: Dr.倫太郎
    Title (romaji): Dr. Rintaro
    Format: Renzoku
    Genre: Medical
    Episodes: 10
    Broadcast network: NTV
    Broadcast period: 2015-Apr-15 to 2015-Jun-17
    Air time: Wednesday 22:00
    Language: Japanese
    Country: Japan
    Subtitles: English here: torachan2006 (members only)
    RAW credit to furransu

    Cast
       Sakai Masato as Hino Rintaro
       Aoi Yu as Yumeno
       Kichise Michiko as Mizushima Yuriko
       Uchida Yuki as Kiryuu Kaoru
       Takanashi Rin as Kawakami Yoko
       Takahashi Issei as Fukuhara Daisaku
       Matobu Sei as Yabe Machiko
       Nakanishi Miho (中西美帆) as Koyume
       Yo Kimiko as Masuda Ikumi
       Endo Kenichi as Araki Shigeto
       Sakai Wakana as Nakahata Madoka
       Nagatsuka Keishi (長塚圭史) as Miyagawa Takahiro
       Matsushige Yutaka as Hasumi Eisuke
       Ishibashi Renji as Ike Masayuki
       Takahata Atsuko as Aizawa Ruriko
       Kohinata Fumiyo as Ennouji Kazuo

    Synopsis
    His name is Hino Rintaro. He listens closely to the aching hearts of people and relieves them of their pain. He is published and makes television appearances. The number of people waiting to receive his consultation continues to grow. Despite his achievements, Dr. Rintaro falls short in one department: love. He even dismisses it by saying “Falling in love is just like a passing mental illness.” One day, during a meal with the president of the university, Rintaro meets a woman. Her name is Yumeno, a highly sought-after geisha in Shimbashi. Little did Rintaro know that this encounter would drastically change his life. ~ NTV

    General
    Complete name                  : Dr. Rintaro ep08 (848x480 x264).mp4
    Format                         : MPEG-4
    Format profile                 : Base Media
    Codec ID                       : isom
    File size                      : 240 MiB
    Duration                       : 51mn 14s
    Overall bit rate mode          : Variable
    Overall bit rate               : 655 Kbps

    Video
    ID                             : 1
    Format                         : AVC
    Format/Info                    : Advanced Video Codec
    Format profile                 : High@L4.1
    Format settings, CABAC         : Yes
    Format settings, ReFrames      : 4 frames
    Codec ID                       : avc1
    Codec ID/Info                  : Advanced Video Coding
    Duration                       : 51mn 14s
    Bit rate                       : 523 Kbps
    Maximum bit rate               : 2 365 Kbps
    Width                          : 848 pixels
    Height                         : 480 pixels
    Display aspect ratio           : 16:9
    Frame rate mode                : Constant
    Frame rate                     : 29.970 fps
    Color space                    : YUV
    Chroma subsampling             : 4:2:0
    Bit depth                      : 8 bits
    Scan type                      : Progressive
    Bits/(Pixel*Frame)             : 0.043
    Stream size                    : 192 MiB (80%)

    Audio
    ID                             : 2
    Format                         : AAC
    Format/Info                    : Advanced Audio Codec
    Format profile                 : LC
    Codec ID                       : 40
    Duration                       : 51mn 14s
    Bit rate mode                  : Variable
    Bit rate                       : 128 Kbps
    Maximum bit rate               : 136 Kbps
    Channel count                  : 2 channels
    Channel positions              : Front: L R
    Sampling rate                  : 48.0 KHz
    Compression mode               : Lossy







    0 0

    Original Post: Kokoro ga Pokkito ne ep09 480p



    http://wiki.d-addicts.com/Kokoro_ga_Pokitto_ne
    http://thetvdb.com/?tab=series&id=294579&lid=7

    Title: 心がポキッとね
    Title (romaji): Kokoro ga Pokitto ne
    Also known as: Crazy for Me
    Format: Renzoku
    Genre: Love comedy
    Episodes: 10
    Broadcast network: Fuji TV
    Broadcast period: 2015-Apr-08 to 2015-Jun-10
    Air time: Wednesday 22:00
    Theme song: SUN by Hoshino Gen
    Language: Japanese
    Country: Japan
    Subtitles: will be added when available
    RAW credit to furransu

    Cast
       Abe Sadao as Kojima Haruta
       Mizuhara Kiko as Hayama Miyako
       Fujiki Naohito as Otake Shin
       Yamaguchi Tomoko as Kamoda Shizuka
       Tokunaga Eri as Itoyama Fumi
       Yamashita Rio as Makino Eriko
       Nagase Tasuku
       Ikezu Shoko
       Yamanishi Atsushi (山西惇)

    Synopsis
    Set in Tokyo, the story follows Kojima Haruta, a 40-year-old man who hits the rock bottom as he fell mentally ill which led him to lose his job, family, and even a place to live. After a certain turn of events, Haruta encounters Otake Shin, the owner of an antique furniture shop who takes Haruta in and hires him as a furniture repairman in the shop. Touched by such kindness, Haruta promised himself to try to put his life back together but kept himself isolated in order to avoid any additional stress being created. However, things suddenly starts to change as Haruta encounters Hayama Miyako, a 26-year-old woman who has a tendency to become overly dependent and extremely obsessed with a man she falls in love with... ~ Fuji TV

    General
    Complete name                  : Kokoro ga Pokkito ne ep09 (848x480 x264).mp4
    Format                         : MPEG-4
    Format profile                 : Base Media
    Codec ID                       : isom
    File size                      : 364 MiB
    Duration                       : 46mn 24s
    Overall bit rate mode          : Variable
    Overall bit rate               : 1 096 Kbps

    Video
    ID                             : 1
    Format                         : AVC
    Format/Info                    : Advanced Video Codec
    Format profile                 : High@L4.1
    Format settings, CABAC         : Yes
    Format settings, ReFrames      : 4 frames
    Codec ID                       : avc1
    Codec ID/Info                  : Advanced Video Coding
    Duration                       : 46mn 24s
    Bit rate                       : 964 Kbps
    Maximum bit rate               : 5 679 Kbps
    Width                          : 848 pixels
    Height                         : 480 pixels
    Display aspect ratio           : 16:9
    Frame rate mode                : Constant
    Frame rate                     : 29.970 fps
    Color space                    : YUV
    Chroma subsampling             : 4:2:0
    Bit depth                      : 8 bits
    Scan type                      : Progressive
    Bits/(Pixel*Frame)             : 0.079
    Stream size                    : 320 MiB (88%)

    Audio
    ID                             : 2
    Format                         : AAC
    Format/Info                    : Advanced Audio Codec
    Format profile                 : LC
    Codec ID                       : 40
    Duration                       : 46mn 24s
    Bit rate mode                  : Variable
    Bit rate                       : 128 Kbps
    Maximum bit rate               : 134 Kbps
    Channel count                  : 2 channels
    Channel positions              : Front: L R
    Sampling rate                  : 48.0 KHz
    Compression mode               : Lossy







    0 0

    Original Post: The.Outsider.A.Destitute.Life.2014.720p.WEB-DL.H264.AAC-QUiCKY

    Warning: Nudity | Sex



    http://www.hancinema.net/korean_movie_The_Outsider_2p__Mean_Streets.php

    Title: The Outsider: Mean Streets
    AKA: 따라지: 비열한 거리
    Formerly titled "The Outsider: A Destitute Life"
    Genre: Film noir, Melodrama, Romance
    Release Date: 2015/06/04
    Runtime: 85 min
    Director: Sin Dong-yeop (신동엽)
    Country: South Korea
    Language: Korean
    Subtitles: None ATM

    Cast
    Ko Se-won 고세원 As Geon-hee (건희)
    Hann E-seo 한이서 As Mi-song (미송)
    Yoo Jae-myeong 유재명
    Ban Min-jeong 반민정
    Kang Seung-wan 강승완 As Woon-cheol's gang (운철패거리)
    Jo Han-seon 조한선 As Woon-cheol (운철)

    Synopsis
    “Can’t you take me out of here?”
    “Is it that hard? Why is it so damn hard?”
    The lives of Misong, an indebted prostitute living in a red-light district, and Geunhee, her parasitic pimp, may be the most vile and futile on earth. The harder they try to escape, the deeper they fall into the pit. Every day, survival becomes a war. Every day, Misong grows more and more exhausted, deprived of any hope. She also grows to resent Geunhee, a jobless burden. Geunhee is and always has been a patronizing deadbeat. One day, when Geunhee gathers the spirit to find a work, he encounters a familiar street thug who offers him dangerous opportunity that he cannot refuse. Geunhee now stands at a fork in the road where he must decide.
    A tragic love story between a girl and a man living in the gutter...
    It’s an outsider's (Ddaraji) life that cares for no one and no one cares about...

    General
    Complete name                  : The.Outsider.A.Destitute.Life.2014.720p.WEB-DL.H264.AAC-QUiCKY.mp4
    Format                         : MPEG-4
    Format profile                 : Base Media
    Codec ID                       : isom
    File size                      : 1.86 GiB
    Duration                       : 1h 24mn
    Overall bit rate mode          : Variable
    Overall bit rate               : 3 133 Kbps

    Video
    ID                             : 1
    Format                         : AVC
    Format/Info                    : Advanced Video Codec
    Format profile                 : Baseline@L3.0
    Format settings, CABAC         : No
    Format settings, ReFrames      : 1 frame
    Codec ID                       : avc1
    Codec ID/Info                  : Advanced Video Coding
    Duration                       : 1h 24mn
    Bit rate                       : 3 000 Kbps
    Width                          : 1 280 pixels
    Height                         : 720 pixels
    Display aspect ratio           : 16:9
    Frame rate mode                : Constant
    Frame rate                     : 29.970 fps
    Color space                    : YUV
    Chroma subsampling             : 4:2:0
    Bit depth                      : 8 bits
    Scan type                      : Progressive
    Bits/(Pixel*Frame)             : 0.109
    Stream size                    : 1.76 GiB (94%)

    Audio
    ID                             : 2
    Format                         : AAC
    Format/Info                    : Advanced Audio Codec
    Format profile                 : LC
    Codec ID                       : 40
    Duration                       : 1h 24mn
    Bit rate mode                  : Variable
    Bit rate                       : 170 Kbps
    Maximum bit rate               : 192 Kbps
    Channel count                  : 2 channels
    Channel positions              : Front: L R
    Sampling rate                  : 44.1 KHz
    Compression mode               : Lossy
    Stream size                    : 104 MiB (5%)















older | 1 | .... | 1360 | 1361 | (Page 1362) | 1363 | 1364 | .... | 1405 | newer