Are you the publisher? Claim or contact us about this channel


Embed this content in your HTML

Search

Report adult content:

click to rate:

Account: (login)

More Channels


Showcase


Channel Catalog


Channel Description:

Asia Torrents RSS Feed

older | 1 | .... | 1361 | 1362 | (Page 1363) | 1364 | 1365 | .... | 1405 | newer

    0 0

    Original Post: Yeopgijeogin geunyeo a.k.a. My Sassy Girl 2001 1080p Blu-ray Remux AVC DTS-HD MA 5.1 - KRaLiMaRKo

    Yeopgijeogin geunyeo a.k.a. My Sassy Girl 2001 1080p Blu-ray Remux AVC DTS-HD MA 5.1 - KRaLiMaRKo


    POSTER



    Profile
    Movie: My Sassy Girl
    Revised Romanization: Yeopgijeogin Geunyeo
    Hangul: 엽기적인 그녀
    Director: Kwak Jae-Young
    Writer: Kim Ho-Sik (novel), Kwak Jae-Young
    Producer: Shin Chul, Park Geon-Seob
    Cinematographer: Kim Sung-Bok
    Release Date: July 27, 2001
    Runtime : 123 min.
    Genre: Romantic-Comedy
    Country: South Korea
    Language: Korean



    Cast:
    Cha Tae-Hyun - Gyun-woo
    Gianna Jun - The Girl
    Kim In-Mun - Gyun-Woo's father
    Song Ok-Suk - Gyun-Woo's mother
    Han Jin-Hee - The Girl's father
    Yang Geum-Seok - Gyun-Woo's aunt



    Additional Cast Members:
    Hyun Sook-Hee - The Girl's mother
    Kim Il-Woo - Quintuplets
    Lim Ho - A Man The Girl met as blind date
    Seo Dong-Won - Army Deserter
    Jo Kyoung-Hoon - gangster 1
    Son Kwang-Eop - gangster 3
    Lee Moo-Young - cameo
    Han Dae-Gwan - leading commissioned officer
    Yoo Soon-Chul - elderly man




    Plot:
    Gyun-Woo (Cha Tae-Hyun) is a college student, more interested in picking up girls, drinking with his buddies and avoiding his nagging mother whenever possible. While riding the subway, a drunken girl (Gianna Jun) then changes his fate forever. She's nearly unconscious on the train and vomits on an older guy. She then leans over to Gyun-Woo and everybody assumes she is his girlfriend! Gyun-Woo soon finds himself in a relationship he didn't ask for, but soon unable to forget this sassy girl.




    Review
    Jeon Ji Hyun won the 2002 Grand Bell Best Actress Award for her performance in this film. Cha Tae Hyun won Best New Actor at the 2002 Korean Oscars for his performance in this film. My Sassy Girl was number one at the box office for six straight weeks in Korea and sold over 20,000 tickets per day in Hong Kong at the time of its release in 2001. During the summer of 2001, South Korean moviegoers went crazy for the romantic comedy "My Sassy Girl (Yeopgijeogin geunyeo)". By year's end, it had become the second-highest grossing film for 2001 (just behind the gangland saga "Friend&quotwink.gif, and had earned a place in the record books as the highest grossing Korean comedy in the country's box office history. In February of 2001, Dreamworks SKG negotiated the U.S. remake rights for the film, joining "My Wife is a Gangster (Jopog manura)" and "Hi, Dharma" in being the very first Korean films to be picked up by Hollywood for such purposes. And now, after a successful theatrical run in Hong Kong earlier this year, where it topped the box office charts for two weeks straight, the Hong Kong-import VCD of "My Sassy Girl" has finally arrived. With its easy yet unpredictable blend of laugh-out-loud broad comedy, metaphysical romance, and fun characters, "My Sassy Girl" can easily be included among the best that Korean cinema has to offer.

    I can honestly say that I cannot choose a favorite character because both characters have their good and bad qualities that complement each other so well. Gyeun-woo is, for the most part, a common young man who likes a “certain type of woman” and really just wants a girlfriend. The problem is that he is a momma’s boy, a bit clumsy, a little awkward, but most of all he has a very big heart. The sassy girl is just as the name implies: sassy, self-righteous, bizarre, heartbroken and so quirky. She is trying to overcome something emotionally that we are not privy to know until the end, but you can tell it causes her great pain.

    The girl is just brilliant and hilarious because she is so uninhibited. She will call a stranger out on their wrong-doings and helps people when necessary. She is a terrible drunk and loves to hit people, or I guess I should say she loves to hit Gyeun-woo. Gyeun-woo is just so wimpy and does not want to stand out. He is your average male student but the way his mind works is just adorable. I love both of these characters and I must say the actor/actress who portrayed them did such an excellent job.

    As far as the plot goes, it is kind of straightforward with the whole meeting, dating, breaking up, and finding each other again years later. But the build-up to these points takes on a new and exciting context.

    The sassy girl, as we learn, loves to write highly elaborate stories where the lead is always a heroine who can kick butt. In fact the sassy girl makes Gyeun-woo read these stories (the alternative is death), so we get to see some pretty funny and elaborate daydream sequences, as shown above. I swear I did not expect to see comedy, romance, action and period piece all in one movie, but somehow My Sassy Girl delivers.

    I loved these snippets of fantasy because they allow the viewer to delve into the sassy girl’s character. She is fixed on this idea of time travel, which I think correlates to the fact that she is trying to change something in her past. Aside from the delving aspect, I loved seeing the characters in different scenarios and adding their own spin to the mix of craziness.

    The romance part of this movie is what really hooked me. I am such a weakling when it comes to unconventional romances because I actually think the more uncommon the romance, the more realistic it is. These two are certainly an eccentric pair but in a way their romance is so natural.

    They are both very similar people in some respects. Gyeun-woo has such a big heart for people and does in fact care. The sassy girl is similar in that she cares for people, sometimes too much. They also have a very similar sense of humor which I think is one of the reasons they work so well together. Most importantly, though, they both understand each other. I always feel that in relationships, you can seem to be the most well-matched couple but if you do not understand the person you are with, then your relationship is doomed to fail.

    What I loved about this movie was that we saw a progression of the relationship from her using him, to him needing her, to her needing him and finally to them wanting and needing each other. They are really a cute couple who fit each other really well.

    One of the best aspects of this movie were the facial expressions. Cha Tae-hyun and Jeon Ji-hyun are really the masters of awkward, amusing and disgusted looks. I literally laughed out loud a few times just because of the faces made. For instance, the scene in which Gyeun-woo and the sassy girl meet for the first time is awesome because after the vomit scene the camera does a close-up of Gyeun-woo with his “that is just so nasty” face. I would probably have made the same face given the circumstance (vomit is just so unsanitary!)

    At over 2 hours in length, it might seem overly long for a romantic comedy, but I assure you that those 2 hours fly by very quickly. The pacing is just right and no scenes are wasted. The soundtrack is ever-present but not distracting; it does a great job of enhancing the film. The theme song “I Believe” by Shin Seung-hun was great and the inclusion of the American classic “My Girl” by the Temptations was pure genius — talk about play on words.




    SCREENS










    Technical Info:

    --(GENERAL)---

    Container.......: Matroska
    Size............: 30.8 GB
    Duration........: 2:03:36 (h:m:s)
    Chapters........: Yes (not named)
    Compression.....: no zlib, no header stripping
    Release date....: 24.05.2015

    ---(VIDEO)----

    Codec...........: AVC
    Type............: progressive
    Resolution......: 1920x1080
    Bit rate........: 34.0 Mbps
    Frame rate......: 23.976 fps

    ---(AUDIO)----

    Format..........: DTS-HD MA
    Channels........: 5.1
    Bit depth.......: 16 bits
    Sample rate.....: 48 kHz
    Bit rate........: 1837 kbps
    Language........: Korean


    ---(SUBTITLES)--

    Language(s).....: Japanese PGS (Original) - (Internal)
    English (SRT)



    Code
    General
    Unique ID                                : 183796507247275513067284834549053906375 (0x8A45EB715634596AAE13CE87DCE9DDC7)
    Complete name                            : F:☛ UPLOADSYeopgijeogin geunyeo a.k.a. My Sassy Girl 2001 1080p Blu-ray Remux AVC DTS-HD MA 5.1 - KRaLiMaRKoYeopgijeogin geunyeo a.k.a. My Sassy Girl 2001 1080p Blu-ray Remux AVC DTS-HD MA 5.1 - KRaLiMaRKo.mkv
    Format                                   : Matroska
    Format version                           : Version 4 / Version 2
    File size                                : 30.8 GiB
    Duration                                 : 2h 3mn
    Overall bit rate mode                    : Variable
    Overall bit rate                         : 35.7 Mbps
    Movie name                               : Yeopgijeogin geunyeo 2001 1080p Blu-ray Remux AVC DTS-HD MA 5.1 - KRaLiMaRKo
    Encoded date                             : UTC 2015-05-24 15:25:38
    Writing application                      : mkvmerge v7.9.0 ('Birds') 64bit
    Writing library                          : libebml v1.3.1 + libmatroska v1.4.2
    DURATION                                 : 02:02:24.212000000
    NUMBER_OF_FRAMES                         : 2547
    NUMBER_OF_BYTES                          : 17621836
    _STATISTICS_WRITING_APP                  : mkvmerge v7.9.0 ('Birds') 64bit
    _STATISTICS_WRITING_DATE_UTC             : 2015-05-24 15:25:38
    _STATISTICS_TAGS                         : BPS DURATION NUMBER_OF_FRAMES NUMBER_OF_BYTES

    Video
    ID                                       : 1
    Format                                   : AVC
    Format/Info                              : Advanced Video Codec
    Format profile                           : High@L4.1
    Format settings, CABAC                   : Yes
    Format settings, ReFrames                : 4 frames
    Format settings, GOP                     : M=3, N=12
    Codec ID                                 : V_MPEG4/ISO/AVC
    Duration                                 : 2h 3mn
    Bit rate mode                            : Variable
    Maximum bit rate                         : 39.0 Mbps
    Width                                    : 1 920 pixels
    Height                                   : 1 080 pixels
    Display aspect ratio                     : 16:9
    Frame rate mode                          : Constant
    Frame rate                               : 23.976 fps
    Color space                              : YUV
    Chroma subsampling                       : 4:2:0
    Bit depth                                : 8 bits
    Scan type                                : Progressive
    Language                                 : Korean
    Default                                  : Yes
    Forced                                   : No

    Audio
    ID                                       : 2
    Format                                   : DTS
    Format/Info                              : Digital Theater Systems
    Format profile                           : MA / Core
    Mode                                     : 16
    Format settings, Endianness              : Big
    Codec ID                                 : A_DTS
    Duration                                 : 2h 3mn
    Bit rate mode                            : Variable
    Bit rate                                 : Unknown / 1 509 Kbps
    Channel(s)                               : 6 channels
    Channel positions                        : Front: L C R, Side: L R, LFE
    Sampling rate                            : 48.0 KHz
    Bit depth                                : 16 bits
    Compression mode                         : Lossless / Lossy
    Language                                 : Korean
    Default                                  : Yes
    Forced                                   : No

    Text
    ID                                       : 3
    Format                                   : PGS
    Codec ID                                 : S_HDMV/PGS
    Codec ID/Info                            : The same subtitle format used on BDs/HD-DVDs
    Language                                 : Japanese
    Default                                  : Yes
    Forced                                   : No

    Menu
    00:00:00.000                             : en:00:00:00.000
    00:02:35.822                             : en:00:02:35.822
    00:04:08.915                             : en:00:04:08.915
    00:09:41.748                             : en:00:09:41.748
    00:15:08.741                             : en:00:15:08.741
    00:17:35.596                             : en:00:17:35.596
    00:20:49.540                             : en:00:20:49.540
    00:24:53.367                             : en:00:24:53.367
    00:29:21.969                             : en:00:29:21.969
    00:32:59.394                             : en:00:32:59.394
    00:40:07.363                             : en:00:40:07.363
    00:42:28.921                             : en:00:42:28.921
    00:47:32.767                             : en:00:47:32.767
    00:58:32.801                             : en:00:58:32.801
    01:02:47.347                             : en:01:02:47.347
    01:05:04.442                             : en:01:05:04.442
    01:08:06.207                             : en:01:08:06.207
    01:11:17.899                             : en:01:11:17.899
    01:13:15.725                             : en:01:13:15.725
    01:19:40.567                             : en:01:19:40.567
    01:24:23.892                             : en:01:24:23.892
    01:26:33.772                             : en:01:26:33.772
    01:29:40.667                             : en:01:29:40.667
    01:37:02.150                             : en:01:37:02.150
    01:41:08.562                             : en:01:41:08.562
    01:45:03.005                             : en:01:45:03.005
    01:47:09.465                             : en:01:47:09.465
    01:51:40.861                             : en:01:51:40.861
    01:55:41.977                             : en:01:55:41.977
    02:00:35.228                             : en:02:00:35.228





    ---(NOTES)----

    ☛ First all, I would like to express my sincere appreciation and i would like also to say heartfelt thanks to the original Encoder and Up loader for his hard work. Original credit goes to the ✪ KRaLiMaRKo ✪


    0 0

    Original Post: [ATG] Hear the Wind Sing 1981 DVDRip x264 AC3 Kazuki Ohmori



    Hear the Wind Sing

    Original Title:風の歌を聴け
    IMDb:http://www.imdb.com/title/tt0331274

    Director: Kazuki Ohmori
    Writer: Haruki Murakami (Novel), Kazuki Ohmori
    Genre: Drama
    Release Date: 19 December 1981
    Runtime: 100 min
    Country: Japan
    Language: Japanese
    Subtitles: English, Japanese, French, Russian
    Source: Geneon R2J DVD9 (Thanks to motakutou @ ADC for the disc and English subs)
    motakutou :
    The novel was translated a few years ago in English by Alfred Birnbaum. I used his translation when it was possible, so thanks to him. Massive thanks go to Quaisnord and berbeno21, for their extremely valuable help in the translation process.

    Synopsis: The narrator, « I », a student in his twenties is coming back in Kobe for the summer vacation. During the summer, he’ll catch up with his old buddy whose nickname is Rat, talk the talk with Jay the bartender and meet a mysterious twin girl.

    Uploader's Comments: This Art Theatre Guild production competes for the top spot, together with Tony Takitani, when it comes to my favorite Murakami adaptation. Granted, there hasn't been all that many so that might not say all that much. But I do recommend checking these two out, even if you haven't read the novels. smile1.gif

    MediaInfo
    Spoiler:show
    General
    Unique ID : 185508090085704527579675536772586441784 (0x8B8F8EFDEEEB4FB1A62A503CBD468C38)
    Complete name : Hear.the.Wind.Sing.1981.DVDRip.x264.AC3-Jongl0.mkv
    Format : Matroska
    Format version : Version 4 / Version 2
    File size : 1.64 GiB
    Duration : 1h 40mn
    Overall bit rate : 2 344 Kbps
    Encoded date : UTC 2015-05-29 15:14:12
    Writing application : mkvmerge v7.6.0 ('Garden of Dreams') 64bit built on Feb 8 2015 13:04:34
    Writing library : libebml v1.3.1 + libmatroska v1.4.2
    DURATION : 01:37:23.771000000
    NUMBER_OF_FRAMES : 1490
    NUMBER_OF_BYTES : 6549104
    _STATISTICS_WRITING_APP : mkvmerge v7.6.0 ('Garden of Dreams') 64bit built on Feb 8 2015 13:04:34
    _STATISTICS_WRITING_DATE_UTC : 2015-05-29 15:14:12
    _STATISTICS_TAGS : BPS DURATION NUMBER_OF_FRAMES NUMBER_OF_BYTES

    Video
    ID : 1
    Format : AVC
    Format/Info : Advanced Video Codec
    Format profile : High@L4.1
    Format settings, CABAC : Yes
    Format settings, ReFrames : 16 frames
    Codec ID : V_MPEG4/ISO/AVC
    Duration : 1h 40mn
    Bit rate : 1 913 Kbps
    Width : 686 pixels
    Height : 464 pixels
    Display aspect ratio : 16:9
    Frame rate mode : Constant
    Frame rate : 23.976 fps
    Color space : YUV
    Chroma subsampling : 4:2:0
    Bit depth : 8 bits
    Scan type : Progressive
    Bits/(Pixel*Frame) : 0.251
    Stream size : 1.34 GiB (82%)
    Writing library : x264 core 142 r2431 ac76440
    Encoding settings : cabac=1 / ref=16 / deblock=1:-3:-3 / analyse=0x3:0x133 / me=umh / subme=10 / psy=1 / psy_rd=1.10:0.05 / mixed_ref=1 / me_range=32 / chroma_me=1 / trellis=2 / 8x8dct=1 / cqm=0 / deadzone=21,11 / fast_pskip=0 / chroma_qp_offset=-3 / threads=12 / lookahead_threads=2 / sliced_threads=0 / nr=0 / decimate=0 / interlaced=0 / bluray_compat=0 / constrained_intra=0 / bframes=9 / b_pyramid=2 / b_adapt=2 / b_bias=0 / direct=3 / weightb=1 / open_gop=0 / weightp=2 / keyint=240 / keyint_min=23 / scenecut=40 / intra_refresh=0 / rc_lookahead=50 / rc=crf / mbtree=0 / crf=17.0 / qcomp=0.60 / qpmin=0 / qpmax=69 / qpstep=4 / vbv_maxrate=14000 / vbv_bufsize=14000 / crf_max=0.0 / nal_hrd=none / filler=0 / ip_ratio=1.40 / pb_ratio=1.20 / aq=1:0.80
    Default : Yes
    Forced : No
    DURATION : 01:40:22.308000000
    NUMBER_OF_FRAMES : 144391
    NUMBER_OF_BYTES : 1464271046
    _STATISTICS_WRITING_APP : mkvmerge v7.6.0 ('Garden of Dreams') 64bit built on Feb 8 2015 13:04:34
    _STATISTICS_WRITING_DATE_UTC : 2015-05-29 15:14:12
    _STATISTICS_TAGS : BPS DURATION NUMBER_OF_FRAMES NUMBER_OF_BYTES

    Audio
    ID : 2
    Format : AC-3
    Format/Info : Audio Coding 3
    Mode extension : CM (complete main)
    Format settings, Endianness : Big
    Codec ID : A_AC3
    Duration : 1h 40mn
    Bit rate mode : Constant
    Bit rate : 384 Kbps
    Channel(s) : 2 channels
    Channel positions : Front: L R
    Sampling rate : 48.0 KHz
    Bit depth : 16 bits
    Compression mode : Lossy
    Delay relative to video : 16ms
    Stream size : 276 MiB (16%)
    Language : Japanese
    Default : Yes
    Forced : No

    Text #1
    ID : 3
    Format : UTF-8
    Codec ID : S_TEXT/UTF8
    Codec ID/Info : UTF-8 Plain Text
    Language : English
    Default : Yes
    Forced : No

    Text #2
    ID : 4
    Format : PGS
    Codec ID : S_HDMV/PGS
    Codec ID/Info : The same subtitle format used on BDs/HD-DVDs
    Language : Japanese
    Default : No
    Forced : No

    Text #3
    ID : 5
    Format : VobSub
    Codec ID : S_VOBSUB
    Codec ID/Info : The same subtitle format used on DVDs
    Language : English
    Default : No
    Forced : No

    Text #4
    ID : 6
    Format : VobSub
    Codec ID : S_VOBSUB
    Codec ID/Info : The same subtitle format used on DVDs
    Language : French
    Default : No
    Forced : No

    Text #5
    ID : 7
    Format : UTF-8
    Codec ID : S_TEXT/UTF8
    Codec ID/Info : UTF-8 Plain Text
    Language : Russian
    Default : No
    Forced : No

    Menu
    00:00:00.000 : en:Chapter 1
    00:01:33.894 : en:Chapter 2
    00:02:04.859 : en:Chapter 3
    00:06:18.447 : en:Chapter 4
    00:06:56.585 : en:Chapter 5
    00:07:54.276 : en:Chapter 6
    00:10:35.405 : en:Chapter 7
    00:12:20.010 : en:Chapter 8
    00:14:53.931 : en:Chapter 9
    00:15:37.141 : en:Chapter 10
    00:18:54.272 : en:Chapter 11
    00:20:30.302 : en:Chapter 12
    00:20:39.178 : en:Chapter 13
    00:23:34.187 : en:Chapter 14
    00:26:10.476 : en:Chapter 15
    00:27:50.010 : en:Chapter 16
    00:28:35.023 : en:Chapter 17
    00:30:08.249 : en:Chapter 18
    00:33:53.275 : en:Chapter 19
    00:35:33.709 : en:Chapter 20
    00:37:27.156 : en:Chapter 21
    00:39:06.356 : en:Chapter 22
    00:41:04.941 : en:Chapter 23
    00:41:49.085 : en:Chapter 24
    00:42:50.380 : en:Chapter 25
    00:43:46.704 : en:Chapter 26
    00:46:12.516 : en:Chapter 27
    00:47:00.231 : en:Chapter 28
    00:48:38.429 : en:Chapter 29
    00:52:36.834 : en:Chapter 30
    00:55:29.975 : en:Chapter 31
    00:57:31.564 : en:Chapter 32
    00:58:54.914 : en:Chapter 33
    01:00:08.988 : en:Chapter 34
    01:02:23.090 : en:Chapter 35
    01:06:55.495 : en:Chapter 36
    01:09:23.109 : en:Chapter 37
    01:13:37.264 : en:Chapter 38
    01:16:41.015 : en:Chapter 39
    01:20:10.324 : en:Chapter 40
    01:20:37.319 : en:Chapter 41
    01:25:12.428 : en:Chapter 42
    01:26:45.455 : en:Chapter 43
    01:32:41.444 : en:Chapter 44
    01:37:47.884 : en:Chapter 45
    01:40:22.071 : en:Chapter 46
    01:40:23.139 : en:Chapter 47




    0 0

    Original Post: [ATG] Hear the Wind Sing 1981 720p HDTV x264 AC3 Kazuki Ohmori



    Hear the Wind Sing

    Original Title:風の歌を聴け
    IMDb:http://www.imdb.com/title/tt0331274

    Director: Kazuki Ohmori
    Writer: Haruki Murakami (Novel), Kazuki Ohmori
    Genre: Drama
    Release Date: 19 December 1981
    Runtime: 100 min
    Country: Japan
    Language: Japanese
    Subtitles: English, Japanese, French, Russian
    Source: Nihon Eiga Senmon HD broadcast (Thanks to miikki @ ADC for the source)

    Synopsis: The narrator, « I », a student in his twenties is coming back in Kobe for the summer vacation. During the summer, he’ll catch up with his old buddy whose nickname is Rat, talk the talk with Jay the bartender and meet a mysterious twin girl.

    Uploader's Comments: This Art Theatre Guild production competes for the top spot, together with Tony Takitani, when it comes to my favorite Murakami adaptation. Granted, there hasn't been all that many so that might not say all that much. But I do recommend checking these two out, even if you haven't read the novels. smile1.gif

    MediaInfo
    Spoiler:show
    General
    Unique ID : 194380151435011100300436676900940455045 (0x923C41637D02C36BBAA416FEECDC9C85)
    Complete name : Hear.the.Wind.Sing.1981.720p.HDTV.x264.AC3-Jongl0.mkv
    Format : Matroska
    Format version : Version 4 / Version 2
    File size : 6.11 GiB
    Duration : 1h 40mn
    Overall bit rate : 8 712 Kbps
    Encoded date : UTC 2015-05-29 14:55:37
    Writing application : mkvmerge v7.6.0 ('Garden of Dreams') 64bit built on Feb 8 2015 13:04:34
    Writing library : libebml v1.3.1 + libmatroska v1.4.2
    DURATION : 01:38:25.660000000
    NUMBER_OF_FRAMES : 986
    NUMBER_OF_BYTES : 53623
    _STATISTICS_WRITING_APP : mkvmerge v7.6.0 ('Garden of Dreams') 64bit built on Feb 8 2015 13:04:34
    _STATISTICS_WRITING_DATE_UTC : 2015-05-29 14:55:37
    _STATISTICS_TAGS : BPS DURATION NUMBER_OF_FRAMES NUMBER_OF_BYTES

    Video
    ID : 1
    Format : AVC
    Format/Info : Advanced Video Codec
    Format profile : High@L4.1
    Format settings, CABAC : Yes
    Format settings, ReFrames : 9 frames
    Codec ID : V_MPEG4/ISO/AVC
    Duration : 1h 40mn
    Bit rate : 8 091 Kbps
    Width : 1 280 pixels
    Height : 720 pixels
    Display aspect ratio : 16:9
    Frame rate mode : Constant
    Frame rate : 23.976 fps
    Color space : YUV
    Chroma subsampling : 4:2:0
    Bit depth : 8 bits
    Scan type : Progressive
    Bits/(Pixel*Frame) : 0.366
    Stream size : 5.67 GiB (93%)
    Writing library : x264 core 142 r2431 ac76440
    Encoding settings : cabac=1 / ref=9 / deblock=1:-3:-3 / analyse=0x3:0x133 / me=umh / subme=10 / psy=1 / psy_rd=1.05:0.00 / mixed_ref=1 / me_range=32 / chroma_me=1 / trellis=2 / 8x8dct=1 / cqm=0 / deadzone=21,11 / fast_pskip=0 / chroma_qp_offset=-2 / threads=12 / lookahead_threads=2 / sliced_threads=0 / nr=0 / decimate=0 / interlaced=0 / bluray_compat=0 / constrained_intra=0 / bframes=9 / b_pyramid=2 / b_adapt=2 / b_bias=0 / direct=3 / weightb=1 / open_gop=0 / weightp=2 / keyint=240 / keyint_min=23 / scenecut=40 / intra_refresh=0 / rc_lookahead=50 / rc=crf / mbtree=0 / crf=18.0 / qcomp=0.65 / qpmin=0 / qpmax=69 / qpstep=4 / vbv_maxrate=62500 / vbv_bufsize=78125 / crf_max=0.0 / nal_hrd=none / filler=0 / ip_ratio=1.40 / pb_ratio=1.20 / aq=1:0.60
    Default : Yes
    Forced : No
    DURATION : 01:40:23.017000000
    NUMBER_OF_FRAMES : 144408
    NUMBER_OF_BYTES : 6205115894
    _STATISTICS_WRITING_APP : mkvmerge v7.6.0 ('Garden of Dreams') 64bit built on Feb 8 2015 13:04:34
    _STATISTICS_WRITING_DATE_UTC : 2015-05-29 14:55:37
    _STATISTICS_TAGS : BPS DURATION NUMBER_OF_FRAMES NUMBER_OF_BYTES

    Audio
    ID : 2
    Format : AC-3
    Format/Info : Audio Coding 3
    Mode extension : CM (complete main)
    Format settings, Endianness : Big
    Codec ID : A_AC3
    Duration : 1h 40mn
    Bit rate mode : Constant
    Bit rate : 448 Kbps
    Channel(s) : 2 channels
    Channel positions : Front: L R
    Sampling rate : 48.0 KHz
    Bit depth : 16 bits
    Compression mode : Lossy
    Stream size : 322 MiB (5%)
    Language : Japanese
    Default : Yes
    Forced : No

    Text #1
    ID : 3
    Format : UTF-8
    Codec ID : S_TEXT/UTF8
    Codec ID/Info : UTF-8 Plain Text
    Language : English
    Default : Yes
    Forced : No

    Text #2
    ID : 4
    Format : PGS
    Codec ID : S_HDMV/PGS
    Codec ID/Info : The same subtitle format used on BDs/HD-DVDs
    Language : Japanese
    Default : No
    Forced : No

    Text #3
    ID : 5
    Format : PGS
    Codec ID : S_HDMV/PGS
    Codec ID/Info : The same subtitle format used on BDs/HD-DVDs
    Language : English
    Default : No
    Forced : No

    Text #4
    ID : 6
    Format : VobSub
    Codec ID : S_VOBSUB
    Codec ID/Info : The same subtitle format used on DVDs
    Language : French
    Default : No
    Forced : No

    Text #5
    ID : 7
    Format : UTF-8
    Codec ID : S_TEXT/UTF8
    Codec ID/Info : UTF-8 Plain Text
    Language : Russian
    Default : No
    Forced : No

    Menu
    00:00:00.000 : en:Chapter 1
    00:01:33.894 : en:Chapter 2
    00:02:04.859 : en:Chapter 3
    00:06:18.447 : en:Chapter 4
    00:06:56.585 : en:Chapter 5
    00:07:54.276 : en:Chapter 6
    00:10:35.405 : en:Chapter 7
    00:12:20.010 : en:Chapter 8
    00:14:53.931 : en:Chapter 9
    00:15:37.141 : en:Chapter 10
    00:18:54.272 : en:Chapter 11
    00:20:30.302 : en:Chapter 12
    00:20:39.178 : en:Chapter 13
    00:23:34.187 : en:Chapter 14
    00:26:10.476 : en:Chapter 15
    00:27:50.010 : en:Chapter 16
    00:28:35.023 : en:Chapter 17
    00:30:08.249 : en:Chapter 18
    00:33:53.275 : en:Chapter 19
    00:35:33.709 : en:Chapter 20
    00:37:27.156 : en:Chapter 21
    00:39:06.356 : en:Chapter 22
    00:41:04.941 : en:Chapter 23
    00:41:49.085 : en:Chapter 24
    00:42:50.380 : en:Chapter 25
    00:43:46.704 : en:Chapter 26
    00:46:12.516 : en:Chapter 27
    00:47:00.231 : en:Chapter 28
    00:48:38.429 : en:Chapter 29
    00:52:36.834 : en:Chapter 30
    00:55:29.975 : en:Chapter 31
    00:57:31.564 : en:Chapter 32
    00:58:54.914 : en:Chapter 33
    01:00:08.988 : en:Chapter 34
    01:02:23.090 : en:Chapter 35
    01:06:55.495 : en:Chapter 36
    01:09:23.109 : en:Chapter 37
    01:13:37.264 : en:Chapter 38
    01:16:41.015 : en:Chapter 39
    01:20:10.324 : en:Chapter 40
    01:20:37.319 : en:Chapter 41
    01:25:12.428 : en:Chapter 42
    01:26:45.455 : en:Chapter 43
    01:32:41.444 : en:Chapter 44
    01:37:47.884 : en:Chapter 45
    01:40:22.071 : en:Chapter 46
    01:40:23.139 : en:Chapter 47




    0 0

    Original Post: JuB (Sunny Hill) – Warm and Cozy OST Part.4



    JuB (주비) [Sunny Hill] – 맨도롱 또똣 (MBC 수목드라마) OST – Part.4
    Release Date: 2015.06.04
    Genre: OST
    Language: Korean
    Bit Rate: MP3-320kbps
    credit to hulkpop

    Track List:

    01. 보이지 말아줘
    02. 보이지 말아줘 (Inst.)



    0 0

    Original Post: Nowhere to Run 2015 1080p WEB-DL x264 AAC-SeeHD





    Detail:
    Title: Nowhere to Run
    Genre: Horror, Thriller
    Release Date: 13 March 2015
    Runtime: 88 min
    Director: Wang Mengyuan
    Country: China
    Language: Mandarin
    Subtitles:Chinese Hardcoded

    Synopsis:
    (Google Translated)
    Looking for the ultimate door for some video images to promote publicity (Zhang Duo ornaments) led prospective sister-in-law smiled and went to the village to find the mysterious disappearance closed doors brother Zhang Mo (Tu Yuwei ornaments), on the way Van Khai met ALICE (Sui Yongliang ornaments), Xiaotong (Qian Si pupil ornaments) ride, the four traveled with overnight hill Pomiao, meeting presenter lost to man (Ge days ornaments) and cameraman Lao Du (Du language Chamber ornaments), and his entourage closed doors Quest Point Blank village, automatic opening and closing of the coffin, photos, and other supernatural events followed without eyes, everyone's deeds and demeanor more and more strange, until harbinger of death "three scratches" start to appear in every person who, seeing a close companion a brutal bizarre died suddenly disappear, publicity wits to escape by car, the window suddenly appeared a Resentment grimace, spin the wheel yourself ......

    Cast:
    Xiao Zhang Duo, Liu Ying, Ge Tian, Sui Yongliang, Qian Sitong, Du Yuting, Tu Yuwei, Yuchi Shaonan








    Code

    Video
    ID                                       : 1
    Format                                   : AVC
    Format/Info                              : Advanced Video Codec
    Format profile                           : Main@L4.0
    Format settings, CABAC                   : Yes
    Format settings, ReFrames                : 2 frames
    Codec ID                                 : V_MPEG4/ISO/AVC
    Duration                                 : 1h 28mn
    Width                                    : 1 920 pixels
    Height                                   : 1 080 pixels
    Display aspect ratio                     : 16:9
    Frame rate mode                          : Variable
    Frame rate                               : 25.000 fps
    Color space                              : YUV
    Chroma subsampling                       : 4:2:0
    Bit depth                                : 8 bits
    Scan type                                : Progressive
    Writing library                          : avc encoder v1.9
    Default                                  : Yes
    Forced                                   : No

    Audio
    ID                                       : 2
    Format                                   : AAC
    Format/Info                              : Advanced Audio Codec
    Format profile                           : LC
    Codec ID                                 : A_AAC
    Duration                                 : 1h 28mn
    Channel(s)                               : 2 channels
    Channel positions                        : Front: L R
    Sampling rate                            : 44.1 KHz
    Compression mode                         : Lossy
    Default                                  : Yes
    Forced                                   : No



    0 0

    Original Post: The Four Complete HDTV 720p x264-NGB





    Detail:
    Title: The Four
    Genre: Action, Romance, Adventure, Crime, Mystery
    Release Date: March 17, 2015
    Episodes: 48
    Country: China
    Language: Mandarin
    Subtitles:Chinese Hardcoded

    Synopsis:
    During mid-Ming Dynasty, Zhuge Zheng Wo,the sheriff of Dirine Deputy Department, with his four infamous deputies, Coldblood, Chaser, Heartless, and Iron Hand protected the Capital City.

    Coldblood rescued a young lady named, Chu Li Mo, Zhuge Zheng Wo admired Li Mo's talent and let her stay to be trained. Because of this, Coldblood and Li Mo fell in love. But they have personality clash, which created numerous misunderstandings.

    Cast:
    Zhang Han, Yang Yang, William Chan, Mao Zi Jun, Gui Gui, Janine Change








    Code

    Video
    ID                                       : 1
    Format                                   : AVC
    Format/Info                              : Advanced Video Codec
    Format profile                           : High@L4.1
    Format settings, CABAC                   : Yes
    Format settings, ReFrames                : 5 frames
    Codec ID                                 : V_MPEG4/ISO/AVC
    Duration                                 : 43mn 41s
    Bit rate                                 : 4 500 Kbps
    Width                                    : 1 280 pixels
    Height                                   : 720 pixels
    Display aspect ratio                     : 16:9
    Frame rate                               : 25.000 fps
    Color space                              : YUV
    Chroma subsampling                       : 4:2:0
    Bit depth                                : 8 bits
    Scan type                                : Progressive
    Bits/(Pixel*Frame)                       : 0.195
    Stream size                              : 1.34 GiB (91%)
    Writing library                          : x264 core 133 r2334 a3ac64b
    Encoding settings                        : cabac=1 / ref=5 / deblock=1:-3:-3 / analyse=0x3:0x113 / me=umh / subme=7 / psy=1 / psy_rd=1.00:0.00 / mixed_ref=1 / me_range=16 / chroma_me=1 / trellis=1 / 8x8dct=1 / cqm=0 / deadzone=21,11 / fast_pskip=0 / chroma_qp_offset=-2 / threads=12 / lookahead_threads=2 / sliced_threads=0 / nr=0 / decimate=1 / interlaced=0 / bluray_compat=0 / constrained_intra=0 / bframes=3 / b_pyramid=2 / b_adapt=2 / b_bias=0 / direct=3 / weightb=1 / open_gop=0 / weightp=2 / keyint=250 / keyint_min=25 / scenecut=40 / intra_refresh=0 / rc_lookahead=50 / rc=2pass / mbtree=1 / bitrate=4500 / ratetol=1.0 / qcomp=0.70 / qpmin=0 / qpmax=69 / qpstep=4 / cplxblur=20.0 / qblur=0.5 / vbv_maxrate=14000 / vbv_bufsize=14000 / nal_hrd=none / ip_ratio=1.40 / aq=1:1.00
    Language                                 : English
    Default                                  : Yes
    Forced                                   : No

    Audio
    ID                                       : 2
    Format                                   : AC-3
    Format/Info                              : Audio Coding 3
    Mode extension                           : CM (complete main)
    Format settings, Endianness              : Big
    Codec ID                                 : A_AC3
    Duration                                 : 43mn 41s
    Bit rate mode                            : Constant
    Bit rate                                 : 320 Kbps
    Channel(s)                               : 6 channels
    Channel positions                        : Front: L C R, Side: L R, LFE
    Sampling rate                            : 48.0 KHz
    Bit depth                                : 16 bits
    Compression mode                         : Lossy
    Stream size                              : 100 MiB (7%)
    Default                                  : Yes
    Forced                                   : No



    0 0
  • 06/04/15--23:48: Seoul 1945 (2006) Complete
  • Original Post: Seoul 1945 (2006) Complete

    Title:서울 1945 / Seoul 1945
    Genre: War, Daeha drama
    Episodes: 71
    Broadcast network: KBS2
    Broadcast period: 2006-Jan-07 to 2006-Sep-10
    Air time: Saturday & Sunday 21:30
    Subtitles:NONE
    English hardsub:https://www.asiatorrents.me/index.php?page=torrent-details&id=0ab8d52c7b99f528dfc0c1069d147d9c3bef1588

    Synopsis
    Seoul 1945 is a drama that takes place during turbulent times in Korea, spanning from the end of the Japanese occupation to the eventual split of the country into North and South. The story revolves around the lives of four young adults who grew up together. Choi Woon Hyuk (Ryu Soo Young) is a child prodigy born into a family of poor miners; Kim Hae Kyung (Han Eun Jung) is the eldest daughter of tenant farmers; Lee Dong-Woo (Kim Ho Jin) is the heir to a wealthy, well-connected family; and Moon Suk Kyung (So Yoo Jin) is the only child of an affluent and powerful political ally of Japan. In a blend of personal choices and circumstances beyond their control, each individual embarks on different paths that reflect the chaotic nature of the time as well as their true character. As their paths collide, love, friendship, loyalty, vengeance, moral conscience, and ideology become driving forces to irrevocably change the course of their lives.

    Cast
    Ryu Soo Young as Choi Woon Hyuk
    Han Eun Jung as Kim Ke Hee / Kim Hae Kyung
    So Yoo Jin as Moon Suk Kyung / Yukei
    Kim Ho Jin as Yi Dong Woo
    Park Sang Myun as Park Chang Ju
    Jang Hang Sun as Kim Pan Chul / Ke Hee's father
    Go Doo Shim as Jung Hyang Geum / Ke Hee's mother
    Jo An as Kim Ma Ri / Kim Yeon Kyung / Ke Hee's sister
    Kim Young Chul as Baron Moon Jung Kwan / Suk Kyung's father
    Lee Bo Hee as Ame Kaori / Baron Moon's mistress
    Hong Yo Seob as Moon Dong Gi / Suk Kyung's uncle
    Kim Kyung Sook as Yoon Jung Ja
    Choi Jong Won as Lord Yi In Pyong / Dong Woo's father
    Kim Se Ah as Jo Young Eun / Dong Woo's governess
    Jung Han Yong as Choi Eun Kwan / Woon Hyuk's father
    Lee Duk Hee as Jo Soon Yi / Woon Hyuk's mother
    Park Shin Hye as Choi Geum Hee / Woon Hyuk's older sister
    Yoon Hye Kyung as Choi Eun Hee / Woon Hyuk's younger sister
    Son Jong Bum as Park Sung Ju
    Lee Byung Wook as Oh Chul Hyung
    Lee Gun as Kim Ki Soo
    Go Joo Yun as young Hae Kyung
    Park Eun Bin as young Suk Kyung
    Kim Soo Min as young Dong Woo
    Kim Suk as young Woon Hyuk
    Go Kyu Pil as young Chang Ju
    Kim Ji Young
    Yoon Seung Won
    Kim Hyung Il
    Jin Ji Hee
    Park Chul Ho
    Sin Hyeon Tak
    Song Yong Tae

    Screenwriter: Jung Sung Hee, Lee Han Ho
    Chief producer: Lee Sung Joo
    Producer: Jung Young Chul
    Director: Yoon Chang Bum, Yoo Hyun Ki
    Assistant Director: No Sang Hoon, Kim Jin Won

    Awards
    2007 43rd Baeksang Arts Awards: Best TV Drama Award
    2006 KBS Drama Awards: Top Excellence Award - Actor (Ryu Soo Young)




    This is old school release, so every episode has got size limit 1CD (700MB), hasn't got fix bitrate.
    Warning!
    I think episode 60 fake 720p HD, so poor quality. But better than Seoul.1945.E60.2006.HDTV.XviD-GH.asf


    Code
    Video
    ID                          : 0
    Format                      : MPEG-4 Visual
    Format profile              : Advanced Simple@L5
    Format settings, BVOP       : 2
    Format settings, QPel       : No
    Format settings, GMC        : No warppoints
    Format settings, Matrix     : Default (H.263)
    Muxing mode                 : Packed bitstream
    Codec ID                    : XVID
    Codec ID/Hint               : XviD
    Duration                    : 58mn 28s
    Bit rate                    : 1 470 Kbps
    Width                       : 640 pixels
    Height                      : 352 pixels
    Display aspect ratio        : 16:9
    Frame rate                  : 29.970 fps
    Color space                 : YUV
    Chroma subsampling          : 4:2:0
    Bit depth                   : 8 bits
    Scan type                   : Progressive
    Compression mode            : Lossy
    Bits/(Pixel*Frame)          : 0.218
    Stream size                 : 615 MiB (88%)
    Writing library             : XviD 1.1.0 (UTC 2005-11-22)

    Audio
    ID                          : 1
    Format                      : AC-3
    Format/Info                 : Audio Coding 3
    Mode extension              : CM (complete main)
    Format settings, Endianness : Big
    Codec ID                    : 2000
    Duration                    : 58mn 28s
    Bit rate mode               : Constant
    Bit rate                    : 192 Kbps
    Channel(s)                  : 2 channels
    Channel positions           : Front: L R
    Sampling rate               : 48.0 KHz
    Compression mode            : Lossy
    Delay relative to video     : 588ms
    Stream size                 : 80.3 MiB (11%)
    Alignment                   : Split accross interleaves
    Interleave, duration        : 33 ms (1.00 video frame)
    Interleave, preload duratio : 500 ms



    0 0

    Original Post: Sugar Plum Ferry 甜梅號 discography 2001-2013



    Taiwan's premier post-rock group, Sugar Plum Ferry. (Listed under Chinese music for language reasons, not political)



    Sugar Plum Ferry 甜梅號
    Hometown of Glitter 金光之鄉
    2013
    mp3 286kbps

    1. 1 vs. 99
    2. Unchecked Development 停不下來的更新
    3. The Cannery Must Go 關閉罐頭工廠
    4. Farms We Used to Cherish 金玉良田
    5. The Switch Master 開關大師
    6. Relocating Timezone 時區重組工具
    7. Goodbye Doomed Genes 再見末日基因
    8. Luna Keeps an Eye On Every Soul 月娘總是照著我們
    9. Our Good Strong Neighbour 吃伏冒有禮貌



    Sugar Plum Ferry 甜梅號
    Islands on the Ocean of the Mind 腦海群島
    2010
    m4a 282kbps

    1. False Awakening 清醒夢
    2. Deerfield at Dusk 黃昏鹿場
    3. Feet on the Sun 站在太陽上
    4. People, People 人兒呀
    5. Night Celestials 夜星子
    6. The Tolling Bell 敲響的鐘



    Sugar Plum Ferry 甜梅號
    Thank You for Reminding Me 謝謝你提醒我
    2007
    mp3 192kbps

    1. One-Third Cradlesong 三分之一搖籃曲
    2. Uproar From Riverside Buildings 河畔建築鼓譟
    3. Southern Butterfly Path 南方蝶道
    4. Graverobber's Abyss 盜墓者的無底洞
    5. The New Wandervogel 新流浪運動



    Sugar Plum Ferry 甜梅號
    Lack of Something 是不是少了什麽
    2001
    mp3 187kbps

    1. No More Soundtrack 不再的聲帶
    2. McDonald's Lies 橫臥的麥當勞
    3. Old Rock 老搖滾
    4. Nightmare Bento 惡夢便當
    5. One Person's Sewer 一個人的水道
    6. Physical Education 體育
    7. Dance of the Fireflies 螢火蟲小夜曲
    8. Chia Shih-po 家事伯
    9. Paranoia Dissertation 偏執狂的論文
    10. Teacher Children 教員子女
    11. William Wuss 威廉·吳斯
    12. Furby 菲比


    0 0

    Original Post: Yougisha wa 8-nin no Ninki Geinin SP 2015 720p HDTV x264 AAC DoA



    Title : Yougisha wa 8-nin no Ninki Geinin / 容疑者は8人の人気芸人
    Format: Tanpatsu
    Genre: Mystery, Comedy
    Episodes: 1
    Network: Fuji TV
    Release Date: 2015-Apr-18
    Air time: 21:00
    Language: Japanese
    Subtitles: None
    RAW credit to DoA

    Synopsis
    One day, Minami Mayu (Kinami Haruka), the manager of Himura Yuki of the comedy duo, Banana Man, suddenly discovers that he is in a critical situation. His life has been targeted. Himura is appearing in the third part of the Great Escape Series on Himura Channel which is being transmitted through the internet from a secret base that Mayu does not even know about. The time limit is just a few hours. In 9 hours and 30 minutes, he will be submerged in water. Detectives Kuroda Manabu (Cunning Takeyama) and Nikaido Atsushi (Wada Masato) from Nishi Wangan Police Precinct pursue the truth. As the investigation proceeds, eight popular entertainers, who were together with Himura for the filming of the TV programme just before that, are suspected. They are Miyasako Hiroyuki of Ameagari Kesshitai, Hakata Daikichi of Hakata Hanamaru Daikichi, Shitara Osamu of Banana Man, Bakarhythm, Date Mikio of Sandwichman, Tokui Yoshimi of Tutorial, Ito Asako and Wakabayashi Masayasu of Audrey. The suspects’ alibis, feelings toward Himura and motives for committing the crime are gradually revealed by the detectives. And Himura’s true self comes into sight. Who is the criminal?

    Cast
    Miyasako Hiroyuki
    Hakata Daikichi
    Shitara Osamu
    Bakarhythm
    Date Mikio
    Tokui Yoshimi
    Ito Asako
    Wakabayashi Masayasu
    Banana Man, Kinami Haruka
    Cunning Takeyama
    Wada Masato

    Media Info:
    Spoiler:show
    Format                                   : Matroska
    Format version                           : Version 2
    File size                                : 2.28 GiB
    Duration                                 : 1h 47mn
    Overall bit rate                         : 3 044 Kbps
    Encoded date                             : UTC 2015-04-22 16:07:02
    Writing application                      : mkvmerge v4.3.0 ('Escape from the Island') built on Sep  5 2010 10:30:51
    Writing library                          : libebml v1.0.0 + libmatroska v1.0.0

    Video
    ID                                       : 1
    Format                                   : AVC
    Format/Info                              : Advanced Video Codec
    Format profile                           : High@L4.1
    Format settings, CABAC                   : Yes
    Format settings, ReFrames                : 9 frames
    Muxing mode                              : Header stripping
    Codec ID                                 : V_MPEG4/ISO/AVC
    Duration                                 : 1h 47mn
    Width                                    : 1 280 pixels
    Height                                   : 720 pixels
    Display aspect ratio                     : 16:9
    Frame rate mode                          : Constant
    Frame rate                               : 29.970 fps
    Color space                              : YUV
    Chroma subsampling                       : 4:2:0
    Bit depth                                : 8 bits
    Scan type                                : Progressive
    Title                                    : Encode by TTG-DoA
    Writing library                          : x264 core 133 r2334 a3ac64b
    Encoding settings                        : cabac=1 / ref=9 / deblock=1:-2:-2 / analyse=0x3:0x133 / me=umh / subme=10 / psy=1 / psy_rd=1.00:0.00 / mixed_ref=1 / me_range=48 / chroma_me=1 / trellis=2 / 8x8dct=1 / cqm=0 / deadzone=21,11 / fast_pskip=0 / chroma_qp_offset=-2 / threads=12 / lookahead_threads=2 / sliced_threads=0 / nr=0 / decimate=1 / interlaced=0 / bluray_compat=0 / constrained_intra=0 / bframes=8 / b_pyramid=2 / b_adapt=2 / b_bias=0 / direct=3 / weightb=1 / open_gop=0 / weightp=2 / keyint=300 / keyint_min=29 / scenecut=40 / intra_refresh=0 / rc_lookahead=60 / rc=crf / mbtree=1 / crf=18.0 / qcomp=0.60 / qpmin=0 / qpmax=69 / qpstep=4 / ip_ratio=1.40 / aq=1:1.00
    Language                                 : English
    Default                                  : Yes
    Forced                                   : No

    Audio
    ID                                       : 2
    Format                                   : AAC
    Format/Info                              : Advanced Audio Codec
    Format profile                           : HE-AAC / LC
    Codec ID                                 : A_AAC
    Duration                                 : 1h 47mn
    Channel(s)                               : 2 channels
    Channel positions                        : Front: L R
    Sampling rate                            : 96.0 KHz / 48.0 KHz
    Compression mode                         : Lossy
    Delay relative to video                  : 452ms
    Language                                 : Javanese
    Default                                  : Yes
    Forced                                   : No








    0 0

    Original Post: Sanbiki no Ossan 2 EP02 720p HDTV x264 AAC-DoA

    Title: Sanbiki no Ossan Season 2 ~ Seigi no Mikata, Futatabi!
    Date: From 7.58 p.m., Fridays, 24 April 2015
    Station: TV Tokyo
    Scriptwriters: Sato Kumiko (Kagi no Nai Yume o Miru, Ousama no Ie, Scrap Teacher), Shimizu Shiori
    Original Work: Sanbiki no Ossan by Arikawa Hiro
    Genre: Comedy
    Subtitles: English - Candylemon 
    RAW credit to DoA


    Cast

       Kitaoji Kinya as Kinya Kitaoji
       Izumiya Shigeru as Tachibana Shigeo
       Shiga Kotaro as Arimura Norio
       Ohno Takuro as Kiyota Yuki
       Mine Azusa as Arimura Sanae
       Nakada Yoshiko as Kiyota Yoshie
       Nishida Naomi as Kiyota Takako
       Komoto Masahiro as Kiyota Kenji


    Synopsis

    One year after the end of Season 1, Kiyo, Shige and Nori are still doing night patrols, keeping the town safe from bag-snatchers, molesters and…a ghost? Meanwhile, Yūki and Sanae are starting university and still trying to get time together away from Nori.


    Mediainfo
    Spoiler:show

    Code
    Format                                   : Matroska
    Format version                           : Version 4 / Version 2
    File size                                : 1.77 GiB
    Duration                                 : 47mn 54s
    Overall bit rate                         : 5 289 Kbps
    Encoded date                             : UTC 2015-06-02 01:57:25
    Writing application                      : mkvmerge v7.9.0 ('Birds') 64bit
    Writing library                          : libebml v1.3.1 + libmatroska v1.4.2
    DURATION                                 : 00:47:54.837000000
    NUMBER_OF_FRAMES                         : 134758
    NUMBER_OF_BYTES                          : 70989682
    _STATISTICS_WRITING_APP                  : mkvmerge v7.9.0 ('Birds') 64bit
    _STATISTICS_WRITING_DATE_UTC             : 2015-06-02 01:57:25
    _STATISTICS_TAGS                         : BPS DURATION NUMBER_OF_FRAMES NUMBER_OF_BYTES

    Video
    ID                                       : 1
    Format                                   : AVC
    Format/Info                              : Advanced Video Codec
    Format profile                           : High@L4.1
    Format settings, CABAC                   : Yes
    Format settings, ReFrames                : 9 frames
    Codec ID                                 : V_MPEG4/ISO/AVC
    Duration                                 : 47mn 54s
    Width                                    : 1 280 pixels
    Height                                   : 720 pixels
    Display aspect ratio                     : 16:9
    Frame rate mode                          : Constant
    Frame rate                               : 29.970 fps
    Color space                              : YUV
    Chroma subsampling                       : 4:2:0
    Bit depth                                : 8 bits
    Scan type                                : Progressive
    Writing library                          : x264 core 146 r2538kMod 121396c
    Encoding settings                        : cabac=1 / ref=9 / deblock=1:-3:-3 / analyse=0x3:0x133 / me=umh / subme=10 / psy=1 / fade_compensate=0.00 / psy_rd=1.00:0.15 / mixed_ref=1 / me_range=64 / chroma_me=1 / trellis=2 / 8x8dct=1 / cqm=0 / deadzone=21,11 / fast_pskip=0 / chroma_qp_offset=-3 / threads=12 / lookahead_threads=2 / sliced_threads=0 / nr=0 / decimate=1 / interlaced=0 / bluray_compat=0 / constrained_intra=0 / fgo=0 / bframes=8 / b_pyramid=2 / b_adapt=2 / b_bias=0 / direct=3 / weightb=1 / open_gop=0 / weightp=2 / keyint=300 / keyint_min=29 / scenecut=40 / intra_refresh=0 / rc_lookahead=120 / rc=crf / mbtree=1 / crf=18.0000 / qcomp=0.60 / qpmin=0 / qpmax=69 / qpstep=4 / ip_ratio=1.40 / aq=3:1.00
    Default                                  : Yes
    Forced                                   : No

    Audio
    ID                                       : 2
    Format                                   : AAC
    Format/Info                              : Advanced Audio Codec
    Format profile                           : LC
    Codec ID                                 : A_AAC
    Duration                                 : 47mn 54s
    Channel(s)                               : 2 channels
    Channel positions                        : Front: L R
    Sampling rate                            : 48.0 KHz
    Compression mode                         : Lossy
    Delay relative to video                  : 20ms
    Default                                  : Yes
    Forced                                   : No








    0 0

    Original Post: Mother Game EP08 720p HDTV x264 AAC-DoA

    Title (English): Mother Game
    Also known as: The Mother Class
    Tagline: 彼女たちの階級 / Kanojotachi no Kaikyuu
    Format: Renzoku
    Genre: Family
    Episodes: TBD
    Broadcast network: TBS
    Broadcast period: 2015-Apr-14 start
    Air time: Tuesday 22:00
    Theme song: Beautiful by Superfly
    Subtitles: English - Yukkuri Subs
    RAW credit to DoA


    Cast

    Kanbara Family

       Kimura Fumino as Kanbara Kiko
       Ryu Raita as Kanbara Tetsuji
       Yamamoto Ayumu (横山歩) as Kanbara Haruto

    Odadera Family

       Dan Rei as Odadera Marie
       Igarashi Hinata (五十嵐陽向) as Odadera Makoto

    Yano Family

       Hasegawa Kyoko as Yano Satoko
       Hasegawa Kiyo (長谷川稀世) as Yano Shizuko
       Sakurai Hijiri as Yano Masaki
       Kanon as Yano Reina
       Watanabe Reika (渡邊れいら) as Yano Erina
       Oe Yusei (大江優成) as Yano Yuuki

    Kamiya Family

       Kanjiya Shihori as Kamiya Yuki
       Shinoda Mitsuyoshi as Kamiya Kyoji
       Goto Yuira (後藤由依良) as Kamiya Sakurako

    Goto Family

       Adachi Yumi as Goto Midori
       Maruyama Tomomi as Goto Rika
       Yazaki Yusa (矢崎由紗) as Goto Shuhei

    Others

       Muroi Shigeru as Naraoka Fumi
       Seto Koji as Naraoka Shinnosuke
       Okada Yoshinori as Kashiyama Hidenori
       Emi Kurara as Yamakawa Mamiko
       Tominaga Saori (富永沙織) as Tsunoda Kayo
       Kamiji Yusuke as Isoyama Takumi
       Tanaka Naoki as Member of staff
       Toyohara Kosuke as Mysterious Man
       Shibukawa Kiyohiko (渋川清彦) as Kashiwagi Kunpei


    Synopsis

    Kanbara Kiko is a poor single mother whose 5-year-old son, Haruto, gets admitted to a prestigious kindergarten in an unexpected turn of events. One Haruto's first day of school, high-end cars are backed up in front of the kindergarten’s front gate. Mothers swagger on high heels within the compound and carry luxury brand bags. Although Kiko is shocked by the reality of this kindergarten where she is out of her element, she expresses her feelings directly to the mothers who regard her as an enemy. With her vivacity and compassion, she starts to change the thinking and establish new bonds with these rigid women living in a completely different world and generation. -- Jdrama Weblog


    Mediainfo
    Spoiler:show

    Code
    Format                                   : Matroska
    Format version                           : Version 4 / Version 2
    File size                                : 1 021 MiB
    Duration                                 : 46mn 29s
    Overall bit rate                         : 3 071 Kbps
    Movie name                               : マザー・ゲーム~彼女たちの階級~ #08 720p HDTV x264 AAC-DoA
    Encoded date                             : UTC 2015-06-03 01:08:07
    Writing application                      : mkvmerge v7.8.0 ('River Man') 64bit built on Mar 27 2015 16:31:37
    Writing library                          : libebml v1.3.1 + libmatroska v1.4.2
    DURATION                                 : 00:46:29.440000000
    NUMBER_OF_FRAMES                         : 130755
    NUMBER_OF_BYTES                          : 65769735
    _STATISTICS_WRITING_APP                  : mkvmerge v7.8.0 ('River Man') 64bit built on Mar 27 2015 16:31:37
    _STATISTICS_WRITING_DATE_UTC             : 2015-06-03 01:08:07
    _STATISTICS_TAGS                         : BPS DURATION NUMBER_OF_FRAMES NUMBER_OF_BYTES

    Video
    ID                                       : 1
    Format                                   : AVC
    Format/Info                              : Advanced Video Codec
    Format profile                           : High@L4.1
    Format settings, CABAC                   : Yes
    Format settings, ReFrames                : 9 frames
    Codec ID                                 : V_MPEG4/ISO/AVC
    Duration                                 : 46mn 29s
    Width                                    : 1 280 pixels
    Height                                   : 720 pixels
    Display aspect ratio                     : 16:9
    Frame rate mode                          : Constant
    Frame rate                               : 29.970 fps
    Color space                              : YUV
    Chroma subsampling                       : 4:2:0
    Bit depth                                : 8 bits
    Scan type                                : Progressive
    Title                                    : Encode by DoA
    Writing library                          : x264 core 130 r2273 b3065e6
    Encoding settings                        : cabac=1 / ref=9 / deblock=1:-2:-2 / analyse=0x3:0x133 / me=umh / subme=10 / psy=1 / psy_rd=1.00:0.15 / mixed_ref=1 / me_range=48 / chroma_me=1 / trellis=2 / 8x8dct=1 / cqm=0 / deadzone=21,11 / fast_pskip=0 / chroma_qp_offset=-3 / threads=12 / lookahead_threads=2 / sliced_threads=0 / nr=0 / decimate=1 / interlaced=0 / bluray_compat=0 / constrained_intra=0 / bframes=8 / b_pyramid=2 / b_adapt=2 / b_bias=0 / direct=3 / weightb=1 / open_gop=0 / weightp=2 / keyint=300 / keyint_min=29 / scenecut=40 / intra_refresh=0 / rc_lookahead=60 / rc=crf / mbtree=1 / crf=17.5 / qcomp=0.60 / qpmin=0 / qpmax=69 / qpstep=4 / ip_ratio=1.40 / aq=1:1.00
    Language                                 : Japanese
    Default                                  : Yes
    Forced                                   : No
    DURATION                                 : 00:46:29.820000000
    NUMBER_OF_FRAMES                         : 83611
    NUMBER_OF_BYTES                          : 1004171985
    _STATISTICS_WRITING_APP                  : mkvmerge v7.8.0 ('River Man') 64bit built on Mar 27 2015 16:31:37
    _STATISTICS_WRITING_DATE_UTC             : 2015-06-03 01:08:07
    _STATISTICS_TAGS                         : BPS DURATION NUMBER_OF_FRAMES NUMBER_OF_BYTES

    Audio
    ID                                       : 2
    Format                                   : AAC
    Format/Info                              : Advanced Audio Codec
    Format profile                           : LC
    Codec ID                                 : A_AAC
    Duration                                 : 46mn 29s
    Channel(s)                               : 2 channels
    Channel positions                        : Front: L R
    Sampling rate                            : 48.0 KHz
    Compression mode                         : Lossy
    Language                                 : Japanese
    Default                                  : Yes
    Forced                                   : No

    Menu
    00:00:00.000                             : ja:マザー・ゲーム~彼女たちの階級~ #08 Part 1
    00:06:08.701                             : ja:オープニング
    00:06:16.709                             : ja:マザー・ゲーム~彼女たちの階級~ #08 Part 2
    00:17:37.956                             : ja:マザー・ゲーム~彼女たちの階級~ #08 Part 3
    00:27:27.912                             : ja:マザー・ゲーム~彼女たちの階級~ #08 Part 4
    00:30:51.883                             : ja:マザー・ゲーム~彼女たちの階級~ #08 Part 5
    00:46:14.905                             : ja:次回予告








    0 0

    Original Post: Kirisaki Jack no Kokuhaku SP 2015 720p HDTV x264 AAC DoA



    Title : Kirisaki Jack no Kokuhaku / 切り裂きジャックの告白
    Format: Tanpatsu
    Genre: Mystery
    Episodes: 1
    Network: TV Asahi
    Release Date: 2015-Apr-18
    Air time: 21:00 - 23:06
    Language: Japanese
    Subtitles: None
    RAW credit to DoA

    Synopsis
    The dead body of a young woman is discovered in a park right in front of Kasugano Police Precinct in the heart of Tokyo. All her organs have been taken out. While a investigation task force is being set up, ace detective Inukai Hayato of the Tokyo Metropolitan Police Department's First Investigative Division starts to investigate together with a rookie detective from Saitama Prefectural Police, Kotegawa Kazuya, who has just come to the division for training. The brutal way in which victim was murdered discomforts Inukai. He is never swayed by his own feelings and is feared for seeing through the lies of others. The divorced Inukai has a daughter of elementary school-going age, Toyosaki Sayaka. She is suffering from a serious kidney disease and is waiting for a transplant. Early surgery is encouraged by her attending physician, Majikina Takahiko and Majikina's wife and anesthetist, Yoko. Takano Chiharu is introduced as the university hospital's transplant coordinator in charge of Sayaka. Meanwhile, a statement which seems to ridicule the bewildered task force, is sent to a TV station by the criminal who calls himself ‘Jack the Ripper’. The words “I'm enjoying this work” are written down. Then second and third crimes occur in the same way. It starts to seem similar to theatrical crime. Before long, Inukai and Kotegawa discover what the victims have in common. The victims had received organ donations from the same donor. Inukai is caught between his roles as a detective and a father, but begins to track down the criminal. Who is this ‘Jack the Ripper’?

    Cast
    Sawamura Ikki as Inukai Hayato
    Seto Koji as Kotegawa Kazuya
    Mimura as Takano Chiharu
    Watanabe Ikkei as Aso
    Nukumizu Youichi as Mikuriya
    Horibe Keisuke as Tsurusaki
    Godai Takayuki as Tsumura
    Yamashita Yorie as Majikina Yoko
    Sakurada Hiyori as Toyosaki Sayaka
    Akutsu Shintaro as Mitamura Keisuke
    Tokoshima Yoshiko as Kishibo Ryoko
    Ryu Raita as Majikina Takahiko (special appearance)

    Media Info:
    Spoiler:show
    Format                                   : Matroska
    Format version                           : Version 2
    File size                                : 2.23 GiB
    Duration                                 : 1h 45mn
    Overall bit rate                         : 3 022 Kbps
    Encoded date                             : UTC 2015-04-27 10:58:31
    Writing application                      : mkvmerge v4.3.0 ('Escape from the Island') built on Sep  5 2010 10:30:51
    Writing library                          : libebml v1.0.0 + libmatroska v1.0.0

    Video
    ID                                       : 1
    Format                                   : AVC
    Format/Info                              : Advanced Video Codec
    Format profile                           : High@L4.1
    Format settings, CABAC                   : Yes
    Format settings, ReFrames                : 9 frames
    Muxing mode                              : Header stripping
    Codec ID                                 : V_MPEG4/ISO/AVC
    Duration                                 : 1h 45mn
    Width                                    : 1 280 pixels
    Height                                   : 720 pixels
    Display aspect ratio                     : 16:9
    Frame rate mode                          : Constant
    Frame rate                               : 29.970 fps
    Color space                              : YUV
    Chroma subsampling                       : 4:2:0
    Bit depth                                : 8 bits
    Scan type                                : Progressive
    Title                                    : Encode by TTG-DoA
    Writing library                          : x264 core 133 r2334 a3ac64b
    Encoding settings                        : cabac=1 / ref=9 / deblock=1:-2:-2 / analyse=0x3:0x133 / me=umh / subme=10 / psy=1 / psy_rd=1.00:0.00 / mixed_ref=1 / me_range=48 / chroma_me=1 / trellis=2 / 8x8dct=1 / cqm=0 / deadzone=21,11 / fast_pskip=0 / chroma_qp_offset=-2 / threads=12 / lookahead_threads=2 / sliced_threads=0 / nr=0 / decimate=1 / interlaced=0 / bluray_compat=0 / constrained_intra=0 / bframes=8 / b_pyramid=2 / b_adapt=2 / b_bias=0 / direct=3 / weightb=1 / open_gop=0 / weightp=2 / keyint=300 / keyint_min=29 / scenecut=40 / intra_refresh=0 / rc_lookahead=60 / rc=crf / mbtree=1 / crf=18.0 / qcomp=0.60 / qpmin=0 / qpmax=69 / qpstep=4 / ip_ratio=1.40 / aq=1:1.00
    Language                                 : English
    Default                                  : Yes
    Forced                                   : No

    Audio
    ID                                       : 2
    Format                                   : AAC
    Format/Info                              : Advanced Audio Codec
    Format profile                           : HE-AAC / LC
    Codec ID                                 : A_AAC
    Duration                                 : 1h 45mn
    Channel(s)                               : 2 channels
    Channel positions                        : Front: L R
    Sampling rate                            : 96.0 KHz / 48.0 KHz
    Compression mode                         : Lossy
    Delay relative to video                  : 20ms
    Language                                 : Japanese
    Default                                  : Yes
    Forced                                   : No








    0 0

    Original Post: Producer.E07.150605.HDTV.X264-LIMO

    http://thetvdb.com/?tab=series&id=294814
    Details
    Title: 프로듀사 / Peurodyusa
    Genre: Drama
    Episodes: 12
    Broadcast network: KBS2
    Broadcast period: 2015-May-15 to 2015-Jun-20
    Air time: Friday & Saturday 21:15
    Original Soundtrack: Producer OST

    Synopsis
    A group of young television producers — Ra Jun Mo (Cha Tae Hyun), Baek Sung Chan (Kim Soo Hyun), Tak Ye Ji (Gong Hyo Jin), and Cindy (IU) — work tirelessly around the clock within the entertainment division of a major broadcasting network. Amidst their dynamic and challenging workloads, serious drama reaches new heights in this backstage glimpse of the people who make television magic happen.

    Main Cast
    Cha Tae Hyun as Ra Joon Mo (35, 2 Days & 1 Night's PD)
    Kim Soo Hyun as Baek Seung Chan (27, KBS Entertainment World newbie PD)
    Gong Hyo Jin as Tak Ye Jin (35, Music Bank's PD)
    IU as Cindy (23, singer)

    NOTE: All screenshots were randomly selected






    Code
    Video
    ID                             : 1
    Format                         : AVC
    Format/Info                    : Advanced Video Codec
    Format profile                 : Main@L4.0
    Format settings, CABAC         : Yes
    Format settings, ReFrames      : 4 frames
    Codec ID                       : V_MPEG4/ISO/AVC
    Duration                       : 58mn 44s
    Bit rate                       : 450 Kbps
    Width                          : 624 pixels
    Height                         : 350 pixels
    Display aspect ratio           : 16:9
    Frame rate mode                : Constant
    Frame rate                     : 29.970 fps
    Color space                    : YUV
    Chroma subsampling             : 4:2:0
    Bit depth                      : 8 bits
    Scan type                      : Progressive
    Bits/(Pixel*Frame)             : 0.069
    Stream size                    : 190 MiB (76%)
    Writing library                : x264 core 130 r2273 b3065e6
    Encoding settings              : cabac=1 / ref=1 / deblock=1:0:0 / analyse=0x1:0x111 / me=hex / subme=2 / psy=1 / psy_rd=1.00:0.00 / mixed_ref=0 / me_range=16 / chroma_me=1 / trellis=0 / 8x8dct=0 / cqm=0 / deadzone=21,11 / fast_pskip=1 / chroma_qp_offset=0 / threads=1 / lookahead_threads=1 / sliced_threads=0 / nr=0 / decimate=1 / interlaced=0 / bluray_compat=0 / constrained_intra=0 / bframes=3 / b_pyramid=2 / b_adapt=1 / b_bias=0 / direct=1 / weightb=1 / open_gop=0 / weightp=1 / keyint=300 / keyint_min=30 / scenecut=40 / intra_refresh=0 / rc_lookahead=10 / rc=abr / mbtree=1 / bitrate=450 / ratetol=1.0 / qcomp=0.60 / qpmin=0 / qpmax=69 / qpstep=4 / vbv_maxrate=20000 / vbv_bufsize=25000 / nal_hrd=none / ip_ratio=1.40 / aq=1:1.00
    Language                       : English
    Default                        : Yes
    Forced                         : No
    Color primaries                : BT.601 NTSC
    Transfer characteristics       : BT.709
    Matrix coefficients            : BT.601

    Audio
    ID                             : 2
    Format                         : MPEG Audio
    Format version                 : Version 1
    Format profile                 : Layer 3
    Mode                           : Joint stereo
    Mode extension                 : MS Stereo
    Codec ID                       : A_MPEG/L3
    Codec ID/Hint                  : MP3
    Duration                       : 58mn 44s
    Bit rate mode                  : Constant
    Bit rate                       : 128 Kbps
    Channel(s)                     : 2 channels
    Sampling rate                  : 48.0 KHz
    Compression mode               : Lossy
    Stream size                    : 53.8 MiB (22%)
    Default                        : Yes
    Forced                         : No



    0 0

    Original Post: Producer.E07.150605.HDTV.H264.450p-LIMO

    http://thetvdb.com/?tab=series&id=294814
    Details
    Title: 프로듀사 / Peurodyusa
    Genre: Drama
    Episodes: 12
    Broadcast network: KBS2
    Broadcast period: 2015-May-15 to 2015-Jun-20
    Air time: Friday & Saturday 21:15
    Original Soundtrack: Producer OST

    Synopsis
    A group of young television producers — Ra Jun Mo (Cha Tae Hyun), Baek Sung Chan (Kim Soo Hyun), Tak Ye Ji (Gong Hyo Jin), and Cindy (IU) — work tirelessly around the clock within the entertainment division of a major broadcasting network. Amidst their dynamic and challenging workloads, serious drama reaches new heights in this backstage glimpse of the people who make television magic happen.

    Main Cast
    Cha Tae Hyun as Ra Joon Mo (35, 2 Days & 1 Night's PD)
    Kim Soo Hyun as Baek Seung Chan (27, KBS Entertainment World newbie PD)
    Gong Hyo Jin as Tak Ye Jin (35, Music Bank's PD)
    IU as Cindy (23, singer)

    NOTE: All screenshots were randomly selected






    Code
    Video
    ID                                       : 0
    Format                                   : AVC
    Format/Info                              : Advanced Video Codec
    Format profile                           : High@L5.1
    Format settings, CABAC                   : Yes
    Format settings, ReFrames                : 4 frames
    Codec ID                                 : H264
    Duration                                 : 1h 20mn
    Bit rate                                 : 1 500 Kbps
    Width                                    : 800 pixels
    Height                                   : 450 pixels
    Display aspect ratio                     : 16:9
    Frame rate mode                          : Variable
    Frame rate                               : 29.970 fps
    Color space                              : YUV
    Chroma subsampling                       : 4:2:0
    Bit depth                                : 8 bits
    Scan type                                : Progressive
    Bits/(Pixel*Frame)                       : 0.139
    Stream size                              : 860 MiB (88%)
    Writing library                          : x264 core 112
    Encoding settings                        : cabac=1 / ref=3 / deblock=1:-1:-1 / analyse=0x3:0x113 / me=hex / subme=6 / psy=1 / psy_rd=1.00:1.00 / mixed_ref=1 / me_range=16 / chroma_me=1 / trellis=1 / 8x8dct=1 / cqm=0 / deadzone=21,11 / fast_pskip=0 / chroma_qp_offset=-4 / threads=12 / sliced_threads=0 / nr=0 / decimate=1 / interlaced=0 / constrained_intra=0 / bframes=3 / b_pyramid=2 / b_adapt=1 / b_bias=1 / direct=3 / weightb=1 / open_gop=0 / weightp=2 / keyint=299 / keyint_min=25 / scenecut=1 / intra_refresh=0 / rc_lookahead=40 / rc=abr / mbtree=1 / bitrate=1500 / ratetol=1.0 / qcomp=0.60 / qpmin=1 / qpmax=51 / qpstep=4 / vbv_maxrate=1950 / vbv_bufsize=1950 / ip_ratio=1.40 / aq=1:1.00 / nal_hrd=none

    Audio
    ID                                       : 1
    Format                                   : MPEG Audio
    Format version                           : Version 1
    Format profile                           : Layer 3
    Mode                                     : Joint stereo
    Mode extension                           : MS Stereo
    Codec ID                                 : 55
    Codec ID/Hint                            : MP3
    Duration                                 : 1h 20mn
    Bit rate mode                            : Constant
    Bit rate                                 : 192 Kbps
    Channel(s)                               : 2 channels
    Sampling rate                            : 48.0 KHz
    Compression mode                         : Lossy
    Stream size                              : 111 MiB (11%)
    Alignment                                : Aligned on interleaves
    Interleave, duration                     : 24 ms (0.72 video frame)
    Writing library                          : LAME3.98.2



    0 0

    Original Post: Producer.E07.150605.HDTV.H264.720p-LIMO

    http://thetvdb.com/?tab=series&id=294814
    Details
    Title: 프로듀사 / Peurodyusa
    Genre: Drama
    Episodes: 12
    Broadcast network: KBS2
    Broadcast period: 2015-May-15 to 2015-Jun-20
    Air time: Friday & Saturday 21:15
    Original Soundtrack: Producer OST

    Synopsis
    A group of young television producers — Ra Jun Mo (Cha Tae Hyun), Baek Sung Chan (Kim Soo Hyun), Tak Ye Ji (Gong Hyo Jin), and Cindy (IU) — work tirelessly around the clock within the entertainment division of a major broadcasting network. Amidst their dynamic and challenging workloads, serious drama reaches new heights in this backstage glimpse of the people who make television magic happen.

    Main Cast
    Cha Tae Hyun as Ra Joon Mo (35, 2 Days & 1 Night's PD)
    Kim Soo Hyun as Baek Seung Chan (27, KBS Entertainment World newbie PD)
    Gong Hyo Jin as Tak Ye Jin (35, Music Bank's PD)
    IU as Cindy (23, singer)

    NOTE: All screenshots were randomly selected






























    Code
    Video
    ID                               : 0
    Format                           : AVC
    Format/Info                      : Advanced Video Codec
    Format profile                   : High@L5.1
    Format settings, CABAC           : Yes
    Format settings, ReFrames        : 4 frames
    Codec ID                         : H264
    Duration                         : 1h 4mn
    Bit rate                         : 3 000 Kbps
    Width                            : 1 280 pixels
    Height                           : 720 pixels
    Display aspect ratio             : 16:9
    Frame rate mode                  : Variable
    Frame rate                       : 29.970 fps
    Color space                      : YUV
    Chroma subsampling               : 4:2:0
    Bit depth                        : 8 bits
    Scan type                        : Progressive
    Bits/(Pixel*Frame)               : 0.109
    Stream size                      : 1.35 GiB (94%)
    Writing library                  : x264 core 112
    Encoding settings                : cabac=1 / ref=3 / deblock=1:-1:-1 / analyse=0x3:0x113 / me=hex / subme=6 / psy=1 / psy_rd=1.00:1.00 / mixed_ref=1 / me_range=16 / chroma_me=1 / trellis=1 / 8x8dct=1 / cqm=0 / deadzone=21,11 / fast_pskip=0 / chroma_qp_offset=-4 / threads=12 / sliced_threads=0 / nr=0 / decimate=1 / interlaced=0 / constrained_intra=0 / bframes=3 / b_pyramid=2 / b_adapt=1 / b_bias=1 / direct=3 / weightb=1 / open_gop=0 / weightp=2 / keyint=299 / keyint_min=25 / scenecut=1 / intra_refresh=0 / rc_lookahead=40 / rc=abr / mbtree=1 / bitrate=3000 / ratetol=1.0 / qcomp=0.60 / qpmin=10 / qpmax=51 / qpstep=4 / ip_ratio=1.40 / aq=1:1.00

    Audio
    ID                               : 1
    Format                           : MPEG Audio
    Format version                   : Version 1
    Format profile                   : Layer 3
    Mode                             : Joint stereo
    Mode extension                   : MS Stereo
    Codec ID                         : 55
    Codec ID/Hint                    : MP3
    Duration                         : 1h 4mn
    Bit rate mode                    : Constant
    Bit rate                         : 192 Kbps
    Channel(s)                       : 2 channels
    Sampling rate                    : 48.0 KHz
    Stream size                      : 88.0 MiB (6%)
    Alignment                        : Split accross interleaves
    Interleave, duration             : 33 ms (1.00 video frame)
    Interleave, preload duration     : 500 ms
    Writing library                  : LAME3.98.2



    0 0

    Original Post: Orange.Marmalade.E05.150605.HDTV.X264-LIMO

    http://www.thetvdb.com/?tab=series&id=295007
    Details
    Title: 오렌지마말레이드 / Orenji Marmaleideu
    Genre: School, fantasy, romance
    Episodes: 12
    Broadcast network: KBS2
    Broadcast period: 2015-May-15 to 2015-???-??
    Air time: Friday 22:35
    Original Soundtrack: Orange Marmalade OST

    Synopsis
    Despite a 200-year-old treaty between humans and vampires, both races still don't get along. Amidst the looming tension, Jung Jae Min (Yeo Jin Goo), a posh yet kindhearted high school student, quickly falls for the mysterious new girl Baek Ma Ri (Seol Hyun). But can Ma Ri conceal her true vampire identity and give love an honest chance? If these star-crossed lovers can find the courage to make the leap, Jae Min and Ma Ri may just be the key to a final resolution between humans and vampires...

    Main Cast
    Yeo Jin Goo as Jung Jae Min (18)
    Kim Seol Hyun as Baek Ma Ri (18)
    Lee Jong Hyun as Han Shi Hoo (18)
    Gil Eun Hye as Jo Ah Ra (18)










    Code
    Video
    ID                             : 1
    Format                         : AVC
    Format/Info                    : Advanced Video Codec
    Format profile                 : Main@L4.0
    Format settings, CABAC         : Yes
    Format settings, ReFrames      : 4 frames
    Codec ID                       : V_MPEG4/ISO/AVC
    Duration                       : 58mn 44s
    Bit rate                       : 450 Kbps
    Width                          : 624 pixels
    Height                         : 350 pixels
    Display aspect ratio           : 16:9
    Frame rate mode                : Constant
    Frame rate                     : 29.970 fps
    Color space                    : YUV
    Chroma subsampling             : 4:2:0
    Bit depth                      : 8 bits
    Scan type                      : Progressive
    Bits/(Pixel*Frame)             : 0.069
    Stream size                    : 190 MiB (76%)
    Writing library                : x264 core 130 r2273 b3065e6
    Encoding settings              : cabac=1 / ref=1 / deblock=1:0:0 / analyse=0x1:0x111 / me=hex / subme=2 / psy=1 / psy_rd=1.00:0.00 / mixed_ref=0 / me_range=16 / chroma_me=1 / trellis=0 / 8x8dct=0 / cqm=0 / deadzone=21,11 / fast_pskip=1 / chroma_qp_offset=0 / threads=1 / lookahead_threads=1 / sliced_threads=0 / nr=0 / decimate=1 / interlaced=0 / bluray_compat=0 / constrained_intra=0 / bframes=3 / b_pyramid=2 / b_adapt=1 / b_bias=0 / direct=1 / weightb=1 / open_gop=0 / weightp=1 / keyint=300 / keyint_min=30 / scenecut=40 / intra_refresh=0 / rc_lookahead=10 / rc=abr / mbtree=1 / bitrate=450 / ratetol=1.0 / qcomp=0.60 / qpmin=0 / qpmax=69 / qpstep=4 / vbv_maxrate=20000 / vbv_bufsize=25000 / nal_hrd=none / ip_ratio=1.40 / aq=1:1.00
    Language                       : English
    Default                        : Yes
    Forced                         : No
    Color primaries                : BT.601 NTSC
    Transfer characteristics       : BT.709
    Matrix coefficients            : BT.601

    Audio
    ID                             : 2
    Format                         : MPEG Audio
    Format version                 : Version 1
    Format profile                 : Layer 3
    Mode                           : Joint stereo
    Mode extension                 : MS Stereo
    Codec ID                       : A_MPEG/L3
    Codec ID/Hint                  : MP3
    Duration                       : 58mn 44s
    Bit rate mode                  : Constant
    Bit rate                       : 128 Kbps
    Channel(s)                     : 2 channels
    Sampling rate                  : 48.0 KHz
    Compression mode               : Lossy
    Stream size                    : 53.8 MiB (22%)
    Default                        : Yes
    Forced                         : No



    0 0

    Original Post: Orange.Marmalade.E05.150605.HDTV.H264.450p-LIMO

    http://www.thetvdb.com/?tab=series&id=295007
    Details
    Title: 오렌지마말레이드 / Orenji Marmaleideu
    Genre: School, fantasy, romance
    Episodes: 12
    Broadcast network: KBS2
    Broadcast period: 2015-May-15 to 2015-???-??
    Air time: Friday 22:35
    Original Soundtrack: Orange Marmalade OST

    Synopsis
    Despite a 200-year-old treaty between humans and vampires, both races still don't get along. Amidst the looming tension, Jung Jae Min (Yeo Jin Goo), a posh yet kindhearted high school student, quickly falls for the mysterious new girl Baek Ma Ri (Seol Hyun). But can Ma Ri conceal her true vampire identity and give love an honest chance? If these star-crossed lovers can find the courage to make the leap, Jae Min and Ma Ri may just be the key to a final resolution between humans and vampires...

    Main Cast
    Yeo Jin Goo as Jung Jae Min (18)
    Kim Seol Hyun as Baek Ma Ri (18)
    Lee Jong Hyun as Han Shi Hoo (18)
    Gil Eun Hye as Jo Ah Ra (18)










    Code
    Video
    ID                                       : 0
    Format                                   : AVC
    Format/Info                              : Advanced Video Codec
    Format profile                           : High@L5.1
    Format settings, CABAC                   : Yes
    Format settings, ReFrames                : 4 frames
    Codec ID                                 : H264
    Bit rate                                 : 1 500 Kbps
    Width                                    : 800 pixels
    Height                                   : 450 pixels
    Display aspect ratio                     : 16:9
    Frame rate mode                          : Variable
    Frame rate                               : 29.970 fps
    Color space                              : YUV
    Chroma subsampling                       : 4:2:0
    Bit depth                                : 8 bits
    Scan type                                : Progressive
    Bits/(Pixel*Frame)                       : 0.139
    Stream size                              : 686 MiB (88%)
    Writing library                          : x264 core 112

    Audio
    ID                                       : 1
    Format                                   : MPEG Audio
    Format version                           : Version 1
    Format profile                           : Layer 3
    Mode                                     : Joint stereo
    Mode extension                           : MS Stereo
    Codec ID                                 : 55
    Codec ID/Hint                            : MP3
    Bit rate mode                            : Constant
    Bit rate                                 : 192 Kbps
    Channel(s)                               : 2 channels
    Sampling rate                            : 48.0 KHz
    Compression mode                         : Lossy
    Stream size                              : 88.3 MiB (11%)
    Alignment                                : Aligned on interleaves
    Interleave, duration                     : 24 ms (0.72 video frame)
    Writing library                          : LAME3.98.2
    Language                                 : Korean



    0 0

    Original Post: Orange.Marmalade.E05.150605.HDTV.H264.720p-LIMO

    http://www.thetvdb.com/?tab=series&id=295007
    Details
    Title: 오렌지마말레이드 / Orenji Marmaleideu
    Genre: School, fantasy, romance
    Episodes: 12
    Broadcast network: KBS2
    Broadcast period: 2015-May-15 to 2015-???-??
    Air time: Friday 22:35
    Original Soundtrack: Orange Marmalade OST

    Synopsis
    Despite a 200-year-old treaty between humans and vampires, both races still don't get along. Amidst the looming tension, Jung Jae Min (Yeo Jin Goo), a posh yet kindhearted high school student, quickly falls for the mysterious new girl Baek Ma Ri (Seol Hyun). But can Ma Ri conceal her true vampire identity and give love an honest chance? If these star-crossed lovers can find the courage to make the leap, Jae Min and Ma Ri may just be the key to a final resolution between humans and vampires...

    Main Cast
    Yeo Jin Goo as Jung Jae Min (18)
    Kim Seol Hyun as Baek Ma Ri (18)
    Lee Jong Hyun as Han Shi Hoo (18)
    Gil Eun Hye as Jo Ah Ra (18)










    Code
    Video
    ID                               : 0
    Format                           : AVC
    Format/Info                      : Advanced Video Codec
    Format profile                   : High@L5.1
    Format settings, CABAC           : Yes
    Format settings, ReFrames        : 4 frames
    Codec ID                         : H264
    Duration                         : 1h 4mn
    Bit rate                         : 3 000 Kbps
    Width                            : 1 280 pixels
    Height                           : 720 pixels
    Display aspect ratio             : 16:9
    Frame rate mode                  : Variable
    Frame rate                       : 29.970 fps
    Color space                      : YUV
    Chroma subsampling               : 4:2:0
    Bit depth                        : 8 bits
    Scan type                        : Progressive
    Bits/(Pixel*Frame)               : 0.109
    Stream size                      : 1.35 GiB (94%)
    Writing library                  : x264 core 112
    Encoding settings                : cabac=1 / ref=3 / deblock=1:-1:-1 / analyse=0x3:0x113 / me=hex / subme=6 / psy=1 / psy_rd=1.00:1.00 / mixed_ref=1 / me_range=16 / chroma_me=1 / trellis=1 / 8x8dct=1 / cqm=0 / deadzone=21,11 / fast_pskip=0 / chroma_qp_offset=-4 / threads=12 / sliced_threads=0 / nr=0 / decimate=1 / interlaced=0 / constrained_intra=0 / bframes=3 / b_pyramid=2 / b_adapt=1 / b_bias=1 / direct=3 / weightb=1 / open_gop=0 / weightp=2 / keyint=299 / keyint_min=25 / scenecut=1 / intra_refresh=0 / rc_lookahead=40 / rc=abr / mbtree=1 / bitrate=3000 / ratetol=1.0 / qcomp=0.60 / qpmin=10 / qpmax=51 / qpstep=4 / ip_ratio=1.40 / aq=1:1.00

    Audio
    ID                               : 1
    Format                           : MPEG Audio
    Format version                   : Version 1
    Format profile                   : Layer 3
    Mode                             : Joint stereo
    Mode extension                   : MS Stereo
    Codec ID                         : 55
    Codec ID/Hint                    : MP3
    Duration                         : 1h 4mn
    Bit rate mode                    : Constant
    Bit rate                         : 192 Kbps
    Channel(s)                       : 2 channels
    Sampling rate                    : 48.0 KHz
    Stream size                      : 88.0 MiB (6%)
    Alignment                        : Split accross interleaves
    Interleave, duration             : 33 ms (1.00 video frame)
    Interleave, preload duration     : 500 ms
    Writing library                  : LAME3.98.2



    0 0
  • 06/05/15--06:46: I'm Home ep08 480p
  • Original Post: I'm Home ep08 480p



    http://wiki.d-addicts.com/I%27m_Home_%28TV_Asahi%29
    http://asianwiki.com/I%27m_Home
    http://thetvdb.com/?tab=series&id=293799&lid=7

    Title: アイムホーム
    Title (English): I'm home
    Format: Renzoku
    Genre: Family mystery
    Broadcast network: TV Asahi
    Episodes: 10
    Broadcast period: 2015-Apr-16 to 2015-Jun-18
    Air time: Thursday 21:00
    Language: Japanese
    Country: Japan
    Subtitles: English here: Watanuki and Chiyoko Fansub
    RAW credit to furransu

    Cast
       Kimura Takuya as Ieji Hisashi
       Ueto Aya as Ieji Megumi
       Mizuno Miki as Nozawa Kaoru
       Tanaka Kei as Honjo Tsuyoshi
       Suzuki Kosuke as Watanuki Shinji
       Yoshimoto Miyu as Takanashi Yua
       Ino Manabu (猪野学) as Hifumi Tsutomu
       Anami Atsuko as Isami Yoko
       Nomaguchi Toru as Iwashita Noboru
       Yano Masato as Tokura Shingo
       Takahashi Rai (高橋來) as Ieji Yoshio
       Yamaguchi Mayu (山口まゆ) as Nozawa Subaru
       Arai Hirofumi as Kuroki Jin
       Mitsuishi Ken as Todoroki Haruki
       Watanabe Ikkei as Teshigawara Yosuke
       Oikawa Mitsuhiro as Tsukuba Yoshiaki
       Nishida Toshiyuki as Kozukue Yukio

    Synopsis
    Ieji Hisashi, a salaryman who works for a securities company, has a fuzzy memory of the recent five years because of an accident at his job posting. His wife of five years, Megumi and their 4-year-old son seem to wear masks. He can neither tell their facial expressions nor their emotions. He also struggles about his love for them. On the other hand, Ieji feels an attachment to his ex-wife, whom he divorced five years ago, and their daughter. What sort of days did he have in those five years which are a blank to him? Ieji sets out on a journey to find his past self with a mysterious bunch of 10 keys that he has. He becomes aware that he was a cold, career-minded man before the accident, and the persona that is gradually revealed is beyond the imagination of his present kindhearted self.

    General
    Complete name                  : I'm Home ep08 (848x480 x264).mp4
    Format                         : MPEG-4
    Format profile                 : Base Media
    Codec ID                       : isom
    File size                      : 280 MiB
    Duration                       : 46mn 56s
    Overall bit rate mode          : Variable
    Overall bit rate               : 834 Kbps

    Video
    ID                             : 1
    Format                         : AVC
    Format/Info                    : Advanced Video Codec
    Format profile                 : High@L4.1
    Format settings, CABAC         : Yes
    Format settings, ReFrames      : 4 frames
    Codec ID                       : avc1
    Codec ID/Info                  : Advanced Video Coding
    Duration                       : 46mn 56s
    Bit rate                       : 702 Kbps
    Maximum bit rate               : 3 993 Kbps
    Width                          : 848 pixels
    Height                         : 480 pixels
    Display aspect ratio           : 16:9
    Frame rate mode                : Constant
    Frame rate                     : 29.970 fps
    Color space                    : YUV
    Chroma subsampling             : 4:2:0
    Bit depth                      : 8 bits
    Scan type                      : Progressive
    Bits/(Pixel*Frame)             : 0.058
    Stream size                    : 236 MiB (84%)

    Audio
    ID                             : 2
    Format                         : AAC
    Format/Info                    : Advanced Audio Codec
    Format profile                 : LC
    Codec ID                       : 40
    Duration                       : 46mn 56s
    Bit rate mode                  : Variable
    Bit rate                       : 128 Kbps
    Maximum bit rate               : 133 Kbps
    Channel count                  : 2 channels
    Channel positions              : Front: L R
    Sampling rate                  : 48.0 KHz
    Compression mode               : Lossy







    0 0

    Original Post: Let's.Eat.S2.E18.150602.HDTV.XviD-WITH

    http://thetvdb.com/?tab=series&id=275850
    Title: 식샤를 합시다 2 / Siksyareul Habsida 2
    Episodes: 18
    Broadcast period: 2015-Apr-06 to 2015-???-??
    Air time: Monday & Tuesday 23:00
    Original soundtrack: Let's Eat 2 OST


    Synopsis
    Goo Dae young’s rivals have appeared! Food blogger Goo Dae young, the fourth year freelancer, Bae Soo ji on one meal per day diet, who regards him as an enemy, and the vegetarian government worker, Lee Sang Woo. This drama depicts the spicy and tasteful lives of the single dwellers in Sejong Villa, who has each one’s own unique taste

    Cast
    Yoon Doo Joon as Goo Dae Young
    Seo Hyun Jin as Baek Soo Ji
    Kwon Yool as Lee Sang Woo
    Kim Hee Won as Im Taek Soo
    Hwang Seung Eon as Hwang Hye Rim
    Jo Eun Ji as Hong In Ah
    Hwang Suk Jung as Kim Mo Ran
    Lee Joo Seung as mysterious man









    Code
    Video
    ID                                       : 0
    Format                                   : MPEG-4 Visual
    Format profile                           : Advanced Simple@L5
    Format settings, BVOP                    : No
    Format settings, QPel                    : No
    Format settings, GMC                     : No warppoints
    Format settings, Matrix                  : Default (MPEG)
    Codec ID                                 : XVID
    Codec ID/Hint                            : XviD
    Bit rate                                 : 1 391 Kbps
    Width                                    : 624 pixels
    Height                                   : 352 pixels
    Display aspect ratio                     : 16:9
    Frame rate                               : 29.970 fps
    Color space                              : YUV
    Chroma subsampling                       : 4:2:0
    Bit depth                                : 8 bits
    Scan type                                : Progressive
    Compression mode                         : Lossy
    Bits/(Pixel*Frame)                       : 0.211
    Stream size                              : 660 MiB (87%)
    Writing library                          : XviD 1.2.1 (UTC 2008-12-04)

    Audio
    ID                                       : 1
    Format                                   : MPEG Audio
    Format version                           : Version 1
    Format profile                           : Layer 3
    Mode                                     : Joint stereo
    Mode extension                           : MS Stereo
    Codec ID                                 : 55
    Codec ID/Hint                            : MP3
    Bit rate mode                            : Constant
    Bit rate                                 : 128 Kbps
    Channel(s)                               : 2 channels
    Sampling rate                            : 48.0 KHz
    Compression mode                         : Lossy
    Stream size                              : 60.8 MiB (8%)
    Alignment                                : Aligned on interleaves
    Writing library                          : LAME3.98.2



older | 1 | .... | 1361 | 1362 | (Page 1363) | 1364 | 1365 | .... | 1405 | newer