Are you the publisher? Claim or contact us about this channel


Embed this content in your HTML

Search

Report adult content:

click to rate:

Account: (login)

More Channels


Showcase


Channel Catalog


Channel Description:

Asia Torrents RSS Feed

older | 1 | .... | 1364 | 1365 | (Page 1366) | 1367 | 1368 | .... | 1405 | newer

    0 0

    Original Post: Ex-Girlfriend's.Club.E10.150606.HDTV.XviD-WITH

    http://thetvdb.com/index.php?tab=series&id=294484
    Details
    Title: 구여친클럽 / Guyeochinkeulleob
    Genre: Romance, Comedy
    Episodes: TBA
    Broadcast network: tvN
    Broadcast period: 2015-May-8 to TBA
    Air time: Friday & Saturday 20:30
    Original Soundtrack: Ex-Girlfriend Club OST
    Synopsis
    The story centered around a famous webtoon writer named Bang Myung Soo (Byun Yo Han) that write webtoon based on his past relationship with all his ex-girlfriends. Kim Soo Jin (Song Ji Hyo) is a producer who is assigned to make his webtoon into a movie.

    Cast
    Song Ji Hyo as Kim Soo Jin (32)
    Byun Yo Han as Bang Myung Soo (32)
    Lee Yoon Ji as Jang Hwa Young (31, Myung Soo's first love)
    Jang Ji Eun (장지은) as Na Ji Ah (34, Myung Soo's second love)
    Ryu Hwa Young as Ra Ra (27, Myung Soo's third love)






    Code
    Video
    ID                                       : 0
    Format                                   : MPEG-4 Visual
    Format profile                           : Advanced Simple@L5
    Format settings, BVOP                    : 2
    Format settings, QPel                    : No
    Format settings, GMC                     : No warppoints
    Format settings, Matrix                  : Default (H.263)
    Muxing mode                              : Packed bitstream
    Codec ID                                 : XVID
    Codec ID/Hint                            : XviD
    Duration                                 : 58mn 22s
    Bit rate                                 : 1 239 Kbps
    Width                                    : 640 pixels
    Height                                   : 352 pixels
    Display aspect ratio                     : 16:9
    Frame rate                               : 29.970 fps
    Color space                              : YUV
    Chroma subsampling                       : 4:2:0
    Bit depth                                : 8 bits
    Scan type                                : Progressive
    Compression mode                         : Lossy
    Bits/(Pixel*Frame)                       : 0.184
    Stream size                              : 517 MiB (90%)
    Writing library                          : XviD 58

    Audio
    ID                                       : 1
    Format                                   : MPEG Audio
    Format version                           : Version 1
    Format profile                           : Layer 3
    Mode                                     : Joint stereo
    Mode extension                           : MS Stereo
    Codec ID                                 : 55
    Codec ID/Hint                            : MP3
    Duration                                 : 58mn 22s
    Bit rate mode                            : Constant
    Bit rate                                 : 128 Kbps
    Channel(s)                               : 2 channels
    Sampling rate                            : 48.0 KHz
    Compression mode                         : Lossy
    Stream size                              : 53.4 MiB (9%)
    Alignment                                : Aligned on interleaves
    Interleave, duration                     : 33 ms (1.00 video frame)
    Interleave, preload duration             : 504 ms



    0 0

    Original Post: Ex-Girlfriend's.Club.E10.150606.HDTV.H264.720p-WITH

    http://thetvdb.com/index.php?tab=series&id=294484
    Details
    Title: 구여친클럽 / Guyeochinkeulleob
    Genre: Romance, Comedy
    Episodes: TBA
    Broadcast network: tvN
    Broadcast period: 2015-May-8 to TBA
    Air time: Friday & Saturday 20:30
    Original Soundtrack: Ex-Girlfriend Club OST
    Synopsis
    The story centered around a famous webtoon writer named Bang Myung Soo (Byun Yo Han) that write webtoon based on his past relationship with all his ex-girlfriends. Kim Soo Jin (Song Ji Hyo) is a producer who is assigned to make his webtoon into a movie.

    Cast
    Song Ji Hyo as Kim Soo Jin (32)
    Byun Yo Han as Bang Myung Soo (32)
    Lee Yoon Ji as Jang Hwa Young (31, Myung Soo's first love)
    Jang Ji Eun (장지은) as Na Ji Ah (34, Myung Soo's second love)
    Ryu Hwa Young as Ra Ra (27, Myung Soo's third love)






    Code
    Video
    ID                                       : 1
    Format                                   : AVC
    Format/Info                              : Advanced Video Codec
    Format profile                           : Baseline@L1.3
    Format settings, CABAC                   : No
    Format settings, ReFrames                : 1 frame
    Codec ID                                 : avc1
    Codec ID/Info                            : Advanced Video Coding
    Duration                                 : 58mn 22s
    Bit rate                                 : 2 200 Kbps
    Maximum bit rate                         : 5 302 Kbps
    Width                                    : 1 280 pixels
    Height                                   : 720 pixels
    Display aspect ratio                     : 16:9
    Frame rate mode                          : Constant
    Frame rate                               : 29.970 fps
    Color space                              : YUV
    Chroma subsampling                       : 4:2:0
    Bit depth                                : 8 bits
    Scan type                                : Progressive
    Bits/(Pixel*Frame)                       : 0.080
    Stream size                              : 922 MiB (90%)
    Writing library                          : x264 core 128 r2216 198a7ea
    Encoding settings                        : cabac=0 / ref=1 / deblock=1:0:0 / analyse=0x1:0x111 / me=hex / subme=7 / psy=1 / psy_rd=1.00:0.00 / mixed_ref=0 / me_range=16 / chroma_me=1 / trellis=1 / 8x8dct=0 / cqm=0 / deadzone=21,11 / fast_pskip=1 / chroma_qp_offset=-2 / threads=12 / lookahead_threads=2 / sliced_threads=0 / nr=0 / decimate=1 / interlaced=0 / bluray_compat=0 / constrained_intra=0 / bframes=0 / weightp=0 / keyint=250 / keyint_min=25 / scenecut=40 / intra_refresh=0 / rc_lookahead=40 / rc=abr / mbtree=1 / bitrate=2200 / ratetol=1.0 / qcomp=0.60 / qpmin=0 / qpmax=69 / qpstep=4 / vbv_maxrate=50000 / vbv_bufsize=50000 / nal_hrd=none / ip_ratio=1.40 / aq=1:1.00
    Encoded date                             : UTC 2015-05-08 12:47:49
    Tagged date                              : UTC 2015-05-08 12:52:53

    Audio
    ID                                       : 2
    Format                                   : AAC
    Format/Info                              : Advanced Audio Codec
    Format profile                           : LC
    Codec ID                                 : 40
    Duration                                 : 58mn 22s
    Bit rate mode                            : Variable
    Bit rate                                 : 256 Kbps
    Maximum bit rate                         : 262 Kbps
    Channel(s)                               : 2 channels
    Channel positions                        : Front: L R
    Sampling rate                            : 48.0 KHz
    Compression mode                         : Lossy
    Stream size                              : 107 MiB (10%)
    Encoded date                             : UTC 2015-05-08 12:52:48
    Tagged date                              : UTC 2015-05-08 12:52:53



    0 0

    Original Post: My.Love.Eun.Dong.E04.150606.HDTV.XviD-WITH

    http://thetvdb.com/index.php?tab=series&id=296108
    Subtitles will be added later

    The story of Eun-Ho, a man who has it all, but the love of Eun-Dong, the woman whom he has been loving for the past 20 years,, unable to forget her.






    Code
    Video
    ID                                       : 0
    Format                                   : MPEG-4 Visual
    Format profile                           : Advanced Simple@L5
    Format settings, BVOP                    : 2
    Format settings, QPel                    : No
    Format settings, GMC                     : No warppoints
    Format settings, Matrix                  : Default (H.263)
    Muxing mode                              : Packed bitstream
    Codec ID                                 : XVID
    Codec ID/Hint                            : XviD
    Duration                                 : 1h 2mn
    Bit rate                                 : 1 237 Kbps
    Width                                    : 640 pixels
    Height                                   : 352 pixels
    Display aspect ratio                     : 16:9
    Frame rate                               : 29.970 fps
    Color space                              : YUV
    Chroma subsampling                       : 4:2:0
    Bit depth                                : 8 bits
    Scan type                                : Progressive
    Compression mode                         : Lossy
    Bits/(Pixel*Frame)                       : 0.183
    Stream size                              : 550 MiB (90%)
    Writing library                          : XviD 58

    Audio
    ID                                       : 1
    Format                                   : MPEG Audio
    Format version                           : Version 1
    Format profile                           : Layer 3
    Mode                                     : Joint stereo
    Mode extension                           : MS Stereo
    Codec ID                                 : 55
    Codec ID/Hint                            : MP3
    Duration                                 : 1h 2mn
    Bit rate mode                            : Constant
    Bit rate                                 : 128 Kbps
    Channel(s)                               : 2 channels
    Sampling rate                            : 48.0 KHz
    Compression mode                         : Lossy
    Stream size                              : 56.9 MiB (9%)
    Alignment                                : Aligned on interleaves
    Interleave, duration                     : 33 ms (1.00 video frame)
    Interleave, preload duration             : 504 ms



    0 0

    Original Post: My.Love.Eun.Dong.E04.150606.HDTV.H264.720p-WITH

    http://thetvdb.com/index.php?tab=series&id=296108
    Subtitles will be added later

    The story of Eun-Ho, a man who has it all, but the love of Eun-Dong, the woman whom he has been loving for the past 20 years,, unable to forget her.






    Code
    Video
    ID                                       : 1
    Format                                   : AVC
    Format/Info                              : Advanced Video Codec
    Format profile                           : Baseline@L1.3
    Format settings, CABAC                   : No
    Format settings, ReFrames                : 1 frame
    Codec ID                                 : avc1
    Codec ID/Info                            : Advanced Video Coding
    Duration                                 : 1h 3mn
    Bit rate                                 : 2 200 Kbps
    Maximum bit rate                         : 6 012 Kbps
    Width                                    : 1 280 pixels
    Height                                   : 720 pixels
    Display aspect ratio                     : 16:9
    Frame rate mode                          : Constant
    Frame rate                               : 29.970 fps
    Color space                              : YUV
    Chroma subsampling                       : 4:2:0
    Bit depth                                : 8 bits
    Scan type                                : Progressive
    Bits/(Pixel*Frame)                       : 0.080
    Stream size                              : 1 018 MiB (90%)
    Writing library                          : x264 core 128 r2216 198a7ea
    Encoding settings                        : cabac=0 / ref=1 / deblock=1:0:0 / analyse=0x1:0x111 / me=hex / subme=7 / psy=1 / psy_rd=1.00:0.00 / mixed_ref=0 / me_range=16 / chroma_me=1 / trellis=1 / 8x8dct=0 / cqm=0 / deadzone=21,11 / fast_pskip=1 / chroma_qp_offset=-2 / threads=12 / lookahead_threads=2 / sliced_threads=0 / nr=0 / decimate=1 / interlaced=0 / bluray_compat=0 / constrained_intra=0 / bframes=0 / weightp=0 / keyint=250 / keyint_min=25 / scenecut=40 / intra_refresh=0 / rc_lookahead=40 / rc=abr / mbtree=1 / bitrate=2200 / ratetol=1.0 / qcomp=0.60 / qpmin=0 / qpmax=69 / qpstep=4 / vbv_maxrate=50000 / vbv_bufsize=50000 / nal_hrd=none / ip_ratio=1.40 / aq=1:1.00


    Audio
    ID                                       : 2
    Format                                   : AAC
    Format/Info                              : Advanced Audio Codec
    Format profile                           : LC
    Codec ID                                 : 40
    Duration                                 : 1h 3mn
    Bit rate mode                            : Variable
    Bit rate                                 : 256 Kbps
    Maximum bit rate                         : 262 Kbps
    Channel(s)                               : 2 channels
    Channel positions                        : Front: L R
    Sampling rate                            : 48.0 KHz
    Compression mode                         : Lossy
    Stream size                              : 117 MiB (10%)



    0 0

    Original Post: Sanbiki no Ossan 2 EP03 720p HDTV x264 AAC-DoA

    Title: Sanbiki no Ossan Season 2 ~ Seigi no Mikata, Futatabi!
    Date: From 7.58 p.m., Fridays, 24 April 2015
    Station: TV Tokyo
    Scriptwriters: Sato Kumiko (Kagi no Nai Yume o Miru, Ousama no Ie, Scrap Teacher), Shimizu Shiori
    Original Work: Sanbiki no Ossan by Arikawa Hiro
    Genre: Comedy
    Subtitles: English - Candylemon 
    RAW credit to DoA


    Cast

       Kitaoji Kinya as Kinya Kitaoji
       Izumiya Shigeru as Tachibana Shigeo
       Shiga Kotaro as Arimura Norio
       Ohno Takuro as Kiyota Yuki
       Mine Azusa as Arimura Sanae
       Nakada Yoshiko as Kiyota Yoshie
       Nishida Naomi as Kiyota Takako
       Komoto Masahiro as Kiyota Kenji


    Synopsis

    One year after the end of Season 1, Kiyo, Shige and Nori are still doing night patrols, keeping the town safe from bag-snatchers, molesters and…a ghost? Meanwhile, Yūki and Sanae are starting university and still trying to get time together away from Nori.


    Mediainfo
    Spoiler:show

    Code
    Format                                   : Matroska
    Format version                           : Version 4 / Version 2
    File size                                : 1.88 GiB
    Duration                                 : 47mn 54s
    Overall bit rate                         : 5 612 Kbps
    Encoded date                             : UTC 2015-06-04 01:34:38
    Writing application                      : mkvmerge v7.9.0 ('Birds') 64bit
    Writing library                          : libebml v1.3.1 + libmatroska v1.4.2
    DURATION                                 : 00:47:54.837000000
    NUMBER_OF_FRAMES                         : 134758
    NUMBER_OF_BYTES                          : 59172237
    _STATISTICS_WRITING_APP                  : mkvmerge v7.9.0 ('Birds') 64bit
    _STATISTICS_WRITING_DATE_UTC             : 2015-06-04 01:34:38
    _STATISTICS_TAGS                         : BPS DURATION NUMBER_OF_FRAMES NUMBER_OF_BYTES

    Video
    ID                                       : 1
    Format                                   : AVC
    Format/Info                              : Advanced Video Codec
    Format profile                           : High@L4.1
    Format settings, CABAC                   : Yes
    Format settings, ReFrames                : 9 frames
    Codec ID                                 : V_MPEG4/ISO/AVC
    Duration                                 : 47mn 54s
    Width                                    : 1 280 pixels
    Height                                   : 720 pixels
    Display aspect ratio                     : 16:9
    Frame rate mode                          : Constant
    Frame rate                               : 29.970 fps
    Color space                              : YUV
    Chroma subsampling                       : 4:2:0
    Bit depth                                : 8 bits
    Scan type                                : Progressive
    Writing library                          : x264 core 146 r2538kMod 121396c
    Encoding settings                        : cabac=1 / ref=9 / deblock=1:-3:-3 / analyse=0x3:0x133 / me=umh / subme=10 / psy=1 / fade_compensate=0.00 / psy_rd=1.00:0.15 / mixed_ref=1 / me_range=64 / chroma_me=1 / trellis=2 / 8x8dct=1 / cqm=0 / deadzone=21,11 / fast_pskip=0 / chroma_qp_offset=-3 / threads=12 / lookahead_threads=2 / sliced_threads=0 / nr=0 / decimate=1 / interlaced=0 / bluray_compat=0 / constrained_intra=0 / fgo=0 / bframes=8 / b_pyramid=2 / b_adapt=2 / b_bias=0 / direct=3 / weightb=1 / open_gop=0 / weightp=2 / keyint=300 / keyint_min=29 / scenecut=40 / intra_refresh=0 / rc_lookahead=120 / rc=crf / mbtree=1 / crf=18.0000 / qcomp=0.60 / qpmin=0 / qpmax=69 / qpstep=4 / ip_ratio=1.40 / aq=3:1.00
    Default                                  : Yes
    Forced                                   : No

    Audio
    ID                                       : 2
    Format                                   : AAC
    Format/Info                              : Advanced Audio Codec
    Format profile                           : LC
    Codec ID                                 : A_AAC
    Duration                                 : 47mn 54s
    Channel(s)                               : 2 channels
    Channel positions                        : Front: L R
    Sampling rate                            : 48.0 KHz
    Compression mode                         : Lossy
    Delay relative to video                  : 20ms
    Default                                  : Yes
    Forced                                   : No








    Further episodes of any drama will only be released from 13/6 1900 GMT+8 onwards as i will not be home from 9/6


    0 0

    Original Post: LIVING ADV「STEINS;GATE」(No English Subs)

    NO ENGLISH SUBS, CHINESE .ASS ONLY!!!

    Title: LIVING ADV「STEINS;GATE」
    Director: Daisuke Nishida
    Release Date: 2014/04/13
    Runtime: 677 min.
    Genre: Sci-Fi/Stage
    Language: Japanese
    Country: Japan
    Subtitles: Chinese

    It sounds like LIVING ADV「STEINS;GATE」is an adaption of every plot line in the visual novel into 6 plays filmed plays. Information is pretty scarce. There's also some interviews and behind the scene stuff that have no subs. I got this from a Chinese site so I'm not 100% sure what is here. The subs are properly timed so all that is needed is someone to go in and translate everything (which is some 8000 lines, no pressure).

    Plot: No idea, I'm guessing it's Steins;Gate which was

    :
    The eccentric mad scientist Okabe, his childhood friend Mayuri, and the otaku hacker Daru have banded together to form the "Future Gadget Research Laboratory," and spend their days in a ramshackle laboratory hanging out and occasionally attempting to invent incredible futuristic gadgets. However, their claymore is a hydrator and their hair dryer flips breakers, and the only invention that's even remotely interesting is their Phone Microwave, which transforms bananas into oozing green gel. But when an experiment goes awry, the gang discovers that the Phone Microwave can also send text messages to the past. And what's more, the words they send can affect the flow of time and have unforeseen, far-reaching consequences—consequences that Okabe may not be able to handle...



    Enjoy






    Code
    General
    Complete name                            : C:WHATTTTLIVING ADV「STEINS;GATE」LIVING ADV「STEINS;GATE」SG篇.mp4
    Format                                   : MPEG-4
    Format profile                           : Base Media
    Codec ID                                 : isom
    File size                                : 1.99 GiB
    Duration                                 : 1h 49mn
    Overall bit rate mode                    : Variable
    Overall bit rate                         : 2 607 Kbps
    Encoded date                             : UTC 1970-01-01 00:00:00
    Tagged date                              : UTC 1970-01-01 00:00:00

    Video
    ID                                       : 1
    Format                                   : AVC
    Format/Info                              : Advanced Video Codec
    Format profile                           : Baseline@L3
    Format settings, CABAC                   : No
    Format settings, ReFrames                : 1 frame
    Codec ID                                 : avc1
    Codec ID/Info                            : Advanced Video Coding
    Duration                                 : 1h 49mn
    Bit rate mode                            : Constant
    Bit rate                                 : 1 950 Kbps
    Width                                    : 720 pixels
    Height                                   : 480 pixels
    Display aspect ratio                     : 16:9
    Frame rate                               : 24.000 fps
    Color space                              : YUV
    Chroma subsampling                       : 4:2:0
    Bit depth                                : 8 bits
    Scan type                                : Progressive
    Bits/(Pixel*Frame)                       : 0.235
    Stream size                              : 1.86 GiB (93%)
    Encoded date                             : UTC 1970-01-01 00:00:00
    Tagged date                              : UTC 1970-01-01 00:00:00

    Audio
    ID                                       : 2
    Format                                   : AAC
    Format/Info                              : Advanced Audio Codec
    Format profile                           : LC
    Codec ID                                 : 40
    Duration                                 : 1h 49mn
    Duration_LastFrame                       : -21ms
    Bit rate mode                            : Variable
    Bit rate                                 : 165 Kbps
    Channel(s)                               : 2 channels
    Channel positions                        : Front: L R
    Sampling rate                            : 48.0 KHz
    Compression mode                         : Lossy
    Stream size                              : 129 MiB (6%)
    Encoded date                             : UTC 1970-01-01 00:00:00
    Tagged date                              : UTC 1970-01-01 00:00:00




    0 0

    Original Post: From Vegas to Macau II 2015 1080p BluRay AVC TrueHD 7.1



    Detail:
    Title: From Vegas to Macau II
    Genre: Action, Comedy
    Release Date: 19 February 2015
    Runtime: 109 min
    Director: Jing Wong
    Rating: 5.2/10 from 167 users
    Country: Hong Kong
    Language: Mandarin, Cantonese
    Subtitles: Chinese, English

    Synopsis:
    Following his confrontation with the nefarious DOA organization, Ken is looking forward to going back to enjoying his retirement. His rest is cut abruptly short when his protégé Vincent, who‘s now working for Interpol, asks for Ken‘s help in taking down the real mastermind behind DOA, Aoi.

    Cast:
    Nick Cheung, Yun-Fat Chow, Daniel Garcia

    http://www.imdb.com/title/tt4310772/

    DISC INFO:

    Disc Title:     From.Vegas.to Macau.II.2015.CHINESE.1080p.BluRay.AVC.TrueHD.7.1
    Disc Size:      24,937,096,326 bytes
    Protection:     AACS
    BD-Java:        No
    BDInfo:         0.5.8

    PLAYLIST REPORT:

    Name:                   00001.MPLS
    Length:                 1:50:14.541 (h:m:s.ms)
    Size:                   23,868,942,336 bytes
    Total Bitrate:          28.87 Mbps

    VIDEO:

    Codec                   Bitrate             Description    
    -----                   -------             -----------    
    MPEG-4 AVC Video        18336 kbps          1080p / 24 fps / 16:9 / High Profile 4.1

    AUDIO:

    Codec                           Language        Bitrate         Description    
    -----                           --------        -------         -----------    
    Dolby TrueHD Audio              Chinese         2397 kbps       7.1 / 48 kHz / 2397 kbps / 16-bit
    (AC3 Embedded: 5.1-EX / 48 kHz / 640 kbps)
    Dolby TrueHD Audio              Chinese         2388 kbps       7.1 / 48 kHz / 2388 kbps / 16-bit
    (AC3 Embedded: 5.1-EX / 48 kHz / 640 kbps)
    Dolby Digital Audio             Chinese         384 kbps        2.0 / 48 kHz / 384 kbps
    Dolby Digital Audio             Chinese         384 kbps        2.0 / 48 kHz / 384 kbps

    SUBTITLES:

    Codec                           Language        Bitrate         Description    
    -----                           --------        -------         -----------    
    Presentation Graphics           Chinese         29.959 kbps                    
    Presentation Graphics           Chinese         29.453 kbps                    
    Presentation Graphics           English         40.060 kbps



    0 0

    Original Post: Nobunaga's Coffin AKA Nobunaga no hitsugi (2006) [EngHardSub] DVDrip


    Nobunaga's Coffin AKA Nobunaga no hitsugi (2006)





    INFO:

    Year:            2006
    Color:           Color
    Directed:        INOUE Taiji
    Genre:           Jidaigeki
    Runtime:         122 min
    Country:         Japan
    Language:        Japanese
    Subtitles:       English HardCoded Subs


    CAST:

    MATSUMOTO Koshiro, NAKAMURA Baijaku, KATASE Rina, NATSUYAGI Isao, MATSUOKA Masahiro


    PLOT:

    Planning to conquer the nation, Oda Nobunaga built Azuchi Castle which had Japan's first multi-storied central tower. For the next 3 years, he sent his men into various lands to subdue the country.

    Because one of his vassals, Hashiba Hideyoshi, had difficulty in taking Takamatsu Castle in Bichu-no-kuni, he sent Akechi Mitushide out as reinforcement for Hideyoshi. At the same time Nobunaga decides to enter Kyoto. The day before his going into Kyoto, he calls his loyal vassal Ota Nobusada and tells him a secret. In addition he gives Nobusada five wooden boxes for safekeeping. Nobusada was famous for being loyal to Nobunaga to the point of idiocy and was called "Gyuichi" (the Cow).

    Nobunaga takes a handful of men and proceeds towards Kyoto. Early in the morning 2 days later, Gyuichi learns of Nobunaga's death at Honnoji Temple due to treachery. It was impossible for Nobunaga's small number of men including Mori Ranmaru to withstand Mitsuhide's forces and they were said to have perished in the temple fire. But the strange thing is, Nobunaga's remains could not be found.


    SPECS:Click to Show

    Spoiler:show
    ===================== General =====================
    Complete name               : Nobunaga's Coffin AKA Nobunaga no hitsugi (2006) [EngHardSub] DVDrip.mkv
    Format                      : Matroska
    File size                   : 1.59 GB
    Duration (ms)               : 2h 2mn
    Total bitrate               : 1 848 Kbps
    Encoded application         : HandBrake 0.10.1 2015030800
    Encoded library             : Lavf55.12.0

    ===================== Video =====================
    Id                          : 1
    Format                      : AVC
    Format info                 : Advanced Video Codec
    Format profile              : Main@L4.0
    Use of CABAC                : Yes
    RefFrames                   : 8 frames
    Muxing mode                 : Container profile=Unknown@4.0
    Codec Id                    : V_MPEG4/ISO/AVC
    Duration (ms)               : 2h 2mn
    Bitrate                     : 1 556 Kbps
    Width                       : 704 pixels
    Height                      : 386 pixels
    Aspect ratio                : 1.655
    DisplayAspectRatio_Original : 1.657
    Framerate mode              : Variable
    Framerate                   : 29.970 fps
    Colorimetry                 : YUV
    Colos space                 : 4:2:0
    Bit depth                   : 8 bits
    Scan type                   : Progressive
    Bits/(Pixel*Frame)          : 0.191
    Stream size                 : 1.34 GB (84%)
    Encoded library             : x264 core 142 r2479 dd79a61
    Encoded library settings    : cabac=1 / ref=8 / deblock=1:0:0 / analyse=0x1:0x131 / me=umh / subme=9 / psy=1 / psy_rd=1.00:0.00 / mixed_ref=1 / me_range=16 / chroma_me=1 / trellis=2 / 8x8dct=0 / cqm=0 / deadzone=21,11 / fast_pskip=1 / chroma_qp_offset=-2 / threads=9 / lookahead_threads=1 / sliced_threads=0 / nr=0 / decimate=1 / interlaced=0 / bluray_compat=0 / constrained_intra=0 / bframes=3 / b_pyramid=2 / b_adapt=2 / b_bias=0 / direct=3 / weightb=1 / open_gop=0 / weightp=2 / keyint=300 / keyint_min=30 / scenecut=40 / intra_refresh=0 / rc_lookahead=60 / rc=crf / mbtree=1 / crf=20.0 / qcomp=0.60 / qpmin=0 / qpmax=69 / qpstep=4 / vbv_maxrate=20000 / vbv_bufsize=25000 / crf_max=0.0 / nal_hrd=none / filler=0 / ip_ratio=1.40 / aq=1:1.00
    Language                    : English
    Color primaries             : BT.601-6 525, BT.1358 525, BT.1700 NTSC, SMPTE 170M
    Transfer characteristics    : BT.709-5, BT.1361
    Matrix coefficients         : BT.601-6 525, BT.1358 525, BT.1700 NTSC, SMPTE 170M

    ===================== Audio =====================
    Id                          : 2
    Format                      : AC-3
    Format info                 : Audio Coding 3
    Format settings mode extens : CM (complete main)
    Codec Id                    : A_AC3
    Duration (ms)               : 2h 2mn
    Bitrate mode                : Constant
    Bitrate                     : 256 Kbps
    Channel(s)                  : 2 channels
    ChannelPositions            : Front: L R
    Sampling rate               : 48.0 KHz
    Bit depth                   : 16 bits
    Stream size                 : 225 MB (14%)
    Title                       : Stereo
    Language                    : English
     

                     
    PICS:Click to Enlarge




    Check my profile for lots of jidaigeki uploads !




    0 0

    Original Post: Producer.E07.1080p.HDTV.x264.AC3-DoA

    http://thetvdb.com/?tab=series&id=294814

    Details
    Title: 프로듀사 / Peurodyusa
    Genre: Drama
    Episodes: 12
    Broadcast network: KBS2
    Broadcast period: 2015-May-15 to 2015-Jun-20
    Air time: Friday & Saturday 21:15
    Original Soundtrack: Producer OST

    Synopsis
    A group of young television producers — Ra Jun Mo (Cha Tae Hyun), Baek Sung Chan (Kim Soo Hyun), Tak Ye Ji (Gong Hyo Jin), and Cindy (IU) — work tirelessly around the clock within the entertainment division of a major broadcasting network. Amidst their dynamic and challenging workloads, serious drama reaches new heights in this backstage glimpse of the people who make television magic happen.

    Main Cast
    Cha Tae Hyun as Ra Joon Mo (35, 2 Days & 1 Night's PD)
    Kim Soo Hyun as Baek Seung Chan (27, KBS Entertainment World newbie PD)
    Gong Hyo Jin as Tak Ye Jin (35, Music Bank's PD)
    IU as Cindy (23, singer)














    Code
    General
    Unique ID                                : 172853948944709059210055714904118599849 (0x820A75AA2B363613994189A0009720A9)
    Complete name                            : Producer.E07.1080p.HDTV.x264.AC3-DoA.mkv
    Format                                   : Matroska
    Format version                           : Version 4 / Version 2
    File size                                : 3.73 GiB
    Duration                                 : 1h 21mn
    Overall bit rate                         : 6 527 Kbps
    Movie name                               : Producer.E07.1080p.HDTV.x264.AC3-DoA
    Encoded date                             : UTC 2015-06-06 05:46:04
    Writing application                      : mkvmerge v6.8.0 ('Theme for Great Cities') 64bit built on Mar  2 2014 21:34:26
    Writing library                          : libebml v1.3.0 + libmatroska v1.4.1

    Video
    ID                                       : 1
    Format                                   : AVC
    Format/Info                              : Advanced Video Codec
    Format profile                           : High@L4.1
    Format settings, CABAC                   : Yes
    Format settings, ReFrames                : 4 frames
    Codec ID                                 : V_MPEG4/ISO/AVC
    Duration                                 : 1h 21mn
    Bit rate                                 : 6 141 Kbps
    Width                                    : 1 920 pixels
    Height                                   : 1 080 pixels
    Display aspect ratio                     : 16:9
    Frame rate                               : 29.970 fps
    Color space                              : YUV
    Chroma subsampling                       : 4:2:0
    Bit depth                                : 8 bits
    Scan type                                : Progressive
    Bits/(Pixel*Frame)                       : 0.099
    Stream size                              : 3.44 GiB (92%)
    Title                                    : Encode by DoA
    Writing library                          : x264 core 146 r2538 121396c
    Encoding settings                        : cabac=1 / ref=4 / deblock=1:-1:-1 / analyse=0x3:0x133 / me=umh / subme=10 / psy=1 / psy_rd=1.00:0.15 / mixed_ref=1 / me_range=48 / chroma_me=1 / trellis=2 / 8x8dct=1 / cqm=0 / deadzone=21,11 / fast_pskip=0 / chroma_qp_offset=-3 / threads=6 / lookahead_threads=1 / sliced_threads=0 / nr=0 / decimate=1 / interlaced=0 / bluray_compat=0 / constrained_intra=0 / bframes=8 / b_pyramid=2 / b_adapt=2 / b_bias=0 / direct=3 / weightb=1 / open_gop=0 / weightp=2 / keyint=300 / keyint_min=29 / scenecut=40 / intra_refresh=0 / rc_lookahead=60 / rc=2pass / mbtree=1 / bitrate=6141 / ratetol=1.0 / qcomp=0.60 / qpmin=0 / qpmax=69 / qpstep=4 / cplxblur=20.0 / qblur=0.5 / ip_ratio=1.40 / aq=1:1.00
    Default                                  : Yes
    Forced                                   : No

    Audio
    ID                                       : 2
    Format                                   : AC-3
    Format/Info                              : Audio Coding 3
    Mode extension                           : CM (complete main)
    Format settings, Endianness              : Big
    Codec ID                                 : A_AC3
    Duration                                 : 1h 21mn
    Bit rate mode                            : Constant
    Bit rate                                 : 384 Kbps
    Channel(s)                               : 2 channels
    Channel positions                        : Front: L R
    Sampling rate                            : 48.0 KHz
    Bit depth                                : 16 bits
    Compression mode                         : Lossy
    Delay relative to video                  : 27ms
    Stream size                              : 225 MiB (6%)
    Language                                 : Korean
    Default                                  : Yes
    Forced                                   : No



    0 0

    Original Post: Renai Jidai EP10 720p HDTV x264 AAC DoA

    Title (romaji): Renai Jidai
    Format: Renzoku
    Genre: Romance
    Episodes: TBD
    Broadcast network: NTV / YTV
    Broadcast period: 2015-Apr-02 start
    Air time: Thursday 23:59
    Theme song: Arigatou Forever... by Nishiuchi Mariya
    Subtitles: English - sakotea
    RAW credit to DoA

     
    Cast

       Higa Manami as Eto Haru
       Mitsushima Shinnosuke as Hayase Riichiro
       Satsukawa Aimi as Ogasawara Kasumi
       Fuchikami Yasushi (淵上泰史) as Nagatomi Shohei
       Nakao Akiyoshi as Kaieda Mamoru
       Eguchi Noriko as Aramaki Sayuri
       Matsukawa Akari (松川星) as Eto Shizuka
       Yokoyama Mei (横山芽生) as Ogasawara Aya
       Oishi Goro as Eto Ginichi
       Kashii Yu as Oda Tamiko
       Sato Ryuta as Kitajima Ryuichi


    Synopsis

    Haru Eto (Manami Higa) works at a sports gym and Riichiro Hayase (Shinnosuke Mitsushima) works at a book store. After a fateful meeting, they eventually marry, but, due to a reason, they divorce only a year and a half later. Even after their divorce, the couple continue to see each other. On their wedding anniversary they have dinner together. Due to a petty quarrel, they begin to search for a potential spouse for each other.

    Mediainfo
    Spoiler:show

    Code
    Format                                   : Matroska
    Format version                           : Version 4 / Version 2
    File size                                : 753 MiB
    Duration                                 : 42mn 59s
    Overall bit rate                         : 2 448 Kbps
    Movie name                               : 恋愛時代 #10 720p HDTV x264 AAC-DoA
    Encoded date                             : UTC 2015-06-05 02:18:42
    Writing application                      : mkvmerge v7.8.0 ('River Man') 64bit built on Mar 27 2015 16:31:37
    Writing library                          : libebml v1.3.1 + libmatroska v1.4.2
    DURATION                                 : 00:42:59.157000000
    NUMBER_OF_FRAMES                         : 120898
    NUMBER_OF_BYTES                          : 60811658
    _STATISTICS_WRITING_APP                  : mkvmerge v7.8.0 ('River Man') 64bit built on Mar 27 2015 16:31:37
    _STATISTICS_WRITING_DATE_UTC             : 2015-06-05 02:18:42
    _STATISTICS_TAGS                         : BPS DURATION NUMBER_OF_FRAMES NUMBER_OF_BYTES

    Video
    ID                                       : 1
    Format                                   : AVC
    Format/Info                              : Advanced Video Codec
    Format profile                           : High@L4.1
    Format settings, CABAC                   : Yes
    Format settings, ReFrames                : 9 frames
    Codec ID                                 : V_MPEG4/ISO/AVC
    Duration                                 : 42mn 59s
    Width                                    : 1 280 pixels
    Height                                   : 720 pixels
    Display aspect ratio                     : 16:9
    Frame rate mode                          : Constant
    Frame rate                               : 29.970 fps
    Color space                              : YUV
    Chroma subsampling                       : 4:2:0
    Bit depth                                : 8 bits
    Scan type                                : Progressive
    Title                                    : Encode by DoA
    Writing library                          : x264 core 130 r2273 b3065e6
    Encoding settings                        : cabac=1 / ref=9 / deblock=1:-2:-2 / analyse=0x3:0x133 / me=umh / subme=10 / psy=1 / psy_rd=1.00:0.15 / mixed_ref=1 / me_range=48 / chroma_me=1 / trellis=2 / 8x8dct=1 / cqm=0 / deadzone=21,11 / fast_pskip=0 / chroma_qp_offset=-3 / threads=12 / lookahead_threads=2 / sliced_threads=0 / nr=0 / decimate=1 / interlaced=0 / bluray_compat=0 / constrained_intra=0 / bframes=8 / b_pyramid=2 / b_adapt=2 / b_bias=0 / direct=3 / weightb=1 / open_gop=0 / weightp=2 / keyint=300 / keyint_min=29 / scenecut=40 / intra_refresh=0 / rc_lookahead=60 / rc=crf / mbtree=1 / crf=18.0 / qcomp=0.60 / qpmin=0 / qpmax=69 / qpstep=4 / ip_ratio=1.40 / aq=1:1.00
    Language                                 : Japanese
    Default                                  : Yes
    Forced                                   : No
    DURATION                                 : 00:42:59.577000000
    NUMBER_OF_FRAMES                         : 77310
    NUMBER_OF_BYTES                          : 727691597
    _STATISTICS_WRITING_APP                  : mkvmerge v7.8.0 ('River Man') 64bit built on Mar 27 2015 16:31:37
    _STATISTICS_WRITING_DATE_UTC             : 2015-06-05 02:18:42
    _STATISTICS_TAGS                         : BPS DURATION NUMBER_OF_FRAMES NUMBER_OF_BYTES

    Audio
    ID                                       : 2
    Format                                   : AAC
    Format/Info                              : Advanced Audio Codec
    Format profile                           : LC
    Codec ID                                 : A_AAC
    Duration                                 : 42mn 59s
    Channel(s)                               : 2 channels
    Channel positions                        : Front: L R
    Sampling rate                            : 48.0 KHz
    Compression mode                         : Lossy
    Delay relative to video                  : 7ms
    Language                                 : Japanese
    Default                                  : Yes
    Forced                                   : No

    Menu
    00:00:00.000                             : ja:恋愛時代 #10 Part 1
    00:04:49.956                             : ja:オープニング
    00:05:01.901                             : ja:恋愛時代 #10 Part 2
    00:17:35.988                             : ja:提供
    00:17:40.926                             : ja:恋愛時代 #10 Part 3
    00:24:46.818                             : ja:恋愛時代 #10 Part 4
    00:36:01.692                             : ja:恋愛時代 #10 Part 5
    00:40:47.611                             : ja:恋愛時代 #10 Part 6
    00:42:39.590                             : ja:次回予告








    Further episodes of any drama will only be released from 13/6 1900 GMT+8 onwards as i will not be home from 9/6


    0 0

    Original Post: Kokoro ga Pokitto ne EP09 720p HDTV x264 AAC DoA

    Title (romaji): Kokoro ga Pokitto ne
    Also known as: Crazy for Me
    Format: Renzoku
    Genre: Love comedy
    Episodes: TBD
    Broadcast network: Fuji TV
    Broadcast period: 2015-Apr-08 start
    Air time: Wednesday 22:00
    Theme song: SUN by Hoshino Gen
    Subtitles: English
    RAW credit to DoA


    Cast

    Abe Sadao as Kojima Haruta
    Mizuhara Kiko as Hayama Miyako
    Fujiki Naohito as Otake Shin
    Yamaguchi Tomoko as Kamoda Shizuka
    Tokunaga Eri as Itoyama Fumi
    Yamashita Rio as Makino Eriko
    Nagase Tasuku
    Ikezu Shoko
    Yamanishi Atsushi (山西惇)


    Synopsis

    Set in Tokyo, the story follows Kojima Haruta, a 40-year-old man who hits the rock bottom as he fell mentally ill which led him to lose his job, family, and even a place to live. After a certain turn of events, Haruta encounters Otake Shin, the owner of an antique furniture shop who takes Haruta in and hires him as a furniture repairman in the shop. Touched by such kindness, Haruta promised himself to try to put his life back together but kept himself isolated in order to avoid any additional stress being created. However, things suddenly starts to change as Haruta encounters Hayama Miyako, a 26-year-old woman who has a tendency to become overly dependent and extremely obsessed with a man she falls in love with... -- Fuji TV


    Mediainfo
    Spoiler:show

    Code
    Format                                   : Matroska
    Format version                           : Version 4 / Version 2
    File size                                : 1.27 GiB
    Duration                                 : 46mn 24s
    Overall bit rate                         : 3 930 Kbps
    Movie name                               : 心がポキッとね 第9回 720p HDTV x264 AAC-DoA
    Encoded date                             : UTC 2015-06-04 21:30:54
    Writing application                      : mkvmerge v7.9.0 ('Birds') 64bit
    Writing library                          : libebml v1.3.1 + libmatroska v1.4.2
    DURATION                                 : 00:46:24.874000000
    NUMBER_OF_FRAMES                         : 130541
    NUMBER_OF_BYTES                          : 65662123
    _STATISTICS_WRITING_APP                  : mkvmerge v7.9.0 ('Birds') 64bit
    _STATISTICS_WRITING_DATE_UTC             : 2015-06-04 21:30:54
    _STATISTICS_TAGS                         : BPS DURATION NUMBER_OF_FRAMES NUMBER_OF_BYTES

    Video
    ID                                       : 1
    Format                                   : AVC
    Format/Info                              : Advanced Video Codec
    Format profile                           : High@L4.1
    Format settings, CABAC                   : Yes
    Format settings, ReFrames                : 9 frames
    Codec ID                                 : V_MPEG4/ISO/AVC
    Duration                                 : 46mn 24s
    Width                                    : 1 280 pixels
    Height                                   : 720 pixels
    Display aspect ratio                     : 16:9
    Frame rate mode                          : Constant
    Frame rate                               : 29.970 fps
    Color space                              : YUV
    Chroma subsampling                       : 4:2:0
    Bit depth                                : 8 bits
    Scan type                                : Progressive
    Title                                    : Encode by TTG-DoA
    Writing library                          : x264 core 146 r2538 121396c
    Encoding settings                        : cabac=1 / ref=9 / deblock=1:-2:-2 / analyse=0x3:0x133 / me=umh / subme=10 / psy=1 / psy_rd=1.00:0.15 / mixed_ref=1 / me_range=48 / chroma_me=1 / trellis=2 / 8x8dct=1 / cqm=0 / deadzone=21,11 / fast_pskip=0 / chroma_qp_offset=-3 / threads=12 / lookahead_threads=2 / sliced_threads=0 / nr=0 / decimate=1 / interlaced=0 / bluray_compat=0 / constrained_intra=0 / bframes=8 / b_pyramid=2 / b_adapt=2 / b_bias=0 / direct=3 / weightb=1 / open_gop=0 / weightp=2 / keyint=300 / keyint_min=29 / scenecut=40 / intra_refresh=0 / rc_lookahead=60 / rc=crf / mbtree=1 / crf=17.6 / qcomp=0.60 / qpmin=0 / qpmax=69 / qpstep=4 / ip_ratio=1.40 / aq=1:1.00
    Language                                 : Japanese
    Default                                  : Yes
    Forced                                   : No
    _STATISTICS_WRITING_APP                  : mkvmerge v7.9.0 ('Birds') 64bit
    _STATISTICS_WRITING_DATE_UTC             : 2015-06-04 21:30:54
    _STATISTICS_TAGS                         : BPS DURATION NUMBER_OF_FRAMES NUMBER_OF_BYTES
    DURATION                                 : 00:46:24.882000000
    NUMBER_OF_FRAMES                         : 83463
    NUMBER_OF_BYTES                          : 1301502787

    Audio
    ID                                       : 2
    Format                                   : AAC
    Format/Info                              : Advanced Audio Codec
    Format profile                           : LC
    Codec ID                                 : A_AAC
    Duration                                 : 46mn 24s
    Channel(s)                               : 2 channels
    Channel positions                        : Front: L R
    Sampling rate                            : 48.0 KHz
    Compression mode                         : Lossy
    Language                                 : Japanese
    Default                                  : Yes
    Forced                                   : No

    Menu
    00:00:00.000                             : ja:Chapter 01
    00:17:29.982                             : ja:Chapter 02
    00:22:51.937                             : ja:Chapter 03
    00:26:39.931                             : ja:Chapter 04
    00:31:21.913                             : ja:Chapter 05








    Further episodes of any drama will only be released from 13/6 1900 GMT+8 onwards as i will not be home from 9/6


    0 0

    Original Post: High.Society.E01.150608.HDTV.X264-LIMO

    http://thetvdb.com/?tab=series&id=296433

    Synopsis
    A love story between a woman, who is looking for a man who can love her although she is not wealthy, and an indigent man, who thinks love is simply a tool that the ruling class uses in order to control the people under them.

    Cast
    Main Cast
    UEE as Jang Yoon Ha (27)
    Sung Joon as Choi Joon Ki (29)
    Park Hyung Shik as Yoo Chang Soo (29)
    Im Ji Yeon as Lee Ji Yi (27)









    Code
    Video
    ID                             : 1
    Format                         : AVC
    Format/Info                    : Advanced Video Codec
    Format profile                 : Main@L4.0
    Format settings, CABAC         : Yes
    Format settings, ReFrames      : 4 frames
    Codec ID                       : V_MPEG4/ISO/AVC
    Duration                       : 58mn 44s
    Bit rate                       : 450 Kbps
    Width                          : 624 pixels
    Height                         : 350 pixels
    Display aspect ratio           : 16:9
    Frame rate mode                : Constant
    Frame rate                     : 29.970 fps
    Color space                    : YUV
    Chroma subsampling             : 4:2:0
    Bit depth                      : 8 bits
    Scan type                      : Progressive
    Bits/(Pixel*Frame)             : 0.069
    Stream size                    : 190 MiB (76%)
    Writing library                : x264 core 130 r2273 b3065e6
    Encoding settings              : cabac=1 / ref=1 / deblock=1:0:0 / analyse=0x1:0x111 / me=hex / subme=2 / psy=1 / psy_rd=1.00:0.00 / mixed_ref=0 / me_range=16 / chroma_me=1 / trellis=0 / 8x8dct=0 / cqm=0 / deadzone=21,11 / fast_pskip=1 / chroma_qp_offset=0 / threads=1 / lookahead_threads=1 / sliced_threads=0 / nr=0 / decimate=1 / interlaced=0 / bluray_compat=0 / constrained_intra=0 / bframes=3 / b_pyramid=2 / b_adapt=1 / b_bias=0 / direct=1 / weightb=1 / open_gop=0 / weightp=1 / keyint=300 / keyint_min=30 / scenecut=40 / intra_refresh=0 / rc_lookahead=10 / rc=abr / mbtree=1 / bitrate=450 / ratetol=1.0 / qcomp=0.60 / qpmin=0 / qpmax=69 / qpstep=4 / vbv_maxrate=20000 / vbv_bufsize=25000 / nal_hrd=none / ip_ratio=1.40 / aq=1:1.00
    Language                       : English
    Default                        : Yes
    Forced                         : No
    Color primaries                : BT.601 NTSC
    Transfer characteristics       : BT.709
    Matrix coefficients            : BT.601

    Audio
    ID                             : 2
    Format                         : MPEG Audio
    Format version                 : Version 1
    Format profile                 : Layer 3
    Mode                           : Joint stereo
    Mode extension                 : MS Stereo
    Codec ID                       : A_MPEG/L3
    Codec ID/Hint                  : MP3
    Duration                       : 58mn 44s
    Bit rate mode                  : Constant
    Bit rate                       : 128 Kbps
    Channel(s)                     : 2 channels
    Sampling rate                  : 48.0 KHz
    Compression mode               : Lossy
    Stream size                    : 53.8 MiB (22%)
    Default                        : Yes
    Forced                         : No



    0 0

    Original Post: High.Society.E01.150608.HDTV.H264.450p-LIMO

    http://thetvdb.com/?tab=series&id=296433

    Synopsis
    A love story between a woman, who is looking for a man who can love her although she is not wealthy, and an indigent man, who thinks love is simply a tool that the ruling class uses in order to control the people under them.

    Cast
    Main Cast
    UEE as Jang Yoon Ha (27)
    Sung Joon as Choi Joon Ki (29)
    Park Hyung Shik as Yoo Chang Soo (29)
    Im Ji Yeon as Lee Ji Yi (27)









    Code
    Video
    ID                                       : 0
    Format                                   : AVC
    Format/Info                              : Advanced Video Codec
    Format profile                           : High@L5.1
    Format settings, CABAC                   : Yes
    Format settings, ReFrames                : 4 frames
    Codec ID                                 : H264
    Bit rate                                 : 1 500 Kbps
    Width                                    : 800 pixels
    Height                                   : 450 pixels
    Display aspect ratio                     : 16:9
    Frame rate mode                          : Variable
    Frame rate                               : 29.970 fps
    Color space                              : YUV
    Chroma subsampling                       : 4:2:0
    Bit depth                                : 8 bits
    Scan type                                : Progressive
    Bits/(Pixel*Frame)                       : 0.139
    Stream size                              : 686 MiB (88%)
    Writing library                          : x264 core 112

    Audio
    ID                                       : 1
    Format                                   : MPEG Audio
    Format version                           : Version 1
    Format profile                           : Layer 3
    Mode                                     : Joint stereo
    Mode extension                           : MS Stereo
    Codec ID                                 : 55
    Codec ID/Hint                            : MP3
    Bit rate mode                            : Constant
    Bit rate                                 : 192 Kbps
    Channel(s)                               : 2 channels
    Sampling rate                            : 48.0 KHz
    Compression mode                         : Lossy
    Stream size                              : 88.3 MiB (11%)
    Alignment                                : Aligned on interleaves
    Interleave, duration                     : 24 ms (0.72 video frame)
    Writing library                          : LAME3.98.2
    Language                                 : Korean



    0 0

    Original Post: High.Society.E01.150608.HDTV.H264.720p-LIMO

    http://thetvdb.com/?tab=series&id=296433

    Synopsis
    A love story between a woman, who is looking for a man who can love her although she is not wealthy, and an indigent man, who thinks love is simply a tool that the ruling class uses in order to control the people under them.

    Cast
    Main Cast
    UEE as Jang Yoon Ha (27)
    Sung Joon as Choi Joon Ki (29)
    Park Hyung Shik as Yoo Chang Soo (29)
    Im Ji Yeon as Lee Ji Yi (27)









    Code
    Video
    ID                               : 0
    Format                           : AVC
    Format/Info                      : Advanced Video Codec
    Format profile                   : High@L5.1
    Format settings, CABAC           : Yes
    Format settings, ReFrames        : 4 frames
    Codec ID                         : H264
    Duration                         : 1h 4mn
    Bit rate                         : 3 000 Kbps
    Width                            : 1 280 pixels
    Height                           : 720 pixels
    Display aspect ratio             : 16:9
    Frame rate mode                  : Variable
    Frame rate                       : 29.970 fps
    Color space                      : YUV
    Chroma subsampling               : 4:2:0
    Bit depth                        : 8 bits
    Scan type                        : Progressive
    Bits/(Pixel*Frame)               : 0.109
    Stream size                      : 1.35 GiB (94%)
    Writing library                  : x264 core 112
    Encoding settings                : cabac=1 / ref=3 / deblock=1:-1:-1 / analyse=0x3:0x113 / me=hex / subme=6 / psy=1 / psy_rd=1.00:1.00 / mixed_ref=1 / me_range=16 / chroma_me=1 / trellis=1 / 8x8dct=1 / cqm=0 / deadzone=21,11 / fast_pskip=0 / chroma_qp_offset=-4 / threads=12 / sliced_threads=0 / nr=0 / decimate=1 / interlaced=0 / constrained_intra=0 / bframes=3 / b_pyramid=2 / b_adapt=1 / b_bias=1 / direct=3 / weightb=1 / open_gop=0 / weightp=2 / keyint=299 / keyint_min=25 / scenecut=1 / intra_refresh=0 / rc_lookahead=40 / rc=abr / mbtree=1 / bitrate=3000 / ratetol=1.0 / qcomp=0.60 / qpmin=10 / qpmax=51 / qpstep=4 / ip_ratio=1.40 / aq=1:1.00

    Audio
    ID                               : 1
    Format                           : MPEG Audio
    Format version                   : Version 1
    Format profile                   : Layer 3
    Mode                             : Joint stereo
    Mode extension                   : MS Stereo
    Codec ID                         : 55
    Codec ID/Hint                    : MP3
    Duration                         : 1h 4mn
    Bit rate mode                    : Constant
    Bit rate                         : 192 Kbps
    Channel(s)                       : 2 channels
    Sampling rate                    : 48.0 KHz
    Stream size                      : 88.0 MiB (6%)
    Alignment                        : Split accross interleaves
    Interleave, duration             : 33 ms (1.00 video frame)
    Interleave, preload duration     : 500 ms
    Writing library                  : LAME3.98.2



    0 0

    Original Post: Who Are You - School.2015.E13.150608.HDTV.XviD-LIMO

    Details

    Title: 후아유 - 학교 2015 / Hooayoo - Hakgyo 2015
    Also known as: 학교 6 (School 6)
    Genre: School, youth, drama, mystery
    Episodes: 16
    Broadcast network: KBS2
    Broadcast period: 2015-Apr-27 to 2015-???-??
    Air time: Monday & Tuesday 22:00
    Original Soundtrack: Who Are You - School 2015 OST
    Related TV Shows: School 1 (KBS2, 1999), School 2 (KBS2, 1999), School 3 (KBS2, 2000), School 4 (KBS2, 2001), School 2013 (KBS2, 2013)
    http://thetvdb.com/?tab=series&id=294815

    Synopsis

    This drama is a latest installment to the famed School Series. It will focus on portraying realistic issues, struggles, and dilemmas of today’s youths.

    Segang High School is a top school located in Gangnam District, Seoul. One of the students, Lee Eun Bi, wake up one day without knowing who she was. After find out that she used to be bullied, she changes herself and becomes popular. She then tries to recover her lost memories, and in the process, discovers the hidden truths behind her famous school.

    Cast
    Main Cast
    Kim So Hyun as Lee Eun Bi / Go Eun Byul
    Nam Joo Hyuk as Han Yi Ahn
    Yook Sung Jae as Gong Tae Kwang
    Extended Cast
    Lee Pil Mo as Teacher Kim Joon Suk
    Lee David as Park Min Joon
    Kim Hee Jung as Cha Song Joo
    Lee Cho Hee as Lee Shi Jin
    Jo Soo Hyang as Kang So Young
    Segang High School's teachers
    Lee Hee Do as Vice Principal
    Shin Jung Geun as Students' Supervisor
    The parents
    Jun Mi Sun as Song Mi Kyung (Eun Byul's mother)
    Lee Dae Yeon as Han Ki Choon (Yi Ahn's father)
    Jun Noh Min as Gong Jae Ho (Tae Kwang's father)
    Kim Jung Nan as Shin Jung Min (Min Joon's mother)
    Jung In Ki as Park Joon Hyung (Min Joon's father)
    Kim Se Ah as Shi Jin's mother
    Class 2-3 students
    Park Doo Shik as Kwon Ki Tae
    Yoo Young as Jo Hae Na
    Jang In Sub as Sung Yoon Jae
    Kim Bo Ra as Seo Young Eun






    Code
    Video
    ID                                       : 0
    Format                                   : MPEG-4 Visual
    Format profile                           : Advanced Simple@L5
    Format settings, BVOP                    : No
    Format settings, QPel                    : No
    Format settings, GMC                     : No warppoints
    Format settings, Matrix                  : Default (MPEG)
    Codec ID                                 : XVID
    Codec ID/Hint                            : XviD
    Duration                                 : 1h 6mn
    Bit rate                                 : 1 391 Kbps
    Width                                    : 624 pixels
    Height                                   : 352 pixels
    Display aspect ratio                     : 16:9
    Frame rate                               : 29.970 fps
    Color space                              : YUV
    Chroma subsampling                       : 4:2:0
    Bit depth                                : 8 bits
    Scan type                                : Progressive
    Compression mode                         : Lossy
    Bits/(Pixel*Frame)                       : 0.211
    Stream size                              : 660 MiB (87%)
    Writing library                          : XviD 1.2.1 (UTC 2008-12-04)

    Audio
    ID                                       : 1
    Format                                   : MPEG Audio
    Format version                           : Version 1
    Format profile                           : Layer 3
    Mode                                     : Joint stereo
    Mode extension                           : MS Stereo
    Codec ID                                 : 55
    Codec ID/Hint                            : MP3
    Duration                                 : 1h 6mn
    Bit rate mode                            : Constant
    Bit rate                                 : 128 Kbps
    Channel(s)                               : 2 channels
    Sampling rate                            : 48.0 KHz
    Compression mode                         : Lossy
    Stream size                              : 60.8 MiB (8%)
    Alignment                                : Aligned on interleaves
    Writing library                          : LAME3.98.2



    0 0

    Original Post: Who Are You - School.2015.E13.150608.HDTV.H264.720p-LIMO

    Details

    Title: 후아유 - 학교 2015 / Hooayoo - Hakgyo 2015
    Also known as: 학교 6 (School 6)
    Genre: School, youth, drama, mystery
    Episodes: 16
    Broadcast network: KBS2
    Broadcast period: 2015-Apr-27 to 2015-???-??
    Air time: Monday & Tuesday 22:00
    Original Soundtrack: Who Are You - School 2015 OST
    Related TV Shows: School 1 (KBS2, 1999), School 2 (KBS2, 1999), School 3 (KBS2, 2000), School 4 (KBS2, 2001), School 2013 (KBS2, 2013)
    http://thetvdb.com/?tab=series&id=294815

    Synopsis

    This drama is a latest installment to the famed School Series. It will focus on portraying realistic issues, struggles, and dilemmas of today’s youths.

    Segang High School is a top school located in Gangnam District, Seoul. One of the students, Lee Eun Bi, wake up one day without knowing who she was. After find out that she used to be bullied, she changes herself and becomes popular. She then tries to recover her lost memories, and in the process, discovers the hidden truths behind her famous school.

    Cast
    Main Cast
    Kim So Hyun as Lee Eun Bi / Go Eun Byul
    Nam Joo Hyuk as Han Yi Ahn
    Yook Sung Jae as Gong Tae Kwang
    Extended Cast
    Lee Pil Mo as Teacher Kim Joon Suk
    Lee David as Park Min Joon
    Kim Hee Jung as Cha Song Joo
    Lee Cho Hee as Lee Shi Jin
    Jo Soo Hyang as Kang So Young
    Segang High School's teachers
    Lee Hee Do as Vice Principal
    Shin Jung Geun as Students' Supervisor
    The parents
    Jun Mi Sun as Song Mi Kyung (Eun Byul's mother)
    Lee Dae Yeon as Han Ki Choon (Yi Ahn's father)
    Jun Noh Min as Gong Jae Ho (Tae Kwang's father)
    Kim Jung Nan as Shin Jung Min (Min Joon's mother)
    Jung In Ki as Park Joon Hyung (Min Joon's father)
    Kim Se Ah as Shi Jin's mother
    Class 2-3 students
    Park Doo Shik as Kwon Ki Tae
    Yoo Young as Jo Hae Na
    Jang In Sub as Sung Yoon Jae
    Kim Bo Ra as Seo Young Eun







    Code
    Video
    ID                             : 0
    Format                         : AVC
    Format/Info                    : Advanced Video Codec
    Format profile                 : High@L5.1
    Format settings, CABAC         : Yes
    Format settings, ReFrames      : 4 frames
    Codec ID                       : H264
    Duration                       : 1h 14mn
    Bit rate                       : 3 000 Kbps
    Width                          : 1 280 pixels
    Height                         : 720 pixels
    Display aspect ratio           : 16:9
    Frame rate mode                : Variable
    Frame rate                     : 29.970 fps
    Color space                    : YUV
    Chroma subsampling             : 4:2:0
    Bit depth                      : 8 bits
    Scan type                      : Progressive
    Bits/(Pixel*Frame)             : 0.109
    Stream size                    : 1.57 GiB (94%)
    Writing library                : x264 core 112
    Encoding settings              : cabac=1 / ref=3 / deblock=1:-1:-1 / analyse=0x3:0x113 / me=hex / subme=6 / psy=1 / psy_rd=1.00:1.00 / mixed_ref=1 / me_range=16 / chroma_me=1 / trellis=1 / 8x8dct=1 / cqm=0 / deadzone=21,11 / fast_pskip=0 / chroma_qp_offset=-4 / threads=12 / sliced_threads=0 / nr=0 / decimate=1 / interlaced=0 / constrained_intra=0 / bframes=3 / b_pyramid=2 / b_adapt=1 / b_bias=1 / direct=3 / weightb=1 / open_gop=0 / weightp=2 / keyint=299 / keyint_min=25 / scenecut=1 / intra_refresh=0 / rc_lookahead=40 / rc=abr / mbtree=1 / bitrate=3000 / ratetol=1.0 / qcomp=0.60 / qpmin=10 / qpmax=51 / qpstep=4 / ip_ratio=1.40 / aq=1:1.00

    Audio
    ID                             : 1
    Format                         : MPEG Audio
    Format version                 : Version 1
    Format profile                 : Layer 3
    Mode                           : Joint stereo
    Mode extension                 : MS Stereo
    Codec ID                       : 55
    Codec ID/Hint                  : MP3
    Duration                       : 1h 14mn
    Bit rate mode                  : Constant
    Bit rate                       : 192 Kbps
    Channel(s)                     : 2 channels
    Sampling rate                  : 48.0 KHz
    Compression mode               : Lossy
    Stream size                    : 102 MiB (6%)
    Alignment                      : Split accross interleaves
    Interleave, duration           : 33 ms (1.00 video frame)
    Interleave, preload duration   : 500 ms
    Writing library                : LAME3.98



    0 0

    Original Post: Hwajung.E17.150608.HDTV.XviD-LIMO

    Details
    Title: 화정 / Hwajung
    Also known as: Splendid Politics
    Previously known as: Princess Jungmyung
    Genre: Historical, political, romance
    Episodes: 50
    Broadcast network: MBC
    Broadcast period: 2015-Apr-13 to 2015-Oct-??
    Air time: Monday & Tuesday 22:00
    Subtitles by Dramafever will be added later
    http://thetvdb.com/?tab=series&id=293910

    Synopsis
    Fair Princess Jungmyung (Lee Yeon Hee) lives a life of the highest privilege, until her half-brother Prince Gwanghae (Cha Seung Won) executes the rightful crown prince and usurps the throne. Exiled from court, Jungmyung goes under disguise as a man and learns to adapt to life as a commoner — never forgetting Gwanghae's wrongdoing. But amidst rampant corruption throughout the kingdom, can Jyungmyung exact her vengeance, restore order and take back her rightful place in the palace?

    Cast

    Main Cast
    Cha Seung Won as Prince Gwanghae
    Lee Tae Hwan as teen Gwanghae
    Lee Yun Hee as Princess Jungmyung
    Jung Chan Bi as teen Jungmyung
    Seo Jung Eun as child Jungmyung
    Kim Jae Won as King Injo
    Seo Kang Joon as Hong Ju Won
    Yoon Chan Young as teen Ju Won
    Choi Kwon Ju as child Ju Won
    Han Joo Wan as Kang In Woo
    Ahn Do Gyu as teen In Woo






    Code
    Video
    ID                                       : 0
    Format                                   : MPEG-4 Visual
    Format profile                           : Advanced Simple@L5
    Format settings, BVOP                    : No
    Format settings, QPel                    : No
    Format settings, GMC                     : No warppoints
    Format settings, Matrix                  : Default (MPEG)
    Codec ID                                 : XVID
    Codec ID/Hint                            : XviD
    Duration                                 : 1h 6mn
    Bit rate                                 : 1 391 Kbps
    Width                                    : 624 pixels
    Height                                   : 352 pixels
    Display aspect ratio                     : 16:9
    Frame rate                               : 29.970 fps
    Color space                              : YUV
    Chroma subsampling                       : 4:2:0
    Bit depth                                : 8 bits
    Scan type                                : Progressive
    Compression mode                         : Lossy
    Bits/(Pixel*Frame)                       : 0.211
    Stream size                              : 660 MiB (87%)
    Writing library                          : XviD 1.2.1 (UTC 2008-12-04)

    Audio
    ID                                       : 1
    Format                                   : MPEG Audio
    Format version                           : Version 1
    Format profile                           : Layer 3
    Mode                                     : Joint stereo
    Mode extension                           : MS Stereo
    Codec ID                                 : 55
    Codec ID/Hint                            : MP3
    Duration                                 : 1h 6mn
    Bit rate mode                            : Constant
    Bit rate                                 : 128 Kbps
    Channel(s)                               : 2 channels
    Sampling rate                            : 48.0 KHz
    Compression mode                         : Lossy
    Stream size                              : 60.8 MiB (8%)
    Alignment                                : Aligned on interleaves
    Writing library                          : LAME3.98.2



    0 0

    Original Post: Hwajung.E17.150608.HDTV.H264.720p-LIMO

    Details
    Title: 화정 / Hwajung
    Also known as: Splendid Politics
    Previously known as: Princess Jungmyung
    Genre: Historical, political, romance
    Episodes: 50
    Broadcast network: MBC
    Broadcast period: 2015-Apr-13 to 2015-Oct-??
    Air time: Monday & Tuesday 22:00
    Subtitles by Dramafever will be added later
    http://thetvdb.com/?tab=series&id=293910

    Synopsis
    Fair Princess Jungmyung (Lee Yeon Hee) lives a life of the highest privilege, until her half-brother Prince Gwanghae (Cha Seung Won) executes the rightful crown prince and usurps the throne. Exiled from court, Jungmyung goes under disguise as a man and learns to adapt to life as a commoner — never forgetting Gwanghae's wrongdoing. But amidst rampant corruption throughout the kingdom, can Jyungmyung exact her vengeance, restore order and take back her rightful place in the palace?

    Cast

    Main Cast
    Cha Seung Won as Prince Gwanghae
    Lee Tae Hwan as teen Gwanghae
    Lee Yun Hee as Princess Jungmyung
    Jung Chan Bi as teen Jungmyung
    Seo Jung Eun as child Jungmyung
    Kim Jae Won as King Injo
    Seo Kang Joon as Hong Ju Won
    Yoon Chan Young as teen Ju Won
    Choi Kwon Ju as child Ju Won
    Han Joo Wan as Kang In Woo
    Ahn Do Gyu as teen In Woo







    Code
    Video
    ID                             : 0
    Format                         : AVC
    Format/Info                    : Advanced Video Codec
    Format profile                 : High@L5.1
    Format settings, CABAC         : Yes
    Format settings, ReFrames      : 4 frames
    Codec ID                       : H264
    Duration                       : 1h 14mn
    Bit rate                       : 3 000 Kbps
    Width                          : 1 280 pixels
    Height                         : 720 pixels
    Display aspect ratio           : 16:9
    Frame rate mode                : Variable
    Frame rate                     : 29.970 fps
    Color space                    : YUV
    Chroma subsampling             : 4:2:0
    Bit depth                      : 8 bits
    Scan type                      : Progressive
    Bits/(Pixel*Frame)             : 0.109
    Stream size                    : 1.57 GiB (94%)
    Writing library                : x264 core 112
    Encoding settings              : cabac=1 / ref=3 / deblock=1:-1:-1 / analyse=0x3:0x113 / me=hex / subme=6 / psy=1 / psy_rd=1.00:1.00 / mixed_ref=1 / me_range=16 / chroma_me=1 / trellis=1 / 8x8dct=1 / cqm=0 / deadzone=21,11 / fast_pskip=0 / chroma_qp_offset=-4 / threads=12 / sliced_threads=0 / nr=0 / decimate=1 / interlaced=0 / constrained_intra=0 / bframes=3 / b_pyramid=2 / b_adapt=1 / b_bias=1 / direct=3 / weightb=1 / open_gop=0 / weightp=2 / keyint=299 / keyint_min=25 / scenecut=1 / intra_refresh=0 / rc_lookahead=40 / rc=abr / mbtree=1 / bitrate=3000 / ratetol=1.0 / qcomp=0.60 / qpmin=10 / qpmax=51 / qpstep=4 / ip_ratio=1.40 / aq=1:1.00

    Audio
    ID                             : 1
    Format                         : MPEG Audio
    Format version                 : Version 1
    Format profile                 : Layer 3
    Mode                           : Joint stereo
    Mode extension                 : MS Stereo
    Codec ID                       : 55
    Codec ID/Hint                  : MP3
    Duration                       : 1h 14mn
    Bit rate mode                  : Constant
    Bit rate                       : 192 Kbps
    Channel(s)                     : 2 channels
    Sampling rate                  : 48.0 KHz
    Compression mode               : Lossy
    Stream size                    : 102 MiB (6%)
    Alignment                      : Split accross interleaves
    Interleave, duration           : 33 ms (1.00 video frame)
    Interleave, preload duration   : 500 ms
    Writing library                : LAME3.98



    0 0

    Original Post: Zatôichi : Musical Journey (1962-1973) 1998

    The Zatôichi : Musical Journey Complilation contains the Soundtracks of all 25 original Zatoichi Movies.



    "Zatoichi Monogatari" ("The Tale Of Zatoichi"
    "Zoku-Zatoichi Monogatari" ("The Tale Of Zatoichi Continues"
    "Shin-Zatoichi Monogatari" ("The New Tale Of Zatoichi"
    "Zatoichi Kyojyo-Tabi" ("Zatoichi The Fugitive"
    "Zatoichi Kenka-Tabi" ("Zatoichi's Fighting Journey"
    "Zatoichi Senryo Kubi" ("Zatoichi And The Chest Of Gold"
    "Zatoichi Abare-Dako" ("Zatoichi's Flashing Sword"
    "Zatoichi Kessho-Tabi" ("Fight, Zatoichi, Fight"
    "Zatoichi Sekisho Yaburi" ("Adventures Of Zatoichi"

    Artist       : Akira Ifukube, Ichiro Saito, Sei Ikeno, Taichiro Kosugi
    Title        : VA - Zatoichi Musical Journey 1 [1962-1964]
    Type         : Album (CD)
    Release Date : 1998
    Length       : 69:08
    Genre    :Soundtrack                                            
    Country      : Japan                
    Format       : MP3                    
    Bitrate      : 224kbps

    Tracklist :

    01 (2:58) Akira Ifukube - Suite (Main Title - Bitter Victory) *
    02 (1:21) Ichiro Saito - DB TOP (Daiei Logo Mark - Main Title - The Surface Of The Toridegawa River)
    03 (0:59) Ichiro Saito - DB3 (Nagisa No Yoshiro)
    04 (2:14) Ichiro Saito - DB17 (Memories Of Miki Hirate)
    05 (1:00) Ichiro Saito - DB24 (Brothers Of Fate)
    06 (1:17) Ichiro Saito - DB33 (Enraged Zatouichi - Ending)
    07 (1:21) Akira Ifukube - Suite (Daiei Logo Mark - Ending) #
    08 (1:39) Akira Ifukube - Suite (Daiei Logo Mark - Main Title) #
    09 (0:14) Akira Ifukube - DB TOP (Daiei Logo Mark)
    10 (1:19) Akira Ifukube - DB2 (Main Title)
    11 (2:48) Akira Ifukube - DB6 (Ichi And Omitsu, Part I)
    12 (0:58) Akira Ifukube - DB7 (Drawn By The Palanquin)
    13 (1:15) Akira Ifukube - DB14 (Ichi And Omitsu, Part II)
    14 (1:27) Akira Ifukube - DB23 (The Doyama Gang Goes Off To Battle)
    15 (3:39) Akira Ifukube - DB27-1st Half (Zatoichi In Fight)
    16 (1:32) Akira Ifukube - DB28 (Farewell - Ending)
    17 (2:37) Ichiro Saito - DB TOP (Daiei Logo Mark - Main Title - Ichi's Nightmare)
    18 (2:04) Ichiro Saito - DB5 (The Government Money Robbery)
    19 (3:46) Ichiro Saito - DB15 (Chuji Kunisada And Zatoichi)
    20 (2:07) Ichiro Saito - DB17 (Fight At Mount Akagi)
    21 (0:48) Ichiro Saito - DB29 (Anger And Sadness)
    22 (2:38) Ichiro Saito - DB31 (To The Execution Grounds - Zatoichi In Fight)
    23 (1:17) Ichiro Saito - DB33 (Ichi And Ochiyo)
    24 (0:16) Ichiro Saito - DB35 (Ending)
    25 (0:15) Sei Ikeno - DB TOP (Daiei Logo Mark)
    26 (0:56) Sei Ikeno - DB3 (Main Title)
    27 (0:39) Sei Ikeno - DB4 (The Men Who Chase Zatoichi)
    28 (2:12) Sei Ikeno - DB7 (Kindness At Every Turn)
    29 (2:10) Sei Ikeno - DB31 (Zatoichi's Underwater Killing Technique)
    30 (0:44) Sei Ikeno - DB41 (Leaving From Kajikazawa)
    31 (3:55) Sei Ikeno - DB46 (Zatoichi's Flashing Sword)
    32 (1:32) Sei Ikeno - DB49 (The Face Of Carnage)
    33 (4:08) Akira Ifukube - Suite (Main Title - Threesome At Night - Ending) *
    34 (1:44) Taichiro Kosugi - DB1 (Daiei Logo Mark - Main Title - The Kite)
    35 (1:32) Taichiro Kosugi - DB9 (Con Game)
    36 (2:01) Taichiro Kosugi - DB14 (Ichi And Osaki)
    37 (1:59) Taichiro Kosugi - DB20 (Shinsuke And Osen)
    38 (2:23) Taichiro Kosugi - DB34 (Zatoichi VS. Yojimbo - Breaking Through The Checkpoint)
    39 (1:24) Taichiro Kosugi - DB35 (Holy Sunrise - Ending)



    "Zatoichi Nidan-Giri" [Zatoichi's Revenge]
    "Zatoichi Sakate-Giri" [Zatoichi And The Doomed Man]
    "Zatoichi Jigoku-Tabi" [Zatoichi And The Chess Expert]
    "Zatoichi No Uta Ga Kikoeru" [Zatoichi's Vengeance]
    "Zatoichi, Umi O Wataru" [Zatoichi's Pilgrimage]
    "Zatoichi Tekka-Tabi" [Zatoichi's Cane Sword]
    "Zatoichi Chikemuri Kaido" [Zatoichi Challenged]
    "Zatoichi Roh-Yaburi" [Zatoichi Breaks Jail]

    Artist       : Akira Ifukube, Seitaro Ohmori, Ichiro Saito, Kohmei Sone, Sei Ikeno
    Title        : VA - Zatoichi Musical Journey 2 [1965-1967]
    Type         : Album (CD)
    Release Date : 1998
    Length       : 74:29
    Genre    :Soundtrack                                              
    Country      : Japan                
    Format       : MP3                    
    Bitrate      : 224/256/320kbps

    Tracklist :
    01 (2:16) Akira Ifukube - DB1 A (Daiei Logo Mark - Main Title)
    02 (1:15) Akira Ifukube - M-X (Ichi And Otsuru)
    03 (2:18) Akira Ifukube - DB28 (Zatoichi's Revenge)
    04 (1:41) Akira Ifukube - DB29 (The Sun And Ichi - Ending)
    05 (0:14) Seitaro Ohmori - DB1 (Daiei Logo Mark)
    06 (1:01) Seitaro Ohmori - DB4 (Main Title)
    07 (1:48) Seitaro Ohmori - DB11 (Zatoichi And The Sea)
    08 (1:16) Seitaro Ohmori - DB26 (Fight At The Shore)
    09 (1:26) Seitaro Ohmori - DB26i (Zatoichi And The Doomed Man)
    10 (1:23) Seitaro Ohmori - DB27 (Sound Of Waves - Ending)
    11 (1:57) Akira Ifukube - DB TOP A (Daiei Logo Mark - Traditional Festival Musical - Main Title)
    12 (0:40) Akira Ifukube - DB7 (Wounded Miki - At The Inn)
    13 (0:41) Akira Ifukube - DB13 (Zatoichi Heads To Odawara)
    14 (1:52) Akira Ifukube - DB14 (In The Dark)
    15 (1:15) Akira Ifukube - DB16 (Ichi And Miki)
    16 (0:40) Akira Ifukube - DB23 (Rokuhei Murdered)
    17 (0:21) Akira Ifukube - DB25 (Ichi's Doubt)
    18 (1:13) Akira Ifukube - DB28 (Confession Of Tomonoshin)
    19 (2:28) Akira Ifukube - DB30 (Ichi And Otane)
    20 (1:21) Akira Ifukube - DB34 (In The Hakone Mountains - An Instant Conclusion)
    21 (1:10) Akira Ifukube - DB36 (Denouement - Ending)
    22 (1:03) Akira Ifukube - DB1 (Daiei Logo Mark - Man On The Run)
    23 (1:19) Akira Ifukube - DB2 B (Main Title)
    24 (1:06) Akira Ifukube - DB3 (Ichi And The Priest With Biwa Harp I)
    25 (2:34) Akira Ifukube - DB8 (Ichi And Ocho)
    26 (1:02) Akira Ifukube - DB10 (Ichi And The Priest With Biwa Harp II)
    27 (1:10) Akira Ifukube - DB12 (Patience)
    28 (0:59) Akira Ifukube - DB21 (An Offering To Genpachiro)
    29 (2:09) Akira Ifukube - DB23 A (Ending)
    30 (1:08) Ichiro Saito - DB1 (Daiei Logo Mark - Main Title)
    31 (4:16) Ichiro Saito - DB5 A (The Horse And Ichi - To Serigasawa)
    32 (1:13) Ichiro Saito - DB6 A (Ichi And Okichi)
    33 (0:29) Ichiro Saito - DB11 (The ‚aandits)T
    34 (1:08) Ichiro Saito - DB21 (The Villagers And Okichi - Ichi's Resolve)
    35 (2:04) Ichiro Saito - DB24 (Time To Duel)
    36 (1:24) Ichiro Saito - DB33 (Okichi On A Horse - Ending)
    37 (0:18) Ichiro Saito - DB1 (Daiei Logo Mark)
    38 (1:10) Ichiro Saito - DB2 (Main Title)
    39 (2:13) Ichiro Saito - DB8 A (Ichi And Senzo)
    40 (1:45) Ichiro Saito - DB30 (The Last Of Senzo)
    41 (1:47) Ichiro Saito - DB38-1st Half (Zatouichi's Raid)
    42 (1:47) Ichiro Saito - DB39 (Ending - Ichi's Depart)
    43 (4:01) Sei Ikeno - Suite (Main Title - Farming Song - Chogoro - Theme Song "Zatoichi"
    44 (2:50) Akira Ifukube - Suite (Daiei Logo Mark - Main Title - Theme Song "Zatoichi" - Ending)
    45 (3:50) Kohmei Sone (lyrics by Kohan Kawauchi, vocal by Shintaro Katsu) - Zatoichi (single version)
    46 (3:28) Kohmei Sone (lyrics by Kohan Kawauchi, vocal by Shintaro Katsu) - Zatoichi Journeys Alone (Zatoichi Hitori Tabi)



    Artist       : Hajime Kaburagi, Sei Ikeno, Akira Ifukube, Isao Tomita & ...
    Title        : VA - Zatoichi Musical Journey 3 [1968-1973]
    Type         : Album (CD)
    Release Date : 1998
    Genre    :Soundtrack                                              
    Country      : Japan                
    Format       : MP3                    
    Bitrate      : 224/256/320kbps

    1. Hajime Kaburagi - DB TOP (Daiei Mark) (0:12)
    2. Hajime Kaburagi - DB4 (Main Title ~ "Zatoichi's Lullaby&quotwink.gif (1:33)
    3. Hajime Kaburagi - DB8 (The Scoundrel) (1:10)
    4. Hajime Kaburagi - DB14 (Ichi and Oshizu) (2:48)
    5. Hajime Kaburagi - DB30 A (The Lanterns Searching for Ichi) (0:46)
    6. Hajime Kaburagi - DB41 1st Half (The Showdown at Dawn) (0:55)
    7. Hajime Kaburagi - DB41 2nd Half (Ending ~ "Zatoichi's Lullaby&quotwink.gif (1:28)
    8. Sei Ikeno - DB1 (Daiei Mark) (0:12)
    9. Sei Ikeno - DB4 (Main Title) (1:00)
    10. Sei Ikeno - Theme Song 4 ("Zatoichi's Lullaby&quotwink.gif (1:52)
    11. Sei Ikeno - DB12 (Ichi and Yasaburo Kashiwazaki) (0:47)
    12. Sei Ikeno - DB14 (M8) (Ichi and Osode) (2:35)
    13. Sei Ikeno - DB18 (Ichi in Pursuit) (2:53)
    14. Sei Ikeno - DB26 (Zatoichi and the Fighting Drums) (1:46)
    15. Sei Ikeno - PS-Drum (The Drums of Suwa Myoujin Shrine) (2:02)
    16. Sei Ikeno - DB27 (M15) (Exit in the Sunrise ~ Ending) (3:02)
    17. Akira Ifukube - Musical Suite (Daiei Mark ~ Main Title) (3:53)
    18. Isao Tomita - DB1 (Main Title) (0:09)
    19. Isao Tomita - DB1 IA (Title Back) (1:07)
    20. Isao Tomita - DB2 (The Dark Shogun) (1:09)
    21. Isao Tomita - DB15 (Great Sword Battle on the Oil Ship) (2:12)
    22. Isao Tomita - DB30 (Zatoichi Falls into a Trap) (1:14)
    23. Isao Tomita - DB32 (Zatoichi and the Dark Shogun) (1:46)
    24. Isao Tomita - DB33 (Conclusion - Ichi and the Nameless Ronin) (1:05)
    25. Isao Tomita - DB34 (M20) (Ichi and Okiyo) (1:35)
    26. Isao Tomita - DB34 (M21) (Ending) (0:41)
    27. Isao Tomita - DB1 (Dainichi Mark) (0:18)
    28. Isao Tomita - DB2 (M3 A) (Main Title) (1:08)
    29. Isao Tomita - DB3 (The Tragic Chinaman ~ Genocide) (2:08)
    30. Isao Tomita - DB8 (The Invincible Chinese Sword) (1:20)
    31. Isao Tomita - DB26 (Ichi and Oyone) (1:06)
    32. Isao Tomita - DB31 (Wang Gang and Kakuzen) (1:42)
    33. Isao Tomita - DB32 (Break! Chinese Sword ~ Ending) (4:54)
    34. Kunihiko Murai - Main Theme (1:17)
    35. Kunihiko Murai / Mitsuo Miyamoto - Ending (1:30)
    36. Akira Ifukube - M1 (Zatouichi Takes Edo Highway) (0:48)
    37. Akira Ifukube - M2 (Main Title) (1:43)
    38. Akira Ifukube - M4 (Ichi and Omiyo - Encounter) (3:55)
    39. Akira Ifukube - M7 (Ichi and Omiyo - Farewell) (1:25)
    40. Akira Ifukube - M10 (The Wounded People ~ Shinbei's Conspiracy) (0:57)
    41. Akira Ifukube - M20 (Zatoichi - Victimization in Kasama) (1:32)
    42. Akira Ifukube - M21 (Shinbei's Final Moment) (0:45)
    43. Akira Ifukube - M22 (Ending) (0:46)
    44. Kohmei Sone / Shintaro Katsu - Zatoichi's Lullaby (3:24)

    91.4MB ZIP archive
    MP3: Variable bitrate (179.9kbps average)
    Audiograbber 1.83.1 w/LAME 3.97 (--preset fast extreme)


    0 0

    Original Post: [Mini Album] MBLAQ – MIRROR [8th Mini Album]



    http://en.wikipedia.org/wiki/MBLAQ

    [EP] 엠블랙 – MIRROR [Mini Album Vol. 8]
    Release Date: 2015.06.09
    Genre: Dance
    Language: Korean
    Bit Rate: MP3-320kbps
    credit to k2nblog

    Seung Ho, G.O and Mir restart activities as a trio for MBLAQ’s first release since Lee Joon and Cheon Doong left the group. Welcome the brand new MBLAQ with their highly anticipated eighth mini-album Mirror!

    Track List:

    01. Resurrection
    02. 거울 (MIRROR)
    03. 일상
    04. Hey U
    05. Eyes On You
    06. I Know U Want Me
    07. 사계절, 24시간
    08. 나무



older | 1 | .... | 1364 | 1365 | (Page 1366) | 1367 | 1368 | .... | 1405 | newer