Are you the publisher? Claim or contact us about this channel


Embed this content in your HTML

Search

Report adult content:

click to rate:

Account: (login)

More Channels


Showcase


Channel Catalog


Channel Description:

Asia Torrents RSS Feed

older | 1 | .... | 1365 | 1366 | (Page 1367) | 1368 | 1369 | .... | 1405 | newer

    0 0

    Original Post: Wendy (Red Velvet) – Who Are You – School 2015 OST Part.7



    웬디 – 후아유-학교 2015 (KBS2 월화드라마) OST – Part.7
    Release Date: 2015.06.08
    Genre: OST
    Language: Korean
    Bit Rate: MP3-320kbps
    credit to hulkpop

    Track List:

    01. Return (With 육지담)
    02. Return (Inst.)



    0 0

    Original Post: Fighting Tatsu, the Rickshaw Man 1964 DVDRip x264 AC3 Tai Kato



    Fighting Tatsu,
    the Rickshaw Man

    Original Title:車夫遊侠伝 喧嘩辰
    IMDb:http://www.imdb.com/title/tt0122706

    Director: Tai Kato
    Writers: Gohei Kamiya (novel), Tai Kato, Noribumi Suzuki
    Genre: Action / Drama / Comedy
    Release Date: 5 April 1964
    Runtime: 100 min
    Country: Japan
    Language: Japanese
    Subtitles: English, French
    Source: Toei R2J DVD9

    Synopsis: Rickshaw man Tatsu has wandered to Osaka from Tokyo. He has quarrels with Kimiyakko, a geisha, and throws her into the river. But later, he falls in love with her. Yasaburo, the oyabun of the Nishikawa Gang, loves her very much too. However, as he likes Tatsu's dynamic personality, he volunteers to become a go-between for their marriage. Yasaburo gets tipped off by Yajima who wants to take over the territory of the Nishikawa Gang and is arrested and imprisoned. After his release, Yajima tries to kill him.

    Uploader's Comments: This is a nice little film with Kato's usual assured direction and playful camera angels. While it takes a while to really get started and can get a bit confusing occasionally, the film just keeps on getting better as it progresses. Recommended if you're into 60s and 70s yakuza films.

    Thanks to takeshi2010, nihoncineart and Sharphedin @ ADC for the English translation and custom disc, proofing and providing the source respectively.

    The vobsubs has one 16:9 and one 4:3 track each.

    MediaInfo
    Spoiler:show
    General
    Unique ID : 205272568091143046082276166823250912494 (0x9A6E0EFE1A4CC9A5AC1DEBEE3C6664EE)
    Complete name : Fighting.Tatsu.the.Rickshaw.Man.1964.DVDRip.x264.AC3-Jongl0.mkv
    Format : Matroska
    Format version : Version 4 / Version 2
    File size : 1.49 GiB
    Duration : 1h 39mn
    Overall bit rate : 2 141 Kbps
    Encoded date : UTC 2015-05-26 15:00:41
    Writing application : mkvmerge v7.6.0 ('Garden of Dreams') 64bit built on Feb 8 2015 13:04:34
    Writing library : libebml v1.3.1 + libmatroska v1.4.2
    DURATION : 01:39:23.988000000
    NUMBER_OF_FRAMES : 1119
    NUMBER_OF_BYTES : 994048
    _STATISTICS_WRITING_APP : mkvmerge v7.6.0 ('Garden of Dreams') 64bit built on Feb 8 2015 13:04:34
    _STATISTICS_WRITING_DATE_UTC : 2015-05-26 15:00:41
    _STATISTICS_TAGS : BPS DURATION NUMBER_OF_FRAMES NUMBER_OF_BYTES

    Video
    ID : 1
    Format : AVC
    Format/Info : Advanced Video Codec
    Format profile : High@L4.1
    Format settings, CABAC : Yes
    Format settings, ReFrames : 16 frames
    Codec ID : V_MPEG4/ISO/AVC
    Duration : 1h 39mn
    Bit rate : 1 714 Kbps
    Width : 720 pixels
    Height : 366 pixels
    Display aspect ratio : 2.35:1
    Original display aspect ratio : 2.35:1
    Frame rate mode : Constant
    Frame rate : 23.976 fps
    Color space : YUV
    Chroma subsampling : 4:2:0
    Bit depth : 8 bits
    Scan type : Progressive
    Bits/(Pixel*Frame) : 0.271
    Stream size : 1.19 GiB (80%)
    Writing library : x264 core 142 r2431 ac76440
    Encoding settings : cabac=1 / ref=16 / deblock=1:-3:-3 / analyse=0x3:0x133 / me=umh / subme=10 / psy=1 / psy_rd=1.05:0.05 / mixed_ref=1 / me_range=32 / chroma_me=0 / trellis=2 / 8x8dct=1 / cqm=0 / deadzone=21,11 / fast_pskip=0 / chroma_qp_offset=-3 / threads=12 / lookahead_threads=2 / sliced_threads=0 / nr=0 / decimate=0 / interlaced=0 / bluray_compat=0 / constrained_intra=0 / bframes=9 / b_pyramid=2 / b_adapt=2 / b_bias=0 / direct=3 / weightb=1 / open_gop=0 / weightp=2 / keyint=240 / keyint_min=23 / scenecut=40 / intra_refresh=0 / rc_lookahead=50 / rc=crf / mbtree=0 / crf=16.9 / qcomp=0.60 / qpmin=0 / qpmax=69 / qpstep=4 / vbv_maxrate=14000 / vbv_bufsize=14000 / crf_max=0.0 / nal_hrd=none / filler=0 / ip_ratio=1.40 / pb_ratio=1.30 / aq=1:0.95
    Default : Yes
    Forced : No
    DURATION : 01:39:33.801000000
    NUMBER_OF_FRAMES : 143228
    NUMBER_OF_BYTES : 1306421053
    _STATISTICS_WRITING_APP : mkvmerge v7.6.0 ('Garden of Dreams') 64bit built on Feb 8 2015 13:04:34
    _STATISTICS_WRITING_DATE_UTC : 2015-05-26 15:00:41
    _STATISTICS_TAGS : BPS DURATION NUMBER_OF_FRAMES NUMBER_OF_BYTES

    Audio
    ID : 2
    Format : AC-3
    Format/Info : Audio Coding 3
    Mode extension : CM (complete main)
    Format settings, Endianness : Big
    Codec ID : A_AC3
    Duration : 1h 39mn
    Bit rate mode : Constant
    Bit rate : 384 Kbps
    Channel(s) : 2 channels
    Channel positions : Front: L R
    Sampling rate : 48.0 KHz
    Bit depth : 16 bits
    Compression mode : Lossy
    Delay relative to video : 12ms
    Stream size : 273 MiB (18%)
    Language : Japanese
    Default : Yes
    Forced : No

    Text #1
    ID : 3
    Format : UTF-8
    Codec ID : S_TEXT/UTF8
    Codec ID/Info : UTF-8 Plain Text
    Language : English
    Default : Yes
    Forced : No

    Text #2
    ID : 4
    Format : VobSub
    Muxing mode : zlib
    Codec ID : S_VOBSUB
    Codec ID/Info : The same subtitle format used on DVDs
    Language : English
    Default : No
    Forced : No

    Text #3
    ID : 5
    Format : VobSub
    Muxing mode : zlib
    Codec ID : S_VOBSUB
    Codec ID/Info : The same subtitle format used on DVDs
    Language : English
    Default : No
    Forced : No

    Text #4
    ID : 6
    Format : VobSub
    Muxing mode : zlib
    Codec ID : S_VOBSUB
    Codec ID/Info : The same subtitle format used on DVDs
    Language : French
    Default : No
    Forced : No

    Text #5
    ID : 7
    Format : VobSub
    Muxing mode : zlib
    Codec ID : S_VOBSUB
    Codec ID/Info : The same subtitle format used on DVDs
    Language : French
    Default : No
    Forced : No


    :
    While this was first planned as one of the early yakuza movies, which has begun to become more popular than samurai films, Kato Tai arranged it to a melodrama with a touch of comedy. Uchida Ryohei was becoming rapidly popular for his original acting style (he's probably most famous for portraying evil characters though). The Osaka Railway Station which appears many times from the beginning of the film is a replica built in the studio of almost the same size as the actually early 1900-structure.

    The film furthers Kato's low camera level, long take, depth staging aesthetics w/ densely composed image & superb use of the scope format.
    BTW. It is often considered as a yakuza film version of Inagaki/Itami's celebrated Life of Matsu the Untamed (aka The Rickshaw Man) story.



    0 0

    Original Post: Tennou no Ryouriban ep07 480p



    http://asianwiki.com/Tenno_no_Ryoriban
    http://thetvdb.com/?tab=series&id=296291&lid=7

    Title: The Emperor's Cook
    Romaji: Tenno no Ryoriban
    Japanese: 天皇の料理番
    Genre: Historical, Human Drama
    Director: Yuichiro Hirakawa, Shingo Okamoto
    Writer: Hisahide Sugimori (novel), Yoshiko Morishita
    Network: TBS
    Episodes: 12
    Release Date: 2015-Apr-26 to 2015-Jul-12
    Runtime: Sundays 21:00
    Theme song: Yume Miru Hito (Dreamer) by Sada Masashi
    Language: Japanese
    Country: Japan
    Subtitles: English here: subie06
    RAW credit to furransu

    Cast
       Takeru Satoh - Tokuzo Akiyama
       Haru Kuroki - Toshiko Takahama
       Kenta Kiritani - Shintaro Matsui
       Tasuku Emoto - Tatsuyoshi Yamagami
       Saki Takaoka - Ume Morita
       Gajiro Sato - Sennosuke Morita
       Sei Ashina - Kayano
       Ryu Morioka - Kurasaburo Akiyama
       Anna Ishibashi - Koshi Takahama
       Yoshiyuki Tsubokura - Okumura
       Jinta Nishizawa - Masashi Sasaki
       Daisuke Kuroda - Araki
       Takeshi Onishi - Sekiguchi
       Mamoru Watanabe - Sugiyama
       Hirotaka Ookuma - Fujita
       Yuji Kido - Suzuki
       Ryohei Suzuki - Shutaro Akiyama
       Tetsuya Takeda - Shogo
       Hideaki Ito - Yukichi Tanabe
       Yumi Asou - Okichi (restaurant owner)
       Masaya Kato - Takeshiro Ioki
       Yojin Hino - Kinnosuke Takahama
       Satoko Oshima - Harugo Takahama
       Jun Miho - Fuki Akiyama
       Tetta Sugimoto - Shuzo Akiyama
       Kaoru Kobayashi - Usami
       Satoko Oshima
       Hiromi Go - Shin'ichirō Awano

    Synopsis
    Tokuzo Akiyama (Takeru Satoh) is a young man living in a rural area. One day, he eats cutlet. That experience leads him to become a cook for western style food. He first goes to Tokyo and then Paris, France to learn about the culinary arts. Fighting against discrimination and prejudice, he becomes a chef at the Hotel Ritz in Paris, France. At the age of 26, he becomes the chef for the Emperor of Japan.

    In 1904, at New Year's, the Akiyama family in Fukui prefecture were full of hope except for one thing. Shuzo (Tetta Sugimoto) worries that his second son, Tokuzo (Takeru Satoh) just quits things too easily unlike the first son, Shutaro (Ryohei Suzuki). The worried father arranges his son to marry Toshiko (Haru Kuroki) of the Takahama family who runs a seaweed merchant. One day, newly-married Tokuzo encounters Sergeant Tanabe (Hideaki Ito) of the Sabae Regiment while delivering seaweed. Tokuzo has a piece of freshly-fried cutlet offered by Tanabe and is struck by the overwhelming taste. ~ TBS

    General
    Complete name                  : Tennou no Ryouriban ep07 (848x480 x264).mp4
    Format                         : MPEG-4
    Format profile                 : Base Media
    Codec ID                       : isom
    File size                      : 357 MiB
    Duration                       : 46mn 5s
    Overall bit rate mode          : Variable
    Overall bit rate               : 1 082 Kbps

    Video
    ID                             : 1
    Format                         : AVC
    Format/Info                    : Advanced Video Codec
    Format profile                 : High@L4.1
    Format settings, CABAC         : Yes
    Format settings, ReFrames      : 4 frames
    Codec ID                       : avc1
    Codec ID/Info                  : Advanced Video Coding
    Duration                       : 46mn 5s
    Bit rate                       : 950 Kbps
    Maximum bit rate               : 6 738 Kbps
    Width                          : 848 pixels
    Height                         : 480 pixels
    Display aspect ratio           : 16:9
    Frame rate mode                : Constant
    Frame rate                     : 29.970 fps
    Color space                    : YUV
    Chroma subsampling             : 4:2:0
    Bit depth                      : 8 bits
    Scan type                      : Progressive
    Bits/(Pixel*Frame)             : 0.078
    Stream size                    : 313 MiB (88%)

    Audio
    ID                             : 2
    Format                         : AAC
    Format/Info                    : Advanced Audio Codec
    Format profile                 : LC
    Codec ID                       : 40
    Duration                       : 46mn 5s
    Bit rate mode                  : Variable
    Bit rate                       : 128 Kbps
    Maximum bit rate               : 138 Kbps
    Channel count                  : 2 channels
    Channel positions              : Front: L R
    Sampling rate                  : 48.0 KHz
    Compression mode               : Lossy







    0 0

    Original Post: TVB Wudang.Rules.E10.HDTV.H264.720p-W

    Also known as Wudang Worship
    Created by Hong Kong Television Broadcasts Limited
    Theme music composer Alan Cheung
    No. of episodes 20
    Original release 25 May 2015 – 19 June 2015
    Subtitles English srt (embedded)

    Starring
    Chin Siu-ho
    Tavia Yeung
    Yuen Qiu
    Timmy Hung
    Derek Kok
    Toby Leung


    Synopsis

    After a set-back in life, former Hong Kong undercover detective Pau Kai-chung (Chin Siu-ho) heads to the Wudang Mountains in Hubei, China to get away from life. At Wudang he re-connects with his former marital arts senior Mo Yee-shan (Yuen Qiu), who now operates an inn and martial arts school in the Wudang Mountains. She also takes in a mentally retarded man named Ho Ching-tung (Derek Kok) with a mysterious past. Kai-chung takes up a job as a chef at Yee-shan's inn. All is peaceful until a group of martial art students lead by Yee-shan's daughter Lok Yeung (Tavia Yeung) arrives. Lok Yeung and Kai-chung had previously met in Hong Kong, their encounter in Wudang brings back painful memories for Kai-chung. But Lok Yeung's true intentions for returning to Wudang is to persuade her mother to sell the inn and martial arts school to a Hong Kong investment group. Yee-shan makes a deal with Lok Yeung, that she will agree to sell the inn and martial arts school if Lok Yeung can win a competition within three months. Yee-shan pretends to be injured so Kai-chung would takeover as instructor at the martial art school. Soon Ching-tung regains his mind and exposes Kai-chung's true identity, which puts all at Wudang in danger.

    Cast
    Main cast
    Chin Siu-ho as Pau Kai-chung
    Tavia Yeung as Lok Yeung
    Yuen Qiu as Mo Yee-shan
    Timmy Hung as Cheung Ka-kong
    Derek Kok as Ho Ching-tung
    Toby Leung as Yeung Ching-wu

    http://thetvdb.com/?tab=series&id=295905&






    Code
    Video
    ID                             : 1
    Format                         : AVC
    Format/Info                    : Advanced Video Codec
    Format profile                 : Main@L4.0
    Format settings, CABAC         : Yes
    Format settings, ReFrames      : 4 frames
    Codec ID                       : V_MPEG4/ISO/AVC
    Bit rate                       : 4 500 Kbps
    Width                          : 1 280 pixels
    Height                         : 720 pixels
    Display aspect ratio           : 16:9
    Frame rate mode                : Variable
    Color space                    : YUV
    Chroma subsampling             : 4:2:0
    Bit depth                      : 8 bits
    Scan type                      : Progressive
    Title                          : Wudang.Rules.E10.HDTV.H264.720p-Wutang
    Writing library                : x264 core 130 r2273 b3065e6
    Language                       : Chinese
    Default                        : Yes
    Forced                         : No
    Color primaries                : BT.709
    Transfer characteristics       : BT.709
    Matrix coefficients            : BT.709

    Audio
    ID                             : 2
    Format                         : AC-3
    Format/Info                    : Audio Coding 3
    Mode extension                 : CM (complete main)
    Format settings, Endianness    : Big
    Codec ID                       : A_AC3
    Duration                       : 44mn 7s
    Bit rate mode                  : Constant
    Bit rate                       : 384 Kbps
    Channel(s)                     : 6 channels
    Channel positions              : Front: L C R, Side: L R, LFE
    Sampling rate                  : 48.0 KHz
    Bit depth                      : 16 bits
    Compression mode               : Lossy
    Stream size                    : 121 MiB (8%)
    Language                       : Chinese
    Default                        : Yes
    Forced                         : No

    Text
    ID                             : 3
    Format                         : UTF-8
    Codec ID                       : S_TEXT/UTF8
    Codec ID/Info                  : UTF-8 Plain Text
    Default                        : Yes
    Forced                         : No





    0 0

    Original Post: TVB Wudang.Rules.E11.HDTV.H264.720p-W

    Also known as Wudang Worship
    Created by Hong Kong Television Broadcasts Limited
    Theme music composer Alan Cheung
    No. of episodes 20
    Original release 25 May 2015 – 19 June 2015
    Subtitles English srt (embedded)

    Starring
    Chin Siu-ho
    Tavia Yeung
    Yuen Qiu
    Timmy Hung
    Derek Kok
    Toby Leung


    Synopsis

    After a set-back in life, former Hong Kong undercover detective Pau Kai-chung (Chin Siu-ho) heads to the Wudang Mountains in Hubei, China to get away from life. At Wudang he re-connects with his former marital arts senior Mo Yee-shan (Yuen Qiu), who now operates an inn and martial arts school in the Wudang Mountains. She also takes in a mentally retarded man named Ho Ching-tung (Derek Kok) with a mysterious past. Kai-chung takes up a job as a chef at Yee-shan's inn. All is peaceful until a group of martial art students lead by Yee-shan's daughter Lok Yeung (Tavia Yeung) arrives. Lok Yeung and Kai-chung had previously met in Hong Kong, their encounter in Wudang brings back painful memories for Kai-chung. But Lok Yeung's true intentions for returning to Wudang is to persuade her mother to sell the inn and martial arts school to a Hong Kong investment group. Yee-shan makes a deal with Lok Yeung, that she will agree to sell the inn and martial arts school if Lok Yeung can win a competition within three months. Yee-shan pretends to be injured so Kai-chung would takeover as instructor at the martial art school. Soon Ching-tung regains his mind and exposes Kai-chung's true identity, which puts all at Wudang in danger.

    Cast
    Main cast
    Chin Siu-ho as Pau Kai-chung
    Tavia Yeung as Lok Yeung
    Yuen Qiu as Mo Yee-shan
    Timmy Hung as Cheung Ka-kong
    Derek Kok as Ho Ching-tung
    Toby Leung as Yeung Ching-wu

    http://thetvdb.com/?tab=series&id=295905&






    Code
    Video
    ID                             : 1
    Format                         : AVC
    Format/Info                    : Advanced Video Codec
    Format profile                 : Main@L4.0
    Format settings, CABAC         : Yes
    Format settings, ReFrames      : 4 frames
    Codec ID                       : V_MPEG4/ISO/AVC
    Bit rate                       : 4 500 Kbps
    Width                          : 1 280 pixels
    Height                         : 720 pixels
    Display aspect ratio           : 16:9
    Frame rate mode                : Variable
    Color space                    : YUV
    Chroma subsampling             : 4:2:0
    Bit depth                      : 8 bits
    Scan type                      : Progressive
    Title                          : Wudang.Rules.E11.HDTV.H264.720p-Wutang
    Writing library                : x264 core 130 r2273 b3065e6
    Language                       : Chinese
    Default                        : Yes
    Forced                         : No
    Color primaries                : BT.709
    Transfer characteristics       : BT.709
    Matrix coefficients            : BT.709

    Audio
    ID                             : 2
    Format                         : AC-3
    Format/Info                    : Audio Coding 3
    Mode extension                 : CM (complete main)
    Format settings, Endianness    : Big
    Codec ID                       : A_AC3
    Duration                       : 44mn 7s
    Bit rate mode                  : Constant
    Bit rate                       : 384 Kbps
    Channel(s)                     : 6 channels
    Channel positions              : Front: L C R, Side: L R, LFE
    Sampling rate                  : 48.0 KHz
    Bit depth                      : 16 bits
    Compression mode               : Lossy
    Stream size                    : 121 MiB (8%)
    Language                       : Chinese
    Default                        : Yes
    Forced                         : No

    Text
    ID                             : 3
    Format                         : UTF-8
    Codec ID                       : S_TEXT/UTF8
    Codec ID/Info                  : UTF-8 Plain Text
    Default                        : Yes
    Forced                         : No





    0 0

    Original Post: Sala 2014 720p BluRay x264-WiKi





    Detail:
    Title: Sala
    Genre: Drama
    Release Date: 6 December 2014
    Runtime: 73 min
    Director: Kôtarô Wajima
    Rating: 4.4/10 (5 votes)
    Country: Japan
    Language: Japanese
    Subtitles:Chinese

    Synopsis:
    Sala is a teacher at an all-female high school who‘s involved in a sexual relationship with one of her underage students. When she hears that her father has been involved in a violent crime, she visits his home and discovers a boy named Moto who‘s been kept there as a sex slave. Fearing the consequences if news got out of her father‘s crime, Sala continues harboring the boy and begins to feel sexually attracted to him.

    Cast:
    Seiko Fujimura, Hayate Matsuzaki, Ryû Morioka








    Code

    Video
    ID                                       : 1
    Format                                   : AVC
    Format/Info                              : Advanced Video Codec
    Format profile                           : High@L4.1
    Format settings, CABAC                   : Yes
    Format settings, ReFrames                : 9 frames
    Codec ID                                 : V_MPEG4/ISO/AVC
    Duration                                 : 1h 13mn
    Bit rate                                 : 4 446 Kbps
    Width                                    : 1 280 pixels
    Height                                   : 720 pixels
    Display aspect ratio                     : 16:9
    Frame rate                               : 23.976 fps
    Color space                              : YUV
    Chroma subsampling                       : 4:2:0
    Bit depth                                : 8 bits
    Scan type                                : Progressive
    Bits/(Pixel*Frame)                       : 0.201
    Stream size                              : 2.29 GiB (94%)
    Writing library                          : x264 core 142 r2431+42 c69a006 tMod [8-bit@all X86_64]
    Encoding settings                        : cabac=1 / ref=9 / deblock=1:-2:-2 / analyse=0x3:0x133 / me=umh / subme=10 / psy=1 / fade_compensate=0.00 / psy_rd=1.05:0.05 / mixed_ref=1 / me_range=32 / chroma_me=1 / trellis=2 / 8x8dct=1 / cqm=0 / deadzone=21,11 / fast_pskip=0 / chroma_qp_offset=-3 / threads=12 / lookahead_threads=3 / sliced_threads=0 / nr=0 / decimate=0 / interlaced=0 / bluray_compat=0 / constrained_intra=0 / fgo=0 / bframes=10 / b_pyramid=2 / b_adapt=2 / b_bias=0 / direct=3 / weightb=1 / open_gop=0 / weightp=2 / keyint=250 / keyint_min=23 / scenecut=40 / intra_refresh=0 / rc=crf / mbtree=0 / crf=15.5000 / qcomp=0.75 / qpmin=0:0:0 / qpmax=69:69:69 / qpstep=4 / ip_ratio=1.40 / pb_ratio=1.30 / aq=1:0.90 / aq-sensitivity=10.00 / aq-factor=1.00:1.00:1.00 / aq2=0 / aq3=0
    Language                                 : Japanese
    Default                                  : Yes
    Forced                                   : No
    Matrix coefficients                      : BT.709-5, BT.1361, IEC 61966-2-4 709, SMPTE RP177

    Audio
    ID                                       : 2
    Format                                   : AC-3
    Format/Info                              : Audio Coding 3
    Mode extension                           : CM (complete main)
    Format settings, Endianness              : Big
    Codec ID                                 : A_AC3
    Duration                                 : 1h 13mn
    Bit rate mode                            : Constant
    Bit rate                                 : 192 Kbps
    Channel(s)                               : 2 channels
    Channel positions                        : Front: L R
    Sampling rate                            : 48.0 KHz
    Bit depth                                : 16 bits
    Compression mode                         : Lossy
    Stream size                              : 101 MiB (4%)
    Language                                 : Japanese
    Default                                  : Yes
    Forced                                   : No

    Text #1
    ID                                       : 3
    Format                                   : ASS
    Codec ID                                 : S_TEXT/ASS
    Codec ID/Info                            : Advanced Sub Station Alpha
    Compression mode                         : Lossless
    Title                                    : CHS
    Language                                 : Chinese
    Default                                  : No
    Forced                                   : No

    Text #2
    ID                                       : 4
    Format                                   : ASS
    Codec ID                                 : S_TEXT/ASS
    Codec ID/Info                            : Advanced Sub Station Alpha
    Compression mode                         : Lossless
    Title                                    : CHT
    Language                                 : Chinese
    Default                                  : No
    Forced                                   : No



    0 0

    Original Post: King of Mask Singer E10 720p WITH



    Hangul: 복면가왕
    Genre: Variety Show
    Language: Korean
    Country: South Korea
    Subtitles: No Subtitles

    Cast:
    11 Celebrity Judges + 1 Main MC:
    - Kim Sung Joo - Main MC (Dad, Where Are We Going?)
    - Kim Gura - Sub MC (JTBC War of Words, MBC Radio Star, Quiz to Change the World)
    - So Yi Hyun - Sub MC (Heartstrings, Cheongdamdong Alice, Three Days)
    - B1A4 Sandeul
    - Kim Hyung Seok (Music Producer - Kim Gunmo, Baby Vox, Jo Sung Mo, etc)
    - Ji Sang Ryeol (X-Man, 1 Night 2 Days)
    - Hwang Seok Jung (Lost in Love, Hello Schoolgirl)
    - Kim Jung Nam (Turbo 1995-97)
    - ZE:A Kwanghee
    - Shin Bong Sun (Heroes, Happy Together)
    - Yoo Sang Moo (Gag Concert, Comedy Big League, I Am a Man)
    - Girl's Day Yura


    When you have to compete with only your voice, who will be the last singer standing? “King of Mask Singer” is a South Korean variety show where the participants compete against each other wearing masks to hide their true identities. The contestants may be famous singers or stars who have always aspired to sing – but they all have one thing in common. They must all compete with their vocals alone because no one will know their true identities until the very end! Enjoy these highlight clips from the popular variety show, featuring MCs Kim Sung Joo and Kim Goo Ra.

    Format of the Show:
    - 11 Celebrity Judges and 88 Audience Voters = 99 Votes
    - All singers initially are masked.
    - Round 1: Duet with 2 members, 99 Voters will choose which of the 2 contestants sang better.
    - Round 2 + 3: Each contestant sings their own song.
    - Loser in each vote gets their identity revealed, and is eliminated.
    - Final Winner stays unknown to the audience and judges, but revealed at the end of the broadcast to the viewers.


    Code

    General
    Format                                   : MPEG-4
    Format profile                           : Base Media
    Codec ID                                 : isom
    File size                                : 1.37 GiB
    Duration                                 : 1h 19mn
    Overall bit rate mode                    : Variable
    Overall bit rate                         : 2 472 Kbps

    Video
    ID                                       : 1
    Format                                   : AVC
    Format/Info                              : Advanced Video Codec
    Format profile                           : Baseline@L1.3
    Format settings, CABAC                   : No
    Format settings, ReFrames                : 1 frame
    Codec ID                                 : avc1
    Codec ID/Info                            : Advanced Video Coding
    Duration                                 : 1h 19mn
    Bit rate                                 : 2 200 Kbps
    Maximum bit rate                         : 10.6 Mbps
    Width                                    : 1 280 pixels
    Height                                   : 720 pixels
    Display aspect ratio                     : 16:9
    Frame rate mode                          : Constant
    Frame rate                               : 29.970 fps
    Color space                              : YUV
    Chroma subsampling                       : 4:2:0
    Bit depth                                : 8 bits
    Scan type                                : Progressive
    Bits/(Pixel*Frame)                       : 0.080
    Stream size                              : 1.22 GiB (90%)
    Writing library                          : x264 core 128 r2216 198a7ea
    Encoding settings                        : cabac=0 / ref=1 / deblock=1:0:0 / analyse=0x1:0x111 / me=hex / subme=7 / psy=1 / psy_rd=1.00:0.00 / mixed_ref=0 / me_range=16 / chroma_me=1 / trellis=1 / 8x8dct=0 / cqm=0 / deadzone=21,11 / fast_pskip=1 / chroma_qp_offset=-2 / threads=12 / lookahead_threads=2 / sliced_threads=0 / nr=0 / decimate=1 / interlaced=0 / bluray_compat=0 / constrained_intra=0 / bframes=0 / weightp=0 / keyint=250 / keyint_min=25 / scenecut=40 / intra_refresh=0 / rc_lookahead=40 / rc=abr / mbtree=1 / bitrate=2200 / ratetol=1.0 / qcomp=0.60 / qpmin=0 / qpmax=69 / qpstep=4 / vbv_maxrate=50000 / vbv_bufsize=50000 / nal_hrd=none / ip_ratio=1.40 / aq=1:1.00

    Audio
    ID                                       : 2
    Format                                   : AAC
    Format/Info                              : Advanced Audio Codec
    Format profile                           : LC
    Codec ID                                 : 40
    Duration                                 : 1h 19mn
    Bit rate mode                            : Variable
    Bit rate                                 : 256 Kbps
    Maximum bit rate                         : 262 Kbps
    Channel(s)                               : 2 channels
    Channel positions                        : Front: L R
    Sampling rate                            : 48.0 KHz
    Compression mode                         : Lossy
    Stream size                              : 145 MiB (10%)







    *Please PM me if there is something wrong, Don't ask for subtitle. smile1.gif

    Don't try to HIT AND RUN. Don't forget to seed minimum at least 1.5.. Please always seed, since I will not re-upload If it already deleted on my seedbox.



    0 0

    Original Post: Young Warrior on Mount Fuji (1962 DVDRIP)

    Japanese history comes to life in this superb telling of the ultimate showdown between these powerful clans to take supremacy for good!

    Title: Young Warrior on Mount Fuji
    Japanese title: Fuji ni tatsu wakamusha
    Director: Tadashi Sawashima
    Genre: Jidaigeki / Action / Drama
    Release date: 1962
    Runtime: 1hr 32min 54sec
    Language: Japanese
    Country: Japan
    Subtitles: English (hardcoded)
    IMDB URL:http://www.imdb.com/title/tt0187029/

    Synopsis: The epic battles between the Heike and Genji (Taira and Minamoto clans) take centerstage as the defeated leader of the Genji, Minamoto Yoritomo resolves to end his clan's exile and avenge the brutal loss in December, 1159 as they had fought under the white banner of the Emperor, while the Taira fought under their red flags in a battle to the death. The fight only took one day, with the Genji suffering utter defeat which led to their exile. His father, Yoshitomo, took responsibility for the loss and rather than live in humiliation, he decides to commit suicide with all his sons following him. However, the bravest warrior among them, Yoritomo stands tall and declares that he will not kill himself, but rather will fight to restore the clan.

    Starring:Hashizô Ôkawa, Kunio Koga, Sônosuke Sawamura



    Screen Shots







    Technical Information

    Video
    ID                                       : 1
    Format                                   : AVC
    Format/Info                              : Advanced Video Codec
    Format profile                           : Main@L4.0
    Format settings, CABAC                   : Yes
    Format settings, ReFrames                : 4 frames
    Codec ID                                 : V_MPEG4/ISO/AVC
    Bit rate                                 : 2 082 Kbps
    Width                                    : 702 pixels
    Height                                   : 376 pixels
    Display aspect ratio                     : 1.705
    Original display aspect ratio            : 1.707
    Frame rate mode                          : Variable
    Color space                              : YUV
    Chroma subsampling                       : 4:2:0
    Bit depth                                : 8 bits
    Scan type                                : Progressive
    Writing library                          : x264 core 142 r2479 dd79a61
    Encoding settings                        : cabac=1 / ref=1 / deblock=1:0:0 / analyse=0x1:0x111 / me=hex / subme=2 / psy=1 / psy_rd=1.00:0.00 / mixed_ref=0 / me_range=16 / chroma_me=1 / trellis=0 / 8x8dct=0 / cqm=0 / deadzone=21,11 / fast_pskip=1 / chroma_qp_offset=0 / threads=6 / lookahead_threads=2 / sliced_threads=0 / nr=0 / decimate=1 / interlaced=0 / bluray_compat=0 / constrained_intra=0 / bframes=3 / b_pyramid=2 / b_adapt=1 / b_bias=0 / direct=1 / weightb=1 / open_gop=0 / weightp=1 / keyint=300 / keyint_min=30 / scenecut=40 / intra_refresh=0 / rc_lookahead=10 / rc=crf / mbtree=1 / crf=20.0 / qcomp=0.60 / qpmin=0 / qpmax=69 / qpstep=4 / vbv_maxrate=20000 / vbv_bufsize=25000 / crf_max=0.0 / nal_hrd=none / filler=0 / ip_ratio=1.40 / aq=1:1.00
    Default                                  : Yes
    Forced                                   : No
    Color primaries                          : BT.601 NTSC
    Transfer characteristics                 : BT.709
    Matrix coefficients                      : BT.601
    Color range                              : Limited

    Audio
    ID                                       : 2
    Format                                   : AC-3
    Format/Info                              : Audio Coding 3
    Mode extension                           : CM (complete main)
    Format settings, Endianness              : Big
    Codec ID                                 : A_AC3
    Duration                                 : 1h 32mn
    Bit rate mode                            : Constant
    Bit rate                                 : 256 Kbps
    Channel(s)                               : 2 channels
    Channel positions                        : Front: L R
    Sampling rate                            : 48.0 KHz
    Bit depth                                : 16 bits
    Compression mode                         : Lossy
    Stream size                              : 170 MiB (11%)
    Title                                    : Stereo
    Default                                  : Yes
    Forced                                   : No

    Text
    ID                                       : 3
    Format                                   : ASS
    Codec ID                                 : S_TEXT/ASS
    Codec ID/Info                            : Advanced Sub Station Alpha
    Compression mode                         : Lossless
    Default                                  : Yes
    Forced                                   : No


    0 0

    Original Post: High.Society.E02.150609.HDTV.X264-LIMO

    http://thetvdb.com/?tab=series&id=296433

    Synopsis
    A love story between a woman, who is looking for a man who can love her although she is not wealthy, and an indigent man, who thinks love is simply a tool that the ruling class uses in order to control the people under them.

    Cast
    Main Cast
    UEE as Jang Yoon Ha (27)
    Sung Joon as Choi Joon Ki (29)
    Park Hyung Shik as Yoo Chang Soo (29)
    Im Ji Yeon as Lee Ji Yi (27)









    Code
    Video
    ID                             : 1
    Format                         : AVC
    Format/Info                    : Advanced Video Codec
    Format profile                 : Main@L4.0
    Format settings, CABAC         : Yes
    Format settings, ReFrames      : 4 frames
    Codec ID                       : V_MPEG4/ISO/AVC
    Duration                       : 58mn 44s
    Bit rate                       : 450 Kbps
    Width                          : 624 pixels
    Height                         : 350 pixels
    Display aspect ratio           : 16:9
    Frame rate mode                : Constant
    Frame rate                     : 29.970 fps
    Color space                    : YUV
    Chroma subsampling             : 4:2:0
    Bit depth                      : 8 bits
    Scan type                      : Progressive
    Bits/(Pixel*Frame)             : 0.069
    Stream size                    : 190 MiB (76%)
    Writing library                : x264 core 130 r2273 b3065e6
    Encoding settings              : cabac=1 / ref=1 / deblock=1:0:0 / analyse=0x1:0x111 / me=hex / subme=2 / psy=1 / psy_rd=1.00:0.00 / mixed_ref=0 / me_range=16 / chroma_me=1 / trellis=0 / 8x8dct=0 / cqm=0 / deadzone=21,11 / fast_pskip=1 / chroma_qp_offset=0 / threads=1 / lookahead_threads=1 / sliced_threads=0 / nr=0 / decimate=1 / interlaced=0 / bluray_compat=0 / constrained_intra=0 / bframes=3 / b_pyramid=2 / b_adapt=1 / b_bias=0 / direct=1 / weightb=1 / open_gop=0 / weightp=1 / keyint=300 / keyint_min=30 / scenecut=40 / intra_refresh=0 / rc_lookahead=10 / rc=abr / mbtree=1 / bitrate=450 / ratetol=1.0 / qcomp=0.60 / qpmin=0 / qpmax=69 / qpstep=4 / vbv_maxrate=20000 / vbv_bufsize=25000 / nal_hrd=none / ip_ratio=1.40 / aq=1:1.00
    Language                       : English
    Default                        : Yes
    Forced                         : No
    Color primaries                : BT.601 NTSC
    Transfer characteristics       : BT.709
    Matrix coefficients            : BT.601

    Audio
    ID                             : 2
    Format                         : MPEG Audio
    Format version                 : Version 1
    Format profile                 : Layer 3
    Mode                           : Joint stereo
    Mode extension                 : MS Stereo
    Codec ID                       : A_MPEG/L3
    Codec ID/Hint                  : MP3
    Duration                       : 58mn 44s
    Bit rate mode                  : Constant
    Bit rate                       : 128 Kbps
    Channel(s)                     : 2 channels
    Sampling rate                  : 48.0 KHz
    Compression mode               : Lossy
    Stream size                    : 53.8 MiB (22%)
    Default                        : Yes
    Forced                         : No



    0 0

    Original Post: High.Society.E02.150609.HDTV.H264.450p-LIMO

    http://thetvdb.com/?tab=series&id=296433

    Synopsis
    A love story between a woman, who is looking for a man who can love her although she is not wealthy, and an indigent man, who thinks love is simply a tool that the ruling class uses in order to control the people under them.

    Cast
    Main Cast
    UEE as Jang Yoon Ha (27)
    Sung Joon as Choi Joon Ki (29)
    Park Hyung Shik as Yoo Chang Soo (29)
    Im Ji Yeon as Lee Ji Yi (27)









    Code
    Video
    ID                                       : 0
    Format                                   : AVC
    Format/Info                              : Advanced Video Codec
    Format profile                           : High@L5.1
    Format settings, CABAC                   : Yes
    Format settings, ReFrames                : 4 frames
    Codec ID                                 : H264
    Bit rate                                 : 1 500 Kbps
    Width                                    : 800 pixels
    Height                                   : 450 pixels
    Display aspect ratio                     : 16:9
    Frame rate mode                          : Variable
    Frame rate                               : 29.970 fps
    Color space                              : YUV
    Chroma subsampling                       : 4:2:0
    Bit depth                                : 8 bits
    Scan type                                : Progressive
    Bits/(Pixel*Frame)                       : 0.139
    Stream size                              : 686 MiB (88%)
    Writing library                          : x264 core 112

    Audio
    ID                                       : 1
    Format                                   : MPEG Audio
    Format version                           : Version 1
    Format profile                           : Layer 3
    Mode                                     : Joint stereo
    Mode extension                           : MS Stereo
    Codec ID                                 : 55
    Codec ID/Hint                            : MP3
    Bit rate mode                            : Constant
    Bit rate                                 : 192 Kbps
    Channel(s)                               : 2 channels
    Sampling rate                            : 48.0 KHz
    Compression mode                         : Lossy
    Stream size                              : 88.3 MiB (11%)
    Alignment                                : Aligned on interleaves
    Interleave, duration                     : 24 ms (0.72 video frame)
    Writing library                          : LAME3.98.2
    Language                                 : Korean



    0 0

    Original Post: High.Society.E02.150609.HDTV.H264.720p-LIMO

    http://thetvdb.com/?tab=series&id=296433

    Synopsis
    A love story between a woman, who is looking for a man who can love her although she is not wealthy, and an indigent man, who thinks love is simply a tool that the ruling class uses in order to control the people under them.

    Cast
    Main Cast
    UEE as Jang Yoon Ha (27)
    Sung Joon as Choi Joon Ki (29)
    Park Hyung Shik as Yoo Chang Soo (29)
    Im Ji Yeon as Lee Ji Yi (27)









    Code
    Video
    ID                               : 0
    Format                           : AVC
    Format/Info                      : Advanced Video Codec
    Format profile                   : High@L5.1
    Format settings, CABAC           : Yes
    Format settings, ReFrames        : 4 frames
    Codec ID                         : H264
    Duration                         : 1h 4mn
    Bit rate                         : 3 000 Kbps
    Width                            : 1 280 pixels
    Height                           : 720 pixels
    Display aspect ratio             : 16:9
    Frame rate mode                  : Variable
    Frame rate                       : 29.970 fps
    Color space                      : YUV
    Chroma subsampling               : 4:2:0
    Bit depth                        : 8 bits
    Scan type                        : Progressive
    Bits/(Pixel*Frame)               : 0.109
    Stream size                      : 1.35 GiB (94%)
    Writing library                  : x264 core 112
    Encoding settings                : cabac=1 / ref=3 / deblock=1:-1:-1 / analyse=0x3:0x113 / me=hex / subme=6 / psy=1 / psy_rd=1.00:1.00 / mixed_ref=1 / me_range=16 / chroma_me=1 / trellis=1 / 8x8dct=1 / cqm=0 / deadzone=21,11 / fast_pskip=0 / chroma_qp_offset=-4 / threads=12 / sliced_threads=0 / nr=0 / decimate=1 / interlaced=0 / constrained_intra=0 / bframes=3 / b_pyramid=2 / b_adapt=1 / b_bias=1 / direct=3 / weightb=1 / open_gop=0 / weightp=2 / keyint=299 / keyint_min=25 / scenecut=1 / intra_refresh=0 / rc_lookahead=40 / rc=abr / mbtree=1 / bitrate=3000 / ratetol=1.0 / qcomp=0.60 / qpmin=10 / qpmax=51 / qpstep=4 / ip_ratio=1.40 / aq=1:1.00

    Audio
    ID                               : 1
    Format                           : MPEG Audio
    Format version                   : Version 1
    Format profile                   : Layer 3
    Mode                             : Joint stereo
    Mode extension                   : MS Stereo
    Codec ID                         : 55
    Codec ID/Hint                    : MP3
    Duration                         : 1h 4mn
    Bit rate mode                    : Constant
    Bit rate                         : 192 Kbps
    Channel(s)                       : 2 channels
    Sampling rate                    : 48.0 KHz
    Stream size                      : 88.0 MiB (6%)
    Alignment                        : Split accross interleaves
    Interleave, duration             : 33 ms (1.00 video frame)
    Interleave, preload duration     : 500 ms
    Writing library                  : LAME3.98.2



    0 0

    Original Post: Who Are You - School.2015.E14.150609.HDTV.XviD-LIMO

    Details

    Title: 후아유 - 학교 2015 / Hooayoo - Hakgyo 2015
    Also known as: 학교 6 (School 6)
    Genre: School, youth, drama, mystery
    Episodes: 16
    Broadcast network: KBS2
    Broadcast period: 2015-Apr-27 to 2015-???-??
    Air time: Monday & Tuesday 22:00
    Original Soundtrack: Who Are You - School 2015 OST
    Related TV Shows: School 1 (KBS2, 1999), School 2 (KBS2, 1999), School 3 (KBS2, 2000), School 4 (KBS2, 2001), School 2013 (KBS2, 2013)
    http://thetvdb.com/?tab=series&id=294815

    Synopsis

    This drama is a latest installment to the famed School Series. It will focus on portraying realistic issues, struggles, and dilemmas of today’s youths.

    Segang High School is a top school located in Gangnam District, Seoul. One of the students, Lee Eun Bi, wake up one day without knowing who she was. After find out that she used to be bullied, she changes herself and becomes popular. She then tries to recover her lost memories, and in the process, discovers the hidden truths behind her famous school.

    Cast
    Main Cast
    Kim So Hyun as Lee Eun Bi / Go Eun Byul
    Nam Joo Hyuk as Han Yi Ahn
    Yook Sung Jae as Gong Tae Kwang
    Extended Cast
    Lee Pil Mo as Teacher Kim Joon Suk
    Lee David as Park Min Joon
    Kim Hee Jung as Cha Song Joo
    Lee Cho Hee as Lee Shi Jin
    Jo Soo Hyang as Kang So Young
    Segang High School's teachers
    Lee Hee Do as Vice Principal
    Shin Jung Geun as Students' Supervisor
    The parents
    Jun Mi Sun as Song Mi Kyung (Eun Byul's mother)
    Lee Dae Yeon as Han Ki Choon (Yi Ahn's father)
    Jun Noh Min as Gong Jae Ho (Tae Kwang's father)
    Kim Jung Nan as Shin Jung Min (Min Joon's mother)
    Jung In Ki as Park Joon Hyung (Min Joon's father)
    Kim Se Ah as Shi Jin's mother
    Class 2-3 students
    Park Doo Shik as Kwon Ki Tae
    Yoo Young as Jo Hae Na
    Jang In Sub as Sung Yoon Jae
    Kim Bo Ra as Seo Young Eun






    Code
    Video
    ID                                       : 0
    Format                                   : MPEG-4 Visual
    Format profile                           : Advanced Simple@L5
    Format settings, BVOP                    : No
    Format settings, QPel                    : No
    Format settings, GMC                     : No warppoints
    Format settings, Matrix                  : Default (MPEG)
    Codec ID                                 : XVID
    Codec ID/Hint                            : XviD
    Duration                                 : 1h 6mn
    Bit rate                                 : 1 391 Kbps
    Width                                    : 624 pixels
    Height                                   : 352 pixels
    Display aspect ratio                     : 16:9
    Frame rate                               : 29.970 fps
    Color space                              : YUV
    Chroma subsampling                       : 4:2:0
    Bit depth                                : 8 bits
    Scan type                                : Progressive
    Compression mode                         : Lossy
    Bits/(Pixel*Frame)                       : 0.211
    Stream size                              : 660 MiB (87%)
    Writing library                          : XviD 1.2.1 (UTC 2008-12-04)

    Audio
    ID                                       : 1
    Format                                   : MPEG Audio
    Format version                           : Version 1
    Format profile                           : Layer 3
    Mode                                     : Joint stereo
    Mode extension                           : MS Stereo
    Codec ID                                 : 55
    Codec ID/Hint                            : MP3
    Duration                                 : 1h 6mn
    Bit rate mode                            : Constant
    Bit rate                                 : 128 Kbps
    Channel(s)                               : 2 channels
    Sampling rate                            : 48.0 KHz
    Compression mode                         : Lossy
    Stream size                              : 60.8 MiB (8%)
    Alignment                                : Aligned on interleaves
    Writing library                          : LAME3.98.2



    0 0

    Original Post: Who Are You - School.2015.E14.150609.HDTV.H264.720p-LIMO

    Details

    Title: 후아유 - 학교 2015 / Hooayoo - Hakgyo 2015
    Also known as: 학교 6 (School 6)
    Genre: School, youth, drama, mystery
    Episodes: 16
    Broadcast network: KBS2
    Broadcast period: 2015-Apr-27 to 2015-???-??
    Air time: Monday & Tuesday 22:00
    Original Soundtrack: Who Are You - School 2015 OST
    Related TV Shows: School 1 (KBS2, 1999), School 2 (KBS2, 1999), School 3 (KBS2, 2000), School 4 (KBS2, 2001), School 2013 (KBS2, 2013)
    http://thetvdb.com/?tab=series&id=294815

    Synopsis

    This drama is a latest installment to the famed School Series. It will focus on portraying realistic issues, struggles, and dilemmas of today’s youths.

    Segang High School is a top school located in Gangnam District, Seoul. One of the students, Lee Eun Bi, wake up one day without knowing who she was. After find out that she used to be bullied, she changes herself and becomes popular. She then tries to recover her lost memories, and in the process, discovers the hidden truths behind her famous school.

    Cast
    Main Cast
    Kim So Hyun as Lee Eun Bi / Go Eun Byul
    Nam Joo Hyuk as Han Yi Ahn
    Yook Sung Jae as Gong Tae Kwang
    Extended Cast
    Lee Pil Mo as Teacher Kim Joon Suk
    Lee David as Park Min Joon
    Kim Hee Jung as Cha Song Joo
    Lee Cho Hee as Lee Shi Jin
    Jo Soo Hyang as Kang So Young
    Segang High School's teachers
    Lee Hee Do as Vice Principal
    Shin Jung Geun as Students' Supervisor
    The parents
    Jun Mi Sun as Song Mi Kyung (Eun Byul's mother)
    Lee Dae Yeon as Han Ki Choon (Yi Ahn's father)
    Jun Noh Min as Gong Jae Ho (Tae Kwang's father)
    Kim Jung Nan as Shin Jung Min (Min Joon's mother)
    Jung In Ki as Park Joon Hyung (Min Joon's father)
    Kim Se Ah as Shi Jin's mother
    Class 2-3 students
    Park Doo Shik as Kwon Ki Tae
    Yoo Young as Jo Hae Na
    Jang In Sub as Sung Yoon Jae
    Kim Bo Ra as Seo Young Eun







    Code
    Video
    ID                             : 0
    Format                         : AVC
    Format/Info                    : Advanced Video Codec
    Format profile                 : High@L5.1
    Format settings, CABAC         : Yes
    Format settings, ReFrames      : 4 frames
    Codec ID                       : H264
    Duration                       : 1h 14mn
    Bit rate                       : 3 000 Kbps
    Width                          : 1 280 pixels
    Height                         : 720 pixels
    Display aspect ratio           : 16:9
    Frame rate mode                : Variable
    Frame rate                     : 29.970 fps
    Color space                    : YUV
    Chroma subsampling             : 4:2:0
    Bit depth                      : 8 bits
    Scan type                      : Progressive
    Bits/(Pixel*Frame)             : 0.109
    Stream size                    : 1.57 GiB (94%)
    Writing library                : x264 core 112
    Encoding settings              : cabac=1 / ref=3 / deblock=1:-1:-1 / analyse=0x3:0x113 / me=hex / subme=6 / psy=1 / psy_rd=1.00:1.00 / mixed_ref=1 / me_range=16 / chroma_me=1 / trellis=1 / 8x8dct=1 / cqm=0 / deadzone=21,11 / fast_pskip=0 / chroma_qp_offset=-4 / threads=12 / sliced_threads=0 / nr=0 / decimate=1 / interlaced=0 / constrained_intra=0 / bframes=3 / b_pyramid=2 / b_adapt=1 / b_bias=1 / direct=3 / weightb=1 / open_gop=0 / weightp=2 / keyint=299 / keyint_min=25 / scenecut=1 / intra_refresh=0 / rc_lookahead=40 / rc=abr / mbtree=1 / bitrate=3000 / ratetol=1.0 / qcomp=0.60 / qpmin=10 / qpmax=51 / qpstep=4 / ip_ratio=1.40 / aq=1:1.00

    Audio
    ID                             : 1
    Format                         : MPEG Audio
    Format version                 : Version 1
    Format profile                 : Layer 3
    Mode                           : Joint stereo
    Mode extension                 : MS Stereo
    Codec ID                       : 55
    Codec ID/Hint                  : MP3
    Duration                       : 1h 14mn
    Bit rate mode                  : Constant
    Bit rate                       : 192 Kbps
    Channel(s)                     : 2 channels
    Sampling rate                  : 48.0 KHz
    Compression mode               : Lossy
    Stream size                    : 102 MiB (6%)
    Alignment                      : Split accross interleaves
    Interleave, duration           : 33 ms (1.00 video frame)
    Interleave, preload duration   : 500 ms
    Writing library                : LAME3.98



    0 0

    Original Post: Hwajung.E18.150609.HDTV.XviD-LIMO

    Details
    Title: 화정 / Hwajung
    Also known as: Splendid Politics
    Previously known as: Princess Jungmyung
    Genre: Historical, political, romance
    Episodes: 50
    Broadcast network: MBC
    Broadcast period: 2015-Apr-13 to 2015-Oct-??
    Air time: Monday & Tuesday 22:00
    Subtitles by Dramafever will be added later
    http://thetvdb.com/?tab=series&id=293910

    Synopsis
    Fair Princess Jungmyung (Lee Yeon Hee) lives a life of the highest privilege, until her half-brother Prince Gwanghae (Cha Seung Won) executes the rightful crown prince and usurps the throne. Exiled from court, Jungmyung goes under disguise as a man and learns to adapt to life as a commoner — never forgetting Gwanghae's wrongdoing. But amidst rampant corruption throughout the kingdom, can Jyungmyung exact her vengeance, restore order and take back her rightful place in the palace?

    Cast

    Main Cast
    Cha Seung Won as Prince Gwanghae
    Lee Tae Hwan as teen Gwanghae
    Lee Yun Hee as Princess Jungmyung
    Jung Chan Bi as teen Jungmyung
    Seo Jung Eun as child Jungmyung
    Kim Jae Won as King Injo
    Seo Kang Joon as Hong Ju Won
    Yoon Chan Young as teen Ju Won
    Choi Kwon Ju as child Ju Won
    Han Joo Wan as Kang In Woo
    Ahn Do Gyu as teen In Woo






    Code
    Video
    ID                                       : 0
    Format                                   : MPEG-4 Visual
    Format profile                           : Advanced Simple@L5
    Format settings, BVOP                    : No
    Format settings, QPel                    : No
    Format settings, GMC                     : No warppoints
    Format settings, Matrix                  : Default (MPEG)
    Codec ID                                 : XVID
    Codec ID/Hint                            : XviD
    Duration                                 : 1h 6mn
    Bit rate                                 : 1 391 Kbps
    Width                                    : 624 pixels
    Height                                   : 352 pixels
    Display aspect ratio                     : 16:9
    Frame rate                               : 29.970 fps
    Color space                              : YUV
    Chroma subsampling                       : 4:2:0
    Bit depth                                : 8 bits
    Scan type                                : Progressive
    Compression mode                         : Lossy
    Bits/(Pixel*Frame)                       : 0.211
    Stream size                              : 660 MiB (87%)
    Writing library                          : XviD 1.2.1 (UTC 2008-12-04)

    Audio
    ID                                       : 1
    Format                                   : MPEG Audio
    Format version                           : Version 1
    Format profile                           : Layer 3
    Mode                                     : Joint stereo
    Mode extension                           : MS Stereo
    Codec ID                                 : 55
    Codec ID/Hint                            : MP3
    Duration                                 : 1h 6mn
    Bit rate mode                            : Constant
    Bit rate                                 : 128 Kbps
    Channel(s)                               : 2 channels
    Sampling rate                            : 48.0 KHz
    Compression mode                         : Lossy
    Stream size                              : 60.8 MiB (8%)
    Alignment                                : Aligned on interleaves
    Writing library                          : LAME3.98.2



    0 0

    Original Post: Hwajung.E18.150609.HDTV.H264.720p-LIMO

    Details
    Title: 화정 / Hwajung
    Also known as: Splendid Politics
    Previously known as: Princess Jungmyung
    Genre: Historical, political, romance
    Episodes: 50
    Broadcast network: MBC
    Broadcast period: 2015-Apr-13 to 2015-Oct-??
    Air time: Monday & Tuesday 22:00
    Subtitles by Dramafever will be added later
    http://thetvdb.com/?tab=series&id=293910

    Synopsis
    Fair Princess Jungmyung (Lee Yeon Hee) lives a life of the highest privilege, until her half-brother Prince Gwanghae (Cha Seung Won) executes the rightful crown prince and usurps the throne. Exiled from court, Jungmyung goes under disguise as a man and learns to adapt to life as a commoner — never forgetting Gwanghae's wrongdoing. But amidst rampant corruption throughout the kingdom, can Jyungmyung exact her vengeance, restore order and take back her rightful place in the palace?

    Cast

    Main Cast
    Cha Seung Won as Prince Gwanghae
    Lee Tae Hwan as teen Gwanghae
    Lee Yun Hee as Princess Jungmyung
    Jung Chan Bi as teen Jungmyung
    Seo Jung Eun as child Jungmyung
    Kim Jae Won as King Injo
    Seo Kang Joon as Hong Ju Won
    Yoon Chan Young as teen Ju Won
    Choi Kwon Ju as child Ju Won
    Han Joo Wan as Kang In Woo
    Ahn Do Gyu as teen In Woo







    Code
    Video
    ID                             : 0
    Format                         : AVC
    Format/Info                    : Advanced Video Codec
    Format profile                 : High@L5.1
    Format settings, CABAC         : Yes
    Format settings, ReFrames      : 4 frames
    Codec ID                       : H264
    Duration                       : 1h 14mn
    Bit rate                       : 3 000 Kbps
    Width                          : 1 280 pixels
    Height                         : 720 pixels
    Display aspect ratio           : 16:9
    Frame rate mode                : Variable
    Frame rate                     : 29.970 fps
    Color space                    : YUV
    Chroma subsampling             : 4:2:0
    Bit depth                      : 8 bits
    Scan type                      : Progressive
    Bits/(Pixel*Frame)             : 0.109
    Stream size                    : 1.57 GiB (94%)
    Writing library                : x264 core 112
    Encoding settings              : cabac=1 / ref=3 / deblock=1:-1:-1 / analyse=0x3:0x113 / me=hex / subme=6 / psy=1 / psy_rd=1.00:1.00 / mixed_ref=1 / me_range=16 / chroma_me=1 / trellis=1 / 8x8dct=1 / cqm=0 / deadzone=21,11 / fast_pskip=0 / chroma_qp_offset=-4 / threads=12 / sliced_threads=0 / nr=0 / decimate=1 / interlaced=0 / constrained_intra=0 / bframes=3 / b_pyramid=2 / b_adapt=1 / b_bias=1 / direct=3 / weightb=1 / open_gop=0 / weightp=2 / keyint=299 / keyint_min=25 / scenecut=1 / intra_refresh=0 / rc_lookahead=40 / rc=abr / mbtree=1 / bitrate=3000 / ratetol=1.0 / qcomp=0.60 / qpmin=10 / qpmax=51 / qpstep=4 / ip_ratio=1.40 / aq=1:1.00

    Audio
    ID                             : 1
    Format                         : MPEG Audio
    Format version                 : Version 1
    Format profile                 : Layer 3
    Mode                           : Joint stereo
    Mode extension                 : MS Stereo
    Codec ID                       : 55
    Codec ID/Hint                  : MP3
    Duration                       : 1h 14mn
    Bit rate mode                  : Constant
    Bit rate                       : 192 Kbps
    Channel(s)                     : 2 channels
    Sampling rate                  : 48.0 KHz
    Compression mode               : Lossy
    Stream size                    : 102 MiB (6%)
    Alignment                      : Split accross interleaves
    Interleave, duration           : 33 ms (1.00 video frame)
    Interleave, preload duration   : 500 ms
    Writing library                : LAME3.98



    0 0

    Original Post: Hibi Rock Puke Afro and the Pop Star 2014 720p BluRay x264-WiKi





    Detail:
    Title: Hibi Rock Puke Afro and the Pop Star
    Genre: Comedy
    Release Date: 22 November 2014 (Japan)
    Runtime: 110 mins
    Director: Yû Irie
    Rating: 6.8/10 (12 votes)
    Country: Japan
    Language: Japanese
    Subtitles:Chinese

    Synopsis:
    Takuro Hibinuma had no talent for sports or aptitude for studying throughout high school and never had a girlfriend. However, he found his true calling when he began playing rock music. While in high school, he formed a rock band with his friends. After graduation, they move to Tokyo and begin playing live shows. One day, Takuro meets a world-renowned musician named Saki Utagawa and his fate is irrevocably altered.

    Cast:
    Naoto Takenaka, Fumi Nikaidô, Yoshikazu Ebisu








    Code

    Video
    ID                                       : 1
    Format                                   : AVC
    Format/Info                              : Advanced Video Codec
    Format profile                           : High@L4.1
    Format settings, CABAC                   : Yes
    Format settings, ReFrames                : 9 frames
    Codec ID                                 : V_MPEG4/ISO/AVC
    Duration                                 : 1h 50mn
    Width                                    : 1 280 pixels
    Height                                   : 690 pixels
    Display aspect ratio                     : 1.85:1
    Frame rate                               : 23.976 fps
    Color space                              : YUV
    Chroma subsampling                       : 4:2:0
    Bit depth                                : 8 bits
    Scan type                                : Progressive
    Language                                 : Japanese
    Default                                  : Yes
    Forced                                   : No
    Matrix coefficients                      : BT.709-5, BT.1361, IEC 61966-2-4 709, SMPTE RP177

    Audio
    ID                                       : 2
    Format                                   : AC-3
    Format/Info                              : Audio Coding 3
    Codec ID                                 : A_AC3
    Duration                                 : 1h 50mn
    Channel(s)                               : 6 channels
    Sampling rate                            : 48.0 KHz
    Compression mode                         : Lossy
    Language                                 : Japanese
    Default                                  : Yes
    Forced                                   : No

    Text #1
    ID                                       : 3
    Format                                   : ASS
    Codec ID                                 : S_TEXT/ASS
    Codec ID/Info                            : Advanced Sub Station Alpha
    Compression mode                         : Lossless
    Title                                    : CHS
    Language                                 : Chinese
    Default                                  : No
    Forced                                   : No

    Text #2
    ID                                       : 4
    Format                                   : ASS
    Codec ID                                 : S_TEXT/ASS
    Codec ID/Info                            : Advanced Sub Station Alpha
    Compression mode                         : Lossless
    Title                                    : CHT
    Language                                 : Chinese
    Default                                  : No
    Forced                                   : No



    0 0

    Original Post: I'm.Home.EP08.720p.HDTV.x264.AAC



    http://wiki.d-addicts.com/I%27m_Home_%28TV_Asahi%29
    http://asianwiki.com/I%27m_Home
    http://thetvdb.com/?tab=series&id=293799&lid=7

    Title: アイムホーム
    Title (English): I'm home
    Format: Renzoku
    Genre: Family mystery
    Broadcast network: TV Asahi
    Episodes: 10
    Broadcast period: 2015-Apr-16 to 2015-Jun-18
    Air time: Thursday 21:00
    Language: Japanese
    Country: Japan
    Subtitles: English here: Watanuki and Chiyoko Fansub

    Cast
       Kimura Takuya as Ieji Hisashi
       Ueto Aya as Ieji Megumi
       Mizuno Miki as Nozawa Kaoru
       Tanaka Kei as Honjo Tsuyoshi
       Suzuki Kosuke as Watanuki Shinji
       Yoshimoto Miyu as Takanashi Yua
       Ino Manabu (猪野学) as Hifumi Tsutomu
       Anami Atsuko as Isami Yoko
       Nomaguchi Toru as Iwashita Noboru
       Yano Masato as Tokura Shingo
       Takahashi Rai (高橋來) as Ieji Yoshio
       Yamaguchi Mayu (山口まゆ) as Nozawa Subaru
       Arai Hirofumi as Kuroki Jin
       Mitsuishi Ken as Todoroki Haruki
       Watanabe Ikkei as Teshigawara Yosuke
       Oikawa Mitsuhiro as Tsukuba Yoshiaki
       Nishida Toshiyuki as Kozukue Yukio

    Synopsis
    Ieji Hisashi, a salaryman who works for a securities company, has a fuzzy memory of the recent five years because of an accident at his job posting. His wife of five years, Megumi and their 4-year-old son seem to wear masks. He can neither tell their facial expressions nor their emotions. He also struggles about his love for them. On the other hand, Ieji feels an attachment to his ex-wife, whom he divorced five years ago, and their daughter. What sort of days did he have in those five years which are a blank to him? Ieji sets out on a journey to find his past self with a mysterious bunch of 10 keys that he has. He becomes aware that he was a cold, career-minded man before the accident, and the persona that is gradually revealed is beyond the imagination of his present kindhearted self.

    General
    Complete name                  : I'm.Home.EP08.720p.HDTV.x264.AAC.mp4
    Format                         : MPEG-4
    Format profile                 : Base Media / Version 2
    Codec ID                       : mp42
    File size                      : 695 MiB
    Duration                       : 47mn 14s
    Overall bit rate mode          : Variable
    Overall bit rate               : 2 057 Kbps

    Video
    ID                             : 1
    Format                         : AVC
    Format/Info                    : Advanced Video Codec
    Format profile                 : High@L4.1
    Format settings, CABAC         : Yes
    Format settings, ReFrames      : 4 frames
    Codec ID                       : avc1
    Codec ID/Info                  : Advanced Video Coding
    Duration                       : 47mn 14s
    Bit rate mode                  : Variable
    Bit rate                       : 1 920 Kbps
    Width                          : 1 280 pixels
    Height                         : 720 pixels
    Display aspect ratio           : 16:9
    Frame rate mode                : Constant
    Frame rate                     : 29.970 fps
    Standard                       : Component
    Color space                    : YUV
    Chroma subsampling             : 4:2:0
    Bit depth                      : 8 bits
    Scan type                      : Progressive
    Bits/(Pixel*Frame)             : 0.070
    Stream size                    : 649 MiB (93%)

    Audio
    ID                             : 2
    Format                         : AAC
    Format/Info                    : Advanced Audio Codec
    Format profile                 : LC
    Codec ID                       : 40
    Duration                       : 47mn 14s
    Bit rate mode                  : Variable
    Bit rate                       : 132 Kbps
    Maximum bit rate               : 576 Kbps
    Channel count                  : 2 channels
    Channel positions              : Front: L R
    Sampling rate                  : 48.0 KHz
    Compression mode               : Lossy







    0 0

    Original Post: Rebels of the Neon God 1992 720p BluRay x264-MELiTE Tsai Ming-liang



    Rebels of the Neon God

    Original Title:青少年哪吒
    IMDb:http://www.imdb.com/title/tt0103935
    AsianWiki:http://asianwiki.com/Rebels_of_the_Neon_God
    Wikipedia:http://en.wikipedia.org/wiki/Rebels_of_the_Neon_God
    Review:RogerEbert.com

    Director: Tsai Ming-liang
    Writer: Tsai Ming-liang
    Genre: Drama
    Year: 1992
    Runtime: 106 min
    Country: Taiwan
    Language: Mandarin
    Subtitles: English

    Synopsis: Defying his parents, Hsiao Kang drops out of the local crammer to head for the bright lights of downtown Taipei. He falls in with Ah Tze, a petty hood, and their relationships is a confused mixture of hero-worship and rivalry that soon leads to trouble.

    Uploader's Comments: This has some differences with much of Tsai's later work, notably the use of hand-held cameras and a fairly prevalent score. You can already see inklings of a lot of what he's known for today, like the long takes and sparse dialog. I think it's one of Tsai's best and thus a great example of the Taiwanese new wave cinema.

    MediaInfo
    Spoiler:show
    General
    Unique ID                                : 204444591342519354044062411674901610012 (0x99CE98964DD293F09CBA1A9625C8FE1C)
    Complete name                            : m-rotng-720p.mkv
    Format                                   : Matroska
    Format version                           : Version 2
    File size                                : 4.37 GiB
    Duration                                 : 1h 46mn
    Overall bit rate                         : 5 851 Kbps
    Encoded date                             : UTC 2015-06-09 01:21:33
    Writing application                      : mkvmerge v5.0.1 ('Es ist Sommer') built on Oct  9 2011 11:55:43
    Writing library                          : libebml v1.2.2 + libmatroska v1.3.0

    Video
    ID                                       : 1
    Format                                   : AVC
    Format/Info                              : Advanced Video Codec
    Format profile                           : High@L4.1
    Format settings, CABAC                   : Yes
    Format settings, ReFrames                : 5 frames
    Muxing mode                              : Header stripping
    Codec ID                                 : V_MPEG4/ISO/AVC
    Duration                                 : 1h 46mn
    Bit rate                                 : 5 212 Kbps
    Width                                    : 1 280 pixels
    Height                                   : 696 pixels
    Display aspect ratio                     : 1.85:1
    Frame rate mode                          : Constant
    Frame rate                               : 24.000 fps
    Color space                              : YUV
    Chroma subsampling                       : 4:2:0
    Bit depth                                : 8 bits
    Scan type                                : Progressive
    Bits/(Pixel*Frame)                       : 0.244
    Stream size                              : 3.81 GiB (87%)
    Writing library                          : x264 core 146 r2538 121396c
    Encoding settings                        : cabac=1 / ref=5 / deblock=1:0:0 / analyse=0x3:0x113 / me=umh / subme=7 / psy=1 / psy_rd=1.00:0.00 / mixed_ref=1 / me_range=16 / chroma_me=1 / trellis=1 / 8x8dct=1 / cqm=0 / deadzone=21,11 / fast_pskip=0 / chroma_qp_offset=-2 / threads=12 / lookahead_threads=2 / sliced_threads=0 / nr=0 / decimate=1 / interlaced=0 / bluray_compat=0 / constrained_intra=0 / bframes=3 / b_pyramid=2 / b_adapt=1 / b_bias=0 / direct=1 / weightb=1 / open_gop=0 / weightp=2 / keyint=250 / keyint_min=23 / scenecut=40 / intra_refresh=0 / rc_lookahead=40 / rc=2pass / mbtree=1 / bitrate=5212 / ratetol=1.0 / qcomp=0.60 / qpmin=0 / qpmax=69 / qpstep=4 / cplxblur=20.0 / qblur=0.5 / ip_ratio=1.40 / aq=1:1.00
    Language                                 : English
    Default                                  : Yes
    Forced                                   : No

    Audio
    ID                                       : 2
    Format                                   : AC-3
    Format/Info                              : Audio Coding 3
    Mode extension                           : CM (complete main)
    Format settings, Endianness              : Big
    Muxing mode                              : Header stripping
    Codec ID                                 : A_AC3
    Duration                                 : 1h 46mn
    Bit rate mode                            : Constant
    Bit rate                                 : 640 Kbps
    Channel(s)                               : 2 channels
    Channel positions                        : Front: L R
    Sampling rate                            : 48.0 KHz
    Bit depth                                : 16 bits
    Compression mode                         : Lossy
    Stream size                              : 490 MiB (11%)
    Default                                  : Yes
    Forced                                   : No

    Text
    ID                                       : 3
    Format                                   : UTF-8
    Codec ID                                 : S_TEXT/UTF8
    Codec ID/Info                            : UTF-8 Plain Text
    Language                                 : English
    Default                                  : Yes
    Forced                                   : No


    Matt Zoller Seitz @ RogerEbert.com :
    You never feel that Tsai is trying to shoehorn conventional devices into an unconventional project; it's more like he's practicing or experimenting with such focus and control that he always seems to be testing notions and propositions rather than just futzing around. "Rebels" is as much a film about observation and sensation and feeling as Tsai's subsequent movies, and it's also the unofficial opening chapter in what looks to be a loosely linked ongoing series. But it's lighter than much of his later work—improbably so, given the unstinting view of poverty cited throughout this review.






    0 0

    Original Post: The.Lover.E09.150604.HDTV.XviD-WITH

    Warning: this show is rated 19+ and contains mature content

    http://thetvdb.com/index.php?tab=series&id=293517
    Title: The Lover 더 러버
    Genre: Historical, Melodrama, Romance, Suspense
    Episodes: 12
    Broadcast network: MNET
    Broadcast period (Korea): 2015-APRIL -02 to
    Air time: Thursday 23:00

    It’s an omnibus series about four different couples living together in one apartment complex. Oh Do Si and Ryu Du Ri play the main couple in their 30s, who’ve been living together for two years. Oh Do Si is a voice actor, and Ryu Du Ri is a reviewer who runs a blog. They’re an average 30-something couple and they simply chose to live together instead of getting married. Choi Jin Nye and Jung Young Joon are couple that’s twelve years apart in age. She’s a penny-pincher who basically supports her younger boyfriend, and he’s a musician who carries a guitar but doesn’t know how to play it. They’ve been living together for a year, and though they fight like cats and dogs, they’re always quick to make up. Ha Seoul Eun and Park Hwan Jong are a 20-something couple that just moved in together. She’s the type of woman who doesn’t want her boyfriend to know that she isn’t the perfect embodiment of femininity, and works tirelessly to keep up the illusion. Lee Joon Jae is a loner who prefers to stay at home, but is forced to get a roommate for financial reasons. He doesn’t even want to exchange unnecessary small talk with the guy, and thus seeks out a foreigner who can’t speak Korean very well. Takuya is the new roommate, a young man from Japan who’s on a trip around the world. Takyua thinks it a shame that Lee Jae-joon is wasting his youth as a homebody, and begins to draw him out into the world.

    - Cast
    Oh Jung Se as Oh Do Si
    Ryu Hyun Kyung as Ryoo Doo Ri
    Choi Yeo Jin as Choi Jin Nyeo
    Jung Joon Young as Jeong Yeong Joon
    Ha Eun Sul as Ha Seol Eun
    Park Jong Hwan as Park Hwan Jong
    Lee Jae Joon as Lee Joon Jae
    Terada Takuya as Takuya










    Code
    Video
    ID                                       : 0
    Format                                   : MPEG-4 Visual
    Format profile                           : Advanced Simple@L5
    Format settings, BVOP                    : No
    Format settings, QPel                    : No
    Format settings, GMC                     : No warppoints
    Format settings, Matrix                  : Default (MPEG)
    Codec ID                                 : XVID
    Codec ID/Hint                            : XviD
    Bit rate                                 : 1 391 Kbps
    Width                                    : 624 pixels
    Height                                   : 352 pixels
    Display aspect ratio                     : 16:9
    Frame rate                               : 29.970 fps
    Color space                              : YUV
    Chroma subsampling                       : 4:2:0
    Bit depth                                : 8 bits
    Scan type                                : Progressive
    Compression mode                         : Lossy
    Bits/(Pixel*Frame)                       : 0.211
    Stream size                              : 660 MiB (87%)
    Writing library                          : XviD 1.2.1 (UTC 2008-12-04)

    Audio
    ID                                       : 1
    Format                                   : MPEG Audio
    Format version                           : Version 1
    Format profile                           : Layer 3
    Mode                                     : Joint stereo
    Mode extension                           : MS Stereo
    Codec ID                                 : 55
    Codec ID/Hint                            : MP3
    Bit rate mode                            : Constant
    Bit rate                                 : 128 Kbps
    Channel(s)                               : 2 channels
    Sampling rate                            : 48.0 KHz
    Compression mode                         : Lossy
    Stream size                              : 60.8 MiB (8%)
    Alignment                                : Aligned on interleaves
    Writing library                          : LAME3.98.2



    0 0

    Original Post: The.Lover.E09.150604.HDTV.H264.720p-WITH

    Warning: this show is rated 19+ and contains mature content
    http://thetvdb.com/index.php?tab=series&id=293517
    Title: The Lover 더 러버
    Genre: Historical, Melodrama, Romance, Suspense
    Episodes: 12
    Broadcast network: MNET
    Broadcast period (Korea): 2015-APRIL -02 to
    Air time: Thursday 23:00

    It’s an omnibus series about four different couples living together in one apartment complex. Oh Do Si and Ryu Du Ri play the main couple in their 30s, who’ve been living together for two years. Oh Do Si is a voice actor, and Ryu Du Ri is a reviewer who runs a blog. They’re an average 30-something couple and they simply chose to live together instead of getting married. Choi Jin Nye and Jung Young Joon are couple that’s twelve years apart in age. She’s a penny-pincher who basically supports her younger boyfriend, and he’s a musician who carries a guitar but doesn’t know how to play it. They’ve been living together for a year, and though they fight like cats and dogs, they’re always quick to make up. Ha Seoul Eun and Park Hwan Jong are a 20-something couple that just moved in together. She’s the type of woman who doesn’t want her boyfriend to know that she isn’t the perfect embodiment of femininity, and works tirelessly to keep up the illusion. Lee Joon Jae is a loner who prefers to stay at home, but is forced to get a roommate for financial reasons. He doesn’t even want to exchange unnecessary small talk with the guy, and thus seeks out a foreigner who can’t speak Korean very well. Takuya is the new roommate, a young man from Japan who’s on a trip around the world. Takyua thinks it a shame that Lee Jae-joon is wasting his youth as a homebody, and begins to draw him out into the world.

    - Cast
    Oh Jung Se as Oh Do Si
    Ryu Hyun Kyung as Ryoo Doo Ri
    Choi Yeo Jin as Choi Jin Nyeo
    Jung Joon Young as Jeong Yeong Joon
    Ha Eun Sul as Ha Seol Eun
    Park Jong Hwan as Park Hwan Jong
    Lee Jae Joon as Lee Joon Jae
    Terada Takuya as Takuya










    Code

    Video
    ID                                       : 0
    Format                                   : AVC
    Format/Info                              : Advanced Video Codec
    Format profile                           : Baseline@L3.1
    Format settings, CABAC                   : No
    Format settings, ReFrames                : 1 frame
    Codec ID                                 : H264
    Bit rate                                 : 3 017 Kbps
    Width                                    : 1 280 pixels
    Height                                   : 720 pixels
    Display aspect ratio                     : 16:9
    Frame rate mode                          : Variable
    Frame rate                               : 29.970 fps
    Color space                              : YUV
    Chroma subsampling                       : 4:2:0
    Bit depth                                : 8 bits
    Scan type                                : Progressive
    Bits/(Pixel*Frame)                       : 0.109

    Audio
    ID                                       : 1
    Format                                   : MPEG Audio
    Format version                           : Version 1
    Format profile                           : Layer 3
    Mode                                     : Joint stereo
    Mode extension                           : MS Stereo
    Codec ID                                 : 55
    Codec ID/Hint                            : MP3
    Bit rate mode                            : Constant
    Bit rate                                 : 128 Kbps
    Channel(s)                               : 2 channels
    Sampling rate                            : 44.1 KHz
    Compression mode                         : Lossy
    Stream size                              : 62.1 MiB (4%)
    Alignment                                : Aligned on interleaves
    Interleave, duration                     : 26 ms (0.78 video frame)
    Writing library                          : LAME3.98.2



older | 1 | .... | 1365 | 1366 | (Page 1367) | 1368 | 1369 | .... | 1405 | newer