Are you the publisher? Claim or contact us about this channel


Embed this content in your HTML

Search

Report adult content:

click to rate:

Account: (login)

More Channels


Showcase


Channel Catalog


Channel Description:

Asia Torrents RSS Feed

older | 1 | .... | 1368 | 1369 | (Page 1370) | 1371 | 1372 | .... | 1405 | newer

    0 0

    Original Post: Be With You (2015) E29 Eng Sub (Ongoing) 720p



    Title: Be with you
    Chinese Title: 好想談戀愛
    Also Known as: Be with you
    Genre: Modern, Romance
    Episodes: - 70
    Broadcast network: SETTV
    Broadcast period: April 14, 2015 to ?
    Thetvdb: none
    Subtitles: English subtitles credit to Viki or DF, thanks to abugemilang

    Synopsis:
    Can a young woman gather the courage she needs to approach a high school crush? Xia Man Li (Vivi Lee) was always popular in school and was even voted prom queen of her high school, but she has always been unlucky in love. When she attends a high school reunion, she meets up again with Zhao Li Qi (Nylon Chen), a sweet guy that she used to have a crush on. Man Li’s younger sister, Xia Man An (Huang Pei Jia) also has fostered a childhood crush on Zheng Ying Jie (Bobby Dou), but despite all her efforts to get close to him, he always seem to have someone else by his side. A decade later, can the sisters gather the courage to follow their hearts?

    Cast:
    Nylon Chen
    Vivi Lee
    Bobby Dou
    Peijia Huang
    Serena Fang
    Edison Wang







    Video Codec:

    Code
    Video
    ID                                       : 1
    Format                                   : AVC
    Format/Info                              : Advanced Video Codec
    Format profile                           : Main@L3.1
    Format settings, CABAC                   : Yes
    Format settings, ReFrames                : 4 frames
    Codec ID                                 : avc1
    Codec ID/Info                            : Advanced Video Coding
    Duration                                 : 47mn 30s
    Bit rate                                 : 1 544 Kbps
    Width                                    : 1 280 pixels
    Height                                   : 720 pixels
    Display aspect ratio                     : 16:9
    Frame rate mode                          : Constant
    Frame rate                               : 29.970 fps
    Color space                              : YUV
    Chroma subsampling                       : 4:2:0
    Bit depth                                : 8 bits
    Scan type                                : Progressive
    Bits/(Pixel*Frame)                       : 0.056
    Stream size                              : 525 MiB (85%)
    Writing library                          : x264 core 138 r2 9e941d1
    Encoding settings                        : cabac=1 / ref=1 / deblock=1:0:0 / analyse=0x1:0 / me=dia / subme=2 / psy=1 / psy_rd=1.00:0.00 / mixed_ref=0 / me_range=16 / chroma_me=1 / trellis=0 / 8x8dct=0 / cqm=0 / deadzone=21,11 / fast_pskip=1 / chroma_qp_offset=0 / threads=12 / lookahead_threads=4 / sliced_threads=0 / nr=0 / decimate=1 / interlaced=0 / bluray_compat=0 / constrained_intra=0 / bframes=3 / b_pyramid=2 / b_adapt=1 / b_bias=0 / direct=1 / weightb=1 / open_gop=0 / weightp=2 / keyint=300 / keyint_min=29 / scenecut=40 / intra_refresh=0 / rc_lookahead=40 / rc=crf / mbtree=1 / crf=23.0 / qcomp=0.60 / qpmin=0 / qpmax=69 / qpstep=4 / ip_ratio=1.40 / aq=1:1.00
    Tagged date                              : UTC 2015-04-29 10:02:38

    Audio
    ID                                       : 2
    Format                                   : AAC
    Format/Info                              : Advanced Audio Codec
    Format profile                           : LC
    Codec ID                                 : 40
    Duration                                 : 47mn 30s
    Duration_LastFrame                       : -3ms
    Bit rate mode                            : Constant
    Bit rate                                 : 192 Kbps
    Channel(s)                               : 2 channels
    Channel positions                        : Front: L R
    Sampling rate                            : 48.0 KHz
    Compression mode                         : Lossy
    Stream size                              : 65.2 MiB (11%)
    Language                                 : English
    Tagged date                              : UTC 2015-04-29 10:02:38





    0 0

    Original Post: Be With You (2015) E30 Eng Sub (Ongoing) 720p



    Title: Be with you
    Chinese Title: 好想談戀愛
    Also Known as: Be with you
    Genre: Modern, Romance
    Episodes: - 70
    Broadcast network: SETTV
    Broadcast period: April 14, 2015 to ?
    Thetvdb: none
    Subtitles: English subtitles credit to Viki or DF, thanks to abugemilang

    Synopsis:
    Can a young woman gather the courage she needs to approach a high school crush? Xia Man Li (Vivi Lee) was always popular in school and was even voted prom queen of her high school, but she has always been unlucky in love. When she attends a high school reunion, she meets up again with Zhao Li Qi (Nylon Chen), a sweet guy that she used to have a crush on. Man Li’s younger sister, Xia Man An (Huang Pei Jia) also has fostered a childhood crush on Zheng Ying Jie (Bobby Dou), but despite all her efforts to get close to him, he always seem to have someone else by his side. A decade later, can the sisters gather the courage to follow their hearts?

    Cast:
    Nylon Chen
    Vivi Lee
    Bobby Dou
    Peijia Huang
    Serena Fang
    Edison Wang







    Video Codec:

    Code
    Video
    ID                                       : 1
    Format                                   : AVC
    Format/Info                              : Advanced Video Codec
    Format profile                           : Main@L3.1
    Format settings, CABAC                   : Yes
    Format settings, ReFrames                : 4 frames
    Codec ID                                 : avc1
    Codec ID/Info                            : Advanced Video Coding
    Duration                                 : 47mn 30s
    Bit rate                                 : 1 544 Kbps
    Width                                    : 1 280 pixels
    Height                                   : 720 pixels
    Display aspect ratio                     : 16:9
    Frame rate mode                          : Constant
    Frame rate                               : 29.970 fps
    Color space                              : YUV
    Chroma subsampling                       : 4:2:0
    Bit depth                                : 8 bits
    Scan type                                : Progressive
    Bits/(Pixel*Frame)                       : 0.056
    Stream size                              : 525 MiB (85%)
    Writing library                          : x264 core 138 r2 9e941d1
    Encoding settings                        : cabac=1 / ref=1 / deblock=1:0:0 / analyse=0x1:0 / me=dia / subme=2 / psy=1 / psy_rd=1.00:0.00 / mixed_ref=0 / me_range=16 / chroma_me=1 / trellis=0 / 8x8dct=0 / cqm=0 / deadzone=21,11 / fast_pskip=1 / chroma_qp_offset=0 / threads=12 / lookahead_threads=4 / sliced_threads=0 / nr=0 / decimate=1 / interlaced=0 / bluray_compat=0 / constrained_intra=0 / bframes=3 / b_pyramid=2 / b_adapt=1 / b_bias=0 / direct=1 / weightb=1 / open_gop=0 / weightp=2 / keyint=300 / keyint_min=29 / scenecut=40 / intra_refresh=0 / rc_lookahead=40 / rc=crf / mbtree=1 / crf=23.0 / qcomp=0.60 / qpmin=0 / qpmax=69 / qpstep=4 / ip_ratio=1.40 / aq=1:1.00
    Tagged date                              : UTC 2015-04-29 10:02:38

    Audio
    ID                                       : 2
    Format                                   : AAC
    Format/Info                              : Advanced Audio Codec
    Format profile                           : LC
    Codec ID                                 : 40
    Duration                                 : 47mn 30s
    Duration_LastFrame                       : -3ms
    Bit rate mode                            : Constant
    Bit rate                                 : 192 Kbps
    Channel(s)                               : 2 channels
    Channel positions                        : Front: L R
    Sampling rate                            : 48.0 KHz
    Compression mode                         : Lossy
    Stream size                              : 65.2 MiB (11%)
    Language                                 : English
    Tagged date                              : UTC 2015-04-29 10:02:38





    0 0

    Original Post: Wudang.Rules.E14.HDTV.H264.720p-W

    Also known as Wudang Worship
    Created by Hong Kong Television Broadcasts Limited
    Theme music composer Alan Cheung
    No. of episodes 20
    Original release 25 May 2015 – 19 June 2015
    Subtitles English srt (embedded)

    Starring
    Chin Siu-ho
    Tavia Yeung
    Yuen Qiu
    Timmy Hung
    Derek Kok
    Toby Leung


    Synopsis

    After a set-back in life, former Hong Kong undercover detective Pau Kai-chung (Chin Siu-ho) heads to the Wudang Mountains in Hubei, China to get away from life. At Wudang he re-connects with his former marital arts senior Mo Yee-shan (Yuen Qiu), who now operates an inn and martial arts school in the Wudang Mountains. She also takes in a mentally retarded man named Ho Ching-tung (Derek Kok) with a mysterious past. Kai-chung takes up a job as a chef at Yee-shan's inn. All is peaceful until a group of martial art students lead by Yee-shan's daughter Lok Yeung (Tavia Yeung) arrives. Lok Yeung and Kai-chung had previously met in Hong Kong, their encounter in Wudang brings back painful memories for Kai-chung. But Lok Yeung's true intentions for returning to Wudang is to persuade her mother to sell the inn and martial arts school to a Hong Kong investment group. Yee-shan makes a deal with Lok Yeung, that she will agree to sell the inn and martial arts school if Lok Yeung can win a competition within three months. Yee-shan pretends to be injured so Kai-chung would takeover as instructor at the martial art school. Soon Ching-tung regains his mind and exposes Kai-chung's true identity, which puts all at Wudang in danger.

    Cast
    Main cast
    Chin Siu-ho as Pau Kai-chung
    Tavia Yeung as Lok Yeung
    Yuen Qiu as Mo Yee-shan
    Timmy Hung as Cheung Ka-kong
    Derek Kok as Ho Ching-tung
    Toby Leung as Yeung Ching-wu

    http://thetvdb.com/?tab=series&id=295905&






    Code
    Video
    ID                             : 1
    Format                         : AVC
    Format/Info                    : Advanced Video Codec
    Format profile                 : Main@L4.0
    Format settings, CABAC         : Yes
    Format settings, ReFrames      : 4 frames
    Codec ID                       : V_MPEG4/ISO/AVC
    Bit rate                       : 4 500 Kbps
    Width                          : 1 280 pixels
    Height                         : 720 pixels
    Display aspect ratio           : 16:9
    Frame rate mode                : Variable
    Color space                    : YUV
    Chroma subsampling             : 4:2:0
    Bit depth                      : 8 bits
    Scan type                      : Progressive
    Title                          : Wudang.Rules.E14.HDTV.H264.720p-Wutang
    Writing library                : x264 core 130 r2273 b3065e6
    Language                       : Chinese
    Default                        : Yes
    Forced                         : No
    Color primaries                : BT.709
    Transfer characteristics       : BT.709
    Matrix coefficients            : BT.709

    Audio
    ID                             : 2
    Format                         : AC-3
    Format/Info                    : Audio Coding 3
    Mode extension                 : CM (complete main)
    Format settings, Endianness    : Big
    Codec ID                       : A_AC3
    Duration                       : 44mn 7s
    Bit rate mode                  : Constant
    Bit rate                       : 384 Kbps
    Channel(s)                     : 6 channels
    Channel positions              : Front: L C R, Side: L R, LFE
    Sampling rate                  : 48.0 KHz
    Bit depth                      : 16 bits
    Compression mode               : Lossy
    Stream size                    : 121 MiB (8%)
    Language                       : Chinese
    Default                        : Yes
    Forced                         : No

    Text
    ID                             : 3
    Format                         : UTF-8
    Codec ID                       : S_TEXT/UTF8
    Codec ID/Info                  : UTF-8 Plain Text
    Default                        : Yes
    Forced                         : No





    0 0

    Original Post: Sonnet Son – Warm and Cozy OST Part.5



    손승연 – 맨도롱 또똣 (MBC 수목드라마) OST – Part.5
    Release Date: 2015.06.11
    Genre: OST
    Language: Korean
    Bit Rate: MP3-320kbps
    credit o k2nblog

    Track List:

    01. 널 위한거야
    02. 널 위한거야 (Inst.)



    0 0

    Original Post: Bijo To Danshi EP07 720p HDTV x264 AAC-DoA

    Title (romaji): Bijo to Danshi
    Also known as: Beauty and the Fellow
    Format: Renzoku
    Genre: Drama
    Episodes: 20
    Broadcast network: NHK
    Broadcast period: 2015-Apr-14 to 2015-Aug-25
    Air time: Tuesday 22:00
    Theme song: Step by step by Hamasaki Ayumi
    Subtitles: No
    RAW credit to DoA

    Cast

       Nakama Yukie as Sawatari Ichiko
       Machida Keita as Sakisaka Ryo
       Segawa Ryo as as Sawatari Keigo
       Nakahara Takeo as Himura Atsushi
       Tajima Reiko as Himura Toshiko
       Tokunaga Eri as Himura Rika
       Kusakari Masao as Madarame Haruhiko
       Asano Kazuyuki as Shiota Mitsuru
       Morimoto Leo as Namiki Masao
       Takahashi George as Tadakoro Shinya
       Kurosaka Mami as Ogata Yumi
       Matsui Kazunori (松井一憲) as Kashimura Yuji
       Kitagawa Ayaka (北川絢椛) as Nishii Monami
       Koma Chiyo (小間千代) as Kogure Ai
       Maekawa Yasuyuki as Ishino Satoru
       Azuma Mikihisa as Daimon Ryutaro
       Maya Kyoko as Nakazato Reiko
       Nakayama Masei as Washimi Ukyo


    Synopsis

    Ichiko Sawatari (Yukie Nakama) is a career woman who works hard the planning department of  an IT company. One day, her boss,  Haruhiko Madarame (Masao Kusakari), gives her an oder to work at mangement company Hinode Pro. The two companies have a partnership. Ichiko Sawatari resists the transfer, but she takes the assignment under that condition that if she is able improve Hinode Pro then she will work as a manger at her IT company.

    Hinode Pro currently has only unpopular actors and actresses as clients. To revive the management company,Ichiko Sawatari sets out to find fresh new faces. She scouts Ryo Sakisaka (Keita Machida) at a construction site. Ichiko gets busy turning Ryo into a star.


    Mediainfo
    Spoiler:show

    Code
    Format                                   : Matroska
    Format version                           : Version 4 / Version 2
    File size                                : 1.28 GiB
    Duration                                 : 47mn 59s
    Overall bit rate                         : 3 813 Kbps
    Movie name                               : 美女と男子 第07話「ハリウッドが呼んでる」720p HDTV x264 AAC-DoA
    Encoded date                             : UTC 2015-06-05 21:04:27
    Writing application                      : mkvmerge v7.2.0 ('On Every Street') 32bit built on Sep 13 2014 15:42:11
    Writing library                          : libebml v1.3.0 + libmatroska v1.4.1
    DURATION                                 : 00:47:59.829000000
    NUMBER_OF_FRAMES                         : 134992
    NUMBER_OF_BYTES                          : 50623081
    _STATISTICS_WRITING_APP                  : mkvmerge v7.2.0 ('On Every Street') 32bit built on Sep 13 2014 15:42:11
    _STATISTICS_WRITING_DATE_UTC             : 2015-06-05 21:04:27
    _STATISTICS_TAGS                         : BPS DURATION NUMBER_OF_FRAMES NUMBER_OF_BYTES

    Video
    ID                                       : 1
    Format                                   : AVC
    Format/Info                              : Advanced Video Codec
    Format profile                           : High@L4.1
    Format settings, CABAC                   : Yes
    Format settings, ReFrames                : 9 frames
    Codec ID                                 : V_MPEG4/ISO/AVC
    Duration                                 : 47mn 59s
    Width                                    : 1 280 pixels
    Height                                   : 720 pixels
    Display aspect ratio                     : 16:9
    Frame rate mode                          : Constant
    Frame rate                               : 29.970 fps
    Color space                              : YUV
    Chroma subsampling                       : 4:2:0
    Bit depth                                : 8 bits
    Scan type                                : Progressive
    Title                                    : Encode by kt-DoA
    Writing library                          : x264 core 146 r2538 121396c
    Encoding settings                        : cabac=1 / ref=9 / deblock=1:-1:-1 / analyse=0x3:0x133 / me=umh / subme=10 / psy=1 / psy_rd=1.00:0.15 / mixed_ref=1 / me_range=48 / chroma_me=1 / trellis=2 / 8x8dct=1 / cqm=0 / deadzone=21,11 / fast_pskip=0 / chroma_qp_offset=-3 / threads=12 / lookahead_threads=2 / sliced_threads=0 / nr=0 / decimate=1 / interlaced=0 / bluray_compat=0 / constrained_intra=0 / bframes=8 / b_pyramid=2 / b_adapt=2 / b_bias=0 / direct=3 / weightb=1 / open_gop=0 / weightp=2 / keyint=300 / keyint_min=29 / scenecut=40 / intra_refresh=0 / rc_lookahead=60 / rc=crf / mbtree=1 / crf=17.1 / qcomp=0.60 / qpmin=0 / qpmax=69 / qpstep=4 / ip_ratio=1.40 / aq=1:1.00
    Default                                  : Yes
    Forced                                   : No
    DURATION                                 : 00:47:59.943000000
    NUMBER_OF_FRAMES                         : 86312
    NUMBER_OF_BYTES                          : 1320921887
    _STATISTICS_WRITING_APP                  : mkvmerge v7.2.0 ('On Every Street') 32bit built on Sep 13 2014 15:42:11
    _STATISTICS_WRITING_DATE_UTC             : 2015-06-05 21:04:27
    _STATISTICS_TAGS                         : BPS DURATION NUMBER_OF_FRAMES NUMBER_OF_BYTES

    Audio
    ID                                       : 2
    Format                                   : AAC
    Format/Info                              : Advanced Audio Codec
    Format profile                           : LC
    Codec ID                                 : A_AAC
    Duration                                 : 47mn 59s
    Channel(s)                               : 2 channels
    Channel positions                        : Front: L R
    Sampling rate                            : 48.0 KHz
    Compression mode                         : Lossy
    Delay relative to video                  : 7ms
    Language                                 : Japanese
    Default                                  : Yes
    Forced                                   : No








    0 0
  • 06/12/15--00:23: Dr. Rintaro ep09 480p
  • Original Post: Dr. Rintaro ep09 480p



    http://wiki.d-addicts.com/Dr._Rintaro
    http://asianwiki.com/Dr._Rintaro
    http://thetvdb.com/?tab=series&id=293875&lid=7

    Title: Dr.倫太郎
    Title (romaji): Dr. Rintaro
    Format: Renzoku
    Genre: Medical
    Episodes: 10
    Broadcast network: NTV
    Broadcast period: 2015-Apr-15 to 2015-Jun-17
    Air time: Wednesday 22:00
    Language: Japanese
    Country: Japan
    Subtitles: English here: torachan2006 (members only)
    RAW credit to furransu

    Cast
       Sakai Masato as Hino Rintaro
       Aoi Yu as Yumeno
       Kichise Michiko as Mizushima Yuriko
       Uchida Yuki as Kiryuu Kaoru
       Takanashi Rin as Kawakami Yoko
       Takahashi Issei as Fukuhara Daisaku
       Matobu Sei as Yabe Machiko
       Nakanishi Miho (中西美帆) as Koyume
       Yo Kimiko as Masuda Ikumi
       Endo Kenichi as Araki Shigeto
       Sakai Wakana as Nakahata Madoka
       Nagatsuka Keishi (長塚圭史) as Miyagawa Takahiro
       Matsushige Yutaka as Hasumi Eisuke
       Ishibashi Renji as Ike Masayuki
       Takahata Atsuko as Aizawa Ruriko
       Kohinata Fumiyo as Ennouji Kazuo

    Synopsis
    His name is Hino Rintaro. He listens closely to the aching hearts of people and relieves them of their pain. He is published and makes television appearances. The number of people waiting to receive his consultation continues to grow. Despite his achievements, Dr. Rintaro falls short in one department: love. He even dismisses it by saying “Falling in love is just like a passing mental illness.” One day, during a meal with the president of the university, Rintaro meets a woman. Her name is Yumeno, a highly sought-after geisha in Shimbashi. Little did Rintaro know that this encounter would drastically change his life. ~ NTV

    General
    Complete name                  : Dr. Rintaro ep09 (848x480 x264).mp4
    Format                         : MPEG-4
    Format profile                 : Base Media
    Codec ID                       : isom
    File size                      : 239 MiB
    Duration                       : 50mn 47s
    Overall bit rate mode          : Variable
    Overall bit rate               : 657 Kbps

    Video
    ID                             : 1
    Format                         : AVC
    Format/Info                    : Advanced Video Codec
    Format profile                 : High@L4.1
    Format settings, CABAC         : Yes
    Format settings, ReFrames      : 4 frames
    Codec ID                       : avc1
    Codec ID/Info                  : Advanced Video Coding
    Duration                       : 50mn 47s
    Bit rate                       : 524 Kbps
    Maximum bit rate               : 2 580 Kbps
    Width                          : 848 pixels
    Height                         : 480 pixels
    Display aspect ratio           : 16:9
    Frame rate mode                : Constant
    Frame rate                     : 29.970 fps
    Color space                    : YUV
    Chroma subsampling             : 4:2:0
    Bit depth                      : 8 bits
    Scan type                      : Progressive
    Bits/(Pixel*Frame)             : 0.043
    Stream size                    : 190 MiB (80%)

    Audio
    ID                             : 2
    Format                         : AAC
    Format/Info                    : Advanced Audio Codec
    Format profile                 : LC
    Codec ID                       : 40
    Duration                       : 50mn 47s
    Bit rate mode                  : Variable
    Bit rate                       : 128 Kbps
    Maximum bit rate               : 136 Kbps
    Channel(s)                     : 2 channels
    Channel positions              : Front: L R
    Sampling rate                  : 48.0 KHz
    Compression mode               : Lossy







    0 0

    Original Post: Ishitachi no Renai Jijou EP08 720p HDTV x264 AAC DoA

    Title (romaji): Ishitachi no Renai Jijou
    Also known as: Doctors' Affairs
    Format: Renzoku
    Genre: Romance, medical
    Episodes: TBD
    Broadcast network: Fuji TV
    Broadcast period: 2015-Apr-09 start
    Air time: Thursday 22:00
    Theme song: Don't be love by Shishido Kavka
    Subtitles: Yes (credits in the file)
    RAW credit to DoA

    Cast

       Saito Takumi as Morita Haruki
       Ishida Yuriko as Kondo Chizuru
       Aibu Saki as Kawai Nana
       Hirayama Hiroyuki as Takahashi Sotaro
       Miyake Hiroki as Oone Ryota
       Ihara Tsuyoshi as Nishi Yusuke
       Itaya Yuka as Ichikawa Tomoko
       Namase Katsuhisa as Watanabe Mikio

    Synopsis

    Morita Haruki is a surgeon who only thinks about saving patients 24 hours a day, every day. A compassionate man with a strong sense of justice, he pushes back against the university hospital system which prioritises profit and power. However, he has forgotten how to love because he has put work before romance and his hectic job. Haruki takes a position at a university hospital out of a desire to hone his skills as a surgeon. But it is a place where all sorts of desires swirl. He meets Kondo Chizuru, a surgeon who is his senior, here. Chizuru has been very wrapped up in her work and is now past
    marriageable age. He gets attracted to her little by little -- Jdrama Weblog


    Mediainfo
    Spoiler:show

    Code
    Format                                   : Matroska
    Format version                           : Version 4 / Version 2
    File size                                : 1.14 GiB
    Duration                                 : 46mn 24s
    Overall bit rate                         : 3 523 Kbps
    Movie name                               : 医師たちの恋愛事情 Story 08「3つの運命」720p HDTV x264 AAC-DoA
    Encoded date                             : UTC 2015-06-05 21:10:24
    Writing application                      : mkvmerge v7.2.0 ('On Every Street') 32bit built on Sep 13 2014 15:42:11
    Writing library                          : libebml v1.3.0 + libmatroska v1.4.1

    Video
    ID                                       : 1
    Format                                   : AVC
    Format/Info                              : Advanced Video Codec
    Format profile                           : High@L4.1
    Format settings, CABAC                   : Yes
    Format settings, ReFrames                : 9 frames
    Codec ID                                 : V_MPEG4/ISO/AVC
    Duration                                 : 46mn 24s
    Width                                    : 1 280 pixels
    Height                                   : 720 pixels
    Display aspect ratio                     : 16:9
    Frame rate mode                          : Constant
    Frame rate                               : 29.970 fps
    Color space                              : YUV
    Chroma subsampling                       : 4:2:0
    Bit depth                                : 8 bits
    Scan type                                : Progressive
    Title                                    : Encode by kt-DoA
    Writing library                          : x264 core 146 r2538 121396c
    Encoding settings                        : cabac=1 / ref=9 / deblock=1:-1:-1 / analyse=0x3:0x133 / me=umh / subme=10 / psy=1 / psy_rd=1.00:0.15 / mixed_ref=1 / me_range=48 / chroma_me=1 / trellis=2 / 8x8dct=1 / cqm=0 / deadzone=21,11 / fast_pskip=0 / chroma_qp_offset=-3 / threads=12 / lookahead_threads=2 / sliced_threads=0 / nr=0 / decimate=1 / interlaced=0 / bluray_compat=0 / constrained_intra=0 / bframes=8 / b_pyramid=2 / b_adapt=2 / b_bias=0 / direct=3 / weightb=1 / open_gop=0 / weightp=2 / keyint=300 / keyint_min=29 / scenecut=40 / intra_refresh=0 / rc_lookahead=60 / rc=crf / mbtree=1 / crf=17.6 / qcomp=0.60 / qpmin=0 / qpmax=69 / qpstep=4 / ip_ratio=1.40 / aq=1:1.00
    Default                                  : Yes
    Forced                                   : No

    Audio
    ID                                       : 2
    Format                                   : AAC
    Format/Info                              : Advanced Audio Codec
    Format profile                           : LC
    Codec ID                                 : A_AAC
    Duration                                 : 46mn 24s
    Channel(s)                               : 2 channels
    Channel positions                        : Front: L R
    Sampling rate                            : 48.0 KHz
    Compression mode                         : Lossy
    Delay relative to video                  : 4ms
    Language                                 : Japanese
    Default                                  : Yes
    Forced                                   : No

    Menu
    00:00:00.000                             : ja:Part A
    00:24:52.991                             : ja:Part B
    00:28:35.980                             : ja:Part C
    00:35:57.989                             : ja:Part D
    00:45:46.977                             : ja:次回予告








    0 0

    Original Post: DoS Deka EP09 720p HDTV x264 AAC-DoA

    Title (romaji): DoS Deka
    Also known as: Ms. Sadistic Detective
    Format: Renzoku
    Genre: Detective comedy
    Episodes: TBD
    Broadcast network: NTV
    Broadcast period: 2015-Apr-11 start
    Air time: Saturday 21:00
    Theme song: Tsuyoku Tsuyoku Tsuyoku by Kanjani8
    Subtitles: English - hikaruisyum
    RAW credit to DoA


    Cast

       Tabe Mikako as Kuroi Maya
       Okura Tadayoshi as Daikanyama Shusuke
       Yoshida Yo as Shirokane Fujiko
       Yaotome Hikaru as Hamda Soichiro
       Nakamura Yasuhi as Nakane Masanobu
       Katsumura Masanobu as Arisugawa Tsuneo
       Ishii Masanori as Yura Fumio
       Mitz Mangrove (ミッツ・マングローブ) as Inui Kenzaburo
       Seto Saori (瀬戸さおり) as Daikanyama Kaori
       Suga Yusuke (菅裕輔) as Ken-chan
       Ibu Masato as Kondo Tokuji
       Kishimoto Kayoko as Daikanyama Keiko


    Synopsis

    An uber-sadistic female detective and her nice-guy cop—an unbeatable partnership?! A delightful police comedy is born!

    She has no loyalty to her organization and doesn't follow any rules. She's a detective who enjoys seeing people's troubled faces. Her name is Kuroi Maya. She chose to become a detective because she thought she could torment bad people all she wants. With her sharp intuition, she finds the suspects quicker than anybody else. Beautiful but also a pain in the neck, she unleashes her sadistic ways to round up the bad people from society. This is a story about a never-before-seen uber-sadistic detective.

    Her unlucky partner? Daikanyama Shusuke, an officer who works in a police box. Caught in between a strong-willed mother and younger sister, he is constantly being pushed around at home. Shusuke and Maya have their chance encounter at a crime scene and the two end up as buddies. -- NTV


    Mediainfo
    Spoiler:show

    Code
    Format                                   : Matroska
    Format version                           : Version 4 / Version 2
    File size                                : 1.28 GiB
    Duration                                 : 45mn 59s
    Overall bit rate                         : 3 993 Kbps
    Movie name                               : ドS刑事 第9話 720p HDTV x264 AAC-DoA
    Encoded date                             : UTC 2015-06-07 04:16:10
    Writing application                      : mkvmerge v7.9.0 ('Birds') 64bit
    Writing library                          : libebml v1.3.1 + libmatroska v1.4.2
    DURATION                                 : 00:45:59.872000000
    NUMBER_OF_FRAMES                         : 129369
    NUMBER_OF_BYTES                          : 65072607
    _STATISTICS_WRITING_APP                  : mkvmerge v7.9.0 ('Birds') 64bit
    _STATISTICS_WRITING_DATE_UTC             : 2015-06-07 04:16:10
    _STATISTICS_TAGS                         : BPS DURATION NUMBER_OF_FRAMES NUMBER_OF_BYTES

    Video
    ID                                       : 1
    Format                                   : AVC
    Format/Info                              : Advanced Video Codec
    Format profile                           : High@L4.1
    Format settings, CABAC                   : Yes
    Format settings, ReFrames                : 9 frames
    Codec ID                                 : V_MPEG4/ISO/AVC
    Duration                                 : 45mn 59s
    Width                                    : 1 280 pixels
    Height                                   : 720 pixels
    Display aspect ratio                     : 16:9
    Frame rate mode                          : Constant
    Frame rate                               : 29.970 fps
    Color space                              : YUV
    Chroma subsampling                       : 4:2:0
    Bit depth                                : 8 bits
    Scan type                                : Progressive
    Title                                    : Encode by  TTG-DoA
    Writing library                          : x264 core 146 r2538 121396c
    Encoding settings                        : cabac=1 / ref=9 / deblock=1:-2:-2 / analyse=0x3:0x133 / me=umh / subme=10 / psy=1 / psy_rd=1.00:0.15 / mixed_ref=1 / me_range=48 / chroma_me=1 / trellis=2 / 8x8dct=1 / cqm=0 / deadzone=21,11 / fast_pskip=0 / chroma_qp_offset=-3 / threads=12 / lookahead_threads=2 / sliced_threads=0 / nr=0 / decimate=1 / interlaced=0 / bluray_compat=0 / constrained_intra=0 / bframes=8 / b_pyramid=2 / b_adapt=2 / b_bias=0 / direct=3 / weightb=1 / open_gop=0 / weightp=2 / keyint=300 / keyint_min=29 / scenecut=40 / intra_refresh=0 / rc_lookahead=60 / rc=crf / mbtree=1 / crf=17.3 / qcomp=0.60 / qpmin=0 / qpmax=69 / qpstep=4 / ip_ratio=1.40 / aq=1:1.00
    Language                                 : Japanese
    Default                                  : Yes
    Forced                                   : No
    _STATISTICS_WRITING_APP                  : mkvmerge v7.9.0 ('Birds') 64bit
    _STATISTICS_WRITING_DATE_UTC             : 2015-06-07 04:16:10
    _STATISTICS_TAGS                         : BPS DURATION NUMBER_OF_FRAMES NUMBER_OF_BYTES
    DURATION                                 : 00:45:59.857000000
    NUMBER_OF_FRAMES                         : 82713
    NUMBER_OF_BYTES                          : 1311575947

    Audio
    ID                                       : 2
    Format                                   : AAC
    Format/Info                              : Advanced Audio Codec
    Format profile                           : LC
    Codec ID                                 : A_AAC
    Duration                                 : 45mn 59s
    Channel(s)                               : 2 channels
    Channel positions                        : Front: L R
    Sampling rate                            : 48.0 KHz
    Compression mode                         : Lossy
    Language                                 : Japanese
    Default                                  : Yes
    Forced                                   : No

    Menu
    00:00:00.000                             : ja:Chapter 01
    00:05:18.985                             : ja:Chapter 02
    00:15:09.942                             : ja:Chapter 03
    00:21:45.904                             : ja:Chapter 04








    0 0

    Original Post: Fuben na Benriya EP09 720p HDTV x264 AAC DoA

    Title (romaji): Fuben na Benriya
    Format: Renzoku
    Genre: Comedy
    Episodes: TBD
    Broadcast network: TV Tokyo
    Broadcast period: 2015-Apr-10 start
    Air time: Friday 24:12
    Theme song: The Place Has No Name by Straightener
    Subtitles: English - Monchi  
    RAW credit to DoA


    Cast

       Okada Masaki as Takeyama Jun
       Suzuki Kosuke as Matsui Hideo
       Endo Kenichi as Umemoto Soichi
       Moriyama Eiji (森山栄治)
       Triendl Reina
       Morisaka Hiroyuki (森崎博之)
       Sakuma Mio (さくまみお)
       Tanaka Yoji
       Inoue Takashi


    Synopsis

    Matsui runs a benriya (odd jobs for hire) in a small nameless Hokkaido village. Umemoto has divorced 3 times. Screenwriter Takeyama (Masaki Okada) wants to go to Furano, but the bus to Furano becomes stranded due to a snowstorm. Takeyama stops at a bar to eat something, but at the bar he loses his wallet and cellphone. Takeyama is now obliged to stay in the small and nameless village.

    Matsui, Umemoto and Takeyama are now all at Matsui’s Benriya.  


    Mediainfo
    Spoiler:show

    Code
    Format                                   : Matroska
    Format version                           : Version 4 / Version 2
    File size                                : 797 MiB
    Duration                                 : 29mn 15s
    Overall bit rate                         : 3 807 Kbps
    Encoded date                             : UTC 2015-06-09 13:22:41
    Writing application                      : mkvmerge v7.9.0 ('Birds') 64bit
    Writing library                          : libebml v1.3.1 + libmatroska v1.4.2
    DURATION                                 : 00:29:14.005000000
    NUMBER_OF_FRAMES                         : 82219
    NUMBER_OF_BYTES                          : 41356143
    _STATISTICS_WRITING_APP                  : mkvmerge v7.9.0 ('Birds') 64bit
    _STATISTICS_WRITING_DATE_UTC             : 2015-06-09 13:22:41
    _STATISTICS_TAGS                         : BPS DURATION NUMBER_OF_FRAMES NUMBER_OF_BYTES

    Video
    ID                                       : 1
    Format                                   : AVC
    Format/Info                              : Advanced Video Codec
    Format profile                           : High@L4.1
    Format settings, CABAC                   : Yes
    Format settings, ReFrames                : 9 frames
    Codec ID                                 : V_MPEG4/ISO/AVC
    Duration                                 : 29mn 15s
    Width                                    : 1 280 pixels
    Height                                   : 720 pixels
    Display aspect ratio                     : 16:9
    Frame rate mode                          : Constant
    Frame rate                               : 29.970 fps
    Color space                              : YUV
    Chroma subsampling                       : 4:2:0
    Bit depth                                : 8 bits
    Scan type                                : Progressive
    Writing library                          : x264 core 146 r2538 121396c
    Encoding settings                        : cabac=1 / ref=9 / deblock=1:-3:-3 / analyse=0x3:0x133 / me=umh / subme=10 / psy=1 / psy_rd=1.00:0.15 / mixed_ref=1 / me_range=48 / chroma_me=1 / trellis=2 / 8x8dct=1 / cqm=0 / deadzone=21,11 / fast_pskip=0 / chroma_qp_offset=-3 / threads=12 / lookahead_threads=2 / sliced_threads=0 / nr=0 / decimate=1 / interlaced=0 / bluray_compat=0 / stitchable=1 / constrained_intra=0 / bframes=9 / b_pyramid=2 / b_adapt=2 / b_bias=0 / direct=3 / weightb=1 / open_gop=0 / weightp=2 / keyint=250 / keyint_min=25 / scenecut=40 / intra_refresh=0 / rc_lookahead=250 / rc=crf / mbtree=1 / crf=17.5 / qcomp=0.60 / qpmin=0 / qpmax=69 / qpstep=4 / ip_ratio=1.40 / aq=1:1.00
    Language                                 : Japanese
    Default                                  : Yes
    Forced                                   : No

    Audio #1
    ID                                       : 2
    Format                                   : AAC
    Format/Info                              : Advanced Audio Codec
    Format profile                           : LC
    Codec ID                                 : A_AAC
    Duration                                 : 29mn 15s
    Channel(s)                               : 2 channels
    Channel positions                        : Front: L R
    Sampling rate                            : 48.0 KHz
    Compression mode                         : Lossy
    Delay relative to video                  : 17ms
    Title                                    : Japanese 2.0 AAC
    Language                                 : Japanese
    Default                                  : Yes
    Forced                                   : No

    Audio #2
    ID                                       : 3
    Format                                   : AAC
    Format/Info                              : Advanced Audio Codec
    Format profile                           : LC
    Codec ID                                 : A_AAC
    Duration                                 : 29mn 15s
    Channel(s)                               : 2 channels
    Channel positions                        : Front: L R
    Sampling rate                            : 48.0 KHz
    Compression mode                         : Lossy
    Delay relative to video                  : 17ms
    Title                                    : Commentary by Director Suzui Takayuki
    Language                                 : Japanese
    Default                                  : No
    Forced                                   : No

    Menu
    00:00:00.000                             : ja:Preview
    00:00:05.005                             : ja:Section I
    00:01:01.929                             : ja:Opening
    00:01:56.283                             : ja:Section II
    00:08:43.990                             : ja:Section III
    00:15:02.969                             : ja:Section IV
    00:23:16.962                             : ja:Section V
    00:27:37.122                             : ja:Credits
    00:28:45.023                             : ja:Trailer
    00:29:00.005                             : ja:Advertisement








    0 0

    Original Post: Yume wo Ataeru EP04 Finale 720p HDTV x264 AAC-DoA

    Title (romaji): Yume wo Ataeru
    Format: Renzoku
    Genre: Drama
    Episodes: 4
    Broadcast network: WOWOW
    Broadcast period: 2015-May-16 to 2015-Jun-06
    Air time: Saturday 22:00
    Theme song: dIS de rEAm by Rinbjö
    Subtitles: None - [url=][/url]  
    RAW credit to DoA


    Cast

       Komatsu Nana (小松菜奈) as Abe Yuko
       Tani Kanon as young Yuko
       Kikuchi Rinko as Abe Mimiko
       Ota Shingo (太田信吾)
       Nagaoka Tasuku (永岡佑)
       Kageyama Tai (陰山泰)
       Mackenyu (真剣佑) as Masaaki
       Hamada Tatsuomi
       Tanaka Min
       Kaho
       Asano Kazuyuki
       Odagiri Joe as Murano
       De Lencquesaing Nozomi (ド・ランクザン望) as Abe Tomah
       Bryerly Long (ブライアリー・ロング) as Sarah
       Nakamura Yasuhi


    Synopsis

    13 years ago, the Abe family moved to a town in the suburbs, surrounded by nature. The Abe family consists of their French father Toma (De Lencquesaing Nozomi), his Japanese wife Mikiko (Rinko Kikuchi) and their beautiful daughter Yuko (Kanon Tani). They appear like the perfect family. Mikiko managed to get her daughter Yuko to take part in a CM audition and she was picked by Murano (Joe Odagiri), director of the advertising agency. Yuko is now in show business.

    Several years later, Yuko (Nana Komatsu) transfers to a large entertainment company. As her mother wishes, Yuko is now popular and appears on the cover of magazines, variety shows and drama series. Yuko, though, feels an uncomfortable imbalance between her public image and her real self. During this time, she meets a dancer, Seiko (Mackenyu), who marches to the beat of his own drum, and falls in love with him. The nightmare begins.


    Mediainfo
    Spoiler:show

    Code
    Format                                   : Matroska
    Format version                           : Version 2
    File size                                : 1.01 GiB
    Duration                                 : 51mn 59s
    Overall bit rate                         : 2 779 Kbps
    Encoded date                             : UTC 2015-06-09 13:23:34
    Writing application                      : mkvmerge v4.3.0 ('Escape from the Island') built on Sep  5 2010 10:30:51
    Writing library                          : libebml v1.0.0 + libmatroska v1.0.0

    Video
    ID                                       : 1
    Format                                   : AVC
    Format/Info                              : Advanced Video Codec
    Format profile                           : High@L4.1
    Format settings, CABAC                   : Yes
    Format settings, ReFrames                : 9 frames
    Muxing mode                              : Header stripping
    Codec ID                                 : V_MPEG4/ISO/AVC
    Duration                                 : 51mn 59s
    Nominal bit rate                         : 2 588 Kbps
    Width                                    : 1 280 pixels
    Height                                   : 720 pixels
    Display aspect ratio                     : 16:9
    Frame rate mode                          : Constant
    Frame rate                               : 23.976 fps
    Color space                              : YUV
    Chroma subsampling                       : 4:2:0
    Bit depth                                : 8 bits
    Scan type                                : Progressive
    Bits/(Pixel*Frame)                       : 0.117
    Title                                    : Encode by TTG-DoA
    Writing library                          : x264 core 133 r2334 a3ac64b
    Encoding settings                        : cabac=1 / ref=9 / deblock=1:-3:-3 / analyse=0x3:0x133 / me=umh / subme=10 / psy=1 / psy_rd=1.00:0.15 / mixed_ref=1 / me_range=48 / chroma_me=1 / trellis=2 / 8x8dct=1 / cqm=0 / deadzone=21,11 / fast_pskip=0 / chroma_qp_offset=-3 / threads=12 / lookahead_threads=2 / sliced_threads=0 / nr=0 / decimate=1 / interlaced=0 / bluray_compat=0 / constrained_intra=0 / bframes=8 / b_pyramid=2 / b_adapt=2 / b_bias=0 / direct=3 / weightb=1 / open_gop=0 / weightp=2 / keyint=240 / keyint_min=23 / scenecut=40 / intra_refresh=0 / rc_lookahead=40 / rc=2pass / mbtree=1 / bitrate=2588 / ratetol=1.0 / qcomp=0.60 / qpmin=0 / qpmax=69 / qpstep=4 / cplxblur=20.0 / qblur=0.5 / ip_ratio=1.40 / aq=1:1.00
    Language                                 : English
    Default                                  : Yes
    Forced                                   : No

    Audio
    ID                                       : 2
    Format                                   : AAC
    Format/Info                              : Advanced Audio Codec
    Format profile                           : HE-AAC / LC
    Codec ID                                 : A_AAC
    Duration                                 : 51mn 59s
    Channel(s)                               : 2 channels
    Channel positions                        : Front: L R
    Sampling rate                            : 96.0 KHz / 48.0 KHz
    Compression mode                         : Lossy
    Delay relative to video                  : 13ms
    Language                                 : Japanese
    Default                                  : Yes
    Forced                                   : No








    0 0

    Original Post: Tatakau! Shoten Girl EP09 Finale 720p HDTV x264 AAC-DoA

    Title (romaji): Tatakau! Shoten Girl
    Also known as: Fight! Bookstore Girl
    Format: Renzoku
    Genre: Occupational, romance
    Episodes: TBD
    Broadcast network: Fuji TV / KTV
    Broadcast period: 2015-Apr-14 start
    Air time: Tuesday 22:00
    Theme song: Deai no Tsuzuki by Watanabe Mayu
    Insert song: Girlfriend by SOLIDEMO
    Subtitles: English - Chiizujin
    RAW credit to DoA


    Cast

       Watanabe Mayu as Kitamura Aki
       Inamori Izumi as Nishioka Riko
       Chiba Yudai as Mita Takahiko
       Daito Shunsuke as Obata Nobumitsu
       Suzuki Chinami as Hagiwara Mami
       Inoo Kei as Kusaka Keiichiro
       Makita Sports as Yarabe Mamoru
       Kinoshita Hoka as Nojima Takanori
       Hamada Mari as Ozaki Shiho
       Inoue Jun as Nishioka Tatsuto
       Tanabe Seiichi as Tashiro Toshiyuki


    Synopsis

    Pegasus Bookstore is going through hard times due to competition from internet bookstores. Kitamura Aki and Nishioka Riko are employees at Pegasus Bookstore. Aki is 23 years old. She has a strong will and freewheeling personality. She places her job and dreams above marriage. Riko is a 40-year-old single woman. She is the vice-manager at the bookstore. She has pride in her work. The two women have completely different personalities.


    Mediainfo
    Spoiler:show

    Code
    Format                                   : Matroska
    Format version                           : Version 4 / Version 2
    File size                                : 1.10 GiB
    Duration                                 : 46mn 9s
    Overall bit rate                         : 3 415 Kbps
    Encoded date                             : UTC 2015-06-10 12:00:05
    Writing application                      : mkvmerge v7.6.0 ('Garden of Dreams') 64bit built on Feb  8 2015 13:04:34
    Writing library                          : libebml v1.3.1 + libmatroska v1.4.2
    DURATION                                 : 00:46:09.706000000
    NUMBER_OF_FRAMES                         : 129830
    NUMBER_OF_BYTES                          : 65304490
    _STATISTICS_WRITING_APP                  : mkvmerge v7.6.0 ('Garden of Dreams') 64bit built on Feb  8 2015 13:04:34
    _STATISTICS_WRITING_DATE_UTC             : 2015-06-10 12:00:05
    _STATISTICS_TAGS                         : BPS DURATION NUMBER_OF_FRAMES NUMBER_OF_BYTES

    Video
    ID                                       : 1
    Format                                   : AVC
    Format/Info                              : Advanced Video Codec
    Format profile                           : High@L4.1
    Format settings, CABAC                   : Yes
    Format settings, ReFrames                : 9 frames
    Codec ID                                 : V_MPEG4/ISO/AVC
    Duration                                 : 46mn 9s
    Width                                    : 1 280 pixels
    Height                                   : 720 pixels
    Display aspect ratio                     : 16:9
    Frame rate mode                          : Constant
    Frame rate                               : 29.970 fps
    Color space                              : YUV
    Chroma subsampling                       : 4:2:0
    Bit depth                                : 8 bits
    Scan type                                : Progressive
    Title                                    : DoA encoder
    Writing library                          : x264 core 146 r2538 121396c
    Encoding settings                        : cabac=1 / ref=9 / deblock=1:-2:-2 / analyse=0x3:0x133 / me=umh / subme=10 / psy=1 / psy_rd=1.00:0.15 / mixed_ref=1 / me_range=48 / chroma_me=1 / trellis=2 / 8x8dct=1 / cqm=0 / deadzone=21,11 / fast_pskip=0 / chroma_qp_offset=-3 / threads=12 / lookahead_threads=2 / sliced_threads=0 / nr=0 / decimate=1 / interlaced=0 / bluray_compat=0 / constrained_intra=0 / bframes=8 / b_pyramid=2 / b_adapt=2 / b_bias=0 / direct=3 / weightb=1 / open_gop=0 / weightp=2 / keyint=300 / keyint_min=29 / scenecut=40 / intra_refresh=0 / rc_lookahead=60 / rc=crf / mbtree=1 / crf=18.0 / qcomp=0.60 / qpmin=0 / qpmax=69 / qpstep=4 / ip_ratio=1.40 / aq=1:1.00
    Language                                 : English
    Default                                  : Yes
    Forced                                   : No
    DURATION                                 : 00:46:09.700000000
    NUMBER_OF_FRAMES                         : 83008
    NUMBER_OF_BYTES                          : 1116237024
    _STATISTICS_WRITING_APP                  : mkvmerge v7.6.0 ('Garden of Dreams') 64bit built on Feb  8 2015 13:04:34
    _STATISTICS_WRITING_DATE_UTC             : 2015-06-10 12:00:05
    _STATISTICS_TAGS                         : BPS DURATION NUMBER_OF_FRAMES NUMBER_OF_BYTES

    Audio
    ID                                       : 2
    Format                                   : AAC
    Format/Info                              : Advanced Audio Codec
    Format profile                           : LC
    Codec ID                                 : A_AAC
    Duration                                 : 46mn 9s
    Channel(s)                               : 2 channels
    Channel positions                        : Front: L R
    Sampling rate                            : 48.0 KHz
    Compression mode                         : Lossy
    Default                                  : Yes
    Forced                                   : No








    0 0

    Original Post: The Gangster VIP (1968 TVRip) [No English Subs]



    After spending three years in prison for stabbing a hitman from a rival gang, Goro comes out disenchanted with yakuza life. When he decides to abandon gangster life entirely, tragedy intervenes, and Goro sets out for revenge.

    The first installment in the six-part Burai series (1968-69)Director Masuda calls Gangster VIP, “a youth film that happens to be set in the yakuza world." For Goro there is no easy way out of the world that nurtured him. Based on the memoirs of a real yakuza, Goro Fujita, this film reveals a darker, more desperate side to Watari’s on-screen persona.

    Screenshots:











    IMDB LINK: http://www.imdb.com/title/tt0062850/
    Cast: Tetsuya Watari, Chieko Matsubara, Mitsuo Hamada
    Directed: Toshio Masuda
    Genre: Crime, Drama
    Runtime: 1:33:22
    Also Known As: Burai yori daikanbu
    Country: Japan
    Language: Japanese
    Subtitles: French (hard coded)

    -------------------------------------------------

    Complete name                            : Le_Vaurien.avi
    Format                                   : AVI
    Format/Info                              : Audio Video Interleave
    Format profile                           : OpenDML
    File size                                : 1.52 GiB
    Duration                                 : 1h 33mn
    Overall bit rate                         : 2 335 Kbps
    Writing application                      : Lavf55.12.100

    Video
    ID                                       : 1
    Format                                   : AVC
    Format/Info                              : Advanced Video Codec
    Format profile                           : Main@L3.0
    Format settings, CABAC                   : Yes
    Format settings, ReFrames                : 2 frames
    Format settings, GOP                     : M=1, N=25
    Codec ID                                 : H264
    Duration                                 : 1h 33mn
    Bit rate                                 : 2 000 Kbps
    Width                                    : 720 pixels
    Height                                   : 576 pixels
    Display aspect ratio                     : 16:9
    Frame rate mode                          : Variable
    Frame rate                               : 25.000 fps
    Standard                                 : PAL
    Color space                              : YUV
    Chroma subsampling                       : 4:2:0
    Bit depth                                : 8 bits
    Scan type                                : Progressive
    Bits/(Pixel*Frame)                       : 0.193
    Stream size                              : 1.30 GiB (86%)

    Audio
    ID                                       : 0
    Format                                   : AAC
    Format/Info                              : Advanced Audio Codec
    Format version                           : Version 2
    Format profile                           : LC
    Muxing mode                              : ADTS
    Codec ID                                 : FF
    Duration                                 : 1h 33mn
    Bit rate                                 : 320 Kbps
    Channel(s)                               : 2 channels
    Channel positions                        : Front: L R
    Sampling rate                            : 48.0 KHz
    Compression mode                         : Lossy
    Stream size                              : 214 MiB (14%)
    Alignment                                : Aligned on interleaves
    Interleave, duration                     : 40 ms (1.00 video frame)



    0 0

    Original Post: Producer.E09.150612.HDTV.X264-LIMO

    http://thetvdb.com/?tab=series&id=294814
    Details
    Title: 프로듀사 / Peurodyusa
    Genre: Drama
    Episodes: 12
    Broadcast network: KBS2
    Broadcast period: 2015-May-15 to 2015-Jun-20
    Air time: Friday & Saturday 21:15
    Original Soundtrack: Producer OST

    Synopsis
    A group of young television producers — Ra Jun Mo (Cha Tae Hyun), Baek Sung Chan (Kim Soo Hyun), Tak Ye Ji (Gong Hyo Jin), and Cindy (IU) — work tirelessly around the clock within the entertainment division of a major broadcasting network. Amidst their dynamic and challenging workloads, serious drama reaches new heights in this backstage glimpse of the people who make television magic happen.

    Main Cast
    Cha Tae Hyun as Ra Joon Mo (35, 2 Days & 1 Night's PD)
    Kim Soo Hyun as Baek Seung Chan (27, KBS Entertainment World newbie PD)
    Gong Hyo Jin as Tak Ye Jin (35, Music Bank's PD)
    IU as Cindy (23, singer)

    NOTE: All screenshots were randomly selected





    Code
    Video
    ID                             : 1
    Format                         : AVC
    Format/Info                    : Advanced Video Codec
    Format profile                 : Main@L4.0
    Format settings, CABAC         : Yes
    Format settings, ReFrames      : 4 frames
    Codec ID                       : V_MPEG4/ISO/AVC
    Duration                       : 58mn 44s
    Bit rate                       : 450 Kbps
    Width                          : 624 pixels
    Height                         : 350 pixels
    Display aspect ratio           : 16:9
    Frame rate mode                : Constant
    Frame rate                     : 29.970 fps
    Color space                    : YUV
    Chroma subsampling             : 4:2:0
    Bit depth                      : 8 bits
    Scan type                      : Progressive
    Bits/(Pixel*Frame)             : 0.069
    Stream size                    : 190 MiB (76%)
    Writing library                : x264 core 130 r2273 b3065e6
    Encoding settings              : cabac=1 / ref=1 / deblock=1:0:0 / analyse=0x1:0x111 / me=hex / subme=2 / psy=1 / psy_rd=1.00:0.00 / mixed_ref=0 / me_range=16 / chroma_me=1 / trellis=0 / 8x8dct=0 / cqm=0 / deadzone=21,11 / fast_pskip=1 / chroma_qp_offset=0 / threads=1 / lookahead_threads=1 / sliced_threads=0 / nr=0 / decimate=1 / interlaced=0 / bluray_compat=0 / constrained_intra=0 / bframes=3 / b_pyramid=2 / b_adapt=1 / b_bias=0 / direct=1 / weightb=1 / open_gop=0 / weightp=1 / keyint=300 / keyint_min=30 / scenecut=40 / intra_refresh=0 / rc_lookahead=10 / rc=abr / mbtree=1 / bitrate=450 / ratetol=1.0 / qcomp=0.60 / qpmin=0 / qpmax=69 / qpstep=4 / vbv_maxrate=20000 / vbv_bufsize=25000 / nal_hrd=none / ip_ratio=1.40 / aq=1:1.00
    Language                       : English
    Default                        : Yes
    Forced                         : No
    Color primaries                : BT.601 NTSC
    Transfer characteristics       : BT.709
    Matrix coefficients            : BT.601

    Audio
    ID                             : 2
    Format                         : MPEG Audio
    Format version                 : Version 1
    Format profile                 : Layer 3
    Mode                           : Joint stereo
    Mode extension                 : MS Stereo
    Codec ID                       : A_MPEG/L3
    Codec ID/Hint                  : MP3
    Duration                       : 58mn 44s
    Bit rate mode                  : Constant
    Bit rate                       : 128 Kbps
    Channel(s)                     : 2 channels
    Sampling rate                  : 48.0 KHz
    Compression mode               : Lossy
    Stream size                    : 53.8 MiB (22%)
    Default                        : Yes
    Forced                         : No



    0 0

    Original Post: Producer.E09.150612.HDTV.H264.450p-LIMO

    http://thetvdb.com/?tab=series&id=294814
    Details
    Title: 프로듀사 / Peurodyusa
    Genre: Drama
    Episodes: 12
    Broadcast network: KBS2
    Broadcast period: 2015-May-15 to 2015-Jun-20
    Air time: Friday & Saturday 21:15
    Original Soundtrack: Producer OST

    Synopsis
    A group of young television producers — Ra Jun Mo (Cha Tae Hyun), Baek Sung Chan (Kim Soo Hyun), Tak Ye Ji (Gong Hyo Jin), and Cindy (IU) — work tirelessly around the clock within the entertainment division of a major broadcasting network. Amidst their dynamic and challenging workloads, serious drama reaches new heights in this backstage glimpse of the people who make television magic happen.

    Main Cast
    Cha Tae Hyun as Ra Joon Mo (35, 2 Days & 1 Night's PD)
    Kim Soo Hyun as Baek Seung Chan (27, KBS Entertainment World newbie PD)
    Gong Hyo Jin as Tak Ye Jin (35, Music Bank's PD)
    IU as Cindy (23, singer)

    NOTE: All screenshots were randomly selected





    Code
    Video
    ID                                       : 0
    Format                                   : AVC
    Format/Info                              : Advanced Video Codec
    Format profile                           : High@L5.1
    Format settings, CABAC                   : Yes
    Format settings, ReFrames                : 4 frames
    Codec ID                                 : H264
    Duration                                 : 1h 20mn
    Bit rate                                 : 1 500 Kbps
    Width                                    : 800 pixels
    Height                                   : 450 pixels
    Display aspect ratio                     : 16:9
    Frame rate mode                          : Variable
    Frame rate                               : 29.970 fps
    Color space                              : YUV
    Chroma subsampling                       : 4:2:0
    Bit depth                                : 8 bits
    Scan type                                : Progressive
    Bits/(Pixel*Frame)                       : 0.139
    Stream size                              : 860 MiB (88%)
    Writing library                          : x264 core 112
    Encoding settings                        : cabac=1 / ref=3 / deblock=1:-1:-1 / analyse=0x3:0x113 / me=hex / subme=6 / psy=1 / psy_rd=1.00:1.00 / mixed_ref=1 / me_range=16 / chroma_me=1 / trellis=1 / 8x8dct=1 / cqm=0 / deadzone=21,11 / fast_pskip=0 / chroma_qp_offset=-4 / threads=12 / sliced_threads=0 / nr=0 / decimate=1 / interlaced=0 / constrained_intra=0 / bframes=3 / b_pyramid=2 / b_adapt=1 / b_bias=1 / direct=3 / weightb=1 / open_gop=0 / weightp=2 / keyint=299 / keyint_min=25 / scenecut=1 / intra_refresh=0 / rc_lookahead=40 / rc=abr / mbtree=1 / bitrate=1500 / ratetol=1.0 / qcomp=0.60 / qpmin=1 / qpmax=51 / qpstep=4 / vbv_maxrate=1950 / vbv_bufsize=1950 / ip_ratio=1.40 / aq=1:1.00 / nal_hrd=none

    Audio
    ID                                       : 1
    Format                                   : MPEG Audio
    Format version                           : Version 1
    Format profile                           : Layer 3
    Mode                                     : Joint stereo
    Mode extension                           : MS Stereo
    Codec ID                                 : 55
    Codec ID/Hint                            : MP3
    Duration                                 : 1h 20mn
    Bit rate mode                            : Constant
    Bit rate                                 : 192 Kbps
    Channel(s)                               : 2 channels
    Sampling rate                            : 48.0 KHz
    Compression mode                         : Lossy
    Stream size                              : 111 MiB (11%)
    Alignment                                : Aligned on interleaves
    Interleave, duration                     : 24 ms (0.72 video frame)
    Writing library                          : LAME3.98.2



    0 0

    Original Post: Producer.E09.150612.HDTV.H264.720p-LIMO

    http://thetvdb.com/?tab=series&id=294814
    Details
    Title: 프로듀사 / Peurodyusa
    Genre: Drama
    Episodes: 12
    Broadcast network: KBS2
    Broadcast period: 2015-May-15 to 2015-Jun-20
    Air time: Friday & Saturday 21:15
    Original Soundtrack: Producer OST

    Synopsis
    A group of young television producers — Ra Jun Mo (Cha Tae Hyun), Baek Sung Chan (Kim Soo Hyun), Tak Ye Ji (Gong Hyo Jin), and Cindy (IU) — work tirelessly around the clock within the entertainment division of a major broadcasting network. Amidst their dynamic and challenging workloads, serious drama reaches new heights in this backstage glimpse of the people who make television magic happen.

    Main Cast
    Cha Tae Hyun as Ra Joon Mo (35, 2 Days & 1 Night's PD)
    Kim Soo Hyun as Baek Seung Chan (27, KBS Entertainment World newbie PD)
    Gong Hyo Jin as Tak Ye Jin (35, Music Bank's PD)
    IU as Cindy (23, singer)

    NOTE: All screenshots were randomly selected

    Mini but very accurate spoiler: Cindy meets new character kingofbeer for the first time.
    Obviously love at first sight.

    Just Cindy chatting to kingofbeer on the phone

    Cindy slightly depressed after learning that someone drank all of kingofbeer's beer.


    Code
    Video
    ID                               : 0
    Format                           : AVC
    Format/Info                      : Advanced Video Codec
    Format profile                   : High@L5.1
    Format settings, CABAC           : Yes
    Format settings, ReFrames        : 4 frames
    Codec ID                         : H264
    Duration                         : 1h 4mn
    Bit rate                         : 3 000 Kbps
    Width                            : 1 280 pixels
    Height                           : 720 pixels
    Display aspect ratio             : 16:9
    Frame rate mode                  : Variable
    Frame rate                       : 29.970 fps
    Color space                      : YUV
    Chroma subsampling               : 4:2:0
    Bit depth                        : 8 bits
    Scan type                        : Progressive
    Bits/(Pixel*Frame)               : 0.109
    Stream size                      : 1.35 GiB (94%)
    Writing library                  : x264 core 112
    Encoding settings                : cabac=1 / ref=3 / deblock=1:-1:-1 / analyse=0x3:0x113 / me=hex / subme=6 / psy=1 / psy_rd=1.00:1.00 / mixed_ref=1 / me_range=16 / chroma_me=1 / trellis=1 / 8x8dct=1 / cqm=0 / deadzone=21,11 / fast_pskip=0 / chroma_qp_offset=-4 / threads=12 / sliced_threads=0 / nr=0 / decimate=1 / interlaced=0 / constrained_intra=0 / bframes=3 / b_pyramid=2 / b_adapt=1 / b_bias=1 / direct=3 / weightb=1 / open_gop=0 / weightp=2 / keyint=299 / keyint_min=25 / scenecut=1 / intra_refresh=0 / rc_lookahead=40 / rc=abr / mbtree=1 / bitrate=3000 / ratetol=1.0 / qcomp=0.60 / qpmin=10 / qpmax=51 / qpstep=4 / ip_ratio=1.40 / aq=1:1.00

    Audio
    ID                               : 1
    Format                           : MPEG Audio
    Format version                   : Version 1
    Format profile                   : Layer 3
    Mode                             : Joint stereo
    Mode extension                   : MS Stereo
    Codec ID                         : 55
    Codec ID/Hint                    : MP3
    Duration                         : 1h 4mn
    Bit rate mode                    : Constant
    Bit rate                         : 192 Kbps
    Channel(s)                       : 2 channels
    Sampling rate                    : 48.0 KHz
    Stream size                      : 88.0 MiB (6%)
    Alignment                        : Split accross interleaves
    Interleave, duration             : 33 ms (1.00 video frame)
    Interleave, preload duration     : 500 ms
    Writing library                  : LAME3.98.2



    0 0

    Original Post: Acoustic Collabo – High Society OST Part.1



    어쿠스틱 콜라보 – 상류사회 (SBS 월화드라마) OST
    Release Date: 2015.06.09
    Genre: OST
    Language: Korean
    Bit Rate: MP3-320kbps
    credit to k2nblog

    Track List:

    01. 그러지마요



    0 0

    Original Post: Han Myung Hoe (1994) Complete SKYMAX

    Title:한명회 / Han Myung Hoe
    Genre: Historical
    Episodes: 104
    Broadcast network: KBS2
    Broadcast period: 1994-Jan-03 to 1994-Dec-27
    Air time: Monday & Tuesday 21:55
    Subtitles:NONE

    Synopsis
    This biographical drama deals with the palace politics in the time of Han Myung Hoe, a tactician who was instrumental in Sejo's usurpation of young King Danjong's throne. The events detailed here are similar to those already presented in The Ume Tree in the Midst of the Snow, written by the same writer a decade earlier.

    Cast
    Lee Duk Hwa as Han Myung Hoe
    Suh In Suk as Prince Suyang / King Sejo
    Hong Se Mi (홍세미) as Queen Jeonghee
    Kim Young Ran as Queen Mother Insu
    Jung Tae Woo as King Danjong
    Yoon Da Hoon as Prince Uigyeong
    Kim Ki Sub as Kwon Ram
    Lee Duk Hee as Han Myung Hoe's wife
    Lee Eung Kyung as Han Myung Hoe's concubine
    Baek Joon Ki as Shin Suk Joo
    Baek Yoon Shik as Sung Sam Moon
    Song Seung Hwan as King Munjong
    Jang Hang Sun as Hong Dal Son
    Kim Hyung Il as Hong Yoon Sung
    Im Hyuk as No Sa Shin
    Sun Dong Hyuk (선동혁) as Yang Jung
    Han In Soo as Jung In Ji
    Park Woong as Han Hwak
    Park Sang Jo as Jung Chang Son
    Im Dong Jin as Kim Jong Seo
    Kyun Mi Ri as Kim Jong Seo's concubine
    Park Jin Sung as King Seongjong
    Jang Seo Hee as Deposed Queen Yoon
    Choi Jung Won as Eom So-yong
    Lee Min Woo as Yeonsangun
    Park Byung Ho as Prince Yangnyeong
    Park Yong Shik (박용식) as Ambassador Shin
    Jun In Taek as Im Woon
    Lee Chi Woo (이치우) as Hwang Bo In
    No Young Kook as Prince Anpyeong
    Lee Shin Jae (이신재) as Min Dae Saeng
    Seo Young Jin (서영진) as Han Myung Jin
    Won Suk Yeon (원석연) as Choi Hang
    Son Ho Gyun (as Yoo Ja Kwang
    Lee Il Woong as Eom Ja Chi
    Im Byung Ki as Yoo Soo

    Director: Kim Jae Hyung
    Screenwriter: Shin Bong Seung




    This is old school release, so every episode has got size limit 1CD (700MB), hasn't got fix bitrate.

    Warning!
    Episode 67,80,81 are half sizes!


    Code
    Video
    ID                          : 0
    Format                      : MPEG-4 Visual
    Format profile              : Simple@L3
    Format settings, BVOP       : 2
    Format settings, QPel       : No
    Format settings, GMC        : No warppoints
    Format settings, Matrix     : Default (H.263)
    Muxing mode                 : Packed bitstream
    Codec ID                    : XVID
    Codec ID/Hint               : XviD
    Duration                    : 48mn 55s
    Bit rate                    : 1 829 Kbps
    Width                       : 576 pixels
    Height                      : 432 pixels
    Display aspect ratio        : 4:3
    Frame rate                  : 29.970 fps
    Color space                 : YUV
    Chroma subsampling          : 4:2:0
    Bit depth                   : 8 bits
    Scan type                   : Progressive
    Compression mode            : Lossy
    Bits/(Pixel*Frame)          : 0.245
    Stream size                 : 640 MiB (91%)
    Writing library             : XviD 1.1.0 Beta2 (UTC 2005-04-04)

    Audio
    ID                          : 1
    Format                      : MPEG Audio
    Format version              : Version 1
    Format profile              : Layer 3
    Mode                        : Joint stereo
    Mode extension              : MS Stereo
    Codec ID                    : 55
    Codec ID/Hint               : MP3
    Duration                    : 48mn 55s
    Bit rate mode               : Constant
    Bit rate                    : 160 Kbps
    Channel(s)                  : 2 channels
    Sampling rate               : 48.0 KHz
    Compression mode            : Lossy
    Delay relative to video     : 24ms
    Stream size                 : 56.0 MiB (8%)
    Alignment                   : Split accross interleaves
    Interleave, duration        : 33 ms (1.00 video frame)
    Interleave, preload duratio : 500 ms



    0 0

    Original Post: Orange.Marmalade.E06.150612.HDTV.X264-LIMO

    http://www.thetvdb.com/?tab=series&id=295007
    Details
    Title: 오렌지마말레이드 / Orenji Marmaleideu
    Genre: School, fantasy, romance
    Episodes: 12
    Broadcast network: KBS2
    Broadcast period: 2015-May-15 to 2015-???-??
    Air time: Friday 22:35
    Original Soundtrack: Orange Marmalade OST

    Synopsis
    Despite a 200-year-old treaty between humans and vampires, both races still don't get along. Amidst the looming tension, Jung Jae Min (Yeo Jin Goo), a posh yet kindhearted high school student, quickly falls for the mysterious new girl Baek Ma Ri (Seol Hyun). But can Ma Ri conceal her true vampire identity and give love an honest chance? If these star-crossed lovers can find the courage to make the leap, Jae Min and Ma Ri may just be the key to a final resolution between humans and vampires...

    Main Cast
    Yeo Jin Goo as Jung Jae Min (18)
    Kim Seol Hyun as Baek Ma Ri (18)
    Lee Jong Hyun as Han Shi Hoo (18)
    Gil Eun Hye as Jo Ah Ra (18)










    Code
    Video
    ID                             : 1
    Format                         : AVC
    Format/Info                    : Advanced Video Codec
    Format profile                 : Main@L4.0
    Format settings, CABAC         : Yes
    Format settings, ReFrames      : 4 frames
    Codec ID                       : V_MPEG4/ISO/AVC
    Duration                       : 58mn 44s
    Bit rate                       : 450 Kbps
    Width                          : 624 pixels
    Height                         : 350 pixels
    Display aspect ratio           : 16:9
    Frame rate mode                : Constant
    Frame rate                     : 29.970 fps
    Color space                    : YUV
    Chroma subsampling             : 4:2:0
    Bit depth                      : 8 bits
    Scan type                      : Progressive
    Bits/(Pixel*Frame)             : 0.069
    Stream size                    : 190 MiB (76%)
    Writing library                : x264 core 130 r2273 b3065e6
    Encoding settings              : cabac=1 / ref=1 / deblock=1:0:0 / analyse=0x1:0x111 / me=hex / subme=2 / psy=1 / psy_rd=1.00:0.00 / mixed_ref=0 / me_range=16 / chroma_me=1 / trellis=0 / 8x8dct=0 / cqm=0 / deadzone=21,11 / fast_pskip=1 / chroma_qp_offset=0 / threads=1 / lookahead_threads=1 / sliced_threads=0 / nr=0 / decimate=1 / interlaced=0 / bluray_compat=0 / constrained_intra=0 / bframes=3 / b_pyramid=2 / b_adapt=1 / b_bias=0 / direct=1 / weightb=1 / open_gop=0 / weightp=1 / keyint=300 / keyint_min=30 / scenecut=40 / intra_refresh=0 / rc_lookahead=10 / rc=abr / mbtree=1 / bitrate=450 / ratetol=1.0 / qcomp=0.60 / qpmin=0 / qpmax=69 / qpstep=4 / vbv_maxrate=20000 / vbv_bufsize=25000 / nal_hrd=none / ip_ratio=1.40 / aq=1:1.00
    Language                       : English
    Default                        : Yes
    Forced                         : No
    Color primaries                : BT.601 NTSC
    Transfer characteristics       : BT.709
    Matrix coefficients            : BT.601

    Audio
    ID                             : 2
    Format                         : MPEG Audio
    Format version                 : Version 1
    Format profile                 : Layer 3
    Mode                           : Joint stereo
    Mode extension                 : MS Stereo
    Codec ID                       : A_MPEG/L3
    Codec ID/Hint                  : MP3
    Duration                       : 58mn 44s
    Bit rate mode                  : Constant
    Bit rate                       : 128 Kbps
    Channel(s)                     : 2 channels
    Sampling rate                  : 48.0 KHz
    Compression mode               : Lossy
    Stream size                    : 53.8 MiB (22%)
    Default                        : Yes
    Forced                         : No



    0 0

    Original Post: Orange.Marmalade.E06.150612.HDTV.H264.450p-LIMO

    http://www.thetvdb.com/?tab=series&id=295007
    Details
    Title: 오렌지마말레이드 / Orenji Marmaleideu
    Genre: School, fantasy, romance
    Episodes: 12
    Broadcast network: KBS2
    Broadcast period: 2015-May-15 to 2015-???-??
    Air time: Friday 22:35
    Original Soundtrack: Orange Marmalade OST

    Synopsis
    Despite a 200-year-old treaty between humans and vampires, both races still don't get along. Amidst the looming tension, Jung Jae Min (Yeo Jin Goo), a posh yet kindhearted high school student, quickly falls for the mysterious new girl Baek Ma Ri (Seol Hyun). But can Ma Ri conceal her true vampire identity and give love an honest chance? If these star-crossed lovers can find the courage to make the leap, Jae Min and Ma Ri may just be the key to a final resolution between humans and vampires...

    Main Cast
    Yeo Jin Goo as Jung Jae Min (18)
    Kim Seol Hyun as Baek Ma Ri (18)
    Lee Jong Hyun as Han Shi Hoo (18)
    Gil Eun Hye as Jo Ah Ra (18)










    Code
    Video
    ID                                       : 0
    Format                                   : AVC
    Format/Info                              : Advanced Video Codec
    Format profile                           : High@L5.1
    Format settings, CABAC                   : Yes
    Format settings, ReFrames                : 4 frames
    Codec ID                                 : H264
    Bit rate                                 : 1 500 Kbps
    Width                                    : 800 pixels
    Height                                   : 450 pixels
    Display aspect ratio                     : 16:9
    Frame rate mode                          : Variable
    Frame rate                               : 29.970 fps
    Color space                              : YUV
    Chroma subsampling                       : 4:2:0
    Bit depth                                : 8 bits
    Scan type                                : Progressive
    Bits/(Pixel*Frame)                       : 0.139
    Stream size                              : 686 MiB (88%)
    Writing library                          : x264 core 112

    Audio
    ID                                       : 1
    Format                                   : MPEG Audio
    Format version                           : Version 1
    Format profile                           : Layer 3
    Mode                                     : Joint stereo
    Mode extension                           : MS Stereo
    Codec ID                                 : 55
    Codec ID/Hint                            : MP3
    Bit rate mode                            : Constant
    Bit rate                                 : 192 Kbps
    Channel(s)                               : 2 channels
    Sampling rate                            : 48.0 KHz
    Compression mode                         : Lossy
    Stream size                              : 88.3 MiB (11%)
    Alignment                                : Aligned on interleaves
    Interleave, duration                     : 24 ms (0.72 video frame)
    Writing library                          : LAME3.98.2
    Language                                 : Korean



    0 0

    Original Post: Orange.Marmalade.E06.150612.HDTV.H264.720p-LIMO

    http://www.thetvdb.com/?tab=series&id=295007
    Details
    Title: 오렌지마말레이드 / Orenji Marmaleideu
    Genre: School, fantasy, romance
    Episodes: 12
    Broadcast network: KBS2
    Broadcast period: 2015-May-15 to 2015-???-??
    Air time: Friday 22:35
    Original Soundtrack: Orange Marmalade OST

    Synopsis
    Despite a 200-year-old treaty between humans and vampires, both races still don't get along. Amidst the looming tension, Jung Jae Min (Yeo Jin Goo), a posh yet kindhearted high school student, quickly falls for the mysterious new girl Baek Ma Ri (Seol Hyun). But can Ma Ri conceal her true vampire identity and give love an honest chance? If these star-crossed lovers can find the courage to make the leap, Jae Min and Ma Ri may just be the key to a final resolution between humans and vampires...

    Main Cast
    Yeo Jin Goo as Jung Jae Min (18)
    Kim Seol Hyun as Baek Ma Ri (18)
    Lee Jong Hyun as Han Shi Hoo (18)
    Gil Eun Hye as Jo Ah Ra (18)










    Code
    Video
    ID                               : 0
    Format                           : AVC
    Format/Info                      : Advanced Video Codec
    Format profile                   : High@L5.1
    Format settings, CABAC           : Yes
    Format settings, ReFrames        : 4 frames
    Codec ID                         : H264
    Duration                         : 1h 4mn
    Bit rate                         : 3 000 Kbps
    Width                            : 1 280 pixels
    Height                           : 720 pixels
    Display aspect ratio             : 16:9
    Frame rate mode                  : Variable
    Frame rate                       : 29.970 fps
    Color space                      : YUV
    Chroma subsampling               : 4:2:0
    Bit depth                        : 8 bits
    Scan type                        : Progressive
    Bits/(Pixel*Frame)               : 0.109
    Stream size                      : 1.35 GiB (94%)
    Writing library                  : x264 core 112
    Encoding settings                : cabac=1 / ref=3 / deblock=1:-1:-1 / analyse=0x3:0x113 / me=hex / subme=6 / psy=1 / psy_rd=1.00:1.00 / mixed_ref=1 / me_range=16 / chroma_me=1 / trellis=1 / 8x8dct=1 / cqm=0 / deadzone=21,11 / fast_pskip=0 / chroma_qp_offset=-4 / threads=12 / sliced_threads=0 / nr=0 / decimate=1 / interlaced=0 / constrained_intra=0 / bframes=3 / b_pyramid=2 / b_adapt=1 / b_bias=1 / direct=3 / weightb=1 / open_gop=0 / weightp=2 / keyint=299 / keyint_min=25 / scenecut=1 / intra_refresh=0 / rc_lookahead=40 / rc=abr / mbtree=1 / bitrate=3000 / ratetol=1.0 / qcomp=0.60 / qpmin=10 / qpmax=51 / qpstep=4 / ip_ratio=1.40 / aq=1:1.00

    Audio
    ID                               : 1
    Format                           : MPEG Audio
    Format version                   : Version 1
    Format profile                   : Layer 3
    Mode                             : Joint stereo
    Mode extension                   : MS Stereo
    Codec ID                         : 55
    Codec ID/Hint                    : MP3
    Duration                         : 1h 4mn
    Bit rate mode                    : Constant
    Bit rate                         : 192 Kbps
    Channel(s)                       : 2 channels
    Sampling rate                    : 48.0 KHz
    Stream size                      : 88.0 MiB (6%)
    Alignment                        : Split accross interleaves
    Interleave, duration             : 33 ms (1.00 video frame)
    Interleave, preload duration     : 500 ms
    Writing library                  : LAME3.98.2



older | 1 | .... | 1368 | 1369 | (Page 1370) | 1371 | 1372 | .... | 1405 | newer