Are you the publisher? Claim or contact us about this channel


Embed this content in your HTML

Search

Report adult content:

click to rate:

Account: (login)

More Channels


Showcase


Channel Catalog


Channel Description:

Asia Torrents RSS Feed

older | 1 | .... | 1369 | 1370 | (Page 1371) | 1372 | 1373 | .... | 1405 | newer

    0 0

    Original Post: Kang Sung Hoon – Divorce Lawyer in Love OST Part.7



    강성훈 – 이혼변호사는 연애중 (SBS 주말드라마) OST – Part.7
    Release Date: 2015.06.12
    Genre: OST
    Language: Korean
    Bit Rate: MP3-320kbps
    credit to hulkpop

    Track List:

    01. 날 웃게 한 사람
    02. 날 웃게 한 사람 (Inst.)



    0 0

    Original Post: Tokyo Slaves 2014 720p BluRay x264-WiKi





    Detail:
    Title: Tokyo Slaves
    Genre: Mystery
    Release Date: 2014
    Runtime: 100 min
    Director: Sakichi Satô
    Rating: 4.8/10 from 18 users
    Country: Japan
    Language: Japanese
    Subtitles:Chinese

    Synopsis:
    23 people participate in a game of psychological warfare in which they wear a special device called “SCM” which can be used to turn other players into their slaves. Eia Arakawa is a girl with a cold personality who dabbles in various romances without taking anything too seriously. Meanwhile, Yuuga Oota is an eloquent, smart young man who gradually descends into insanity when he becomes wrapped up in the darkness of the game.

    Cast:
    Sayaka Akimoto, Kanata Hongô, Udai Iwasaki








    Code

    Video
    ID                                       : 1
    Format                                   : AVC
    Format/Info                              : Advanced Video Codec
    Format profile                           : High@L4.1
    Format settings, CABAC                   : Yes
    Format settings, ReFrames                : 9 frames
    Codec ID                                 : V_MPEG4/ISO/AVC
    Duration                                 : 1h 40mn
    Bit rate                                 : 5 606 Kbps
    Width                                    : 1 280 pixels
    Height                                   : 720 pixels
    Display aspect ratio                     : 16:9
    Frame rate                               : 23.976 fps
    Color space                              : YUV
    Chroma subsampling                       : 4:2:0
    Bit depth                                : 8 bits
    Scan type                                : Progressive
    Bits/(Pixel*Frame)                       : 0.254
    Stream size                              : 3.84 GiB (88%)
    Writing library                          : x264 core 129 r2245+704+36 8e61944 tMod+MixAQ [8-bit@4:2:0 X86_64]
    Encoding settings                        : cabac=1 / ref=9 / deblock=1:-3:-3 / analyse=0x3:0x133 / me=umh / subme=11 / psy=1 / fade_compensate=0.00 / psy_rd=1.05:0.10 / mixed_ref=1 / me_range=32 / chroma_me=1 / trellis=2 / 8x8dct=1 / cqm=0 / deadzone=21,11 / fast_pskip=0 / chroma_qp_offset=-3 / threads=18 / lookahead_threads=3 / sliced_threads=0 / nr=0 / decimate=0 / interlaced=0 / bluray_compat=0 / constrained_intra=0 / fgo=0 / bframes=10 / b_pyramid=2 / b_adapt=2 / b_bias=0 / direct=3 / weightb=1 / open_gop=0 / weightp=2 / keyint=250 / keyint_min=23 / scenecut=40 / intra_refresh=0 / rc_lookahead=80 / rc=2pass / mbtree=1 / bitrate=5606 / ratetol=1.0 / qcomp=0.70 / qpmin=0 / qpmax=69 / qpstep=4 / cplxblur=20.0 / qblur=0.5 / ip_ratio=1.40 / aq=1 / aq-strength=0.85 / aq-sensitivity=10.00 / aq-ifactor=1.00 / aq-pfactor=1.00 / aq-bfactor=1.00 / aq2=0
    Language                                 : Japanese
    Default                                  : Yes
    Forced                                   : No
    DURATION                                 : 01:40:13.132000000
    NUMBER_OF_FRAMES                         : 144171
    NUMBER_OF_BYTES                          : 4211555620
    _STATISTICS_WRITING_APP                  : mkvmerge v7.9.0 ('Birds') 64bit
    _STATISTICS_WRITING_DATE_UTC             : 2015-06-12 16:59:39
    _STATISTICS_TAGS                         : BPS DURATION NUMBER_OF_FRAMES NUMBER_OF_BYTES
    Matrix coefficients                      : BT.709-5, BT.1361, IEC 61966-2-4 709, SMPTE RP177

    Audio
    ID                                       : 2
    Format                                   : AC-3
    Format/Info                              : Audio Coding 3
    Mode extension                           : CM (complete main)
    Format settings, Endianness              : Big
    Codec ID                                 : A_AC3
    Duration                                 : 1h 40mn
    Bit rate mode                            : Constant
    Bit rate                                 : 640 Kbps
    Channel(s)                               : 6 channels
    Channel positions                        : Front: L C R, Side: L R, LFE
    Sampling rate                            : 48.0 KHz
    Bit depth                                : 16 bits
    Compression mode                         : Lossy
    Stream size                              : 459 MiB (10%)
    Language                                 : Japanese
    Default                                  : Yes
    Forced                                   : No

    Text #1
    ID                                       : 3
    Format                                   : UTF-8
    Codec ID                                 : S_TEXT/UTF8
    Codec ID/Info                            : UTF-8 Plain Text
    Title                                    : Simplified
    Language                                 : Chinese
    Default                                  : Yes
    Forced                                   : No

    Text #2
    ID                                       : 4
    Format                                   : UTF-8
    Codec ID                                 : S_TEXT/UTF8
    Codec ID/Info                            : UTF-8 Plain Text
    Title                                    : Traditional
    Language                                 : Chinese
    Default                                  : No
    Forced                                   : No



    0 0

    Original Post: Angry Mom (2015) HDTV x264 1080p-DoA [REPACK]

    [剧 名]:愤怒的妈妈 앵그리맘
    [播 送]:韩国MBC
    [类 型]:MBC水木剧  
    [首 播]:2015年03月18日
    [时 间]:每周三四晚间8点45分各播放一集
    [接 档]:Kill me Heal me
    [导 演]:崔炳吉
    [编 剧]:朴贞秀
    [主 演]:金喜善 池贤宇 吴允儿 金裕贞
    [制 作]: DoA
    [集 数]:16集
    [简 介]: 讲述了比起新闻更沉迷于电视剧的妈妈,在看到女儿在学校因为校园暴力而备受折磨之后,再次返回学校的故事。
    [官 网]:http://www.imbc.com/broad/tv/drama/angm/index.html

    This is a repack for E11, load this torrent in the client and recheck the files.

    Details
    Title: 앵그리 맘 / Aenggeuri Mam
    Genre: Family, drama, human, school
    Episodes: 16
    Broadcast network: MBC
    Broadcast period: 2015-Mar-18 to 2015-???-??
    Air time: Wednesday & Thursday 22:00
    Original Soundtrack: Angry Mom OST
    Synopsis
    Jo Kang Ja was once a legendary badass in her teenage days—and as a Busan girl, she would have been extra rough-and-tumble. Daughter to a sashimi-restaurant-owner mother who loves to swear and a father with a rap sheet for fighting, Kang Hee inherits her parents’ penchant for cursing, quick temper, and sashimi knife skills.

    As a young mother, she is the kind of person who prefers dramas to news or current events. But when she finds out that her daughter, Oh Ah Ran, is being victimized by bullies at school, she decides to do something about it directly, and what ensues is a positive, upbeat, and poignant” story that seeks to highlight trouble spots in South Korea’s educational system. --Dramabeans

    Cast
    Kim Hee Sun as Jo Kang Ja (Ah Ran‘s mother)
    Ji Hyun Woo as Park Noh Ah
    Kim Yoo Jung as Oh Ah Ran (Kang Ja‘s daughter)
    People around Jo Kang Ja

    Im Hyung Joon as Oh Jin Sang (Kang Ja‘s husband)
    Go Soo Hee as Han Gong Joo (Kang Ja‘s friend)
    Kim Ji Young as Kang Ja‘s mother-in-law
    Kim Seul Gi as Jong Man
    Seo Nam Yong (서남용) as Sang Man
    People around Park Noh Ah

    Jun Gook Hwan as Park Jin Ho (Noh Ah‘s father)
    Kang Moon Young as Do Yoon Hee
    Grade 2 Class 3 Students

    Yoon Ye Joo (윤예주) as Jin Yi Kyung (Ah Ran‘s best friend)
    Baro as Hong Sang Tae (Chairman Hwang‘s son)
    Kim Ji Soo (지수) as Go Bok Dong
    Lizzy as Wang Jung Hee
    Seo Ji Hee as Hwang Min Joo
    Hyun Jin (현진)as Han Tae Hee
    Jung Shin Hye (정신혜) as Hwang Song Hee
    Choi Ye Seul (최예슬) as Na Do Hee
    People at Myung Sung Foundation

    Park Young Kyu as Chairman Hong Sang Bok
    Kim Tae Hoon as Do Jung Woo
    Park Geun Hyung as Kang Soo Chan (Do Jung Woo‘s biological father)
    Oh Yoon Ah as Joo Ae Yun (Chairman Hong‘s secretary)
    Kim Hee Won as Ahn Dong Chil
    Kim Byung Choon as Oh Dal Bong (head teacher of Myung Sung High School)
    Yoon So Yoon (윤소윤) as teacher Yeo
    Park Hee Jin as Kim Shin Ja
    Others
    Kim Seo Ran (김서란) as Han Mi Joo (Sang Tae‘s mother)


















    Code
    General
    Unique ID                                : 244486703596575277587608323024977700978 (0xB7EE6D2504E5A706B315C5A6A8E8A872)
    Complete name                            : Angry.Mom.E05.HDTV.x264.1080p-DoA.mkv
    Format                                   : Matroska
    Format version                           : Version 4 / Version 2
    File size                                : 2.77 GiB
    Duration                                 : 1h 3mn
    Overall bit rate                         : 6 249 Kbps
    Encoded date                             : UTC 2015-06-01 00:02:30
    Writing application                      : mkvmerge v7.8.0 ('River Man') 64bit built on Mar 27 2015 16:31:37
    Writing library                          : libebml v1.3.1 + libmatroska v1.4.2
    DURATION                                 : 01:03:23.612000000
    NUMBER_OF_FRAMES                         : 118871
    NUMBER_OF_BYTES                          : 213016832
    _STATISTICS_WRITING_APP                  : mkvmerge v7.8.0 ('River Man') 64bit built on Mar 27 2015 16:31:37
    _STATISTICS_WRITING_DATE_UTC             : 2015-06-01 00:02:30
    _STATISTICS_TAGS                         : BPS DURATION NUMBER_OF_FRAMES NUMBER_OF_BYTES

    Video
    ID                                       : 1
    Format                                   : AVC
    Format/Info                              : Advanced Video Codec
    Format profile                           : High@L4.1
    Format settings, CABAC                   : Yes
    Format settings, ReFrames                : 4 frames
    Codec ID                                 : V_MPEG4/ISO/AVC
    Duration                                 : 1h 3mn
    Bit rate                                 : 5 677 Kbps
    Width                                    : 1 912 pixels
    Height                                   : 1 072 pixels
    Display aspect ratio                     : 16:9
    Frame rate mode                          : Constant
    Frame rate                               : 29.970 fps
    Color space                              : YUV
    Chroma subsampling                       : 4:2:0
    Bit depth                                : 8 bits
    Scan type                                : Progressive
    Bits/(Pixel*Frame)                       : 0.092
    Stream size                              : 2.51 GiB (91%)
    Writing library                          : x264 core 144 r2525 40bb568
    Encoding settings                        : cabac=1 / ref=4 / deblock=1:-2:-2 / analyse=0x3:0x133 / me=umh / subme=10 / psy=1 / psy_rd=1.00:0.15 / mixed_ref=1 / me_range=24 / chroma_me=1 / trellis=2 / 8x8dct=1 / cqm=0 / deadzone=21,11 / fast_pskip=1 / chroma_qp_offset=-5 / threads=12 / lookahead_threads=2 / sliced_threads=0 / nr=0 / decimate=1 / interlaced=0 / bluray_compat=0 / constrained_intra=0 / bframes=8 / b_pyramid=2 / b_adapt=2 / b_bias=0 / direct=3 / weightb=1 / open_gop=0 / weightp=2 / keyint=288 / keyint_min=27 / scenecut=40 / intra_refresh=0 / rc_lookahead=60 / rc=crf / mbtree=1 / crf=18.0 / qcomp=0.60 / qpmin=0 / qpmax=69 / qpstep=4 / ip_ratio=1.40 / aq=1:1.00
    Default                                  : Yes
    Forced                                   : No

    Audio
    ID                                       : 2
    Format                                   : AC-3
    Format/Info                              : Audio Coding 3
    Mode extension                           : CM (complete main)
    Format settings, Endianness              : Big
    Codec ID                                 : A_AC3
    Duration                                 : 1h 3mn
    Bit rate mode                            : Constant
    Bit rate                                 : 448 Kbps
    Channel(s)                               : 2 channels
    Channel positions                        : Front: L R
    Sampling rate                            : 48.0 KHz
    Bit depth                                : 16 bits
    Compression mode                         : Lossy
    Delay relative to video                  : 40ms
    Stream size                              : 203 MiB (7%)
    Default                                  : Yes
    Forced                                   : No



    0 0

    Original Post: Bluebird's.House.E33.150613.HDTV.XviD-LIMO

    http://thetvdb.com/?tab=series&id=292405&lid=7
    Details
    Title: 파랑새의 집 / Parangsaeui Jib
    Also known as: Bluebird's Nest
    Genre: Family, human, romance, comedy
    Episodes: 50
    Broadcast network: KBS2
    Broadcast period: 2015-Feb-21 to 2015-???-??
    Air time: Saturday & Sunday Night 19:55
    Original Soundtrack: Bluebird's House OST
    Synopsis
    A drama that tells the story of strong bond between the members of a family even though they are not blood-related. This drama also portrays the hope of parents toward their children's success and how difficult for fresh university graduates to get respectable and well-paid jobs.

    Cast
    Main Cast
    Lee Joon Hyuk as Kim Ji Wan (29)
    Chae Soo Bin as Han Eun Soo (24)
    Lee Sang Yeob as Jang Hyun Do (28)
    Kyung Soo Jin as Kang Young Joo (25)
    Kim Ji Wan's family
    Choi Myung Gil as Han Sun Hee (55)
    Jung Jae Soon as Lee Jin Yi (70)
    Jang Hyun Do's family
    Chun Ho Jin as Jang Tae Soo (55)
    Lee Hye Sook as Jung Soo Kyung (52)
    Kang Young Joo's family
    Song Ok Sook as Oh Min Ja (55)
    Jung Won Joong as Kang Jae Chul (53)
    Others
    Uhm Hyun Kyung as Seo Mi Ji (29)
    Nam Kyung Eup as Shin Young Hwan (50)






    Code
    Video
    ID                                       : 0
    Format                                   : MPEG-4 Visual
    Format profile                           : Advanced Simple@L5
    Format settings, BVOP                    : No
    Format settings, QPel                    : No
    Format settings, GMC                     : No warppoints
    Format settings, Matrix                  : Default (MPEG)
    Codec ID                                 : XVID
    Codec ID/Hint                            : XviD
    Duration                                 : 1h 29mn
    Bit rate                                 : 1 388 Kbps
    Width                                    : 624 pixels
    Height                                   : 352 pixels
    Display aspect ratio                     : 16:9
    Frame rate                               : 29.970 fps
    Color space                              : YUV
    Chroma subsampling                       : 4:2:0
    Bit depth                                : 8 bits
    Scan type                                : Progressive
    Compression mode                         : Lossy
    Bits/(Pixel*Frame)                       : 0.211
    Stream size                              : 886 MiB (87%)
    Writing library                          : XviD 1.2.1 (UTC 2008-12-04)

    Audio
    ID                                       : 1
    Format                                   : MPEG Audio
    Format version                           : Version 1
    Format profile                           : Layer 3
    Mode                                     : Joint stereo
    Mode extension                           : MS Stereo
    Codec ID                                 : 55
    Codec ID/Hint                            : MP3
    Duration                                 : 1h 29mn
    Bit rate mode                            : Constant
    Bit rate                                 : 128 Kbps
    Channel(s)                               : 2 channels
    Sampling rate                            : 48.0 KHz
    Compression mode                         : Lossy
    Stream size                              : 81.7 MiB (8%)
    Alignment                                : Aligned on interleaves
    Writing library                          : LAME3.98.2



    0 0

    Original Post: Bluebird's.House.E33.150613.HDTV.H264.720p-LIMO

    http://thetvdb.com/?tab=series&id=292405&lid=7
    Details
    Title: 파랑새의 집 / Parangsaeui Jib
    Also known as: Bluebird's Nest
    Genre: Family, human, romance, comedy
    Episodes: 50
    Broadcast network: KBS2
    Broadcast period: 2015-Feb-21 to 2015-???-??
    Air time: Saturday & Sunday Night 19:55
    Original Soundtrack: Bluebird's House OST
    Synopsis
    A drama that tells the story of strong bond between the members of a family even though they are not blood-related. This drama also portrays the hope of parents toward their children's success and how difficult for fresh university graduates to get respectable and well-paid jobs.

    Cast
    Main Cast
    Lee Joon Hyuk as Kim Ji Wan (29)
    Chae Soo Bin as Han Eun Soo (24)
    Lee Sang Yeob as Jang Hyun Do (28)
    Kyung Soo Jin as Kang Young Joo (25)
    Kim Ji Wan's family
    Choi Myung Gil as Han Sun Hee (55)
    Jung Jae Soon as Lee Jin Yi (70)
    Jang Hyun Do's family
    Chun Ho Jin as Jang Tae Soo (55)
    Lee Hye Sook as Jung Soo Kyung (52)
    Kang Young Joo's family
    Song Ok Sook as Oh Min Ja (55)
    Jung Won Joong as Kang Jae Chul (53)
    Others
    Uhm Hyun Kyung as Seo Mi Ji (29)
    Nam Kyung Eup as Shin Young Hwan (50)






    Code
    Video
    ID                             : 1
    Format                         : AVC
    Format/Info                    : Advanced Video Codec
    Format profile                 : High@L5.1
    Format settings, CABAC         : Yes
    Format settings, ReFrames      : 4 frames
    Codec ID                       : V_MPEG4/ISO/AVC
    Duration                       : 1h 24mn
    Bit rate                       : 887 Kbps
    Nominal bit rate               : 2 496 Kbps
    Width                          : 1 280 pixels
    Height                         : 720 pixels
    Display aspect ratio           : 16:9
    Frame rate mode                : Constant
    Frame rate                     : 29.970 fps
    Color space                    : YUV
    Chroma subsampling             : 4:2:0
    Bit depth                      : 8 bits
    Scan type                      : Progressive
    Bits/(Pixel*Frame)             : 0.032
    Stream size                    : 535 MiB (68%)
    Writing library                : x264 core 130 r2273 b3065e6
    Encoding settings              : cabac=1 / ref=3 / deblock=1:0:0 / analyse=0x3:0x113 / me=hex / subme=7 / psy=1 / psy_rd=1.00:0.00 / mixed_ref=1 / me_range=16 / chroma_me=1 / trellis=1 / 8x8dct=1 / cqm=0 / deadzone=21,11 / fast_pskip=1 / chroma_qp_offset=-2 / threads=1 / lookahead_threads=1 / sliced_threads=0 / nr=0 / decimate=1 / interlaced=0 / bluray_compat=0 / constrained_intra=0 / bframes=3 / b_pyramid=2 / b_adapt=1 / b_bias=0 / direct=1 / weightb=1 / open_gop=0 / weightp=2 / keyint=300 / keyint_min=29 / scenecut=40 / intra_refresh=0 / rc_lookahead=40 / rc=2pass / mbtree=1 / bitrate=2496 / ratetol=1.0 / qcomp=0.60 / qpmin=0 / qpmax=69 / qpstep=4 / cplxblur=20.0 / qblur=0.5 / vbv_maxrate=300000 / vbv_bufsize=300000 / nal_hrd=none / ip_ratio=1.40 / aq=1:1.00
    Default                        : Yes
    Forced                         : No

    Audio
    ID                             : 2
    Format                         : AC-3
    Format/Info                    : Audio Coding 3
    Mode extension                 : CM (complete main)
    Format settings, Endianness    : Big
    Codec ID                       : A_AC3
    Duration                       : 1h 24mn
    Bit rate mode                  : Constant
    Bit rate                       : 384 Kbps
    Channel(s)                     : 2 channels
    Channel positions              : Front: L R
    Sampling rate                  : 44.1 KHz
    Bit depth                      : 16 bits
    Compression mode               : Lossy
    Stream size                    : 232 MiB (30%)
    Language                       : Korean
    Default                        : Yes
    Forced                         : No



    0 0

    Original Post: Specialist 3 SP 2015 720p HDTV x264 AAC DoA



    Title : Specialist 3
    Format: Tanpatsu
    Genre: Mystery
    Episodes: 1
    Network: TV Asahi
    Release Date: 2015-Feb-28
    Air time: 9.00 p.m
    Language: Japanese
    Subtitles: English - Torachan2006
    Raw credit to DoA

    Synopsis
    Kubota Shu, who runs a temporary employment agency, is clubbed to death with a bat. A metal bat believed to be the murder weapon as well as something that looks like an old toy are found at the crime scene. Takakura Kiichiro (Osugi Ren), the commissioner of the Kyoto Prefectural Police, orders Takuma Yoshito (Kusanagi Tsuyoshi) to go to the crime scene. Takuma and the other members of the Special Investigation Unit begin the investigation. They learn that the old toy is part of a set of seven “Protect Kyoto” character figurines of different occupations which were made while Takuma was in the Kyoto Prefectural Police’s Public Relations Division some 10 years ago. This time, the toy placed at the crime scene stands for public prosecutor. Oddly, Kubota was a former senior prosecutor of the Kyoto Public Prosecutors’ Office. Takuma says this is a case that he must solve and tells his regular partner, Anegakoji Chinami (Minami Kaho), that he is dissolving their partnership. He starts to investigate on his own and discovers that a “Protect Kyoto” character figurine wearing a police uniform was left at the scene of the murder of Chinami’s husband, Takehiko, who had been a police officer. There is a ring of truth to what the prisoner, Sagami Wakahiro (Kamikawa Takaya), had previously talked about. “The case of Anegakoji-san’s husband 12 years ago and your wrongful conviction are connected.” Suspicious of Takuma’s actions, Chinami presses him for an explanation, and gets the truth out of him. Takuma does not want to get her involved because he does not know what danger lies ahead. But she gets the upper hand and begins to investigate the case 12 years ago with Matsubara Yuiko (Ashina Sei), Horikawa Kohei (Hiraoka Yuta) and the rest of the Special Investigation Unit. They identify several cases where the character figurines were left behind at the crime scenes. What is the association between the figurines which Takuma made and these cases? As Takuma and the members get to the bottom of the matter, they come to the least expected person. In addition, the shocking truth regarding Takuma’s conviction is revealed

    Cast
    Kusanagi Tsuyoshi, Minami Kaho, Ashina Sei, Satoi Kenta, Kamikawa Takaya (guest star), Tokui Yu, Konno Mahiru, Tanaka Yoji, Hiraoka Yuta, Enami Kyoko, Osugi Ren, Kaname Jun (guest star), Takada Sho (guest star), Kunihiro Tomiyuki (guest star), Dan Jiro (guest star)








    Code
    Format                                   : Matroska
    Format version                           : Version 4 / Version 2
    File size                                : 2.51 GiB
    Duration                                 : 1h 45mn
    Overall bit rate                         : 3 403 Kbps
    Movie name                               : (???) ?????????????????????? SPECIALIST 3 SP 720p HDTV x264 AAC-DoA
    Encoded date                             : UTC 2015-03-01 22:16:45
    Writing application                      : mkvmerge v7.6.0 ('Garden of Dreams') 64bit built on Feb  8 2015 13:04:34
    Writing library                          : libebml v1.3.1 + libmatroska v1.4.2
    DURATION                                 : 01:45:29.813000000
    NUMBER_OF_FRAMES                         : 296710
    NUMBER_OF_BYTES                          : 149245130
    _STATISTICS_WRITING_APP                  : mkvmerge v7.6.0 ('Garden of Dreams') 64bit built on Feb  8 2015 13:04:34
    _STATISTICS_WRITING_DATE_UTC             : 2015-03-01 22:16:45
    _STATISTICS_TAGS                         : BPS DURATION NUMBER_OF_FRAMES NUMBER_OF_BYTES

    Video
    ID                                       : 1
    Format                                   : AVC
    Format/Info                              : Advanced Video Codec
    Format profile                           : High@L4.1
    Format settings, CABAC                   : Yes
    Format settings, ReFrames                : 9 frames
    Codec ID                                 : V_MPEG4/ISO/AVC
    Duration                                 : 1h 45mn
    Width                                    : 1 280 pixels
    Height                                   : 720 pixels
    Display aspect ratio                     : 16:9
    Frame rate mode                          : Constant
    Frame rate                               : 29.970 fps
    Color space                              : YUV
    Chroma subsampling                       : 4:2:0
    Bit depth                                : 8 bits
    Scan type                                : Progressive
    Title                                    : Encode by TTG-DoA
    Writing library                          : x264 core 144 r2525 40bb568
    Encoding settings                        : cabac=1 / ref=9 / deblock=1:-2:-2 / analyse=0x3:0x133 / me=umh / subme=10 / psy=1 / psy_rd=1.00:0.15 / mixed_ref=1 / me_range=48 / chroma_me=1 / trellis=2 / 8x8dct=1 / cqm=0 / deadzone=21,11 / fast_pskip=0 / chroma_qp_offset=-3 / threads=12 / lookahead_threads=2 / sliced_threads=0 / nr=0 / decimate=1 / interlaced=0 / bluray_compat=0 / constrained_intra=0 / bframes=8 / b_pyramid=2 / b_adapt=2 / b_bias=0 / direct=3 / weightb=1 / open_gop=0 / weightp=2 / keyint=300 / keyint_min=29 / scenecut=40 / intra_refresh=0 / rc_lookahead=60 / rc=crf / mbtree=1 / crf=17.0 / qcomp=0.60 / qpmin=0 / qpmax=69 / qpstep=4 / ip_ratio=1.40 / aq=1:1.00
    Language                                 : Japanese
    Default                                  : Yes
    Forced                                   : No
    _STATISTICS_WRITING_APP                  : mkvmerge v7.6.0 ('Garden of Dreams') 64bit built on Feb  8 2015 13:04:34
    _STATISTICS_WRITING_DATE_UTC             : 2015-03-01 22:16:45
    _STATISTICS_TAGS                         : BPS DURATION NUMBER_OF_FRAMES NUMBER_OF_BYTES
    DURATION                                 : 01:45:29.856000000
    NUMBER_OF_FRAMES                         : 189706
    NUMBER_OF_BYTES                          : 2541211373

    Audio
    ID                                       : 2
    Format                                   : AAC
    Format/Info                              : Advanced Audio Codec
    Format profile                           : LC
    Codec ID                                 : A_AAC
    Duration                                 : 1h 45mn
    Channel(s)                               : 2 channels
    Channel positions                        : Front: L R
    Sampling rate                            : 48.0 KHz
    Compression mode                         : Lossy
    Language                                 : Japanese
    Default                                  : Yes
    Forced                                   : No

    Menu
    00:00:00.000                             : ja:Chapter 01
    00:29:15.019                             : ja:Chapter 02
    00:41:08.032                             : ja:Chapter 03
    01:01:04.961                             : ja:Chapter 04
    01:10:50.946                             : ja:Chapter 05
    01:14:25.928                             : ja:Chapter 06
    01:25:31.893                             : ja:Chapter 07



    0 0

    Original Post: Senryokugai Sousakan SP 2015 720p HDTV x264 AAC DoA



    Title : Senryokugai Sosakan / 戦力外捜査官  
    Format: Tanpatsu
    Genre: Comedy
    Episodes: 1
    Network: NTV
    Release Date: 2015-mar-21
    Air time: 9.00 p.m
    Language: Japanese
    Subtitles: English - torachan2006
    Raw credit to DoA

    Synopsis
    Inspector Umizuki Chinami (Takei Emi) is a career elite and yet treated as a burden. It has been one year since she was assigned to the Eighteenth Section of the Tokyo Metropolitan Police Department’s First Investigative Division as a rookie detective. A transfer order is waiting for her in the new year. Unaware of this, Chinami goes with Shitara Kyosuke (TAKAHIRO) to escort Sugimoto (Sumida Takashi), a criminal in a robbery that resulted in injuries, from Macau. However, the moment Sugimoto arrives at the airport in Japan, he is shot and killed by someone. While checking Sugimoto’s background, Chinami meets an elementary school student, Yuta (Kimino Yuma), who claims that his father has been kidnapped. His mother (Horiuchi Keiko) says it is a lie. But this weighs on Chinami’s mind. Before long, she finds out the source of the gun that was used to shoot Sugimoto. This brings her to Kanto Natsume-kai. For some reason, Yuta’s mother is there. She learns that Yuta’s father, Akiba (Hakamada Yoshihiko), a skilled workman, was abducted by Kanto Natsume-kai and made to be a dealer at an illegal casino. Sugimoto had run up debt of 20 million yen at this casino. They finally establish a link to the case and think that the case can be solved. But it is not that simple. The illegal casino has been taking place at the embassy which Japanese police cannot enter because of diplomatic immunity. Chinami has until April to solve the case. The members of the Eighteenth Section, who have quickly learnt about Chinami’s transfer, work hard in an attempt to send her off without bringing dishonour to her name, but they have just one month … …

    Cast
    Takei Emi, TAKAHIRO, Hakamada Yoshihiko, Horiuchi Keiko, Kimino Yuma, Yashima Norito, Tokushige Satoshi, Hamada Mari, Nomaguchi Toru, Kinoshita Takayuki, YOU, Sekine Tsutomu, Shibuya Kento







    Code
    Format                                   : Matroska
    Format version                           : Version 4 / Version 2
    File size                                : 2.87 GiB
    Duration                                 : 1h 43mn
    Overall bit rate                         : 3 979 Kbps
    Movie name                               : ??????SPECIAL 2015 720p HDTV x264 AAC-DoA
    Encoded date                             : UTC 2015-03-24 02:39:41
    Writing application                      : mkvmerge v7.7.0 ('Six Voices') 64bit built on Feb 28 2015 23:39:33
    Writing library                          : libebml v1.3.1 + libmatroska v1.4.2
    DURATION                                 : 01:43:24.629000000
    NUMBER_OF_FRAMES                         : 290842
    NUMBER_OF_BYTES                          : 146293604
    _STATISTICS_WRITING_APP                  : mkvmerge v7.7.0 ('Six Voices') 64bit built on Feb 28 2015 23:39:33
    _STATISTICS_WRITING_DATE_UTC             : 2015-03-24 02:39:41
    _STATISTICS_TAGS                         : BPS DURATION NUMBER_OF_FRAMES NUMBER_OF_BYTES

    Video
    ID                                       : 1
    Format                                   : AVC
    Format/Info                              : Advanced Video Codec
    Format profile                           : High@L4.1
    Format settings, CABAC                   : Yes
    Format settings, ReFrames                : 9 frames
    Codec ID                                 : V_MPEG4/ISO/AVC
    Duration                                 : 1h 43mn
    Width                                    : 1 280 pixels
    Height                                   : 720 pixels
    Display aspect ratio                     : 16:9
    Frame rate mode                          : Constant
    Frame rate                               : 29.970 fps
    Color space                              : YUV
    Chroma subsampling                       : 4:2:0
    Bit depth                                : 8 bits
    Scan type                                : Progressive
    Title                                    : Encode by TTG-DoA
    Writing library                          : x264 core 146 r2538 121396c
    Encoding settings                        : cabac=1 / ref=9 / deblock=1:-2:-2 / analyse=0x3:0x133 / me=umh / subme=10 / psy=1 / psy_rd=1.00:0.15 / mixed_ref=1 / me_range=48 / chroma_me=1 / trellis=2 / 8x8dct=1 / cqm=0 / deadzone=21,11 / fast_pskip=0 / chroma_qp_offset=-3 / threads=12 / lookahead_threads=2 / sliced_threads=0 / nr=0 / decimate=1 / interlaced=0 / bluray_compat=0 / constrained_intra=0 / bframes=8 / b_pyramid=2 / b_adapt=2 / b_bias=0 / direct=3 / weightb=1 / open_gop=0 / weightp=2 / keyint=300 / keyint_min=29 / scenecut=40 / intra_refresh=0 / rc_lookahead=60 / rc=crf / mbtree=1 / crf=17.3 / qcomp=0.60 / qpmin=0 / qpmax=69 / qpstep=4 / ip_ratio=1.40 / aq=1:1.00
    Language                                 : Japanese
    Default                                  : Yes
    Forced                                   : No
    _STATISTICS_WRITING_APP                  : mkvmerge v7.7.0 ('Six Voices') 64bit built on Feb 28 2015 23:39:33
    _STATISTICS_WRITING_DATE_UTC             : 2015-03-24 02:39:41
    _STATISTICS_TAGS                         : BPS DURATION NUMBER_OF_FRAMES NUMBER_OF_BYTES
    DURATION                                 : 01:43:24.598000000
    NUMBER_OF_FRAMES                         : 185952
    NUMBER_OF_BYTES                          : 2937485054

    Audio
    ID                                       : 2
    Format                                   : AAC
    Format/Info                              : Advanced Audio Codec
    Format profile                           : LC
    Codec ID                                 : A_AAC
    Duration                                 : 1h 43mn
    Channel(s)                               : 2 channels
    Channel positions                        : Front: L R
    Sampling rate                            : 48.0 KHz
    Compression mode                         : Lossy
    Language                                 : Japanese
    Default                                  : Yes
    Forced                                   : No

    Menu
    00:00:00.000                             : ja:Chapter 01
    00:19:44.983                             : ja:Chapter 02
    00:27:49.968                             : ja:Chapter 03
    00:34:08.946                             : ja:Chapter 04
    00:42:20.871                             : ja:Chapter 05
    00:52:08.859                             : ja:Chapter 06
    00:57:01.851                             : ja:Chapter 07
    01:00:48.845                             : ja:Chapter 08
    01:11:03.826                             : ja:Chapter 09
    01:17:49.765                             : ja:Chapter 10
    01:25:03.731                             : ja:Chapter 11
    01:29:05.673                             : ja:Chapter 12



    0 0

    Original Post: Live! Love! Sing! - Ikite Aishite Utau Koto SP 2015 720p HDTV x264 AAC DoA




    Title : LIVE! LOVE! SING! 生きて愛して歌うこと
    Format: Tanpatsu
    Genre: Drama, Music
    Episodes: 1
    Network: NHK
    Release Date: 2015-mar-10
    Air time: 22:00
    Language: Japanese
    Subtitles: None
    Raw credit to DoA

    Synopsis
    Story about two student that evacuated from earthquake. Living in Kobe and begin the journey

    Cast
    Okari Kiyoharu (Watanabe taichi)
    Tachibana kagari (kinoshita momoka)
    satō masaru (Masaki reiya)
    Watanabe honki (maeda kōki)
    mō-san (nakamura shidō)
    Okari Midori (minami kaho)
    Asuka-san (tomosakarie)







    Code
    Format                                   : Matroska
    Format version                           : Version 4 / Version 2
    File size                                : 2.48 GiB
    Duration                                 : 1h 13mn
    Overall bit rate                         : 4 795 Kbps
    Movie name                               : LIVE?LOVE?SING???????????
    Encoded by                               : ???????? ??( ?????)??
    Encoded date                             : UTC 2015-03-26 12:57:09
    Writing application                      : mkvmerge v7.6.0 ('Garden of Dreams') 64bit built on Feb  9 2015 20:32:11
    Writing library                          : libebml v1.3.1 + libmatroska v1.4.2
    DATE_RECORDED                            : JST 2015-03-10 21:59:37
    TITLE                                    : LIVE?LOVE?SING???????????
    TITLE/Url                                : http://www.nhk.or.jp/livelovesing/
    COMMENT                                  : ???????
    ENCODER_SETTINGS                         : wine avs-plus/avs2yuv.exe livelovesing.avs - x264 -
    ENCODER_SETTINGS/AviSynth                : tfm(pp = 2, mode = 5, cthresh = 1, clip2 = qtgmc.selecteven)
    DURATION                                 : 01:13:59.914000000
    NUMBER_OF_FRAMES                         : 208121
    NUMBER_OF_BYTES                          : 78050026
    _STATISTICS_WRITING_APP                  : mkvmerge v7.6.0 ('Garden of Dreams') 64bit built on Feb  9 2015 20:32:11
    _STATISTICS_WRITING_DATE_UTC             : 2015-03-26 12:57:09
    _STATISTICS_TAGS                         : BPS DURATION NUMBER_OF_FRAMES NUMBER_OF_BYTES

    Video
    ID                                       : 1
    Format                                   : AVC
    Format/Info                              : Advanced Video Codec
    Format profile                           : High@L4.0
    Format settings, CABAC                   : Yes
    Format settings, ReFrames                : 6 frames
    Codec ID                                 : V_MPEG4/ISO/AVC
    Duration                                 : 1h 13mn
    Width                                    : 1 280 pixels
    Height                                   : 720 pixels
    Display aspect ratio                     : 16:9
    Frame rate mode                          : Constant
    Frame rate                               : 29.970 fps
    Color space                              : YUV
    Chroma subsampling                       : 4:2:0
    Bit depth                                : 8 bits
    Scan type                                : Progressive
    Writing library                          : x264 core 146 r2538 121396c
    Encoding settings                        : cabac=1 / ref=6 / deblock=1:-2:-2 / analyse=0x3:0x133 / me=umh / subme=11 / psy=1 / psy_rd=1.00:0.15 / mixed_ref=1 / me_range=24 / chroma_me=1 / trellis=2 / 8x8dct=1 / cqm=0 / deadzone=21,11 / fast_pskip=1 / chroma_qp_offset=-3 / threads=12 / lookahead_threads=1 / sliced_threads=0 / nr=0 / decimate=1 / interlaced=0 / bluray_compat=0 / constrained_intra=0 / bframes=5 / b_pyramid=2 / b_adapt=2 / b_bias=0 / direct=3 / weightb=1 / open_gop=0 / weightp=2 / keyint=300 / keyint_min=20 / scenecut=40 / intra_refresh=0 / rc_lookahead=60 / rc=crf / mbtree=1 / crf=19.0 / qcomp=0.60 / qpmin=0 / qpmax=69 / qpstep=4 / ip_ratio=1.40 / aq=1:1.00
    Language                                 : Japanese
    Default                                  : Yes
    Forced                                   : No
    DURATION                                 : 01:13:59.935000000
    NUMBER_OF_FRAMES                         : 133065
    NUMBER_OF_BYTES                          : 2581514011
    _STATISTICS_WRITING_APP                  : mkvmerge v7.6.0 ('Garden of Dreams') 64bit built on Feb  9 2015 20:32:11
    _STATISTICS_WRITING_DATE_UTC             : 2015-03-26 12:57:09
    _STATISTICS_TAGS                         : BPS DURATION NUMBER_OF_FRAMES NUMBER_OF_BYTES

    Audio
    ID                                       : 2
    Format                                   : AAC
    Format/Info                              : Advanced Audio Codec
    Format profile                           : LC
    Codec ID                                 : A_AAC
    Duration                                 : 1h 13mn
    Channel(s)                               : 2 channels
    Channel positions                        : Front: L R
    Sampling rate                            : 48.0 KHz
    Compression mode                         : Lossy
    Delay relative to video                  : 2ms
    Language                                 : Japanese
    Default                                  : Yes
    Forced                                   : No



    0 0

    Original Post: Totsuki Tooka no Shinkaron SP 2015 720p HDTV x264 AAC DoA



    Title : 十月十日の進化論
    Format: Tanpatsu
    Genre: Drama, Family
    Episodes: 1
    Network: WOWOW
    Release Date: 2015-Feb-28
    Air time: 10.00 p.m
    Language: Japanese
    Subtitles: None
    Raw credit to DoA

    Synopsis
    Kobayashi Suzu (Ono Machiko), who lives alone in Tokyo, has a doctorate in insect taxonomy. Insects are the great love of her life. One day, she is suddenly laid off by the university she has been working for because of her narrow field of research and obstinate personality. That night, Suzu is reunited with a former boyfriend, Ando Takeshi (Tanaka Kei), at the cafe that her biological father, Nakamura Tamotsu (Denden), runs. She and her father are not in the same family register for some reason. Suzu gets dead drunk and Takeshi sends her home. The two of them end up spending the night together. About five weeks later, Suzu discovers she is pregnant. Learning from a book about the legend that a human being will replicate some 300 million years of biological evolution during the nine months as a fetus, makes Suzu determined to give birth to her child. However, she is not able to broach the topic to Takeshi. The job she has finally secured does not work out as she thought too. While she sulks in disgruntlement for successive days, her mother Fumiko (Lily) comes to Tokyo from their hometown. Suzu’s pregnancy is exposed and she is berated. However, her desire to raise the child on her own does not change despite her mother’s vehement opposition. Her hidden past has something to do with her stubbornness.

    Cast
    Ono Machiko
    Tanaka Kei
    Denden
    Lily
    Sasaki Sumie
    Saiki Shigeru
    Sato Hitomi
    Shimada Kyusaku
    Shiga Kotaro







    Code
    Format                                   : Matroska
    Format version                           : Version 4 / Version 2
    File size                                : 2.31 GiB
    Duration                                 : 1h 58mn
    Overall bit rate                         : 2 779 Kbps
    Movie name                               : ???W ????????
    Encoded by                               : ???????? ??( ?????)??
    Encoded date                             : UTC 2015-03-30 12:53:02
    Writing application                      : mkvmerge v7.6.0 ('Garden of Dreams') 64bit built on Feb  9 2015 20:32:11
    Writing library                          : libebml v1.3.1 + libmatroska v1.4.2
    DATE_RECORDED                            : JST 2015-03-28 21:59:10
    TITLE                                    : ????????
    TITLE/Url                                : http://www.wowow.co.jp/dramaw/totsukitoka/
    WRITTEN_BY                               : ???
    DIRECTOR                                 : ????
    COMMENT                                  : ???????
    ENCODER_SETTINGS                         : wine avs-plus/avs2yuv.exe totsukitoka.avs - | x264 -
    ENCODER_SETTINGS/AviSynth                : tfm(mode = 5, pp = 2, cthresh = 1, clip2 = qtgmc.selecteven)
    DURATION                                 : 01:58:44.971000000
    NUMBER_OF_FRAMES                         : 333983
    NUMBER_OF_BYTES                          : 167993449
    _STATISTICS_WRITING_APP                  : mkvmerge v7.6.0 ('Garden of Dreams') 64bit built on Feb  9 2015 20:32:11
    _STATISTICS_WRITING_DATE_UTC             : 2015-03-30 12:53:02
    _STATISTICS_TAGS                         : BPS DURATION NUMBER_OF_FRAMES NUMBER_OF_BYTES

    Video
    ID                                       : 1
    Format                                   : AVC
    Format/Info                              : Advanced Video Codec
    Format profile                           : High@L4.0
    Format settings, CABAC                   : Yes
    Format settings, ReFrames                : 6 frames
    Codec ID                                 : V_MPEG4/ISO/AVC
    Duration                                 : 1h 58mn
    Width                                    : 1 280 pixels
    Height                                   : 720 pixels
    Display aspect ratio                     : 16:9
    Frame rate mode                          : Constant
    Frame rate                               : 29.970 fps
    Color space                              : YUV
    Chroma subsampling                       : 4:2:0
    Bit depth                                : 8 bits
    Scan type                                : Progressive
    Writing library                          : x264 core 146 r2538 121396c
    Encoding settings                        : cabac=1 / ref=6 / deblock=1:-3:-3 / analyse=0x3:0x133 / me=umh / subme=11 / psy=1 / psy_rd=1.00:0.15 / mixed_ref=1 / me_range=24 / chroma_me=1 / trellis=2 / 8x8dct=1 / cqm=0 / deadzone=21,11 / fast_pskip=1 / chroma_qp_offset=-3 / threads=12 / lookahead_threads=1 / sliced_threads=0 / nr=0 / decimate=1 / interlaced=0 / bluray_compat=0 / constrained_intra=0 / bframes=5 / b_pyramid=2 / b_adapt=2 / b_bias=0 / direct=3 / weightb=1 / open_gop=0 / weightp=2 / keyint=300 / keyint_min=30 / scenecut=40 / intra_refresh=0 / rc_lookahead=60 / rc=crf / mbtree=1 / crf=19.0 / qcomp=0.60 / qpmin=0 / qpmax=69 / qpstep=4 / ip_ratio=1.40 / aq=1:1.00
    Language                                 : Japanese
    Default                                  : Yes
    Forced                                   : No
    DURATION                                 : 01:58:44.984000000
    NUMBER_OF_FRAMES                         : 213536
    NUMBER_OF_BYTES                          : 2304772432
    _STATISTICS_WRITING_APP                  : mkvmerge v7.6.0 ('Garden of Dreams') 64bit built on Feb  9 2015 20:32:11
    _STATISTICS_WRITING_DATE_UTC             : 2015-03-30 12:53:02
    _STATISTICS_TAGS                         : BPS DURATION NUMBER_OF_FRAMES NUMBER_OF_BYTES

    Audio
    ID                                       : 2
    Format                                   : AAC
    Format/Info                              : Advanced Audio Codec
    Format profile                           : LC
    Codec ID                                 : A_AAC
    Duration                                 : 1h 58mn
    Channel(s)                               : 2 channels
    Channel positions                        : Front: L R
    Sampling rate                            : 48.0 KHz
    Compression mode                         : Lossy
    Delay relative to video                  : 11ms
    Language                                 : Japanese
    Default                                  : Yes
    Forced                                   : No



    0 0

    Original Post: Queen's.Flower.E27.150613.HDTV.XviD-LIMO

    http://thetvdb.com/?tab=series&id=293195
    Details
    Title: 여왕의 꽃 / Yeowangeui Ggot
    Previously known as: 적도의 꽃 (Flower of the Equator)
    Genre: Melodrama
    Episodes: 50
    Broadcast network: MBC
    Broadcast period: 2015-Mar-14 to 2015-???-??
    Air time: Saturday & Sunday 21:55

    Synopsis
    Rena Jung (Kim Sung Ryung) is a beautiful, but ambitious star chef who hosts her own cooking show. Her husband, Park Min-Joon (Lee Jong Hyuk), is the first son of a family that runs a large company. Their relationship is not so good, but they try to show other people they are still in love.

    In the past, Rena Jung abandoned her daughter for a chance at success. Now, her daughter, Kang Yi Sol (Lee Sung Kyung) appears in front of her. Kang Yi Sol resents her mother for abandoning her.

    Park Jae Joon (Yoon Park) is the husband's younger brother. He is popular with women, but he is attracted to Kang Yi-Sol.

    Cast
    Kim Sung Ryung as Rena Jung / Jung Eun Hye
    Lee Sung Kyung as Kang Yi Sol
    Yoon Park as Park Jae Joon
    Lee Jong Hyuk as Park Min Joon








    Code
    Video
    ID                                       : 0
    Format                                   : MPEG-4 Visual
    Format profile                           : Advanced Simple@L5
    Format settings, BVOP                    : No
    Format settings, QPel                    : No
    Format settings, GMC                     : No warppoints
    Format settings, Matrix                  : Default (MPEG)
    Codec ID                                 : XVID
    Codec ID/Hint                            : XviD
    Duration                                 : 1h 29mn
    Bit rate                                 : 1 388 Kbps
    Width                                    : 624 pixels
    Height                                   : 352 pixels
    Display aspect ratio                     : 16:9
    Frame rate                               : 29.970 fps
    Color space                              : YUV
    Chroma subsampling                       : 4:2:0
    Bit depth                                : 8 bits
    Scan type                                : Progressive
    Compression mode                         : Lossy
    Bits/(Pixel*Frame)                       : 0.211
    Stream size                              : 886 MiB (87%)
    Writing library                          : XviD 1.2.1 (UTC 2008-12-04)

    Audio
    ID                                       : 1
    Format                                   : MPEG Audio
    Format version                           : Version 1
    Format profile                           : Layer 3
    Mode                                     : Joint stereo
    Mode extension                           : MS Stereo
    Codec ID                                 : 55
    Codec ID/Hint                            : MP3
    Duration                                 : 1h 29mn
    Bit rate mode                            : Constant
    Bit rate                                 : 128 Kbps
    Channel(s)                               : 2 channels
    Sampling rate                            : 48.0 KHz
    Compression mode                         : Lossy
    Stream size                              : 81.7 MiB (8%)
    Alignment                                : Aligned on interleaves
    Writing library                          : LAME3.98.2



    0 0

    Original Post: Queen's.Flower.E27.150613.HDTV.H264.720p-LIMO

    http://thetvdb.com/?tab=series&id=293195
    Title: 여왕의 꽃 / Yeowangeui Ggot
    Previously known as: 적도의 꽃 (Flower of the Equator)
    Genre: Melodrama
    Episodes: 50
    Broadcast network: MBC
    Broadcast period: 2015-Mar-14 to 2015-???-??
    Air time: Saturday & Sunday 21:55

    Synopsis
    Rena Jung (Kim Sung Ryung) is a beautiful, but ambitious star chef who hosts her own cooking show. Her husband, Park Min-Joon (Lee Jong Hyuk), is the first son of a family that runs a large company. Their relationship is not so good, but they try to show other people they are still in love.

    In the past, Rena Jung abandoned her daughter for a chance at success. Now, her daughter, Kang Yi Sol (Lee Sung Kyung) appears in front of her. Kang Yi Sol resents her mother for abandoning her.

    Park Jae Joon (Yoon Park) is the husband's younger brother. He is popular with women, but he is attracted to Kang Yi-Sol.

    Cast
    Kim Sung Ryung as Rena Jung / Jung Eun Hye
    Lee Sung Kyung as Kang Yi Sol
    Yoon Park as Park Jae Joon
    Lee Jong Hyuk as Park Min Joon






    Code
    Video
    ID                             : 1
    Format                         : AVC
    Format/Info                    : Advanced Video Codec
    Format profile                 : High@L5.1
    Format settings, CABAC         : Yes
    Format settings, ReFrames      : 4 frames
    Codec ID                       : V_MPEG4/ISO/AVC
    Duration                       : 1h 24mn
    Bit rate                       : 887 Kbps
    Nominal bit rate               : 2 496 Kbps
    Width                          : 1 280 pixels
    Height                         : 720 pixels
    Display aspect ratio           : 16:9
    Frame rate mode                : Constant
    Frame rate                     : 29.970 fps
    Color space                    : YUV
    Chroma subsampling             : 4:2:0
    Bit depth                      : 8 bits
    Scan type                      : Progressive
    Bits/(Pixel*Frame)             : 0.032
    Stream size                    : 535 MiB (68%)
    Writing library                : x264 core 130 r2273 b3065e6
    Encoding settings              : cabac=1 / ref=3 / deblock=1:0:0 / analyse=0x3:0x113 / me=hex / subme=7 / psy=1 / psy_rd=1.00:0.00 / mixed_ref=1 / me_range=16 / chroma_me=1 / trellis=1 / 8x8dct=1 / cqm=0 / deadzone=21,11 / fast_pskip=1 / chroma_qp_offset=-2 / threads=1 / lookahead_threads=1 / sliced_threads=0 / nr=0 / decimate=1 / interlaced=0 / bluray_compat=0 / constrained_intra=0 / bframes=3 / b_pyramid=2 / b_adapt=1 / b_bias=0 / direct=1 / weightb=1 / open_gop=0 / weightp=2 / keyint=300 / keyint_min=29 / scenecut=40 / intra_refresh=0 / rc_lookahead=40 / rc=2pass / mbtree=1 / bitrate=2496 / ratetol=1.0 / qcomp=0.60 / qpmin=0 / qpmax=69 / qpstep=4 / cplxblur=20.0 / qblur=0.5 / vbv_maxrate=300000 / vbv_bufsize=300000 / nal_hrd=none / ip_ratio=1.40 / aq=1:1.00
    Default                        : Yes
    Forced                         : No

    Audio
    ID                             : 2
    Format                         : AC-3
    Format/Info                    : Audio Coding 3
    Mode extension                 : CM (complete main)
    Format settings, Endianness    : Big
    Codec ID                       : A_AC3
    Duration                       : 1h 24mn
    Bit rate mode                  : Constant
    Bit rate                       : 384 Kbps
    Channel(s)                     : 2 channels
    Channel positions              : Front: L R
    Sampling rate                  : 44.1 KHz
    Bit depth                      : 16 bits
    Compression mode               : Lossy
    Stream size                    : 232 MiB (30%)
    Language                       : Korean
    Default                        : Yes
    Forced                         : No



    0 0

    Original Post: Divorce.Lawyer.In.Love.E17.150613.HDTV.XviD-LIMO

    http://thetvdb.com/?tab=series&id=293864&lid=7
    Details
    Title: 이혼변호사는 연애중 / Yihonbyunhosaneun Yeonaejoong
    Genre: Romance, comedy
    Episodes: 16
    Broadcast network: SBS
    Broadcast period: 2015-Apr-18 to 2015-TBA
    Air time: Saturday & Sunday 22:00
    Original Soundtrack: Divorce Lawyer in Love OST
    Synopsis
    Go Cheok Hee is a successful divorce lawyer who treated So Jung Woo terribly when he was her firm's office manager. The tables are turned when Cheok Hee loses her license and can no longer practice law and Jung Woo has become a successful lawyer. The two cross paths again when Cheok Hee becomes Jung Woo's office manager.

    Cast
    Jo Yeo Jung as Go Cheok Hee
    Lee Bit Na as young Go Cheok Hee
    Yun Woo Jin as So Jung Woo
    Shim Hyung Tak as Bong Min Kyu
    Wang Ji Won as Jo Soo Ah








    Code
    Video
    ID                                       : 0
    Format                                   : MPEG-4 Visual
    Format profile                           : Advanced Simple@L5
    Format settings, BVOP                    : No
    Format settings, QPel                    : No
    Format settings, GMC                     : No warppoints
    Format settings, Matrix                  : Default (MPEG)
    Codec ID                                 : XVID
    Codec ID/Hint                            : XviD
    Duration                                 : 1h 29mn
    Bit rate                                 : 1 388 Kbps
    Width                                    : 624 pixels
    Height                                   : 352 pixels
    Display aspect ratio                     : 16:9
    Frame rate                               : 29.970 fps
    Color space                              : YUV
    Chroma subsampling                       : 4:2:0
    Bit depth                                : 8 bits
    Scan type                                : Progressive
    Compression mode                         : Lossy
    Bits/(Pixel*Frame)                       : 0.211
    Stream size                              : 886 MiB (87%)
    Writing library                          : XviD 1.2.1 (UTC 2008-12-04)

    Audio
    ID                                       : 1
    Format                                   : MPEG Audio
    Format version                           : Version 1
    Format profile                           : Layer 3
    Mode                                     : Joint stereo
    Mode extension                           : MS Stereo
    Codec ID                                 : 55
    Codec ID/Hint                            : MP3
    Duration                                 : 1h 29mn
    Bit rate mode                            : Constant
    Bit rate                                 : 128 Kbps
    Channel(s)                               : 2 channels
    Sampling rate                            : 48.0 KHz
    Compression mode                         : Lossy
    Stream size                              : 81.7 MiB (8%)
    Alignment                                : Aligned on interleaves
    Writing library                          : LAME3.98.2



    0 0

    Original Post: Divorce.Lawyer.In.Love.E17.150613.HDTV.H264.720p-LIMO

    http://thetvdb.com/?tab=series&id=293864&lid=7
    Details
    Title: 이혼변호사는 연애중 / Yihonbyunhosaneun Yeonaejoong
    Genre: Romance, comedy
    Episodes: 16
    Broadcast network: SBS
    Broadcast period: 2015-Apr-18 to 2015-TBA
    Air time: Saturday & Sunday 22:00
    Original Soundtrack: Divorce Lawyer in Love OST
    Synopsis
    Go Cheok Hee is a successful divorce lawyer who treated So Jung Woo terribly when he was her firm's office manager. The tables are turned when Cheok Hee loses her license and can no longer practice law and Jung Woo has become a successful lawyer. The two cross paths again when Cheok Hee becomes Jung Woo's office manager.

    Cast
    Jo Yeo Jung as Go Cheok Hee
    Lee Bit Na as young Go Cheok Hee
    Yun Woo Jin as So Jung Woo
    Shim Hyung Tak as Bong Min Kyu
    Wang Ji Won as Jo Soo Ah






    Code
    Video
    ID                             : 1
    Format                         : AVC
    Format/Info                    : Advanced Video Codec
    Format profile                 : High@L5.1
    Format settings, CABAC         : Yes
    Format settings, ReFrames      : 4 frames
    Codec ID                       : V_MPEG4/ISO/AVC
    Duration                       : 1h 24mn
    Bit rate                       : 887 Kbps
    Nominal bit rate               : 2 496 Kbps
    Width                          : 1 280 pixels
    Height                         : 720 pixels
    Display aspect ratio           : 16:9
    Frame rate mode                : Constant
    Frame rate                     : 29.970 fps
    Color space                    : YUV
    Chroma subsampling             : 4:2:0
    Bit depth                      : 8 bits
    Scan type                      : Progressive
    Bits/(Pixel*Frame)             : 0.032
    Stream size                    : 535 MiB (68%)
    Writing library                : x264 core 130 r2273 b3065e6
    Encoding settings              : cabac=1 / ref=3 / deblock=1:0:0 / analyse=0x3:0x113 / me=hex / subme=7 / psy=1 / psy_rd=1.00:0.00 / mixed_ref=1 / me_range=16 / chroma_me=1 / trellis=1 / 8x8dct=1 / cqm=0 / deadzone=21,11 / fast_pskip=1 / chroma_qp_offset=-2 / threads=1 / lookahead_threads=1 / sliced_threads=0 / nr=0 / decimate=1 / interlaced=0 / bluray_compat=0 / constrained_intra=0 / bframes=3 / b_pyramid=2 / b_adapt=1 / b_bias=0 / direct=1 / weightb=1 / open_gop=0 / weightp=2 / keyint=300 / keyint_min=29 / scenecut=40 / intra_refresh=0 / rc_lookahead=40 / rc=2pass / mbtree=1 / bitrate=2496 / ratetol=1.0 / qcomp=0.60 / qpmin=0 / qpmax=69 / qpstep=4 / cplxblur=20.0 / qblur=0.5 / vbv_maxrate=300000 / vbv_bufsize=300000 / nal_hrd=none / ip_ratio=1.40 / aq=1:1.00
    Default                        : Yes
    Forced                         : No

    Audio
    ID                             : 2
    Format                         : AC-3
    Format/Info                    : Audio Coding 3
    Mode extension                 : CM (complete main)
    Format settings, Endianness    : Big
    Codec ID                       : A_AC3
    Duration                       : 1h 24mn
    Bit rate mode                  : Constant
    Bit rate                       : 384 Kbps
    Channel(s)                     : 2 channels
    Channel positions              : Front: L R
    Sampling rate                  : 44.1 KHz
    Bit depth                      : 16 bits
    Compression mode               : Lossy
    Stream size                    : 232 MiB (30%)
    Language                       : Korean
    Default                        : Yes
    Forced                         : No



    0 0

    Original Post: Producer.E10.150613.HDTV.X264-LIMO

    http://thetvdb.com/?tab=series&id=294814
    Details
    Title: 프로듀사 / Peurodyusa
    Genre: Drama
    Episodes: 12
    Broadcast network: KBS2
    Broadcast period: 2015-May-15 to 2015-Jun-20
    Air time: Friday & Saturday 21:15
    Original Soundtrack: Producer OST

    Synopsis
    A group of young television producers — Ra Jun Mo (Cha Tae Hyun), Baek Sung Chan (Kim Soo Hyun), Tak Ye Ji (Gong Hyo Jin), and Cindy (IU) — work tirelessly around the clock within the entertainment division of a major broadcasting network. Amidst their dynamic and challenging workloads, serious drama reaches new heights in this backstage glimpse of the people who make television magic happen.

    Main Cast
    Cha Tae Hyun as Ra Joon Mo (35, 2 Days & 1 Night's PD)
    Kim Soo Hyun as Baek Seung Chan (27, KBS Entertainment World newbie PD)
    Gong Hyo Jin as Tak Ye Jin (35, Music Bank's PD)
    IU as Cindy (23, singer)

    NOTE: All screenshots were randomly selected





    Code
    Video
    ID                             : 1
    Format                         : AVC
    Format/Info                    : Advanced Video Codec
    Format profile                 : Main@L4.0
    Format settings, CABAC         : Yes
    Format settings, ReFrames      : 4 frames
    Codec ID                       : V_MPEG4/ISO/AVC
    Duration                       : 58mn 44s
    Bit rate                       : 450 Kbps
    Width                          : 624 pixels
    Height                         : 350 pixels
    Display aspect ratio           : 16:9
    Frame rate mode                : Constant
    Frame rate                     : 29.970 fps
    Color space                    : YUV
    Chroma subsampling             : 4:2:0
    Bit depth                      : 8 bits
    Scan type                      : Progressive
    Bits/(Pixel*Frame)             : 0.069
    Stream size                    : 190 MiB (76%)
    Writing library                : x264 core 130 r2273 b3065e6
    Encoding settings              : cabac=1 / ref=1 / deblock=1:0:0 / analyse=0x1:0x111 / me=hex / subme=2 / psy=1 / psy_rd=1.00:0.00 / mixed_ref=0 / me_range=16 / chroma_me=1 / trellis=0 / 8x8dct=0 / cqm=0 / deadzone=21,11 / fast_pskip=1 / chroma_qp_offset=0 / threads=1 / lookahead_threads=1 / sliced_threads=0 / nr=0 / decimate=1 / interlaced=0 / bluray_compat=0 / constrained_intra=0 / bframes=3 / b_pyramid=2 / b_adapt=1 / b_bias=0 / direct=1 / weightb=1 / open_gop=0 / weightp=1 / keyint=300 / keyint_min=30 / scenecut=40 / intra_refresh=0 / rc_lookahead=10 / rc=abr / mbtree=1 / bitrate=450 / ratetol=1.0 / qcomp=0.60 / qpmin=0 / qpmax=69 / qpstep=4 / vbv_maxrate=20000 / vbv_bufsize=25000 / nal_hrd=none / ip_ratio=1.40 / aq=1:1.00
    Language                       : English
    Default                        : Yes
    Forced                         : No
    Color primaries                : BT.601 NTSC
    Transfer characteristics       : BT.709
    Matrix coefficients            : BT.601

    Audio
    ID                             : 2
    Format                         : MPEG Audio
    Format version                 : Version 1
    Format profile                 : Layer 3
    Mode                           : Joint stereo
    Mode extension                 : MS Stereo
    Codec ID                       : A_MPEG/L3
    Codec ID/Hint                  : MP3
    Duration                       : 58mn 44s
    Bit rate mode                  : Constant
    Bit rate                       : 128 Kbps
    Channel(s)                     : 2 channels
    Sampling rate                  : 48.0 KHz
    Compression mode               : Lossy
    Stream size                    : 53.8 MiB (22%)
    Default                        : Yes
    Forced                         : No



    0 0

    Original Post: Producer.E10.150613.HDTV.H264.450p-LIMO

    http://thetvdb.com/?tab=series&id=294814
    Details
    Title: 프로듀사 / Peurodyusa
    Genre: Drama
    Episodes: 12
    Broadcast network: KBS2
    Broadcast period: 2015-May-15 to 2015-Jun-20
    Air time: Friday & Saturday 21:15
    Original Soundtrack: Producer OST

    Synopsis
    A group of young television producers — Ra Jun Mo (Cha Tae Hyun), Baek Sung Chan (Kim Soo Hyun), Tak Ye Ji (Gong Hyo Jin), and Cindy (IU) — work tirelessly around the clock within the entertainment division of a major broadcasting network. Amidst their dynamic and challenging workloads, serious drama reaches new heights in this backstage glimpse of the people who make television magic happen.

    Main Cast
    Cha Tae Hyun as Ra Joon Mo (35, 2 Days & 1 Night's PD)
    Kim Soo Hyun as Baek Seung Chan (27, KBS Entertainment World newbie PD)
    Gong Hyo Jin as Tak Ye Jin (35, Music Bank's PD)
    IU as Cindy (23, singer)

    NOTE: All screenshots were randomly selected





    Code
    Video
    ID                                       : 0
    Format                                   : AVC
    Format/Info                              : Advanced Video Codec
    Format profile                           : High@L5.1
    Format settings, CABAC                   : Yes
    Format settings, ReFrames                : 4 frames
    Codec ID                                 : H264
    Duration                                 : 1h 20mn
    Bit rate                                 : 1 500 Kbps
    Width                                    : 800 pixels
    Height                                   : 450 pixels
    Display aspect ratio                     : 16:9
    Frame rate mode                          : Variable
    Frame rate                               : 29.970 fps
    Color space                              : YUV
    Chroma subsampling                       : 4:2:0
    Bit depth                                : 8 bits
    Scan type                                : Progressive
    Bits/(Pixel*Frame)                       : 0.139
    Stream size                              : 860 MiB (88%)
    Writing library                          : x264 core 112
    Encoding settings                        : cabac=1 / ref=3 / deblock=1:-1:-1 / analyse=0x3:0x113 / me=hex / subme=6 / psy=1 / psy_rd=1.00:1.00 / mixed_ref=1 / me_range=16 / chroma_me=1 / trellis=1 / 8x8dct=1 / cqm=0 / deadzone=21,11 / fast_pskip=0 / chroma_qp_offset=-4 / threads=12 / sliced_threads=0 / nr=0 / decimate=1 / interlaced=0 / constrained_intra=0 / bframes=3 / b_pyramid=2 / b_adapt=1 / b_bias=1 / direct=3 / weightb=1 / open_gop=0 / weightp=2 / keyint=299 / keyint_min=25 / scenecut=1 / intra_refresh=0 / rc_lookahead=40 / rc=abr / mbtree=1 / bitrate=1500 / ratetol=1.0 / qcomp=0.60 / qpmin=1 / qpmax=51 / qpstep=4 / vbv_maxrate=1950 / vbv_bufsize=1950 / ip_ratio=1.40 / aq=1:1.00 / nal_hrd=none

    Audio
    ID                                       : 1
    Format                                   : MPEG Audio
    Format version                           : Version 1
    Format profile                           : Layer 3
    Mode                                     : Joint stereo
    Mode extension                           : MS Stereo
    Codec ID                                 : 55
    Codec ID/Hint                            : MP3
    Duration                                 : 1h 20mn
    Bit rate mode                            : Constant
    Bit rate                                 : 192 Kbps
    Channel(s)                               : 2 channels
    Sampling rate                            : 48.0 KHz
    Compression mode                         : Lossy
    Stream size                              : 111 MiB (11%)
    Alignment                                : Aligned on interleaves
    Interleave, duration                     : 24 ms (0.72 video frame)
    Writing library                          : LAME3.98.2



    0 0

    Original Post: Producer.E10.150613.HDTV.H264.720p-LIMO

    http://thetvdb.com/?tab=series&id=294814
    Details
    Title: 프로듀사 / Peurodyusa
    Genre: Drama
    Episodes: 12
    Broadcast network: KBS2
    Broadcast period: 2015-May-15 to 2015-Jun-20
    Air time: Friday & Saturday 21:15
    Original Soundtrack: Producer OST

    Synopsis
    A group of young television producers — Ra Jun Mo (Cha Tae Hyun), Baek Sung Chan (Kim Soo Hyun), Tak Ye Ji (Gong Hyo Jin), and Cindy (IU) — work tirelessly around the clock within the entertainment division of a major broadcasting network. Amidst their dynamic and challenging workloads, serious drama reaches new heights in this backstage glimpse of the people who make television magic happen.

    Main Cast
    Cha Tae Hyun as Ra Joon Mo (35, 2 Days & 1 Night's PD)
    Kim Soo Hyun as Baek Seung Chan (27, KBS Entertainment World newbie PD)
    Gong Hyo Jin as Tak Ye Jin (35, Music Bank's PD)
    IU as Cindy (23, singer)

    NOTE: All screenshots were randomly selected

    Spoiler: Cindy sending kingofbeer some strange text messages

    Just Cindy stalking kingofbeer like a ninja in a super awesome disguise

    Cindy looking slightly pissed off after learning that kingofbeer farted and cunningly convinced everyone that Cindy was the cause of the strange yet somewhat pleasant odor.

    Cindy stealing a glance at kingofbeer's shapely behind as he draws a moustache on Seung Chan's face after that slacker fell asleep.

    Just Cindy admiring awesome photographs of kingofbeer

    Cindy shocked to find out that kingofbeer ate Cindy's Big Mac after coming back from a brief washroom break.

    Very real plot twist. Cindy's evil twin makes her first appearance and she's here to steal kingofbeer away from her.


    Code
    Video
    ID                               : 0
    Format                           : AVC
    Format/Info                      : Advanced Video Codec
    Format profile                   : High@L5.1
    Format settings, CABAC           : Yes
    Format settings, ReFrames        : 4 frames
    Codec ID                         : H264
    Duration                         : 1h 4mn
    Bit rate                         : 3 000 Kbps
    Width                            : 1 280 pixels
    Height                           : 720 pixels
    Display aspect ratio             : 16:9
    Frame rate mode                  : Variable
    Frame rate                       : 29.970 fps
    Color space                      : YUV
    Chroma subsampling               : 4:2:0
    Bit depth                        : 8 bits
    Scan type                        : Progressive
    Bits/(Pixel*Frame)               : 0.109
    Stream size                      : 1.35 GiB (94%)
    Writing library                  : x264 core 112
    Encoding settings                : cabac=1 / ref=3 / deblock=1:-1:-1 / analyse=0x3:0x113 / me=hex / subme=6 / psy=1 / psy_rd=1.00:1.00 / mixed_ref=1 / me_range=16 / chroma_me=1 / trellis=1 / 8x8dct=1 / cqm=0 / deadzone=21,11 / fast_pskip=0 / chroma_qp_offset=-4 / threads=12 / sliced_threads=0 / nr=0 / decimate=1 / interlaced=0 / constrained_intra=0 / bframes=3 / b_pyramid=2 / b_adapt=1 / b_bias=1 / direct=3 / weightb=1 / open_gop=0 / weightp=2 / keyint=299 / keyint_min=25 / scenecut=1 / intra_refresh=0 / rc_lookahead=40 / rc=abr / mbtree=1 / bitrate=3000 / ratetol=1.0 / qcomp=0.60 / qpmin=10 / qpmax=51 / qpstep=4 / ip_ratio=1.40 / aq=1:1.00

    Audio
    ID                               : 1
    Format                           : MPEG Audio
    Format version                   : Version 1
    Format profile                   : Layer 3
    Mode                             : Joint stereo
    Mode extension                   : MS Stereo
    Codec ID                         : 55
    Codec ID/Hint                    : MP3
    Duration                         : 1h 4mn
    Bit rate mode                    : Constant
    Bit rate                         : 192 Kbps
    Channel(s)                       : 2 channels
    Sampling rate                    : 48.0 KHz
    Stream size                      : 88.0 MiB (6%)
    Alignment                        : Split accross interleaves
    Interleave, duration             : 33 ms (1.00 video frame)
    Interleave, preload duration     : 500 ms
    Writing library                  : LAME3.98.2



    0 0

    Original Post: Make.A.Woman.Cry.E17.150613.HDTV.XviD-LIMO

    http://thetvdb.com/?tab=series&id=294274&lid=7
    Details
    Title: 여자를 울려 / Yeojareul Woolryeo
    Also known as: Let the Woman Cry
    Genre: Family, drama, romance
    Episodes: 50
    Broadcast network: MBC
    Broadcast period: 2015-Apr-18 to 2015-???-??
    Air time: Saturday & Sunday 20:45
    Original Soundtrack: Make a Woman Cry OST

    Synopsis
    Jung Duk In was a former detective who resigned after her son died. She then opens a food stall in front of her son's school to preserves the memory of him and to protects the other students. Along the way she will struggle to forgive people who were responsible for her son's death.

    Cast

    Main Cast
    Kim Jung Eun as Jung Duk In
    Song Chang Ui as Kang Jin Woo
    Lee Soon Jae as Kang Tae Hwan
    Ha Hee Ra as Na Eun Soo
    Oh Dae Gyu as Kang Jin Myung
    Lee Tae Ran as Choi Hong Ran






    Code
    Video
    ID                                       : 0
    Format                                   : MPEG-4 Visual
    Format profile                           : Advanced Simple@L5
    Format settings, BVOP                    : No
    Format settings, QPel                    : No
    Format settings, GMC                     : No warppoints
    Format settings, Matrix                  : Default (MPEG)
    Codec ID                                 : XVID
    Codec ID/Hint                            : XviD
    Duration                                 : 1h 29mn
    Bit rate                                 : 1 388 Kbps
    Width                                    : 624 pixels
    Height                                   : 352 pixels
    Display aspect ratio                     : 16:9
    Frame rate                               : 29.970 fps
    Color space                              : YUV
    Chroma subsampling                       : 4:2:0
    Bit depth                                : 8 bits
    Scan type                                : Progressive
    Compression mode                         : Lossy
    Bits/(Pixel*Frame)                       : 0.211
    Stream size                              : 886 MiB (87%)
    Writing library                          : XviD 1.2.1 (UTC 2008-12-04)

    Audio
    ID                                       : 1
    Format                                   : MPEG Audio
    Format version                           : Version 1
    Format profile                           : Layer 3
    Mode                                     : Joint stereo
    Mode extension                           : MS Stereo
    Codec ID                                 : 55
    Codec ID/Hint                            : MP3
    Duration                                 : 1h 29mn
    Bit rate mode                            : Constant
    Bit rate                                 : 128 Kbps
    Channel(s)                               : 2 channels
    Sampling rate                            : 48.0 KHz
    Compression mode                         : Lossy
    Stream size                              : 81.7 MiB (8%)
    Alignment                                : Aligned on interleaves
    Writing library                          : LAME3.98.2



    0 0

    Original Post: Make.A.Woman.Cry.E17.150613.HDTV.H264.720p-LIMO

    http://thetvdb.com/?tab=series&id=294274&lid=7
    Details
    Title: 여자를 울려 / Yeojareul Woolryeo
    Also known as: Let the Woman Cry
    Genre: Family, drama, romance
    Episodes: 50
    Broadcast network: MBC
    Broadcast period: 2015-Apr-18 to 2015-???-??
    Air time: Saturday & Sunday 20:45
    Original Soundtrack: Make a Woman Cry OST

    Synopsis
    Jung Duk In was a former detective who resigned after her son died. She then opens a food stall in front of her son's school to preserves the memory of him and to protects the other students. Along the way she will struggle to forgive people who were responsible for her son's death.

    Cast

    Main Cast
    Kim Jung Eun as Jung Duk In
    Song Chang Ui as Kang Jin Woo
    Lee Soon Jae as Kang Tae Hwan
    Ha Hee Ra as Na Eun Soo
    Oh Dae Gyu as Kang Jin Myung
    Lee Tae Ran as Choi Hong Ran






    Code
    Video
    ID                             : 1
    Format                         : AVC
    Format/Info                    : Advanced Video Codec
    Format profile                 : High@L5.1
    Format settings, CABAC         : Yes
    Format settings, ReFrames      : 4 frames
    Codec ID                       : V_MPEG4/ISO/AVC
    Duration                       : 1h 24mn
    Bit rate                       : 887 Kbps
    Nominal bit rate               : 2 496 Kbps
    Width                          : 1 280 pixels
    Height                         : 720 pixels
    Display aspect ratio           : 16:9
    Frame rate mode                : Constant
    Frame rate                     : 29.970 fps
    Color space                    : YUV
    Chroma subsampling             : 4:2:0
    Bit depth                      : 8 bits
    Scan type                      : Progressive
    Bits/(Pixel*Frame)             : 0.032
    Stream size                    : 535 MiB (68%)
    Writing library                : x264 core 130 r2273 b3065e6
    Encoding settings              : cabac=1 / ref=3 / deblock=1:0:0 / analyse=0x3:0x113 / me=hex / subme=7 / psy=1 / psy_rd=1.00:0.00 / mixed_ref=1 / me_range=16 / chroma_me=1 / trellis=1 / 8x8dct=1 / cqm=0 / deadzone=21,11 / fast_pskip=1 / chroma_qp_offset=-2 / threads=1 / lookahead_threads=1 / sliced_threads=0 / nr=0 / decimate=1 / interlaced=0 / bluray_compat=0 / constrained_intra=0 / bframes=3 / b_pyramid=2 / b_adapt=1 / b_bias=0 / direct=1 / weightb=1 / open_gop=0 / weightp=2 / keyint=300 / keyint_min=29 / scenecut=40 / intra_refresh=0 / rc_lookahead=40 / rc=2pass / mbtree=1 / bitrate=2496 / ratetol=1.0 / qcomp=0.60 / qpmin=0 / qpmax=69 / qpstep=4 / cplxblur=20.0 / qblur=0.5 / vbv_maxrate=300000 / vbv_bufsize=300000 / nal_hrd=none / ip_ratio=1.40 / aq=1:1.00
    Default                        : Yes
    Forced                         : No

    Audio
    ID                             : 2
    Format                         : AC-3
    Format/Info                    : Audio Coding 3
    Mode extension                 : CM (complete main)
    Format settings, Endianness    : Big
    Codec ID                       : A_AC3
    Duration                       : 1h 24mn
    Bit rate mode                  : Constant
    Bit rate                       : 384 Kbps
    Channel(s)                     : 2 channels
    Channel positions              : Front: L R
    Sampling rate                  : 44.1 KHz
    Bit depth                      : 16 bits
    Compression mode               : Lossy
    Stream size                    : 232 MiB (30%)
    Language                       : Korean
    Default                        : Yes
    Forced                         : No



    0 0

    Original Post: Kiri no Hata SP 2014 720p HDTV x264 AAC DoA



    Title : 霧の旗
    Format: Tanpatsu
    Genre: Drama, Suspense
    Episodes: 1
    Network: TV Asahi
    Release Date: 2015-Dec-07
    Air time: 9.00 p.m
    Language: Japanese
    Subtitles: None
    Raw credit to DoA

    Synopsis
    Yanagida Kiriko (Horikita Maki) works at a food processing factory in Kita Kyushu as she lives a modest life with her intellectually disabled younger brother, Masao (Furuhata Niino). When work at the factory ends, she declines invitations from her colleagues, and waits for half-price at the supermarket so that she can buy Masao’s favourite squid rings. Then she heads straight home where her brother is waiting. Masao stuffs squid rings into his mouth with child-like delight as Kiriko fondly gazes at his smile. The next day, Masao is overjoyed to get his salary. On the way home, Kikue who is seeing off a young man from a house nearby, spots Masao counting the notes inside an envelope. She has an uncomfortable smile on her face when she jams 10,000 yen into his pay packet and asks if he can keep quiet about this. His hand is taken by Kikue and placed on her chest. A shaken Masao is left speechless. Hearing that he had accepted 10,000 yen from Kikue, Kiriko admonishes him. He is not supposed to take money from other people for no reason. Kiriko is about to go and return it, but Masao says he will go alone tomorrow. The next day, Masao visits Kikue’s home. His heart unexpectedly races as he recalls her behaviour yesterday. However, Kikue has been murdered by someone and Masao is detained as a suspect. Getting word of this, Kiriko desperately asserts, “My brother is different from an ordinary person!” But the police officers do not listen to her. On the other hand, Masao trembles in the interrogation and is not able to give an answer. If this goes on, he could end up becoming the murderer. A fretful Kiriko is reminded of the activities of the famous lawyer Otsuka Kinzo (Shiina Kippei) whom she had seen in the news and goes to Tokyo on her own. She pounds on the door of Otsuka’s law firm. Otsuka, who has been extremely busy, is exhausted. He has cleared a big court case and is going on a holiday with his lover, Kouno Michiko (Kimura Yoshino). That is when Kiriko comes to visit. “Can you help my brother? Please!” Otsuka seems moved by Kiriko’s emotional appeal, but Michiko has already come to get him. When he snubs Kiriko, telling her that his fees will go up in price even for cases in faraway places. She concludes, “I see, so you won’t help the poor” and leaves. Bile rises up in Otsuka … … Returning home Kiriko scrambles about for Masao’s sake, but he is sentenced to life in prison at the trial. Even so, Kiriko tries to save him. However, her brother dies of heat stroke while in prison. The abysmal conditions of the cell resulted in his death. Kiriko does not even shed tears in front of Masao’s dead body. She feels an emotion seething within her and vows revenge on Otsuka

    Cast
    Horikita Maki as Yanagida Kiriko
    Takahashi Katsumi as Abe Keiichi
    Kimura Yoshino as Kouno Michiko
    Furuhata Nino (古畑新之) as Yanagida Masao
    Fukushi Seiji as Sugiura Kenji
    Tanimura Mitsuki as Nobuko
    Denden as Ooya
    Hashizume Isao as Taoka Mamoru
    Shiina Kippei as Otsuka Kinzo







    Code
    Format                                   : Matroska
    Format version                           : Version 4 / Version 2
    File size                                : 2.46 GiB
    Duration                                 : 1h 50mn
    Overall bit rate                         : 3 189 Kbps
    Encoded date                             : UTC 2014-12-17 03:10:14
    Writing application                      : mkvmerge v7.3.0 ('Nouages') 64bit built on Oct 22 2014 18:53:34
    Writing library                          : libebml v1.3.0 + libmatroska v1.4.1
    DURATION                                 : 01:50:14.826000000
    NUMBER_OF_FRAMES                         : 310070
    NUMBER_OF_BYTES                          : 155965280
    _STATISTICS_WRITING_APP                  : mkvmerge v7.3.0 ('Nouages') 64bit built on Oct 22 2014 18:53:34
    _STATISTICS_WRITING_DATE_UTC             : 2014-12-17 03:10:14
    _STATISTICS_TAGS                         : BPS DURATION NUMBER_OF_FRAMES NUMBER_OF_BYTES

    Video
    ID                                       : 1
    Format                                   : AVC
    Format/Info                              : Advanced Video Codec
    Format profile                           : High@L4.1
    Format settings, CABAC                   : Yes
    Format settings, ReFrames                : 9 frames
    Codec ID                                 : V_MPEG4/ISO/AVC
    Duration                                 : 1h 50mn
    Width                                    : 1 280 pixels
    Height                                   : 720 pixels
    Display aspect ratio                     : 16:9
    Frame rate mode                          : Constant
    Frame rate                               : 29.970 fps
    Color space                              : YUV
    Chroma subsampling                       : 4:2:0
    Bit depth                                : 8 bits
    Scan type                                : Progressive
    Writing library                          : x264 core 142 r2491 24e4fed
    Encoding settings                        : cabac=1 / ref=9 / deblock=1:-3:-3 / analyse=0x3:0x133 / me=umh / subme=10 / psy=1 / psy_rd=1.00:0.15 / mixed_ref=1 / me_range=32 / chroma_me=1 / trellis=2 / 8x8dct=1 / cqm=0 / deadzone=21,11 / fast_pskip=0 / chroma_qp_offset=-3 / threads=12 / lookahead_threads=2 / sliced_threads=0 / nr=0 / decimate=1 / interlaced=0 / bluray_compat=0 / stitchable=1 / constrained_intra=0 / bframes=9 / b_pyramid=2 / b_adapt=2 / b_bias=0 / direct=3 / weightb=1 / open_gop=0 / weightp=2 / keyint=250 / keyint_min=30 / scenecut=40 / intra_refresh=0 / rc_lookahead=250 / rc=crf / mbtree=1 / crf=17.0 / qcomp=0.60 / qpmin=0 / qpmax=69 / qpstep=4 / ip_ratio=1.40 / aq=1:1.00
    Language                                 : Japanese
    Default                                  : Yes
    Forced                                   : No

    Audio
    ID                                       : 2
    Format                                   : AAC
    Format/Info                              : Advanced Audio Codec
    Format profile                           : LC
    Codec ID                                 : A_AAC
    Duration                                 : 1h 50mn
    Channel(s)                               : 2 channels
    Channel positions                        : Front: L R
    Sampling rate                            : 48.0 KHz
    Compression mode                         : Lossy
    Title                                    : Japanese 2.0 AAC
    Language                                 : Japanese
    Default                                  : Yes
    Forced                                   : No

    Menu
    00:00:00.000                             : ja:Section I
    00:14:38.911                             : ja:Opening
    00:14:46.919                             : ja:Section II
    00:30:32.998                             : ja:Section III
    00:36:56.981                             : ja:Section IV
    00:44:44.949                             : ja:Section V
    01:03:10.887                             : ja:Section VI
    01:13:02.878                             : ja:Section VII
    01:22:23.839                             : ja:Section VIII
    01:31:12.801                             : ja:Section IX
    01:47:16.163                             : ja:Credits



    0 0

    Original Post: The Ancient Tea Road 茶马古道 (Documentary, China 2012)

    Title: 茶马古道 The Ancient Tea Road - Portrait of Real Current Life
    Runtime: 25min X 8 parts
    Broadcast period: 19.03.2012 - 26.03.2012
    Genre: Documentary
    Language: Chinese
    Country: China
    Broadcast network: CCTV9
    Subtitles: English hardsub

    Synopsis
    Resembling the famous Silk Road, the Ancient Tea Road located in southwestern China was an important gateway for transportation and communication between ancient China and West Asia. It was a giant platform for the political economic social and cultural intersection of different ethnic groups and a gigantic lifeline stretching on the Yunnan-Guizhou Plateau and the Qinghai-Tibet Plateau.
    Tea Horse Road' or 'Tea Horse Path', was a central trade route for exchanging Tibetan horses and Chinese tea. The corridor came to play a crucial role in the communication and exchange between the cultures of present-day Yunnan, Sichuan and Tibet, with the route passing through, among a number of important posts, the volcanic ranges of Tengchong, the colourful culture and dwellings of the Khamba people in Changdu, the breathtaking gorges of Lijiang, through Tibet as far as Burma and India.


    Video: MPEG4 Video (H264) 480x360 25fps 470kbps [V: h264 constrained baseline L2.1, yuv420p, 480x360, 470 kb/s]
    Audio: AAC 44100Hz mono 72kbps [A: IsoMedia File Produced by Google, 5-11-2011 (aac lc, 44100 Hz, mono, 72 kb/s)]

    Code
    General
    Complete name                  : 茶马古道 The Ancient Tea Road茶马古道 The Ancient Tea Road Part 4 Portrait of Real Current Life 20120322.mp4
    Format                         : MPEG-4
    Format profile                 : Base Media / Version 2
    Codec ID                       : mp42
    File size                      : 101 MiB
    Duration                       : 25mn 52s
    Overall bit rate mode          : Variable
    Overall bit rate               : 544 Kbps
    Encoded date                   : UTC 2012-08-13 04:06:28
    Tagged date                    : UTC 2012-08-13 04:06:28
    gsst                           : 0
    gstd                           : 1552276
    gssd                           : B4A7DDA28MH1434216541895737
    gshh                           : r8---sn-4g57kuel.googlevideo.com

    Video
    ID                             : 1
    Format                         : AVC
    Format/Info                    : Advanced Video Codec
    Format profile                 : Baseline@L2.1
    Format settings, CABAC         : No
    Format settings, ReFrames      : 1 frame
    Codec ID                       : avc1
    Codec ID/Info                  : Advanced Video Coding
    Duration                       : 25mn 52s
    Bit rate                       : 470 Kbps
    Maximum bit rate               : 1 695 Kbps
    Width                          : 480 pixels
    Height                         : 360 pixels
    Display aspect ratio           : 4:3
    Frame rate mode                : Constant
    Frame rate                     : 25.000 fps
    Color space                    : YUV
    Chroma subsampling             : 4:2:0
    Bit depth                      : 8 bits
    Scan type                      : Progressive
    Bits/(Pixel*Frame)             : 0.109
    Stream size                    : 87.0 MiB (86%)
    Encoded date                   : UTC 1970-01-01 00:00:00
    Tagged date                    : UTC 2012-08-13 04:06:30

    Audio
    ID                             : 2
    Format                         : AAC
    Format/Info                    : Advanced Audio Codec
    Format profile                 : LC
    Codec ID                       : 40
    Duration                       : 25mn 52s
    Bit rate mode                  : Variable
    Bit rate                       : 72.0 Kbps
    Maximum bit rate               : 75.9 Kbps
    Channel(s)                     : 1 channel
    Channel positions              : Front: C
    Sampling rate                  : 44.1 KHz
    Compression mode               : Lossy
    Stream size                    : 13.3 MiB (13%)
    Title                          : IsoMedia File Produced by Google, 5-11-2011
    Encoded date                   : UTC 2012-08-13 04:06:29
    Tagged date                    : UTC 2012-08-13 04:06:30









older | 1 | .... | 1369 | 1370 | (Page 1371) | 1372 | 1373 | .... | 1405 | newer