Are you the publisher? Claim or contact us about this channel


Embed this content in your HTML

Search

Report adult content:

click to rate:

Account: (login)

More Channels


Showcase


Channel Catalog


Channel Description:

Asia Torrents RSS Feed

older | 1 | .... | 1370 | 1371 | (Page 1372) | 1373 | 1374 | .... | 1405 | newer

    0 0

    Original Post: The Coin Locker.2015.720p.HDRip.H264-Unknown



    Profile:
       Movie: The Coin Locker
       Revised romanization: Koinrakeo
       Hangul: 코인라커
       Director: Kim Tae Kyung
       Writer: Kim Tae Kyung
       Cinematographer:
       Release Date: May 28, 2015
       Runtime: 95 mins
       Distributor: Mountain Pictures
       Language: Korean
       Country: South Korea
       Subtitles: None ATM

    Plot:
    Yeon (Son Yeo-Eun) wants to move to New Zealand with her son and away from her violent husband Sang-Pil (Lee Young-Hoon) who is deep in gambling debt. She puts her son in a subway coin locker prior to going off to make money.

    Notes:
       Filming began September 5, 2011 and finished October 7, 2011.
       Movie made its International Premiere at the 2015 Hong Kong International Film & TV Market (FILMART).

    Cast:
       Lee Young-Hoon - Sang-Pil
       Son Yeo-Eun - Yeon
       Jung Wook - Jae-Gon
       Pyun Bo-Seung - Gun-Ho (adult)

    Screenshots:



    Code
    Video
    Duration                    : 1h 35mn
    Bit rate                    : 3 971 Kbps
    Width                       : 980 pixels
    Height                      : 584 pixels
    Display aspect ratio        : 5:3
    Frame rate mode             : Constant
    Frame rate                  : 24.000 fps

    Audio #1
    Codec ID/Hint               : MP3
    Duration                    : 1h 35mn
    Bit rate mode               : Constant
    Bit rate                    : 128 Kbps
    Channel(s)                  : 1 channel
    Sampling rate               : 11.025 KHz
    Compression mode            : Lossy

    Audio #2
    Codec ID/Hint               : MP3
    Duration                    : 1h 35mn
    Bit rate mode               : Constant
    Bit rate                    : 128 Kbps
    Channel(s)                  : 2 channels
    Sampling rate               : 44.1 KHz
    Compression mode            : Lossy






    0 0

    Original Post: Blue.Spring.Ride.2014.JAP.DVDRip.x264.AC3-zdzdz [No Eng Subs]

    Blue Spring Ride


    Japanese Ttle: アオハライド  
    Romaji: Aoharaido


    Year: 2014
    Country: Japan
    Director: Takahiro Miki
    Writer: Tomoko KaIo Sakisaka (manga), Tomoko Yoshida
    Genre: Romance
    Runtime: 122 min
    Language: Japanese
    Subtitles:
    Japanese
    IMDB:http://www.imdb.com/title/tt3592708/
    Release Date: NDecember 13, 2014  


    Cast:
    Tsubasa Honda - Futaba Yoshioka
    Masahiro Higashide - Kou Mabuchi
    Yua Shinkawa - Shuko Murao
    Ryo Yoshizawa - Aya Kominato
    Izumi Fujimoto - Yuri Makita
    Mitsuki Takahata - Yui Narumi
    Yudai Chiba - Toma Kikuchi
    Yu Koyanagi - Yoichi Tanaka
    Airi Tazume
    Mizuki Itagaki


    Synopsis/ Plot:
    When she was a middle school student, Futaba Yoshioka liked Kou Tanaka who was unlike the other boys and quite gentle. Kou Tanaka then moved away and they lost contact.

    At the end of Futaba Yoshioka's first year as a high school student she meets Kou Tanaka again. Kou Tanaka’s name has changed to Kou Mabuchi and his personality seems different from his middle school days.

     


    File/Video Technical Info

    VIDEO
    File Type: mkv
    Video Codec: x264
    Video Format: 720x384
    Aspect Ratio: 1.85:1
    Video Bitrate: 1337 kbps
    Video Frame Rate: 23.976 fps
    File Source: DVD

    AUDIO
    Audio Codec: AC3 (Ch. 6 - 48000Hz)
    Audio Bitrate: 384 kbps


    Details
    Spoiler:show

    Code
    General
    Unique ID                   : 249564253117001423970813717271031369089 (0xBBC053A9FEB41588B7302013FBB4CD81)
    Complete name               : M:Blue.Spring.Ride.2014.JAP.DVDRip.x264.AC3-zdzdz.mkv
    Format                      : Matroska
    Format version              : Version 4 / Version 2
    File size                   : 1.46 GiB
    Duration                    : 2h 1mn
    Overall bit rate            : 1 724 Kbps
    Encoded date                : UTC 2015-06-13 17:33:37
    Writing application         : mkvmerge v7.9.0 ('Birds') 64bit
    Writing library             : libebml v1.3.1 + libmatroska v1.4.2
    DURATION                    : 02:01:25.908000000
    NUMBER_OF_FRAMES            : 1306
    NUMBER_OF_BYTES             : 1667487
    _STATISTICS_WRITING_APP     : mkvmerge v7.9.0 ('Birds') 64bit
    _STATISTICS_WRITING_DATE_UT : 2015-06-13 17:33:37
    _STATISTICS_TAGS            : BPS DURATION NUMBER_OF_FRAMES NUMBER_OF_BYTES

    Video
    ID                          : 1
    Format                      : AVC
    Format/Info                 : Advanced Video Codec
    Format profile              : High@L5.1
    Format settings, CABAC      : Yes
    Format settings, ReFrames   : 11 frames
    Codec ID                    : V_MPEG4/ISO/AVC
    Duration                    : 2h 1mn
    Bit rate                    : 1 337 Kbps
    Width                       : 720 pixels
    Height                      : 384 pixels
    Display aspect ratio        : 1.85:1
    Frame rate mode             : Constant
    Frame rate                  : 23.976 fps
    Color space                 : YUV
    Chroma subsampling          : 4:2:0
    Bit depth                   : 8 bits
    Scan type                   : Progressive
    Bits/(Pixel*Frame)          : 0.202
    Stream size                 : 1.11 GiB (76%)
    Title                       : Encoded by zdzdz
    Writing library             : x264 core 146 r2538 121396c
    Encoding settings           : cabac=1 / ref=11 / deblock=1:-1:-1 / analyse=0x3:0x133 / me=umh / subme=11 / psy=1 / psy_rd=1.00:0.00 / mixed_ref=1 / me_range=32 / chroma_me=1 / trellis=2 / 8x8dct=1 / cqm=0 / deadzone=21,11 / fast_pskip=1 / chroma_qp_offset=-2 / threads=3 / lookahead_threads=1 / sliced_threads=0 / nr=0 / decimate=1 / interlaced=0 / bluray_compat=0 / constrained_intra=0 / bframes=10 / b_pyramid=2 / b_adapt=2 / b_bias=5 / direct=3 / weightb=1 / open_gop=0 / weightp=2 / keyint=240 / keyint_min=23 / scenecut=40 / intra_refresh=0 / rc_lookahead=40 / rc=2pass / mbtree=1 / bitrate=1337 / ratetol=1.0 / qcomp=0.60 / qpmin=0 / qpmax=69 / qpstep=4 / cplxblur=20.0 / qblur=0.5 / vbv_maxrate=240000 / vbv_bufsize=240000 / nal_hrd=none / filler=0 / ip_ratio=1.40 / aq=2:0.80
    Language                    : Japanese
    Default                     : Yes
    Forced                      : No
    DURATION                    : 02:01:35.288000000
    NUMBER_OF_FRAMES            : 174912
    NUMBER_OF_BYTES             : 1219048664
    _STATISTICS_WRITING_APP     : mkvmerge v7.9.0 ('Birds') 64bit
    _STATISTICS_WRITING_DATE_UT : 2015-06-13 17:33:37
    _STATISTICS_TAGS            : BPS DURATION NUMBER_OF_FRAMES NUMBER_OF_BYTES

    Audio
    ID                          : 2
    Format                      : AC-3
    Format/Info                 : Audio Coding 3
    Mode extension              : CM (complete main)
    Format settings, Endianness : Big
    Codec ID                    : A_AC3
    Duration                    : 2h 1mn
    Bit rate mode               : Constant
    Bit rate                    : 384 Kbps
    Channel(s)                  : 6 channels
    Channel positions           : Front: L C R, Side: L R, LFE
    Sampling rate               : 48.0 KHz
    Compression mode            : Lossy
    Stream size                 : 334 MiB (22%)
    Title                       : AC3
    Language                    : Japanese
    Default                     : Yes
    Forced                      : No

    Text
    ID                          : 3
    Format                      : VobSub
    Muxing mode                 : zlib
    Codec ID                    : S_VOBSUB
    Codec ID/Info               : Picture based subtitle format used on DVDs
    Title                       : VobSub
    Language                    : Japanese
    Default                     : No
    Forced                      : No

    Menu
    00:00:00.000                : :Chapter 01
    00:07:50.667                : :Chapter 02
    00:12:50.867                : :Chapter 03
    00:18:02.701                : :Chapter 04
    00:25:29.335                : :Chapter 05
    00:30:12.502                : :Chapter 06
    00:37:39.702                : :Chapter 07
    00:44:59.835                : :Chapter 08
    00:51:19.002                : :Chapter 09
    00:57:56.502                : :Chapter 10
    01:03:33.836                : :Chapter 11
    01:08:05.836                : :Chapter 12
    01:14:54.670                : :Chapter 13
    01:20:05.504                : :Chapter 14
    01:26:10.338                : :Chapter 15
    01:31:04.371                : :Chapter 16
    01:35:10.172                : :Chapter 17
    01:39:36.839                : :Chapter 18
    01:44:27.540                : :Chapter 19
    01:52:06.174                : :Chapter 20






    Sceencaps



    REFERENCES

    Official Site: http://www.aoha-movie.com/
    Wiki: http://asianwiki.com/Ao_Haru_Ride

    Movie Trailer:


    0 0

    Original Post: The Royal Tailor (Sanguiwon) 2014

    The Royal Tailor (Sanguiwon) 2014



    Profile:
    Movie: The Royal Tailor
    Revised romanization: Sanguiwon
    Hangul: 상의원
    Director: Lee Won-Suk
    Producer: Yun Chang-Suk
    Cinematographer: Kim Ji-Young
    Release Date: December 24, 2014
    Runtime: 127 min.
    Distributor: Showbox/Mediaplex
    Language: Korean
    Subtitle: English
    Country: South Korea

    Plot:
    Depicts the love lives, jealousies and desires of those that work within the Sanguiwon during the Joseon Dynasty period. The Sanguiwon are responsible for the attire worn by royalty.
    Dol-Seok (Han Suk-Kyu) is the best master artisan in charge of royal attire. He views set rules as paramount to his job. Kong-Jin (Ko Soo) is a genius like designer, born with dexterity and an excellent sense. He was brought to the palace by nobleman Pan-Soo (Ma Dong-Seok) who first spotted his talent.
    The King (Yoo Yeon-Seok) and Queen (Park Shin-Hye) then become embroiled in a critical case because of the royal attire made by Dol-Seok and Kong-Jin.

    Notes:
    1. Filming began February 21, 2014 and finished on July 2, 2014.

    Cast:
    Han Suk-Kyu as Dol-Seok
    Ko Soo as Kong-Jin
    Park Shin-Hye as Queen
    Yoo Yeon-Seok as King
    Lee Yoo-Bi as Royal Concubine Soui
    Ma Dong-Seok as Pan-Soo
    Shin So-Yul as Wol-Hyang
    Bae Sung-Woo as Je-Jo
    Jo Dal-Hwan as Dae-Gil

    Awards:
    2015 (51st) PaekSang Arts Awards - May 26, 2015 : Most Popular Actress (Park Shin-Hye)

    Code:
    Type: Mp4
    Size: 3.79 GB
    Video: MPEG4 Video (H264) 1280x720 29.97fps
    Audio: AAC 48000Hz 6ch 4608kbps

    Screenshots:










    0 0
  • 06/14/15--02:15: Nurhaci (Documentary)
  • Original Post: Nurhaci (Documentary)

    Title: Nurhaci
    Runtime: 25min X 7 parts
    Genre: Documentary
    Language: Chinese
    Country: China
    Broadcast network: CCTV9
    Subtitles: English hardsub

    Synopsis
    Nurhaci was an important Manchu chieftain who rose to prominence in the late 16th Century in what is today Northeastern China. He was part of the Aisin Gioro clan, and reigned from 1616 to his death in September 1626. reorganized and united various Manchu tribes, consolidated the Eight Banners military system, and eventually launched an assault on China proper´s Ming Dynasty and Korea´s Joseon Dynasty. His conquest of China´s northeastern Liaoning Province laid the groundwork for the conquest of the rest of China by his descendants, who would go on to found the Qing Dynasty in 1644.

    Video: MPEG4 Video (H264) 480x360 25fps [V: h264 high L3.1, yuv420p, 480x360]
    Audio: AAC 48000Hz stereo 33kbps [A: aac he-aacv2, 48000 Hz, stereo, 33 kb/s]
    Note: Not a HD, but it's worth watching it

    Code
    General
    ID                             : 1 (0x1)
    Complete name                  : Nurhaci Part 1 - Early ambition CCTV News - CNTV English.mp4
    Format                         : MPEG-TS
    File size                      : 102 MiB
    Duration                       : 26mn 58s
    Overall bit rate mode          : Variable
    Overall bit rate               : 527 Kbps

    Video
    ID                             : 256 (0x100)
    Menu ID                        : 1 (0x1)
    Format                         : AVC
    Format/Info                    : Advanced Video Codec
    Format profile                 : High@L3.1
    Format settings, CABAC         : Yes
    Format settings, ReFrames      : 2 frames
    Codec ID                       : 27
    Duration                       : 26mn 58s
    Width                          : 480 pixels
    Height                         : 360 pixels
    Display aspect ratio           : 4:3
    Frame rate mode                : Variable
    Color space                    : YUV
    Chroma subsampling             : 4:2:0
    Bit depth                      : 8 bits
    Scan type                      : Progressive

    Audio
    ID                             : 257 (0x101)
    Menu ID                        : 1 (0x1)
    Format                         : AAC
    Format/Info                    : Advanced Audio Codec
    Format version                 : Version 4
    Format profile                 : HE-AACv2 / HE-AAC / LC
    Muxing mode                    : ADTS
    Codec ID                       : 15
    Duration                       : 26mn 58s
    Bit rate mode                  : Variable
    Channel(s)                     : 2 channels / 1 channel / 1 channel
    Channel positions              : Front: L R / Front: C / Front: C
    Sampling rate                  : 48.0 KHz / 48.0 KHz / 24.0 KHz
    Compression mode               : Lossy
    Delay relative to video        : -40ms

    Menu
    ID                             : 4096 (0x1000)
    Menu ID                        : 1 (0x1)
    Duration                       : 26mn 58s
    List                           : 256 (0x100) (AVC) / 257 (0x101) (AAC)
    Service name                   : segmarV2.0
    Service provider               : cntv
    Service type                   : digital television














    0 0

    Original Post: Bluebird's.House.E34.150614.HDTV.XviD-LIMO

    http://thetvdb.com/?tab=series&id=292405&lid=7
    Details
    Title: 파랑새의 집 / Parangsaeui Jib
    Also known as: Bluebird's Nest
    Genre: Family, human, romance, comedy
    Episodes: 50
    Broadcast network: KBS2
    Broadcast period: 2015-Feb-21 to 2015-???-??
    Air time: Saturday & Sunday Night 19:55
    Original Soundtrack: Bluebird's House OST
    Synopsis
    A drama that tells the story of strong bond between the members of a family even though they are not blood-related. This drama also portrays the hope of parents toward their children's success and how difficult for fresh university graduates to get respectable and well-paid jobs.

    Cast
    Main Cast
    Lee Joon Hyuk as Kim Ji Wan (29)
    Chae Soo Bin as Han Eun Soo (24)
    Lee Sang Yeob as Jang Hyun Do (28)
    Kyung Soo Jin as Kang Young Joo (25)
    Kim Ji Wan's family
    Choi Myung Gil as Han Sun Hee (55)
    Jung Jae Soon as Lee Jin Yi (70)
    Jang Hyun Do's family
    Chun Ho Jin as Jang Tae Soo (55)
    Lee Hye Sook as Jung Soo Kyung (52)
    Kang Young Joo's family
    Song Ok Sook as Oh Min Ja (55)
    Jung Won Joong as Kang Jae Chul (53)
    Others
    Uhm Hyun Kyung as Seo Mi Ji (29)
    Nam Kyung Eup as Shin Young Hwan (50)






    Code
    Video
    ID                                       : 0
    Format                                   : MPEG-4 Visual
    Format profile                           : Advanced Simple@L5
    Format settings, BVOP                    : No
    Format settings, QPel                    : No
    Format settings, GMC                     : No warppoints
    Format settings, Matrix                  : Default (MPEG)
    Codec ID                                 : XVID
    Codec ID/Hint                            : XviD
    Duration                                 : 1h 29mn
    Bit rate                                 : 1 388 Kbps
    Width                                    : 624 pixels
    Height                                   : 352 pixels
    Display aspect ratio                     : 16:9
    Frame rate                               : 29.970 fps
    Color space                              : YUV
    Chroma subsampling                       : 4:2:0
    Bit depth                                : 8 bits
    Scan type                                : Progressive
    Compression mode                         : Lossy
    Bits/(Pixel*Frame)                       : 0.211
    Stream size                              : 886 MiB (87%)
    Writing library                          : XviD 1.2.1 (UTC 2008-12-04)

    Audio
    ID                                       : 1
    Format                                   : MPEG Audio
    Format version                           : Version 1
    Format profile                           : Layer 3
    Mode                                     : Joint stereo
    Mode extension                           : MS Stereo
    Codec ID                                 : 55
    Codec ID/Hint                            : MP3
    Duration                                 : 1h 29mn
    Bit rate mode                            : Constant
    Bit rate                                 : 128 Kbps
    Channel(s)                               : 2 channels
    Sampling rate                            : 48.0 KHz
    Compression mode                         : Lossy
    Stream size                              : 81.7 MiB (8%)
    Alignment                                : Aligned on interleaves
    Writing library                          : LAME3.98.2



    0 0

    Original Post: Bluebird's.House.E34.150614.HDTV.H264.720p-LIMO

    http://thetvdb.com/?tab=series&id=292405&lid=7
    Details
    Title: 파랑새의 집 / Parangsaeui Jib
    Also known as: Bluebird's Nest
    Genre: Family, human, romance, comedy
    Episodes: 50
    Broadcast network: KBS2
    Broadcast period: 2015-Feb-21 to 2015-???-??
    Air time: Saturday & Sunday Night 19:55
    Original Soundtrack: Bluebird's House OST
    Synopsis
    A drama that tells the story of strong bond between the members of a family even though they are not blood-related. This drama also portrays the hope of parents toward their children's success and how difficult for fresh university graduates to get respectable and well-paid jobs.

    Cast
    Main Cast
    Lee Joon Hyuk as Kim Ji Wan (29)
    Chae Soo Bin as Han Eun Soo (24)
    Lee Sang Yeob as Jang Hyun Do (28)
    Kyung Soo Jin as Kang Young Joo (25)
    Kim Ji Wan's family
    Choi Myung Gil as Han Sun Hee (55)
    Jung Jae Soon as Lee Jin Yi (70)
    Jang Hyun Do's family
    Chun Ho Jin as Jang Tae Soo (55)
    Lee Hye Sook as Jung Soo Kyung (52)
    Kang Young Joo's family
    Song Ok Sook as Oh Min Ja (55)
    Jung Won Joong as Kang Jae Chul (53)
    Others
    Uhm Hyun Kyung as Seo Mi Ji (29)
    Nam Kyung Eup as Shin Young Hwan (50)






    Code
    Video
    ID                             : 1
    Format                         : AVC
    Format/Info                    : Advanced Video Codec
    Format profile                 : High@L5.1
    Format settings, CABAC         : Yes
    Format settings, ReFrames      : 4 frames
    Codec ID                       : V_MPEG4/ISO/AVC
    Duration                       : 1h 24mn
    Bit rate                       : 887 Kbps
    Nominal bit rate               : 2 496 Kbps
    Width                          : 1 280 pixels
    Height                         : 720 pixels
    Display aspect ratio           : 16:9
    Frame rate mode                : Constant
    Frame rate                     : 29.970 fps
    Color space                    : YUV
    Chroma subsampling             : 4:2:0
    Bit depth                      : 8 bits
    Scan type                      : Progressive
    Bits/(Pixel*Frame)             : 0.032
    Stream size                    : 535 MiB (68%)
    Writing library                : x264 core 130 r2273 b3065e6
    Encoding settings              : cabac=1 / ref=3 / deblock=1:0:0 / analyse=0x3:0x113 / me=hex / subme=7 / psy=1 / psy_rd=1.00:0.00 / mixed_ref=1 / me_range=16 / chroma_me=1 / trellis=1 / 8x8dct=1 / cqm=0 / deadzone=21,11 / fast_pskip=1 / chroma_qp_offset=-2 / threads=1 / lookahead_threads=1 / sliced_threads=0 / nr=0 / decimate=1 / interlaced=0 / bluray_compat=0 / constrained_intra=0 / bframes=3 / b_pyramid=2 / b_adapt=1 / b_bias=0 / direct=1 / weightb=1 / open_gop=0 / weightp=2 / keyint=300 / keyint_min=29 / scenecut=40 / intra_refresh=0 / rc_lookahead=40 / rc=2pass / mbtree=1 / bitrate=2496 / ratetol=1.0 / qcomp=0.60 / qpmin=0 / qpmax=69 / qpstep=4 / cplxblur=20.0 / qblur=0.5 / vbv_maxrate=300000 / vbv_bufsize=300000 / nal_hrd=none / ip_ratio=1.40 / aq=1:1.00
    Default                        : Yes
    Forced                         : No

    Audio
    ID                             : 2
    Format                         : AC-3
    Format/Info                    : Audio Coding 3
    Mode extension                 : CM (complete main)
    Format settings, Endianness    : Big
    Codec ID                       : A_AC3
    Duration                       : 1h 24mn
    Bit rate mode                  : Constant
    Bit rate                       : 384 Kbps
    Channel(s)                     : 2 channels
    Channel positions              : Front: L R
    Sampling rate                  : 44.1 KHz
    Bit depth                      : 16 bits
    Compression mode               : Lossy
    Stream size                    : 232 MiB (30%)
    Language                       : Korean
    Default                        : Yes
    Forced                         : No



    0 0

    Original Post: Kokoro ga Pokitto ne EP10 Finale 720p HDTV x264 AAC DoA

    Title (romaji): Kokoro ga Pokitto ne
    Also known as: Crazy for Me
    Format: Renzoku
    Genre: Love comedy
    Episodes: TBD
    Broadcast network: Fuji TV
    Broadcast period: 2015-Apr-08 start
    Air time: Wednesday 22:00
    Theme song: SUN by Hoshino Gen
    Subtitles: English
    RAW credit to DoA


    Cast

    Abe Sadao as Kojima Haruta
    Mizuhara Kiko as Hayama Miyako
    Fujiki Naohito as Otake Shin
    Yamaguchi Tomoko as Kamoda Shizuka
    Tokunaga Eri as Itoyama Fumi
    Yamashita Rio as Makino Eriko
    Nagase Tasuku
    Ikezu Shoko
    Yamanishi Atsushi (山西惇)


    Synopsis

    Set in Tokyo, the story follows Kojima Haruta, a 40-year-old man who hits the rock bottom as he fell mentally ill which led him to lose his job, family, and even a place to live. After a certain turn of events, Haruta encounters Otake Shin, the owner of an antique furniture shop who takes Haruta in and hires him as a furniture repairman in the shop. Touched by such kindness, Haruta promised himself to try to put his life back together but kept himself isolated in order to avoid any additional stress being created. However, things suddenly starts to change as Haruta encounters Hayama Miyako, a 26-year-old woman who has a tendency to become overly dependent and extremely obsessed with a man she falls in love with... -- Fuji TV


    Mediainfo
    Spoiler:show

    Code
    Format                                   : Matroska
    Format version                           : Version 4 / Version 2
    File size                                : 1.32 GiB
    Duration                                 : 46mn 24s
    Overall bit rate                         : 4 068 Kbps
    Movie name                               : 心がポキッとね 第10回 End 720p HDTV x264 AAC-DoA
    Encoded date                             : UTC 2015-06-11 21:54:14
    Writing application                      : mkvmerge v7.9.0 ('Birds') 64bit
    Writing library                          : libebml v1.3.1 + libmatroska v1.4.2
    DURATION                                 : 00:46:24.874000000
    NUMBER_OF_FRAMES                         : 130541
    NUMBER_OF_BYTES                          : 65662123
    _STATISTICS_WRITING_APP                  : mkvmerge v7.9.0 ('Birds') 64bit
    _STATISTICS_WRITING_DATE_UTC             : 2015-06-11 21:54:14
    _STATISTICS_TAGS                         : BPS DURATION NUMBER_OF_FRAMES NUMBER_OF_BYTES

    Video
    ID                                       : 1
    Format                                   : AVC
    Format/Info                              : Advanced Video Codec
    Format profile                           : High@L4.1
    Format settings, CABAC                   : Yes
    Format settings, ReFrames                : 9 frames
    Codec ID                                 : V_MPEG4/ISO/AVC
    Duration                                 : 46mn 24s
    Width                                    : 1 280 pixels
    Height                                   : 720 pixels
    Display aspect ratio                     : 16:9
    Frame rate mode                          : Constant
    Frame rate                               : 29.970 fps
    Color space                              : YUV
    Chroma subsampling                       : 4:2:0
    Bit depth                                : 8 bits
    Scan type                                : Progressive
    Title                                    : Encode by TTG-DoA
    Writing library                          : x264 core 146 r2538 121396c
    Encoding settings                        : cabac=1 / ref=9 / deblock=1:-2:-2 / analyse=0x3:0x133 / me=umh / subme=10 / psy=1 / psy_rd=1.00:0.15 / mixed_ref=1 / me_range=48 / chroma_me=1 / trellis=2 / 8x8dct=1 / cqm=0 / deadzone=21,11 / fast_pskip=0 / chroma_qp_offset=-3 / threads=12 / lookahead_threads=2 / sliced_threads=0 / nr=0 / decimate=1 / interlaced=0 / bluray_compat=0 / constrained_intra=0 / bframes=8 / b_pyramid=2 / b_adapt=2 / b_bias=0 / direct=3 / weightb=1 / open_gop=0 / weightp=2 / keyint=300 / keyint_min=29 / scenecut=40 / intra_refresh=0 / rc_lookahead=60 / rc=crf / mbtree=1 / crf=17.9 / qcomp=0.60 / qpmin=0 / qpmax=69 / qpstep=4 / ip_ratio=1.40 / aq=1:1.00
    Language                                 : Japanese
    Default                                  : Yes
    Forced                                   : No
    _STATISTICS_WRITING_APP                  : mkvmerge v7.9.0 ('Birds') 64bit
    _STATISTICS_WRITING_DATE_UTC             : 2015-06-11 21:54:14
    _STATISTICS_TAGS                         : BPS DURATION NUMBER_OF_FRAMES NUMBER_OF_BYTES
    DURATION                                 : 00:46:24.882000000
    NUMBER_OF_FRAMES                         : 83463
    NUMBER_OF_BYTES                          : 1349618771

    Audio
    ID                                       : 2
    Format                                   : AAC
    Format/Info                              : Advanced Audio Codec
    Format profile                           : LC
    Codec ID                                 : A_AAC
    Duration                                 : 46mn 24s
    Channel(s)                               : 2 channels
    Channel positions                        : Front: L R
    Sampling rate                            : 48.0 KHz
    Compression mode                         : Lossy
    Language                                 : Japanese
    Default                                  : Yes
    Forced                                   : No

    Menu
    00:00:00.000                             : ja:Chapter 01
    00:10:00.933                             : ja:Chapter 02
    00:15:50.916                             : ja:Chapter 03
    00:23:36.882                             : ja:Chapter 04
    00:29:13.885                             : ja:Chapter 05
    00:45:24.888                             : ja:risk no kamisama








    0 0

    Original Post: Renai Jidai EP11 720p HDTV x264 AAC DoA

    Title (romaji): Renai Jidai
    Format: Renzoku
    Genre: Romance
    Episodes: TBD
    Broadcast network: NTV / YTV
    Broadcast period: 2015-Apr-02 start
    Air time: Thursday 23:59
    Theme song: Arigatou Forever... by Nishiuchi Mariya
    Subtitles: English - sakotea
    RAW credit to DoA

     
    Cast

       Higa Manami as Eto Haru
       Mitsushima Shinnosuke as Hayase Riichiro
       Satsukawa Aimi as Ogasawara Kasumi
       Fuchikami Yasushi (淵上泰史) as Nagatomi Shohei
       Nakao Akiyoshi as Kaieda Mamoru
       Eguchi Noriko as Aramaki Sayuri
       Matsukawa Akari (松川星) as Eto Shizuka
       Yokoyama Mei (横山芽生) as Ogasawara Aya
       Oishi Goro as Eto Ginichi
       Kashii Yu as Oda Tamiko
       Sato Ryuta as Kitajima Ryuichi


    Synopsis

    Haru Eto (Manami Higa) works at a sports gym and Riichiro Hayase (Shinnosuke Mitsushima) works at a book store. After a fateful meeting, they eventually marry, but, due to a reason, they divorce only a year and a half later. Even after their divorce, the couple continue to see each other. On their wedding anniversary they have dinner together. Due to a petty quarrel, they begin to search for a potential spouse for each other.

    Mediainfo
    Spoiler:show

    Code
    Format                                   : Matroska
    Format version                           : Version 4 / Version 2
    File size                                : 799 MiB
    Duration                                 : 43mn 14s
    Overall bit rate                         : 2 584 Kbps
    Movie name                               : 恋愛時代 #11 720p HDTV x264 AAC-DoA
    Encoded date                             : UTC 2015-06-12 12:38:41
    Writing application                      : mkvmerge v7.8.0 ('River Man') 64bit built on Mar 27 2015 16:31:37
    Writing library                          : libebml v1.3.1 + libmatroska v1.4.2
    DURATION                                 : 00:43:14.154000000
    NUMBER_OF_FRAMES                         : 121601
    NUMBER_OF_BYTES                          : 61165257
    _STATISTICS_WRITING_APP                  : mkvmerge v7.8.0 ('River Man') 64bit built on Mar 27 2015 16:31:37
    _STATISTICS_WRITING_DATE_UTC             : 2015-06-12 12:38:41
    _STATISTICS_TAGS                         : BPS DURATION NUMBER_OF_FRAMES NUMBER_OF_BYTES

    Video
    ID                                       : 1
    Format                                   : AVC
    Format/Info                              : Advanced Video Codec
    Format profile                           : High@L4.1
    Format settings, CABAC                   : Yes
    Format settings, ReFrames                : 9 frames
    Codec ID                                 : V_MPEG4/ISO/AVC
    Duration                                 : 43mn 14s
    Width                                    : 1 280 pixels
    Height                                   : 720 pixels
    Display aspect ratio                     : 16:9
    Frame rate mode                          : Constant
    Frame rate                               : 29.970 fps
    Color space                              : YUV
    Chroma subsampling                       : 4:2:0
    Bit depth                                : 8 bits
    Scan type                                : Progressive
    Title                                    : Encode by DoA
    Writing library                          : x264 core 130 r2273 b3065e6
    Encoding settings                        : cabac=1 / ref=9 / deblock=1:-2:-2 / analyse=0x3:0x133 / me=umh / subme=10 / psy=1 / psy_rd=1.00:0.15 / mixed_ref=1 / me_range=48 / chroma_me=1 / trellis=2 / 8x8dct=1 / cqm=0 / deadzone=21,11 / fast_pskip=0 / chroma_qp_offset=-3 / threads=12 / lookahead_threads=2 / sliced_threads=0 / nr=0 / decimate=1 / interlaced=0 / bluray_compat=0 / constrained_intra=0 / bframes=8 / b_pyramid=2 / b_adapt=2 / b_bias=0 / direct=3 / weightb=1 / open_gop=0 / weightp=2 / keyint=300 / keyint_min=29 / scenecut=40 / intra_refresh=0 / rc_lookahead=60 / rc=crf / mbtree=1 / crf=18.0 / qcomp=0.60 / qpmin=0 / qpmax=69 / qpstep=4 / ip_ratio=1.40 / aq=1:1.00
    Language                                 : Japanese
    Default                                  : Yes
    Forced                                   : No
    DURATION                                 : 00:43:14.525000000
    NUMBER_OF_FRAMES                         : 77758
    NUMBER_OF_BYTES                          : 775964281
    _STATISTICS_WRITING_APP                  : mkvmerge v7.8.0 ('River Man') 64bit built on Mar 27 2015 16:31:37
    _STATISTICS_WRITING_DATE_UTC             : 2015-06-12 12:38:41
    _STATISTICS_TAGS                         : BPS DURATION NUMBER_OF_FRAMES NUMBER_OF_BYTES

    Audio
    ID                                       : 2
    Format                                   : AAC
    Format/Info                              : Advanced Audio Codec
    Format profile                           : LC
    Codec ID                                 : A_AAC
    Duration                                 : 43mn 14s
    Channel(s)                               : 2 channels
    Channel positions                        : Front: L R
    Sampling rate                            : 48.0 KHz
    Compression mode                         : Lossy
    Delay relative to video                  : 18ms
    Language                                 : Japanese
    Default                                  : Yes
    Forced                                   : No

    Menu
    00:00:00.000                             : ja:恋愛時代 #11 Part 1
    00:04:31.938                             : ja:オープニング
    00:04:43.950                             : ja:恋愛時代 #11 Part 2
    00:18:01.980                             : ja:提供
    00:18:06.919                             : ja:恋愛時代 #11 Part 3
    00:26:53.812                             : ja:恋愛時代 #11 Part 4
    00:32:50.735                             : ja:恋愛時代 #11 Part 5
    00:38:48.626                             : ja:恋愛時代 #11 Part 6
    00:42:39.590                             : ja:最終回予告
    00:42:59.610                             : ja:新番組予告「婚活刑事」








    0 0

    Original Post: Make.A.Woman.Cry.E18.150614.HDTV.XviD-LIMO

    http://thetvdb.com/?tab=series&id=294274&lid=7
    Details
    Title: 여자를 울려 / Yeojareul Woolryeo
    Also known as: Let the Woman Cry
    Genre: Family, drama, romance
    Episodes: 50
    Broadcast network: MBC
    Broadcast period: 2015-Apr-18 to 2015-???-??
    Air time: Saturday & Sunday 20:45
    Original Soundtrack: Make a Woman Cry OST

    Synopsis
    Jung Duk In was a former detective who resigned after her son died. She then opens a food stall in front of her son's school to preserves the memory of him and to protects the other students. Along the way she will struggle to forgive people who were responsible for her son's death.

    Cast

    Main Cast
    Kim Jung Eun as Jung Duk In
    Song Chang Ui as Kang Jin Woo
    Lee Soon Jae as Kang Tae Hwan
    Ha Hee Ra as Na Eun Soo
    Oh Dae Gyu as Kang Jin Myung
    Lee Tae Ran as Choi Hong Ran






    Code
    Video
    ID                                       : 0
    Format                                   : MPEG-4 Visual
    Format profile                           : Advanced Simple@L5
    Format settings, BVOP                    : No
    Format settings, QPel                    : No
    Format settings, GMC                     : No warppoints
    Format settings, Matrix                  : Default (MPEG)
    Codec ID                                 : XVID
    Codec ID/Hint                            : XviD
    Duration                                 : 1h 29mn
    Bit rate                                 : 1 388 Kbps
    Width                                    : 624 pixels
    Height                                   : 352 pixels
    Display aspect ratio                     : 16:9
    Frame rate                               : 29.970 fps
    Color space                              : YUV
    Chroma subsampling                       : 4:2:0
    Bit depth                                : 8 bits
    Scan type                                : Progressive
    Compression mode                         : Lossy
    Bits/(Pixel*Frame)                       : 0.211
    Stream size                              : 886 MiB (87%)
    Writing library                          : XviD 1.2.1 (UTC 2008-12-04)

    Audio
    ID                                       : 1
    Format                                   : MPEG Audio
    Format version                           : Version 1
    Format profile                           : Layer 3
    Mode                                     : Joint stereo
    Mode extension                           : MS Stereo
    Codec ID                                 : 55
    Codec ID/Hint                            : MP3
    Duration                                 : 1h 29mn
    Bit rate mode                            : Constant
    Bit rate                                 : 128 Kbps
    Channel(s)                               : 2 channels
    Sampling rate                            : 48.0 KHz
    Compression mode                         : Lossy
    Stream size                              : 81.7 MiB (8%)
    Alignment                                : Aligned on interleaves
    Writing library                          : LAME3.98.2



    0 0

    Original Post: Make.A.Woman.Cry.E18.150614.HDTV.H264.720p-LIMO

    http://thetvdb.com/?tab=series&id=294274&lid=7
    Details
    Title: 여자를 울려 / Yeojareul Woolryeo
    Also known as: Let the Woman Cry
    Genre: Family, drama, romance
    Episodes: 50
    Broadcast network: MBC
    Broadcast period: 2015-Apr-18 to 2015-???-??
    Air time: Saturday & Sunday 20:45
    Original Soundtrack: Make a Woman Cry OST

    Synopsis
    Jung Duk In was a former detective who resigned after her son died. She then opens a food stall in front of her son's school to preserves the memory of him and to protects the other students. Along the way she will struggle to forgive people who were responsible for her son's death.

    Cast

    Main Cast
    Kim Jung Eun as Jung Duk In
    Song Chang Ui as Kang Jin Woo
    Lee Soon Jae as Kang Tae Hwan
    Ha Hee Ra as Na Eun Soo
    Oh Dae Gyu as Kang Jin Myung
    Lee Tae Ran as Choi Hong Ran






    Code
    Video
    ID                             : 1
    Format                         : AVC
    Format/Info                    : Advanced Video Codec
    Format profile                 : High@L5.1
    Format settings, CABAC         : Yes
    Format settings, ReFrames      : 4 frames
    Codec ID                       : V_MPEG4/ISO/AVC
    Duration                       : 1h 24mn
    Bit rate                       : 887 Kbps
    Nominal bit rate               : 2 496 Kbps
    Width                          : 1 280 pixels
    Height                         : 720 pixels
    Display aspect ratio           : 16:9
    Frame rate mode                : Constant
    Frame rate                     : 29.970 fps
    Color space                    : YUV
    Chroma subsampling             : 4:2:0
    Bit depth                      : 8 bits
    Scan type                      : Progressive
    Bits/(Pixel*Frame)             : 0.032
    Stream size                    : 535 MiB (68%)
    Writing library                : x264 core 130 r2273 b3065e6
    Encoding settings              : cabac=1 / ref=3 / deblock=1:0:0 / analyse=0x3:0x113 / me=hex / subme=7 / psy=1 / psy_rd=1.00:0.00 / mixed_ref=1 / me_range=16 / chroma_me=1 / trellis=1 / 8x8dct=1 / cqm=0 / deadzone=21,11 / fast_pskip=1 / chroma_qp_offset=-2 / threads=1 / lookahead_threads=1 / sliced_threads=0 / nr=0 / decimate=1 / interlaced=0 / bluray_compat=0 / constrained_intra=0 / bframes=3 / b_pyramid=2 / b_adapt=1 / b_bias=0 / direct=1 / weightb=1 / open_gop=0 / weightp=2 / keyint=300 / keyint_min=29 / scenecut=40 / intra_refresh=0 / rc_lookahead=40 / rc=2pass / mbtree=1 / bitrate=2496 / ratetol=1.0 / qcomp=0.60 / qpmin=0 / qpmax=69 / qpstep=4 / cplxblur=20.0 / qblur=0.5 / vbv_maxrate=300000 / vbv_bufsize=300000 / nal_hrd=none / ip_ratio=1.40 / aq=1:1.00
    Default                        : Yes
    Forced                         : No

    Audio
    ID                             : 2
    Format                         : AC-3
    Format/Info                    : Audio Coding 3
    Mode extension                 : CM (complete main)
    Format settings, Endianness    : Big
    Codec ID                       : A_AC3
    Duration                       : 1h 24mn
    Bit rate mode                  : Constant
    Bit rate                       : 384 Kbps
    Channel(s)                     : 2 channels
    Channel positions              : Front: L R
    Sampling rate                  : 44.1 KHz
    Bit depth                      : 16 bits
    Compression mode               : Lossy
    Stream size                    : 232 MiB (30%)
    Language                       : Korean
    Default                        : Yes
    Forced                         : No



    0 0

    Original Post: A Bloody Spear at Mount Fuji (1955 Remastered DVDRIP)

    This was Uchida's first work with the great period star, Chiezo Kataoka, who appeared here with his son and daughter, Motoharu Ueki and Chie. A team of great directors, including Yasujiro Ozu, Hiroshi Shimizu and Daisuke Ito, assisted Uchida with his remarkable post-war comeback film. It's an affable samurai road movie with a focus on unglamorous characters, as a dim-witted samurai and his servants traverse the Tokaido highway. Much of the film is played as comedy, making the brilliantly staged violent climax all the more shocking.

    Title: A Bloody Spear at Mount Fuji
    Japanese title: Chiyari Fuji
    Director: Tomu Uchida
    Genre: Jidaigeki / Comedy / Action
    Release date: 1955
    Runtime: 1hr 30min 18sec
    Language: Japanese
    Country: Japan
    Subtitles: English (optional)
    IMDB URL:http://www.imdb.com/title/tt0047937/

    Synopsis: The samurai Sakawa Kojūrō is on the road to Edo with his two servants Genta and Genpachi. Kojūrō is a kindly master, but his character totally changes when he consumes alcohol. On the road, they encounter many different people: a traveling singer with her child, a father taking his daughter Otane to be sold into prostitution, a pilgrim, a policeman searching for a notorious thief, and Tōzaburō, the suspicious man the officer has his eyes on. Genpachi, the spear carrier, is also followed by an orphaned boy named Jirō who wants to be a samurai.

    Starring:Chiezo Kataoka, Ryunosuke Tsukigata, Teruo Shimada, Daisuke Kato, Motoharu Ueki, Chizuru Kitagawa, Chie Ueki, Yuriko Tashiro



    Screen Shots







    Technical Information

    Video
    ID                                       : 1
    Format                                   : AVC
    Format/Info                              : Advanced Video Codec
    Format profile                           : Main@L4.0
    Format settings, CABAC                   : Yes
    Format settings, ReFrames                : 4 frames
    Codec ID                                 : V_MPEG4/ISO/AVC
    Duration                                 : 1h 30mn
    Bit rate                                 : 1 167 Kbps
    Width                                    : 716 pixels
    Height                                   : 572 pixels
    Display aspect ratio                     : 4:3
    Original display aspect ratio            : 4:3
    Frame rate mode                          : Constant
    Frame rate                               : 25.000 fps
    Color space                              : YUV
    Chroma subsampling                       : 4:2:0
    Bit depth                                : 8 bits
    Scan type                                : Progressive
    Bits/(Pixel*Frame)                       : 0.114
    Stream size                              : 753 MiB (84%)
    Writing library                          : x264 core 142 r2479 dd79a61
    Encoding settings                        : cabac=1 / ref=1 / deblock=1:0:0 / analyse=0x1:0x111 / me=hex / subme=2 / psy=1 / psy_rd=1.00:0.00 / mixed_ref=0 / me_range=16 / chroma_me=1 / trellis=0 / 8x8dct=0 / cqm=0 / deadzone=21,11 / fast_pskip=1 / chroma_qp_offset=0 / threads=6 / lookahead_threads=2 / sliced_threads=0 / nr=0 / decimate=1 / interlaced=0 / bluray_compat=0 / constrained_intra=0 / bframes=3 / b_pyramid=2 / b_adapt=1 / b_bias=0 / direct=1 / weightb=1 / open_gop=0 / weightp=1 / keyint=250 / keyint_min=25 / scenecut=40 / intra_refresh=0 / rc_lookahead=10 / rc=crf / mbtree=1 / crf=20.0 / qcomp=0.60 / qpmin=0 / qpmax=69 / qpstep=4 / vbv_maxrate=20000 / vbv_bufsize=25000 / crf_max=0.0 / nal_hrd=none / filler=0 / ip_ratio=1.40 / aq=1:1.00
    Default                                  : Yes
    Forced                                   : No
    Color primaries                          : BT.601 PAL
    Transfer characteristics                 : BT.709
    Matrix coefficients                      : BT.601
    Color range                              : Limited

    Audio
    ID                                       : 2
    Format                                   : AC-3
    Format/Info                              : Audio Coding 3
    Mode extension                           : CM (complete main)
    Format settings, Endianness              : Big
    Codec ID                                 : A_AC3
    Duration                                 : 1h 30mn
    Bit rate mode                            : Constant
    Bit rate                                 : 192 Kbps
    Channel(s)                               : 2 channels
    Channel positions                        : Front: L R
    Sampling rate                            : 48.0 KHz
    Bit depth                                : 16 bits
    Compression mode                         : Lossy
    Stream size                              : 124 MiB (14%)
    Title                                    : Stereo
    Language                                 : Japanese
    Default                                  : Yes
    Forced                                   : No

    Text
    ID                                       : 3
    Format                                   : VobSub
    Codec ID                                 : S_VOBSUB
    Codec ID/Info                            : The same subtitle format used on DVDs
    Language                                 : English
    Default                                  : Yes
    Forced                                   : No


    0 0

    Original Post: Queen's.Flower.E28.150614.HDTV.XviD-LIMO

    http://thetvdb.com/?tab=series&id=293195
    Details
    Title: 여왕의 꽃 / Yeowangeui Ggot
    Previously known as: 적도의 꽃 (Flower of the Equator)
    Genre: Melodrama
    Episodes: 50
    Broadcast network: MBC
    Broadcast period: 2015-Mar-14 to 2015-???-??
    Air time: Saturday & Sunday 21:55

    Synopsis
    Rena Jung (Kim Sung Ryung) is a beautiful, but ambitious star chef who hosts her own cooking show. Her husband, Park Min-Joon (Lee Jong Hyuk), is the first son of a family that runs a large company. Their relationship is not so good, but they try to show other people they are still in love.

    In the past, Rena Jung abandoned her daughter for a chance at success. Now, her daughter, Kang Yi Sol (Lee Sung Kyung) appears in front of her. Kang Yi Sol resents her mother for abandoning her.

    Park Jae Joon (Yoon Park) is the husband's younger brother. He is popular with women, but he is attracted to Kang Yi-Sol.

    Cast
    Kim Sung Ryung as Rena Jung / Jung Eun Hye
    Lee Sung Kyung as Kang Yi Sol
    Yoon Park as Park Jae Joon
    Lee Jong Hyuk as Park Min Joon








    Code
    Video
    ID                                       : 0
    Format                                   : MPEG-4 Visual
    Format profile                           : Advanced Simple@L5
    Format settings, BVOP                    : No
    Format settings, QPel                    : No
    Format settings, GMC                     : No warppoints
    Format settings, Matrix                  : Default (MPEG)
    Codec ID                                 : XVID
    Codec ID/Hint                            : XviD
    Duration                                 : 1h 29mn
    Bit rate                                 : 1 388 Kbps
    Width                                    : 624 pixels
    Height                                   : 352 pixels
    Display aspect ratio                     : 16:9
    Frame rate                               : 29.970 fps
    Color space                              : YUV
    Chroma subsampling                       : 4:2:0
    Bit depth                                : 8 bits
    Scan type                                : Progressive
    Compression mode                         : Lossy
    Bits/(Pixel*Frame)                       : 0.211
    Stream size                              : 886 MiB (87%)
    Writing library                          : XviD 1.2.1 (UTC 2008-12-04)

    Audio
    ID                                       : 1
    Format                                   : MPEG Audio
    Format version                           : Version 1
    Format profile                           : Layer 3
    Mode                                     : Joint stereo
    Mode extension                           : MS Stereo
    Codec ID                                 : 55
    Codec ID/Hint                            : MP3
    Duration                                 : 1h 29mn
    Bit rate mode                            : Constant
    Bit rate                                 : 128 Kbps
    Channel(s)                               : 2 channels
    Sampling rate                            : 48.0 KHz
    Compression mode                         : Lossy
    Stream size                              : 81.7 MiB (8%)
    Alignment                                : Aligned on interleaves
    Writing library                          : LAME3.98.2



    0 0

    Original Post: Queen's.Flower.E28.150614.HDTV.H264.720p-LIMO

    http://thetvdb.com/?tab=series&id=293195
    Title: 여왕의 꽃 / Yeowangeui Ggot
    Previously known as: 적도의 꽃 (Flower of the Equator)
    Genre: Melodrama
    Episodes: 50
    Broadcast network: MBC
    Broadcast period: 2015-Mar-14 to 2015-???-??
    Air time: Saturday & Sunday 21:55

    Synopsis
    Rena Jung (Kim Sung Ryung) is a beautiful, but ambitious star chef who hosts her own cooking show. Her husband, Park Min-Joon (Lee Jong Hyuk), is the first son of a family that runs a large company. Their relationship is not so good, but they try to show other people they are still in love.

    In the past, Rena Jung abandoned her daughter for a chance at success. Now, her daughter, Kang Yi Sol (Lee Sung Kyung) appears in front of her. Kang Yi Sol resents her mother for abandoning her.

    Park Jae Joon (Yoon Park) is the husband's younger brother. He is popular with women, but he is attracted to Kang Yi-Sol.

    Cast
    Kim Sung Ryung as Rena Jung / Jung Eun Hye
    Lee Sung Kyung as Kang Yi Sol
    Yoon Park as Park Jae Joon
    Lee Jong Hyuk as Park Min Joon






    Code
    Video
    ID                             : 1
    Format                         : AVC
    Format/Info                    : Advanced Video Codec
    Format profile                 : High@L5.1
    Format settings, CABAC         : Yes
    Format settings, ReFrames      : 4 frames
    Codec ID                       : V_MPEG4/ISO/AVC
    Duration                       : 1h 24mn
    Bit rate                       : 887 Kbps
    Nominal bit rate               : 2 496 Kbps
    Width                          : 1 280 pixels
    Height                         : 720 pixels
    Display aspect ratio           : 16:9
    Frame rate mode                : Constant
    Frame rate                     : 29.970 fps
    Color space                    : YUV
    Chroma subsampling             : 4:2:0
    Bit depth                      : 8 bits
    Scan type                      : Progressive
    Bits/(Pixel*Frame)             : 0.032
    Stream size                    : 535 MiB (68%)
    Writing library                : x264 core 130 r2273 b3065e6
    Encoding settings              : cabac=1 / ref=3 / deblock=1:0:0 / analyse=0x3:0x113 / me=hex / subme=7 / psy=1 / psy_rd=1.00:0.00 / mixed_ref=1 / me_range=16 / chroma_me=1 / trellis=1 / 8x8dct=1 / cqm=0 / deadzone=21,11 / fast_pskip=1 / chroma_qp_offset=-2 / threads=1 / lookahead_threads=1 / sliced_threads=0 / nr=0 / decimate=1 / interlaced=0 / bluray_compat=0 / constrained_intra=0 / bframes=3 / b_pyramid=2 / b_adapt=1 / b_bias=0 / direct=1 / weightb=1 / open_gop=0 / weightp=2 / keyint=300 / keyint_min=29 / scenecut=40 / intra_refresh=0 / rc_lookahead=40 / rc=2pass / mbtree=1 / bitrate=2496 / ratetol=1.0 / qcomp=0.60 / qpmin=0 / qpmax=69 / qpstep=4 / cplxblur=20.0 / qblur=0.5 / vbv_maxrate=300000 / vbv_bufsize=300000 / nal_hrd=none / ip_ratio=1.40 / aq=1:1.00
    Default                        : Yes
    Forced                         : No

    Audio
    ID                             : 2
    Format                         : AC-3
    Format/Info                    : Audio Coding 3
    Mode extension                 : CM (complete main)
    Format settings, Endianness    : Big
    Codec ID                       : A_AC3
    Duration                       : 1h 24mn
    Bit rate mode                  : Constant
    Bit rate                       : 384 Kbps
    Channel(s)                     : 2 channels
    Channel positions              : Front: L R
    Sampling rate                  : 44.1 KHz
    Bit depth                      : 16 bits
    Compression mode               : Lossy
    Stream size                    : 232 MiB (30%)
    Language                       : Korean
    Default                        : Yes
    Forced                         : No



    0 0

    Original Post: The Mysterious Purple Hood AKA Hengen Murasaki Zukin (1963) [EngHardSub] VHSrip


    The Mysterious Purple Hood AKA Hengen Murasaki Zukin (1963)





    INFO:

    Year:            1963
    Color:           Color
    Directed:        KUDO Eiichi
    Genre:           Jidaigeki
    Runtime:         87 min
    Country:         Japan
    Language:        Japanese
    Subtitles:       English HardCoded Subs


    CAST:

    OTOMO Ryutaro, KATAOKA Chiezo, OKA Satomi, ARAI Shigeko, HOJO Kikuko


    PLOT:

    On a spring night in 1784, from Kyoto’s Fushimi Magistrate, Kobori Masakata a live gift arrived at this Edo mansion. A woman had been abducted and sent to the mansion with the threat of death to her parents, who were being held in Kyoto’s Rokkaku jail.

    With their lives in her hands she is ordered to “do her duty” with the evil Senior Councilor Tanuma Okitsugu. This corrupt official had monopolized Shogun Ieharu’s patronage and was unequalled in power. He privatized politics and handed out positions according to the amount he received in bribes.

    It would take a man in a mysterious purple hood to try and save her and help the townspeople of Edo.


    SPECS:Click to Show

    Spoiler:show
    ===================== General =====================
    Complete name               : The Mysterious Purple Hood AKA Hengen Murasaki Zukin (1963) [EngHardSub] VHSrip.mkv
    Format                      : Matroska
    File size                   : 769 MB
    Duration (ms)               : 1h 27mn
    Total bitrate               : 1 233 Kbps
    Encoded application         : HandBrake 0.10.1 2015030800
    Encoded library             : Lavf55.12.0

    ===================== Video =====================
    Id                          : 1
    Format                      : AVC
    Format info                 : Advanced Video Codec
    Format profile              : Main@L4.0
    Use of CABAC                : Yes
    RefFrames                   : 8 frames
    Muxing mode                 : Container profile=Unknown@4.0
    Codec Id                    : V_MPEG4/ISO/AVC
    Duration (ms)               : 1h 27mn
    Bitrate                     : 953 Kbps
    Width                       : 704 pixels
    Height                      : 392 pixels
    Aspect ratio                : 1.633
    Framerate mode              : Variable
    Framerate                   : 29.970 fps
    Colorimetry                 : YUV
    Colos space                 : 4:2:0
    Bit depth                   : 8 bits
    Scan type                   : Progressive
    Bits/(Pixel*Frame)          : 0.115
    Stream size                 : 594 MB (77%)
    Encoded library             : x264 core 142 r2479 dd79a61
    Encoded library settings    : cabac=1 / ref=8 / deblock=1:0:0 / analyse=0x1:0x131 / me=umh / subme=9 / psy=1 / psy_rd=1.00:0.00 / mixed_ref=1 / me_range=16 / chroma_me=1 / trellis=2 / 8x8dct=0 / cqm=0 / deadzone=21,11 / fast_pskip=1 / chroma_qp_offset=-2 / threads=9 / lookahead_threads=1 / sliced_threads=0 / nr=0 / decimate=1 / interlaced=0 / bluray_compat=0 / constrained_intra=0 / bframes=3 / b_pyramid=2 / b_adapt=2 / b_bias=0 / direct=3 / weightb=1 / open_gop=0 / weightp=2 / keyint=300 / keyint_min=30 / scenecut=40 / intra_refresh=0 / rc_lookahead=60 / rc=crf / mbtree=1 / crf=20.0 / qcomp=0.60 / qpmin=0 / qpmax=69 / qpstep=4 / vbv_maxrate=20000 / vbv_bufsize=25000 / crf_max=0.0 / nal_hrd=none / filler=0 / ip_ratio=1.40 / aq=1:1.00
    Language                    : English
    Color primaries             : BT.601-6 525, BT.1358 525, BT.1700 NTSC, SMPTE 170M
    Transfer characteristics    : BT.709-5, BT.1361
    Matrix coefficients         : BT.601-6 525, BT.1358 525, BT.1700 NTSC, SMPTE 170M

    ===================== Audio =====================
    Id                          : 2
    Format                      : AC-3
    Format info                 : Audio Coding 3
    Format settings mode extens : CM (complete main)
    Codec Id                    : A_AC3
    Duration (ms)               : 1h 27mn
    Bitrate mode                : Constant
    Bitrate                     : 256 Kbps
    Channel(s)                  : 2 channels
    ChannelPositions            : Front: L R
    Sampling rate               : 48.0 KHz
    Bit depth                   : 16 bits
    Stream size                 : 160 MB (21%)
    Title                       : Stereo
    Language                    : English
     

                     
    PICS:Click to Enlarge




    Check my profile for lots of jidaigeki uploads !




    0 0

    Original Post: Divorce.Lawyer.In.Love.E18.END.150614.HDTV.XviD-LIMO

    http://thetvdb.com/?tab=series&id=293864&lid=7
    Details
    Title: 이혼변호사는 연애중 / Yihonbyunhosaneun Yeonaejoong
    Genre: Romance, comedy
    Episodes: 18
    Broadcast network: SBS
    Broadcast period: 2015-Apr-18 to 2015-Jun-14
    Air time: Saturday & Sunday 22:00
    Original Soundtrack: Divorce Lawyer in Love OST
    Synopsis
    Go Cheok Hee is a successful divorce lawyer who treated So Jung Woo terribly when he was her firm's office manager. The tables are turned when Cheok Hee loses her license and can no longer practice law and Jung Woo has become a successful lawyer. The two cross paths again when Cheok Hee becomes Jung Woo's office manager.

    Cast
    Jo Yeo Jung as Go Cheok Hee
    Lee Bit Na as young Go Cheok Hee
    Yun Woo Jin as So Jung Woo
    Shim Hyung Tak as Bong Min Kyu
    Wang Ji Won as Jo Soo Ah








    Code
    Video
    ID                                       : 0
    Format                                   : MPEG-4 Visual
    Format profile                           : Advanced Simple@L5
    Format settings, BVOP                    : No
    Format settings, QPel                    : No
    Format settings, GMC                     : No warppoints
    Format settings, Matrix                  : Default (MPEG)
    Codec ID                                 : XVID
    Codec ID/Hint                            : XviD
    Duration                                 : 1h 29mn
    Bit rate                                 : 1 388 Kbps
    Width                                    : 624 pixels
    Height                                   : 352 pixels
    Display aspect ratio                     : 16:9
    Frame rate                               : 29.970 fps
    Color space                              : YUV
    Chroma subsampling                       : 4:2:0
    Bit depth                                : 8 bits
    Scan type                                : Progressive
    Compression mode                         : Lossy
    Bits/(Pixel*Frame)                       : 0.211
    Stream size                              : 886 MiB (87%)
    Writing library                          : XviD 1.2.1 (UTC 2008-12-04)

    Audio
    ID                                       : 1
    Format                                   : MPEG Audio
    Format version                           : Version 1
    Format profile                           : Layer 3
    Mode                                     : Joint stereo
    Mode extension                           : MS Stereo
    Codec ID                                 : 55
    Codec ID/Hint                            : MP3
    Duration                                 : 1h 29mn
    Bit rate mode                            : Constant
    Bit rate                                 : 128 Kbps
    Channel(s)                               : 2 channels
    Sampling rate                            : 48.0 KHz
    Compression mode                         : Lossy
    Stream size                              : 81.7 MiB (8%)
    Alignment                                : Aligned on interleaves
    Writing library                          : LAME3.98.2



    0 0

    Original Post: Divorce.Lawyer.In.Love.E18.END.150614.HDTV.H264.720p-LIMO

    http://thetvdb.com/?tab=series&id=293864&lid=7
    Details
    Title: 이혼변호사는 연애중 / Yihonbyunhosaneun Yeonaejoong
    Genre: Romance, comedy
    Episodes: 18
    Broadcast network: SBS
    Broadcast period: 2015-Apr-18 to 2015-Jun-14
    Air time: Saturday & Sunday 22:00
    Original Soundtrack: Divorce Lawyer in Love OST
    Synopsis
    Go Cheok Hee is a successful divorce lawyer who treated So Jung Woo terribly when he was her firm's office manager. The tables are turned when Cheok Hee loses her license and can no longer practice law and Jung Woo has become a successful lawyer. The two cross paths again when Cheok Hee becomes Jung Woo's office manager.

    Cast
    Jo Yeo Jung as Go Cheok Hee
    Lee Bit Na as young Go Cheok Hee
    Yun Woo Jin as So Jung Woo
    Shim Hyung Tak as Bong Min Kyu
    Wang Ji Won as Jo Soo Ah






    Code
    Video
    ID                             : 1
    Format                         : AVC
    Format/Info                    : Advanced Video Codec
    Format profile                 : High@L5.1
    Format settings, CABAC         : Yes
    Format settings, ReFrames      : 4 frames
    Codec ID                       : V_MPEG4/ISO/AVC
    Duration                       : 1h 24mn
    Bit rate                       : 887 Kbps
    Nominal bit rate               : 2 496 Kbps
    Width                          : 1 280 pixels
    Height                         : 720 pixels
    Display aspect ratio           : 16:9
    Frame rate mode                : Constant
    Frame rate                     : 29.970 fps
    Color space                    : YUV
    Chroma subsampling             : 4:2:0
    Bit depth                      : 8 bits
    Scan type                      : Progressive
    Bits/(Pixel*Frame)             : 0.032
    Stream size                    : 535 MiB (68%)
    Writing library                : x264 core 130 r2273 b3065e6
    Encoding settings              : cabac=1 / ref=3 / deblock=1:0:0 / analyse=0x3:0x113 / me=hex / subme=7 / psy=1 / psy_rd=1.00:0.00 / mixed_ref=1 / me_range=16 / chroma_me=1 / trellis=1 / 8x8dct=1 / cqm=0 / deadzone=21,11 / fast_pskip=1 / chroma_qp_offset=-2 / threads=1 / lookahead_threads=1 / sliced_threads=0 / nr=0 / decimate=1 / interlaced=0 / bluray_compat=0 / constrained_intra=0 / bframes=3 / b_pyramid=2 / b_adapt=1 / b_bias=0 / direct=1 / weightb=1 / open_gop=0 / weightp=2 / keyint=300 / keyint_min=29 / scenecut=40 / intra_refresh=0 / rc_lookahead=40 / rc=2pass / mbtree=1 / bitrate=2496 / ratetol=1.0 / qcomp=0.60 / qpmin=0 / qpmax=69 / qpstep=4 / cplxblur=20.0 / qblur=0.5 / vbv_maxrate=300000 / vbv_bufsize=300000 / nal_hrd=none / ip_ratio=1.40 / aq=1:1.00
    Default                        : Yes
    Forced                         : No

    Audio
    ID                             : 2
    Format                         : AC-3
    Format/Info                    : Audio Coding 3
    Mode extension                 : CM (complete main)
    Format settings, Endianness    : Big
    Codec ID                       : A_AC3
    Duration                       : 1h 24mn
    Bit rate mode                  : Constant
    Bit rate                       : 384 Kbps
    Channel(s)                     : 2 channels
    Channel positions              : Front: L R
    Sampling rate                  : 44.1 KHz
    Bit depth                      : 16 bits
    Compression mode               : Lossy
    Stream size                    : 232 MiB (30%)
    Language                       : Korean
    Default                        : Yes
    Forced                         : No



    0 0

    Original Post: Divorce Lawyer in Love (2015) HDTV Complete X264 Small LIMO

    http://thetvdb.com/?tab=series&id=293864&lid=7
    Details
    Title: 이혼변호사는 연애중 / Yihonbyunhosaneun Yeonaejoong
    Genre: Romance, comedy
    Episodes: 18
    Broadcast network: SBS
    Broadcast period: 2015-Apr-18 to 2015-Jun-14
    Air time: Saturday & Sunday 22:00
    Original Soundtrack: Divorce Lawyer in Love OST
    Synopsis
    Go Cheok Hee is a successful divorce lawyer who treated So Jung Woo terribly when he was her firm's office manager. The tables are turned when Cheok Hee loses her license and can no longer practice law and Jung Woo has become a successful lawyer. The two cross paths again when Cheok Hee becomes Jung Woo's office manager.

    Cast
    Jo Yeo Jung as Go Cheok Hee
    Lee Bit Na as young Go Cheok Hee
    Yun Woo Jin as So Jung Woo
    Shim Hyung Tak as Bong Min Kyu
    Wang Ji Won as Jo Soo Ah






    Code
    Video
    ID                                       : 1
    Format                                   : AVC
    Format/Info                              : Advanced Video Codec
    Format profile                           : Main@L4.0
    Format settings, CABAC                   : Yes
    Format settings, ReFrames                : 4 frames
    Codec ID                                 : V_MPEG4/ISO/AVC
    Duration                                 : 58mn 22s
    Bit rate                                 : 450 Kbps
    Width                                    : 640 pixels
    Height                                   : 352 pixels
    Display aspect ratio                     : 16:9
    Frame rate mode                          : Variable
    Frame rate                               : 29.970 fps
    Color space                              : YUV
    Chroma subsampling                       : 4:2:0
    Bit depth                                : 8 bits
    Scan type                                : Progressive
    Bits/(Pixel*Frame)                       : 0.067
    Stream size                              : 187 MiB (76%)
    Writing library                          : x264 core 130 r2273 b3065e6
    Encoding settings                        : cabac=1 / ref=1 / deblock=1:0:0 / analyse=0x1:0x111 / me=hex / subme=2 / psy=1 / psy_rd=1.00:0.00 / mixed_ref=0 / me_range=16 / chroma_me=1 / trellis=0 / 8x8dct=0 / cqm=0 / deadzone=21,11 / fast_pskip=1 / chroma_qp_offset=0 / threads=1 / lookahead_threads=1 / sliced_threads=0 / nr=0 / decimate=1 / interlaced=0 / bluray_compat=0 / constrained_intra=0 / bframes=3 / b_pyramid=2 / b_adapt=1 / b_bias=0 / direct=1 / weightb=1 / open_gop=0 / weightp=1 / keyint=300 / keyint_min=30 / scenecut=40 / intra_refresh=0 / rc_lookahead=10 / rc=abr / mbtree=1 / bitrate=450 / ratetol=1.0 / qcomp=0.60 / qpmin=0 / qpmax=69 / qpstep=4 / vbv_maxrate=20000 / vbv_bufsize=25000 / nal_hrd=none / ip_ratio=1.40 / aq=1:1.00
    Language                                 : English
    Default                                  : Yes
    Forced                                   : No

    Audio
    ID                                       : 2
    Format                                   : MPEG Audio
    Format version                           : Version 1
    Format profile                           : Layer 3
    Mode                                     : Joint stereo
    Mode extension                           : MS Stereo
    Codec ID                                 : A_MPEG/L3
    Codec ID/Hint                            : MP3
    Duration                                 : 58mn 22s
    Bit rate mode                            : Constant
    Bit rate                                 : 128 Kbps
    Channel(s)                               : 2 channels
    Sampling rate                            : 48.0 KHz
    Compression mode                         : Lossy
    Stream size                              : 53.4 MiB (22%)



    0 0

    Original Post: Divorce Lawyer in Love (2015) HDTV Complete XVID LIMO

    http://thetvdb.com/?tab=series&id=293864&lid=7
    Details
    Title: 이혼변호사는 연애중 / Yihonbyunhosaneun Yeonaejoong
    Genre: Romance, comedy
    Episodes: 18
    Broadcast network: SBS
    Broadcast period: 2015-Apr-18 to 2015-Jun-14
    Air time: Saturday & Sunday 22:00
    Original Soundtrack: Divorce Lawyer in Love OST
    Synopsis
    Go Cheok Hee is a successful divorce lawyer who treated So Jung Woo terribly when he was her firm's office manager. The tables are turned when Cheok Hee loses her license and can no longer practice law and Jung Woo has become a successful lawyer. The two cross paths again when Cheok Hee becomes Jung Woo's office manager.

    Cast
    Jo Yeo Jung as Go Cheok Hee
    Lee Bit Na as young Go Cheok Hee
    Yun Woo Jin as So Jung Woo
    Shim Hyung Tak as Bong Min Kyu
    Wang Ji Won as Jo Soo Ah








    Code
    Video
    ID                                       : 0
    Format                                   : MPEG-4 Visual
    Format profile                           : Advanced Simple@L5
    Format settings, BVOP                    : No
    Format settings, QPel                    : No
    Format settings, GMC                     : No warppoints
    Format settings, Matrix                  : Default (MPEG)
    Codec ID                                 : XVID
    Codec ID/Hint                            : XviD
    Duration                                 : 1h 29mn
    Bit rate                                 : 1 388 Kbps
    Width                                    : 624 pixels
    Height                                   : 352 pixels
    Display aspect ratio                     : 16:9
    Frame rate                               : 29.970 fps
    Color space                              : YUV
    Chroma subsampling                       : 4:2:0
    Bit depth                                : 8 bits
    Scan type                                : Progressive
    Compression mode                         : Lossy
    Bits/(Pixel*Frame)                       : 0.211
    Stream size                              : 886 MiB (87%)
    Writing library                          : XviD 1.2.1 (UTC 2008-12-04)

    Audio
    ID                                       : 1
    Format                                   : MPEG Audio
    Format version                           : Version 1
    Format profile                           : Layer 3
    Mode                                     : Joint stereo
    Mode extension                           : MS Stereo
    Codec ID                                 : 55
    Codec ID/Hint                            : MP3
    Duration                                 : 1h 29mn
    Bit rate mode                            : Constant
    Bit rate                                 : 128 Kbps
    Channel(s)                               : 2 channels
    Sampling rate                            : 48.0 KHz
    Compression mode                         : Lossy
    Stream size                              : 81.7 MiB (8%)
    Alignment                                : Aligned on interleaves
    Writing library                          : LAME3.98.2



    0 0

    Original Post: Divorce Lawyer in Love (2015) HDTV Complete 720p LIMO

    http://thetvdb.com/?tab=series&id=293864&lid=7
    Details
    Title: 이혼변호사는 연애중 / Yihonbyunhosaneun Yeonaejoong
    Genre: Romance, comedy
    Episodes: 18
    Broadcast network: SBS
    Broadcast period: 2015-Apr-18 to 2015-Jun-14
    Air time: Saturday & Sunday 22:00
    Original Soundtrack: Divorce Lawyer in Love OST
    Synopsis
    Go Cheok Hee is a successful divorce lawyer who treated So Jung Woo terribly when he was her firm's office manager. The tables are turned when Cheok Hee loses her license and can no longer practice law and Jung Woo has become a successful lawyer. The two cross paths again when Cheok Hee becomes Jung Woo's office manager.

    Cast
    Jo Yeo Jung as Go Cheok Hee
    Lee Bit Na as young Go Cheok Hee
    Yun Woo Jin as So Jung Woo
    Shim Hyung Tak as Bong Min Kyu
    Wang Ji Won as Jo Soo Ah






    Code
    Video
    ID                             : 1
    Format                         : AVC
    Format/Info                    : Advanced Video Codec
    Format profile                 : High@L5.1
    Format settings, CABAC         : Yes
    Format settings, ReFrames      : 4 frames
    Codec ID                       : V_MPEG4/ISO/AVC
    Duration                       : 1h 24mn
    Bit rate                       : 887 Kbps
    Nominal bit rate               : 2 496 Kbps
    Width                          : 1 280 pixels
    Height                         : 720 pixels
    Display aspect ratio           : 16:9
    Frame rate mode                : Constant
    Frame rate                     : 29.970 fps
    Color space                    : YUV
    Chroma subsampling             : 4:2:0
    Bit depth                      : 8 bits
    Scan type                      : Progressive
    Bits/(Pixel*Frame)             : 0.032
    Stream size                    : 535 MiB (68%)
    Writing library                : x264 core 130 r2273 b3065e6
    Encoding settings              : cabac=1 / ref=3 / deblock=1:0:0 / analyse=0x3:0x113 / me=hex / subme=7 / psy=1 / psy_rd=1.00:0.00 / mixed_ref=1 / me_range=16 / chroma_me=1 / trellis=1 / 8x8dct=1 / cqm=0 / deadzone=21,11 / fast_pskip=1 / chroma_qp_offset=-2 / threads=1 / lookahead_threads=1 / sliced_threads=0 / nr=0 / decimate=1 / interlaced=0 / bluray_compat=0 / constrained_intra=0 / bframes=3 / b_pyramid=2 / b_adapt=1 / b_bias=0 / direct=1 / weightb=1 / open_gop=0 / weightp=2 / keyint=300 / keyint_min=29 / scenecut=40 / intra_refresh=0 / rc_lookahead=40 / rc=2pass / mbtree=1 / bitrate=2496 / ratetol=1.0 / qcomp=0.60 / qpmin=0 / qpmax=69 / qpstep=4 / cplxblur=20.0 / qblur=0.5 / vbv_maxrate=300000 / vbv_bufsize=300000 / nal_hrd=none / ip_ratio=1.40 / aq=1:1.00
    Default                        : Yes
    Forced                         : No

    Audio
    ID                             : 2
    Format                         : AC-3
    Format/Info                    : Audio Coding 3
    Mode extension                 : CM (complete main)
    Format settings, Endianness    : Big
    Codec ID                       : A_AC3
    Duration                       : 1h 24mn
    Bit rate mode                  : Constant
    Bit rate                       : 384 Kbps
    Channel(s)                     : 2 channels
    Channel positions              : Front: L R
    Sampling rate                  : 44.1 KHz
    Bit depth                      : 16 bits
    Compression mode               : Lossy
    Stream size                    : 232 MiB (30%)
    Language                       : Korean
    Default                        : Yes
    Forced                         : No



    0 0

    Original Post: Detectives of Seonam Girls High School 1080p HDTV x264 AC3-DoA



    Details
    Title: 선암여고 탐정단 / Sunamyeogo Tamjungdan
    Also known as: Seonam Girls High School Investigators / Sunam Girls High School Detective Team
    Genre: Youth, school, mystery, romance
    Episodes: 14
    Broadcast network: JTBC
    Broadcast period: 2014-Dec-16 to 2015-??
    Air time: Tuesday 23:00
    Subtitles will be added later

    Synopsis
    Seonam Girls High School Investigators (Hangul: 선암여고 탐정단; RR: Seonamyeogo Tamjungdan) is a South Korean television series based on the novel of the same title by Park Ha-ik.Starring Jin Ji-hee, Kang Min-ah, Lee Hyeri, Lee Min-ji, Stephanie Lee, and Kim Min-joon, it aired on jTBC from December 16, 2014 to March 17, 2015 for 14 episodes.

    The series notably featured the first onscreen lesbian kiss on South Korean television.A complaint was later filed with the Korea Communications Standards Commission, but civic groups such as LGBT awareness organization Rainbow Action against Sexual Minority Discrimination criticized that such deliberations should even take place

    Main characters
    Jin Ji-hee as Ahn Chae-yool, a super-smart transfer student who unwillingly joins the high school detective club
    Kang Min-ah as Yoon Mi-do, the leader of the detective club
    Lee Hyeri as Lee Ye-hee, a member of the detective club who wants to become an actress[
    Lee Min-ji as Kim Ha-jae, a member of the detective club who is an expert about computers
    Stephanie Lee as Choi Sung-yoon, a member of the detective club who is very tall and enjoys baking
    Kim Min-joon as Ha Yeon-joon, a wise teacher who may have a mysterious past
    Supporting characters
    People around Ahn Chae-yool
    Han Ye-joon as Ha Ra-ohn, Yeon-joon‘s nephew
    Lee Seung-yeon as Oh Yoo-jin, Chae-yool‘s mother
    Jang Ki-yong as Ahn Chae-joon, Chae-yool‘s older brother
    Choi Deok-moon as Ahn Hong-min, Chae-yool‘s father
    Students
    Jo Shi-yoon as Oh Hae-ni, president of class 1-3
    Han Ji-ahn as Nam Hyo-joo, school bully from class 1-3
    Heyne as Hong Dani, theater club senior member and Ye-hee‘s rival
    Kyung Ji-eun as Seo Yi-na, theater club senior and Dani‘s friend
    Jung Yeon-joo as Park Se-yoon, a senior student want to help find her rabbit doll
    Cheon Young-min as Jo Ah-ra, a student have trouble about her father bakery
    Kim So-hye as Han Soo-yeon, a senior class accused of porn video and lesbian
    Kang Sung-ah as Park Eun-bin, Soo-yeon‘s friend of lesbian kiss
    Han Seo-jin as Hwang Hye-ra, a senior class who commit fraud for the sake of justice.
    Lee Joo-woo as Choi Mi-rae, a ex-student who committed suicide
    Choi Joo-ri as Shim Yoon-kyung, Mi-rae‘s classmate
    Teachers
    Hwang Seok-jeong as Lee Yeo-joo, the principal of Seonam Girls‘ High School
    Kim Sung-yoon as Jung Dong-soo, homeroom teacher of Class 1-3
    Kim Hye-na as Shin Jang-mi, English language teacher
    Extended cast
    Lee Jung-hwan as Betting man
    Lee Jae-kyun as Choi Chang-hyun, Se-yoon‘s ex-boyfriend
    Kim Byung-choon as Bakery owner, Ah-ra‘s father
    Kim Jung-kyun as Mi-do‘s father
    Guillaume Patry as Chae-joon‘s friend
    Kang Joo-hee as MC
    Hwang Shin-jung as Ra-ohn‘s stepmother
    Bae Young-joon as Ra-ohn‘s manager
    Baek Bong-ki as Kyung Jang-hyun, MU Entertainment caretaker
    Kim Young-sun as Go Mi-ja, Chang-hyun‘s mother
    Lee Byung-wook as Han In-soo, doctor












    Code
    General
    Unique ID                                : 199644803263507989895087199950102196792 (0x963230C39A193CD9BAB468F6BC01F238)
    Complete name                            : /Seonam.Girls.High.School.Investigators.E01.HDTV.x264.1080p-DoA.mkv
    Format                                   : Matroska
    Format version                           : Version 4 / Version 2
    File size                                : 3.38 GiB
    Duration                                 : 1h 1mn
    Overall bit rate                         : 7 894 Kbps
    Movie name                               : 선암여고 탐정단. Encoded by Elanor.
    Encoded date                             : UTC 2015-06-13 01:30:46
    Writing application                      : mkvmerge v7.8.0 ('River Man') 64bit built on Mar 27 2015 16:31:37
    Writing library                          : libebml v1.3.1 + libmatroska v1.4.2
    DURATION                                 : 01:01:18.784000000
    NUMBER_OF_FRAMES                         : 114962
    NUMBER_OF_BYTES                          : 176581632
    _STATISTICS_WRITING_APP                  : mkvmerge v7.8.0 ('River Man') 64bit built on Mar 27 2015 16:31:37
    _STATISTICS_WRITING_DATE_UTC             : 2015-06-13 01:30:46
    _STATISTICS_TAGS                         : BPS DURATION NUMBER_OF_FRAMES NUMBER_OF_BYTES

    Video
    ID                                       : 1
    Format                                   : AVC
    Format/Info                              : Advanced Video Codec
    Format profile                           : High@L4.1
    Format settings, CABAC                   : Yes
    Format settings, ReFrames                : 4 frames
    Codec ID                                 : V_MPEG4/ISO/AVC
    Duration                                 : 1h 1mn
    Bit rate                                 : 7 353 Kbps
    Width                                    : 1 912 pixels
    Height                                   : 1 072 pixels
    Display aspect ratio                     : 16:9
    Frame rate                               : 29.970 fps
    Color space                              : YUV
    Chroma subsampling                       : 4:2:0
    Bit depth                                : 8 bits
    Scan type                                : Progressive
    Bits/(Pixel*Frame)                       : 0.120
    Stream size                              : 3.15 GiB (93%)
    Writing library                          : x264 core 144 r2525 40bb568
    Encoding settings                        : cabac=1 / ref=4 / deblock=1:-2:-2 / analyse=0x3:0x133 / me=umh / subme=10 / psy=1 / psy_rd=1.00:0.15 / mixed_ref=1 / me_range=24 / chroma_me=1 / trellis=2 / 8x8dct=1 / cqm=0 / deadzone=21,11 / fast_pskip=1 / chroma_qp_offset=-5 / threads=12 / lookahead_threads=2 / sliced_threads=0 / nr=0 / decimate=1 / interlaced=0 / bluray_compat=0 / constrained_intra=0 / bframes=8 / b_pyramid=2 / b_adapt=2 / b_bias=0 / direct=3 / weightb=1 / open_gop=0 / weightp=2 / keyint=288 / keyint_min=27 / scenecut=40 / intra_refresh=0 / rc_lookahead=60 / rc=crf / mbtree=1 / crf=18.0 / qcomp=0.60 / qpmin=0 / qpmax=69 / qpstep=4 / ip_ratio=1.40 / aq=1:1.00
    Default                                  : Yes
    Forced                                   : No

    Audio
    ID                                       : 2
    Format                                   : AC-3
    Format/Info                              : Audio Coding 3
    Mode extension                           : CM (complete main)
    Format settings, Endianness              : Big
    Codec ID                                 : A_AC3
    Duration                                 : 1h 1mn
    Bit rate mode                            : Constant
    Bit rate                                 : 384 Kbps
    Channel(s)                               : 6 channels
    Channel positions                        : Front: L C R, Side: L R, LFE
    Sampling rate                            : 48.0 KHz
    Bit depth                                : 16 bits
    Compression mode                         : Lossy
    Stream size                              : 168 MiB (5%)
    Default                                  : Yes
    Forced                                   : No




older | 1 | .... | 1370 | 1371 | (Page 1372) | 1373 | 1374 | .... | 1405 | newer