Are you the publisher? Claim or contact us about this channel


Embed this content in your HTML

Search

Report adult content:

click to rate:

Account: (login)

More Channels


Showcase


Channel Catalog


Channel Description:

Asia Torrents RSS Feed

older | 1 | .... | 1371 | 1372 | (Page 1373) | 1374 | 1375 | .... | 1405 | newer

    0 0

    Original Post: Kikujiro (1999) DVDrip x264 AC3



    Title: Kikujiro
    AKA: Kikujirou no natsu, Kikujiro's Summer
    Original: 菊次郎の夏
    Director: Takeshi Kitano
    Release Date: 5 June 1999
    Runtime: 121 min.
    Genre: Comedy, Drama
    Language: Japanese
    Country: Japan
    Subtitles: English
    Source: DVD9 uploaded by WPW to ADC
    IMDB URL: http://www.imdb.com/title/tt0199683

    Cast: Takeshi Kitano, Yusuke Sekiguchi, Kayoko Kishimoto, The Great Gidayû, Rakkyo Ide, Akaji Maro

    Synopsis: Set in the haze of the summer holidays, Kikujiro stars Yusuke Sekiguchi as Masao, a forlorn, introverted nine year old who, having lived with his Grandmother for as long as he can remember, becomes increasingly curious about his absent parents. [...] So as his friends depart Tokyo for their family holidays, Masao decides to make his way, on his own, to find his mother. But unfortunately he’s barely out of the neighbourhood before he runs into trouble. Confronted by a group of local bullies, Masao only manages to escape thanks to the intervention of his former neighbour, the wife of Kikujiro. Understandably, she’s concerned about Masao’s plans, but instead of taking him back to his Grandmother as you might expect, she enlists the services of her rude, brash and generally no good husband, to escort the young lad across the country.














    Spoiler:show




    Mediainfo :
    Format                                   : Matroska
    Format version                           : Version 2
    File size                                : 2.01 GiB
    Duration                                 : 2h 2mn
    Overall bit rate                         : 2 361 Kbps
    Writing application                      : HandBrake 0.10.1 2015030800
    Writing library                          : Lavf55.12.0

    Video
    ID                                       : 1
    Format                                   : AVC
    Format/Info                              : Advanced Video Codec
    Format profile                           : High@L3.2
    Format settings, CABAC                   : Yes
    Format settings, ReFrames                : 16 frames
    Codec ID                                 : V_MPEG4/ISO/AVC
    Duration                                 : 2h 2mn
    Bit rate                                 : 1 866 Kbps
    Width                                    : 720 pixels
    Height                                   : 404 pixels
    Display aspect ratio                     : 16:9
    Frame rate mode                          : Constant
    Frame rate                               : 23.976 fps
    Color space                              : YUV
    Chroma subsampling                       : 4:2:0
    Bit depth                                : 8 bits
    Scan type                                : Progressive
    Bits/(Pixel*Frame)                       : 0.268
    Stream size                              : 1.59 GiB (79%)
    Writing library                          : x264 core 142 r2479 dd79a61
    Encoding settings                        : cabac=1 / ref=16 / deblock=1:0:0 / analyse=0x3:0x133 / me=umh / subme=10 / psy=1 / psy_rd=1.00:0.00 / mixed_ref=1 / me_range=24 / chroma_me=1 / trellis=2 / 8x8dct=1 / cqm=0 / deadzone=21,11 / fast_pskip=1 / chroma_qp_offset=-2 / threads=6 / lookahead_threads=1 / sliced_threads=0 / nr=0 / decimate=1 / interlaced=0 / bluray_compat=0 / constrained_intra=0 / bframes=8 / b_pyramid=2 / b_adapt=2 / b_bias=0 / direct=3 / weightb=1 / open_gop=0 / weightp=2 / keyint=240 / keyint_min=24 / scenecut=40 / intra_refresh=0 / rc_lookahead=60 / rc=crf / mbtree=1 / crf=16.0 / qcomp=0.60 / qpmin=0 / qpmax=69 / qpstep=4 / ip_ratio=1.40 / aq=1:1.00
    Default                                  : Yes
    Forced                                   : No
    Color primaries                          : BT.601 NTSC
    Transfer characteristics                 : BT.709
    Matrix coefficients                      : BT.601
    Color range                              : Limited

    Audio
    ID                                       : 2
    Format                                   : AC-3
    Format/Info                              : Audio Coding 3
    Format profile                           : Dolby Digital
    Mode extension                           : CM (complete main)
    Format settings, Endianness              : Big
    Codec ID                                 : A_AC3
    Duration                                 : 2h 2mn
    Bit rate mode                            : Constant
    Bit rate                                 : 448 Kbps
    Channel(s)                               : 2 channels
    Channel positions                        : Front: L R
    Sampling rate                            : 48.0 KHz
    Bit depth                                : 16 bits
    Compression mode                         : Lossy
    Stream size                              : 391 MiB (19%)
    Title                                    : Stereo
    Language                                 : Japanese
    Default                                  : Yes
    Forced                                   : No



    0 0

    Original Post: Frog River (2002) DVDrip x264 AC3



    Title: Frog River
    AKA: Furoggu ribaa
    Original: フロッグリバー
    Director: Hajime Ishimine
    Release Date: 4 December 2002
    Runtime: 86 min.
    Genre: Comedy, Drama
    Language: Japanese
    Country: Japan
    Subtitles: English
    Source: DVD5 uploaded by Shou84 to ADC
    IMDB URL: http://www.imdb.com/title/tt0784141

    Written by Katsuhito Ishii (The Taste of Tea, Funky Forest)

    Cast: Ryô Kase, Ichirô Ogura, Machiko Ono, Kenichi Yamamoto

    Synopsis: Record shop clerk and aspiring DJ Tsutomu searches for his masculinity when challenged to a kendo duel.
















    Mediainfo :
    Format                                   : Matroska
    Format version                           : Version 2
    File size                                : 1.40 GiB
    Duration                                 : 1h 26mn
    Overall bit rate                         : 2 335 Kbps
    Writing application                      : HandBrake 0.10.1 2015030800
    Writing library                          : Lavf55.12.0

    Video
    ID                                       : 1
    Format                                   : AVC
    Format/Info                              : Advanced Video Codec
    Format profile                           : High@L3.1
    Format settings, CABAC                   : Yes
    Format settings, ReFrames                : 16 frames
    Codec ID                                 : V_MPEG4/ISO/AVC
    Duration                                 : 1h 26mn
    Bit rate                                 : 2 097 Kbps
    Width                                    : 720 pixels
    Height                                   : 398 pixels
    Display aspect ratio                     : 16:9
    Frame rate mode                          : Constant
    Frame rate                               : 29.970 fps
    Color space                              : YUV
    Chroma subsampling                       : 4:2:0
    Bit depth                                : 8 bits
    Scan type                                : Progressive
    Bits/(Pixel*Frame)                       : 0.244
    Stream size                              : 1.26 GiB (90%)
    Writing library                          : x264 core 142 r2479 dd79a61
    Encoding settings                        : cabac=1 / ref=16 / deblock=1:-1:-1 / analyse=0x3:0x133 / me=umh / subme=10 / psy=1 / psy_rd=1.00:0.15 / mixed_ref=1 / me_range=24 / chroma_me=1 / trellis=2 / 8x8dct=1 / cqm=0 / deadzone=21,11 / fast_pskip=1 / chroma_qp_offset=-3 / threads=6 / lookahead_threads=1 / sliced_threads=0 / nr=0 / decimate=1 / interlaced=0 / bluray_compat=0 / constrained_intra=0 / bframes=8 / b_pyramid=2 / b_adapt=2 / b_bias=0 / direct=3 / weightb=1 / open_gop=0 / weightp=2 / keyint=300 / keyint_min=30 / scenecut=40 / intra_refresh=0 / rc_lookahead=60 / rc=crf / mbtree=1 / crf=15.0 / qcomp=0.60 / qpmin=0 / qpmax=69 / qpstep=4 / ip_ratio=1.40 / aq=1:1.00
    Default                                  : Yes
    Forced                                   : No
    Color primaries                          : BT.601 NTSC
    Transfer characteristics                 : BT.709
    Matrix coefficients                      : BT.601
    Color range                              : Limited

    Audio
    ID                                       : 2
    Format                                   : AC-3
    Format/Info                              : Audio Coding 3
    Mode extension                           : CM (complete main)
    Format settings, Endianness              : Big
    Codec ID                                 : A_AC3
    Duration                                 : 1h 26mn
    Bit rate mode                            : Constant
    Bit rate                                 : 192 Kbps
    Channel(s)                               : 2 channels
    Channel positions                        : Front: L R
    Sampling rate                            : 48.0 KHz
    Bit depth                                : 16 bits
    Compression mode                         : Lossy
    Stream size                              : 118 MiB (8%)
    Title                                    : Stereo
    Language                                 : Japanese
    Default                                  : Yes
    Forced                                   : No



    0 0

    Original Post: Shark Skin Man and Peach Hip Girl (1999) DVDrip x264 AC3



    Title: Shark Skin Man and Peach Hip Girl
    AKA: Samehada otoko to momojiri onna
    Original: 鮫肌男と桃尻女
    Director: Katsuhito Ishii
    Release Date: 6 February 1999
    Runtime: 108 min.
    Genre: Comedy, Crime, Action
    Language: Japanese
    Country: Japan
    Subtitles: English
    Source: DVD9 uploaded by WPW to ADC
    IMDB URL: http://www.imdb.com/title/tt0169222

    Cast:  Tadanobu Asano, Shingo Tsurumi, Ittoku Kishibe, Sie Kohinata, Kimie Shingyôji, Susumu Terajima

    Synopsis:Bankrobber Samehada tries to cheat money out of his mob. On the run he's rescued by Toshiko, a timid hotel clerk who is also running way - from her lecherous uncle. Heavily armed, the outrageously well-dressed mobsters close in on Samehada, not realising that the uncle has contracted a kidnapper to apprehend Toshiko.


















    Mediainfo :
    Format                                   : Matroska
    Format version                           : Version 2
    File size                                : 1.79 GiB
    Duration                                 : 1h 48mn
    Overall bit rate                         : 2 358 Kbps
    Writing application                      : HandBrake 0.10.1 2015030800
    Writing library                          : Lavf55.12.0

    Video
    ID                                       : 1
    Format                                   : AVC
    Format/Info                              : Advanced Video Codec
    Format profile                           : High@L3.2
    Format settings, CABAC                   : Yes
    Format settings, ReFrames                : 16 frames
    Codec ID                                 : V_MPEG4/ISO/AVC
    Duration                                 : 1h 48mn
    Bit rate                                 : 1 927 Kbps
    Width                                    : 720 pixels
    Height                                   : 402 pixels
    Display aspect ratio                     : 16:9
    Frame rate mode                          : Constant
    Frame rate                               : 23.976 fps
    Color space                              : YUV
    Chroma subsampling                       : 4:2:0
    Bit depth                                : 8 bits
    Scan type                                : Progressive
    Bits/(Pixel*Frame)                       : 0.278
    Stream size                              : 1.46 GiB (82%)
    Writing library                          : x264 core 142 r2479 dd79a61
    Encoding settings                        : cabac=1 / ref=16 / deblock=1:0:0 / analyse=0x3:0x133 / me=umh / subme=10 / psy=1 / psy_rd=1.00:0.00 / mixed_ref=1 / me_range=24 / chroma_me=1 / trellis=2 / 8x8dct=1 / cqm=0 / deadzone=21,11 / fast_pskip=1 / chroma_qp_offset=-2 / threads=6 / lookahead_threads=1 / sliced_threads=0 / nr=0 / decimate=1 / interlaced=0 / bluray_compat=0 / constrained_intra=0 / bframes=8 / b_pyramid=2 / b_adapt=2 / b_bias=0 / direct=3 / weightb=1 / open_gop=0 / weightp=2 / keyint=240 / keyint_min=24 / scenecut=40 / intra_refresh=0 / rc_lookahead=60 / rc=crf / mbtree=1 / crf=15.0 / qcomp=0.60 / qpmin=0 / qpmax=69 / qpstep=4 / ip_ratio=1.40 / aq=1:1.00
    Default                                  : Yes
    Forced                                   : No
    Color primaries                          : BT.601 NTSC
    Transfer characteristics                 : BT.709
    Matrix coefficients                      : BT.601
    Color range                              : Limited

    Audio
    ID                                       : 2
    Format                                   : AC-3
    Format/Info                              : Audio Coding 3
    Mode extension                           : CM (complete main)
    Format settings, Endianness              : Big
    Codec ID                                 : A_AC3
    Duration                                 : 1h 48mn
    Bit rate mode                            : Constant
    Bit rate                                 : 384 Kbps
    Channel(s)                               : 6 channels
    Channel positions                        : Front: L C R, Side: L R, LFE
    Sampling rate                            : 48.0 KHz
    Bit depth                                : 16 bits
    Compression mode                         : Lossy
    Stream size                              : 299 MiB (16%)
    Title                                    : Surround
    Language                                 : Japanese
    Default                                  : Yes
    Forced                                   : No



    0 0

    Original Post: Saigo no Shonin SP 2015 720p HDTV AVC AAC



    Title : 最後の証人
    Format: Tanpatsu
    Genre: Mystery
    Episodes: 1
    Network: TV Asahi
    Release Date: 2015-Jan-24
    Air time: 9.00 p.m
    Language: Japanese
    Subtitles: None

    Synopsis
    Sakata Sadato (Kamikawa Takaya), who has his law practice in Tokyo, was a public prosecutor until 12 years ago. He resigned from his job at the District Public Prosecutors’ Office in order to carry out his own “justice”. His justice is to “let crimes be judged properly”. He specialises in criminal cases and has a reputation as a man of ability. One day, Sakata accepts a sudden and unexpected request, and sets foot in Yonezaki for the first time in many years with rookie lawyer, Kosaka Chihiro (Kurashina Kana). The person Sakata has been asked to defend is Shimazu Kuniaki (Osugi Ren), who was arrested and charged with a murder that occurred at a Yonezaki hotel. The start of the public hearing is the next day. Shimazu has extensive business in Yonezaki including a construction company, and is an influential man in the area. The victim is Hamada Mitsuko (Konno Mahiru), a woman whom he was rumoured to be having an affair with. All evidence including the fingerprints, bloodstains and security camera footage indicate that Shimazu is the criminal. He considered their relationship fooling around. Everyone believes Mitsuko pressed Shimazu to marry and that he stabbed her to death during a quarrel. However, Shimazu declares his innocence at a meeting with Sakata and Chihiro. He seems to have been searching for a capable lawyer and arrived at Sakata after indignantly dismissing his previous lawyer for wanting him to plead mitigating circumstances because that is unassailable. Chihiro assesses the case as a completely hopeless one, but Sakata has an intuition that something is being hidden behind the case and readily agrees to defend him. In truth, Yonezaki was once the district where Sakata worked as a public prosecutor and is also the place where the case that led to his resignation occurred. His superior at that time, Tsutsui Yoshio (Ibu Masato), has now been promoted to head of the Trial Division. The person in charge of this trial is Sakata’s peer, the ace public prosecutor Shouji Mao (Matsushita Yuki). The trial begins the next day. Mao reveals Mitsuko’s divorce with her husband, the general practitioner Watase Koji (Ishiguro Ken) after being immersed in the affair with Shimazu and skillfully corners the defence. She advices Sakata that it would be prudent for him to alter his tactics to seek a reduced sentence instead of recklessly insisting upon Shimazu’s innocence. Meanwhile, Sakata learns that Mitsuko’s son, an elementary school student, died in an accident seven years ago. He begins to reconsider the victim’s past in order to get through to the truth. However, there is no change in the situation which is not in his favour. Then, at the closing argument, the “last witness”, whom Sakata had summoned, takes the stand at last and an astonishing truth emerges … ..

    Cast
    Kamikawa Takaya, Matsushita Yuki, Kurashina Kana, Ishiguro Ken, Konno Mahiru, Hirata Mitsuru, Osugi Ren, Ibu Masato







    Code
    Format                                   : MPEG-4
    Format profile                           : Base Media / Version 2
    Codec ID                                 : mp42
    File size                                : 2.04 GiB
    Duration                                 : 1h 45mn
    Overall bit rate mode                    : Variable
    Overall bit rate                         : 2 768 Kbps
    Writing application                      : TMPGEnc MPEG Smart Renderer 4 Version 4.1.5.60

    Video
    ID                                       : 1
    Format                                   : AVC
    Format/Info                              : Advanced Video Codec
    Format profile                           : High@L4.1
    Format settings, CABAC                   : Yes
    Format settings, ReFrames                : 4 frames
    Codec ID                                 : avc1
    Codec ID/Info                            : Advanced Video Coding
    Duration                                 : 1h 45mn
    Bit rate mode                            : Variable
    Bit rate                                 : 2 632 Kbps
    Width                                    : 1 280 pixels
    Height                                   : 720 pixels
    Display aspect ratio                     : 16:9
    Frame rate mode                          : Constant
    Frame rate                               : 29.970 fps
    Standard                                 : Component
    Color space                              : YUV
    Chroma subsampling                       : 4:2:0
    Bit depth                                : 8 bits
    Scan type                                : Progressive
    Bits/(Pixel*Frame)                       : 0.095
    Stream size                              : 1.94 GiB (95%)
    Color primaries                          : BT.709
    Transfer characteristics                 : BT.709
    Matrix coefficients                      : BT.709

    Audio
    ID                                       : 2
    Format                                   : AAC
    Format/Info                              : Advanced Audio Codec
    Format profile                           : LC
    Codec ID                                 : 40
    Duration                                 : 1h 45mn
    Bit rate mode                            : Variable
    Bit rate                                 : 132 Kbps
    Maximum bit rate                         : 576 Kbps
    Channel(s)                               : 2 channels
    Channel positions                        : Front: L R
    Sampling rate                            : 48.0 KHz
    Compression mode                         : Lossy
    Delay relative to video                  : 67ms
    Stream size                              : 99.2 MiB (5%)

    Text
    ID                                       : 3
    Format                                   : Timed text
    Codec ID                                 : tx3g
    Duration                                 : 1h 45mn
    Bit rate mode                            : Constant
    Bit rate                                 : 0 bps
    Delay relative to video                  : 67ms
    Stream size                              : 14.0 Bytes (0%)
    Language                                 : English



    0 0

    Original Post: The Woman Knight Of Mirror Lake (2012) 1080p-AVC-DTS




    The Woman Knight Of Mirror Lake
    Revised romanization: Jing Xiong Nu Xia Qiu Jin
    Hangul: 竞雄女侠·秋瑾
    Director: Herman Yau
    Release Date: October 13, 2011
    Runtime: 1h 54m
    Genre: Historical, Drama
    Language: Mandarin, German
    Country: China, Hong Kong
    Subtitles: No subs
    IMDB URL:http://www.imdb.com/title/tt1993428/

    Cast:
    Yi Huang
    Yu-Hang To
    Anthony Wong Chau-Sang
    Kevin Cheng
    Rose Chan
    Pat Ha
    Xin Xin Xiong
    Suet Lam
    Siu-Ming Lau
    Tien You Chui
    You-Nam Wong

    Synopsis:
    The film tells the story of Qiu Jin and her involvement in revolutionary uprisings against the Qing Dynasty in Anhui province. Influences on her life are shown through a series of flashbacks. As a child, Qiu Jin resisted having her feet bound according to common practice, and instead pursued her interests to learn horse riding, martial arts and literature with her father and brother. Through her poetry, she expresses the her sorrow at the weak state of the nation and the repression of women. Finding other like minded women in Beijing and then travelling to Japan to study reinforces her view that nationalist action is required to reform China.
    Returning to China, Qiu Jin takes the position as Xu Xilin's lieutenant, assisting with the training of revolutionaries at the Datong school and plotting the revolution. Xu Xilin is later captured while executing the assassination of the governor, and Qiu Jin is captured when government forces storm the Datong school. Qiu Jin is tortured in an attempt to reveal other conspirators and she is later executed.









    Media Info:

    General
    Complete name                            : The Woman Knight Of Mirror Lake (2012) 1080p-AVC-DTS.mkv
    Format                                   : Matroska
    File size                                : 23.6 GiB
    Duration                                 : 1h 54mn
    Overall bit rate mode                    : Variable
    Overall bit rate                         : 29.5 Mbps

    Video
    Format                                   : AVC
    Format/Info                              : Advanced Video Codec
    Format profile                           : High@L4.1
    Format settings, CABAC                   : Yes
    Format settings, ReFrames                : 4 frames
    Format settings, GOP                     : M=3, N=24
    Codec ID                                 : V_MPEG4/ISO/AVC
    Duration                                 : 1h 54mn
    Bit rate mode                            : Variable
    Maximum bit rate                         : 30.0 Mbps
    Width                                    : 1 920 pixels
    Height                                   : 1 080 pixels
    Display aspect ratio                     : 16:9
    Frame rate mode                          : Constant
    Frame rate                               : 23.976 fps
    Standard                                 : NTSC
    Color space                              : YUV
    Chroma subsampling                       : 4:2:0
    Bit depth                                : 8 bits
    Scan type                                : Progressive
    Language                                 : English
    Default                                  : Yes
    Color primaries                          : BT.709
    Transfer characteristics                 : BT.709
    Matrix coefficients                      : BT.709

    Audio #1
    ID                                       : 2
    Format                                   : DTS
    Format/Info                              : Digital Theater Systems
    Format profile                           : MA / Core
    Mode                                     : 16
    Format settings, Endianness              : Big
    Codec ID                                 : A_DTS
    Duration                                 : 1h 54mn
    Bit rate mode                            : Variable
    Bit rate                                 : Unknown / 1 509 Kbps
    Channel(s)                               : 6 channels
    Channel positions                        : Front: L C R, Side: L R, LFE
    Sampling rate                            : 48.0 KHz
    Bit depth                                : 16 bits
    Compression mode                         : Lossless / Lossy
    Title                                    : Lossless
    Language                                 : German

    Audio #2
    ID                                       : 3
    Format                                   : DTS
    Format/Info                              : Digital Theater Systems
    Mode                                     : 16
    Format settings, Endianness              : Big
    Codec ID                                 : A_DTS
    Duration                                 : 1h 54mn
    Bit rate mode                            : Constant
    Bit rate                                 : 1 509 Kbps
    Channel(s)                               : 6 channels
    Channel positions                        : Front: L C R, Side: L R, LFE
    Sampling rate                            : 48.0 KHz
    Bit depth                                : 16 bits
    Compression mode                         : Lossy
    Stream size                              : 1.21 GiB (5%)
    Title                                    : 3/2+1
    Language                                 : German

    Audio #3
    ID                                       : 4
    Format                                   : DTS
    Format/Info                              : Digital Theater Systems
    Format profile                           : MA / Core
    Mode                                     : 16
    Format settings, Endianness              : Big
    Codec ID                                 : A_DTS
    Duration                                 : 1h 54mn
    Bit rate mode                            : Variable
    Bit rate                                 : Unknown / 1 509 Kbps
    Channel(s)                               : 6 channels
    Channel positions                        : Front: L C R, Side: L R, LFE
    Sampling rate                            : 48.0 KHz
    Bit depth                                : 16 bits
    Compression mode                         : Lossless / Lossy
    Title                                    : Lossless
    Language                                 : Chinese

    Audio #4
    ID                                       : 5
    Format                                   : DTS
    Format/Info                              : Digital Theater Systems
    Mode                                     : 16
    Format settings, Endianness              : Big
    Codec ID                                 : A_DTS
    Duration                                 : 1h 54mn
    Bit rate mode                            : Constant
    Bit rate                                 : 1 509 Kbps
    Channel(s)                               : 6 channels
    Channel positions                        : Front: L C R, Side: L R, LFE
    Sampling rate                            : 48.0 KHz
    Bit depth                                : 16 bits
    Compression mode                         : Lossy
    Stream size                              : 1.21 GiB (5%)
    Title                                    : 3/2+1
    Language                                 : Chinese




    0 0

    Original Post: Dr. Rintaro EP09 720p HDTV x264 AAC DoA

    Title (romaji): Dr. Rintaro
    Format: Renzoku
    Genre: Medical
    Episodes: TBD
    Broadcast network: NTV
    Broadcast period: 2015-Apr-15 start
    Air time: Wednesday 22:00
    Subtitles: English - torachan2006
    RAW credit to DoA


    Cast

       Sakai Masato as Hino Rintaro
       Aoi Yu as Yumeno
       Kichise Michiko as Mizushima Yuriko
       Uchida Yuki as Kiryuu Kaoru
       Takanashi Rin as Kawakami Yoko
       Takahashi Issei as Fukuhara Daisaku
       Matobu Sei as Yabe Machiko
       Nakanishi Miho (中西美帆) as Koyume
       Yo Kimiko as Masuda Ikumi
       Endo Kenichi as Araki Shigeto
       Sakai Wakana as Nakahata Madoka
       Nagatsuka Keishi (長塚圭史) as Miyagawa Takahiro
       Matsushige Yutaka as Hasumi Eisuke
       Ishibashi Renji as Ike Masayuki
       Takahata Atsuko as Aizawa Ruriko
       Kohinata Fumiyo as Ennouji Kazuo


    Synopsis

    His name is Hino Rintaro. He listens closely to the aching hearts of people and relieves them of their pain. He is published and makes television appearances. The number of people waiting to receive his consultation continues to grow. Despite his achievements, Dr. Rintaro falls short in one department: love. He even dismisses it by saying “Falling in love is just like a passing mental illness.” One day, during a meal with the president of the university, Rintaro meets a woman. Her name is Yumeno, a highly sought-after geisha in Shimbashi. Little did Rintaro know that this encounter would drastically change his life. -- NTV


    Mediainfo
    Spoiler:show

    Code
    Format                                   : Matroska
    Format version                           : Version 4 / Version 2
    File size                                : 627 MiB
    Duration                                 : 50mn 49s
    Overall bit rate                         : 1 725 Kbps
    Encoded date                             : UTC 2015-06-13 06:14:58
    Writing application                      : mkvmerge v7.6.0 ('Garden of Dreams') 64bit built on Feb  8 2015 13:04:34
    Writing library                          : libebml v1.3.1 + libmatroska v1.4.2
    DURATION                                 : 00:50:49.941000000
    NUMBER_OF_FRAMES                         : 142966
    NUMBER_OF_BYTES                          : 71911898
    _STATISTICS_WRITING_APP                  : mkvmerge v7.6.0 ('Garden of Dreams') 64bit built on Feb  8 2015 13:04:34
    _STATISTICS_WRITING_DATE_UTC             : 2015-06-13 06:14:58
    _STATISTICS_TAGS                         : BPS DURATION NUMBER_OF_FRAMES NUMBER_OF_BYTES

    Video
    ID                                       : 1
    Format                                   : AVC
    Format/Info                              : Advanced Video Codec
    Format profile                           : High@L4.1
    Format settings, CABAC                   : Yes
    Format settings, ReFrames                : 9 frames
    Codec ID                                 : V_MPEG4/ISO/AVC
    Duration                                 : 50mn 49s
    Width                                    : 1 280 pixels
    Height                                   : 720 pixels
    Display aspect ratio                     : 16:9
    Frame rate mode                          : Constant
    Frame rate                               : 29.970 fps
    Color space                              : YUV
    Chroma subsampling                       : 4:2:0
    Bit depth                                : 8 bits
    Scan type                                : Progressive
    Title                                    : DoA encoder
    Writing library                          : x264 core 146 r2538 121396c
    Encoding settings                        : cabac=1 / ref=9 / deblock=1:-2:-2 / analyse=0x3:0x133 / me=umh / subme=10 / psy=1 / psy_rd=1.00:0.15 / mixed_ref=1 / me_range=48 / chroma_me=1 / trellis=2 / 8x8dct=1 / cqm=0 / deadzone=21,11 / fast_pskip=0 / chroma_qp_offset=-3 / threads=12 / lookahead_threads=2 / sliced_threads=0 / nr=0 / decimate=1 / interlaced=0 / bluray_compat=0 / constrained_intra=0 / bframes=8 / b_pyramid=2 / b_adapt=2 / b_bias=0 / direct=3 / weightb=1 / open_gop=0 / weightp=2 / keyint=300 / keyint_min=29 / scenecut=40 / intra_refresh=0 / rc_lookahead=60 / rc=crf / mbtree=1 / crf=18.0 / qcomp=0.60 / qpmin=0 / qpmax=69 / qpstep=4 / ip_ratio=1.40 / aq=1:1.00
    Language                                 : English
    Default                                  : Yes
    Forced                                   : No
    DURATION                                 : 00:50:49.913000000
    NUMBER_OF_FRAMES                         : 91406
    NUMBER_OF_BYTES                          : 584590085
    _STATISTICS_WRITING_APP                  : mkvmerge v7.6.0 ('Garden of Dreams') 64bit built on Feb  8 2015 13:04:34
    _STATISTICS_WRITING_DATE_UTC             : 2015-06-13 06:14:58
    _STATISTICS_TAGS                         : BPS DURATION NUMBER_OF_FRAMES NUMBER_OF_BYTES

    Audio
    ID                                       : 2
    Format                                   : AAC
    Format/Info                              : Advanced Audio Codec
    Format profile                           : LC
    Codec ID                                 : A_AAC
    Duration                                 : 50mn 49s
    Channel(s)                               : 2 channels
    Channel positions                        : Front: L R
    Sampling rate                            : 48.0 KHz
    Compression mode                         : Lossy
    Default                                  : Yes
    Forced                                   : No








    0 0

    Original Post: Orange SP 2015 720p HDTV x264 AAC Chinese Hardsubbed



    Title :  1.17 命懸けで闘った消防士の魂の物語
    Format: Tanpatsu
    Genre: Drama, Occupational
    Episodes: 1
    Network: TV Asahi
    Release Date: 2015-Jan-19
    Air time: 9.00 p.m
    Language: Japanese
    Subtitles: Chinese Hardsub

    Synopsis
    story tribute to firefighter during Great Hanshin earthquake. more than 100 firefighters fought in the life of the forefront.

    Cast
    Kohinata Yuji: Kamikawa Takaya
    Takashi Yamakura: Kudo Abe Suga
    Kimura Yuko: Tanimura Mizuki
    Yukimura Hana: Sayaka Akimoto
        ○
    Kohinata Natsuki: Itaya Yuka
    Yamakura Aki: Eiko Koike
    Katsuhiko Narasaki: Otoo Takuma
        ○
    Kaori Ito: Mitsuko Baisho
    Sakurai Yuji : Sugimoto Tetta







    Code
    Format                                   : MPEG-4
    Format profile                           : Base Media
    Codec ID                                 : isom
    File size                                : 1.29 GiB
    Duration                                 : 1h 49mn
    Overall bit rate                         : 1 687 Kbps
    Encoded date                             : UTC 2015-04-03 13:27:51
    Tagged date                              : UTC 2015-04-03 13:27:51

    Video
    ID                                       : 1
    Format                                   : AVC
    Format/Info                              : Advanced Video Codec
    Format profile                           : High@L4.1
    Format settings, CABAC                   : Yes
    Format settings, ReFrames                : 3 frames
    Codec ID                                 : avc1
    Codec ID/Info                            : Advanced Video Coding
    Duration                                 : 1h 49mn
    Source duration                          : 1mn 42s
    Bit rate                                 : 1 300 Kbps
    Maximum bit rate                         : 7 263 Kbps
    Width                                    : 1 280 pixels
    Height                                   : 720 pixels
    Display aspect ratio                     : 16:9
    Frame rate mode                          : Constant
    Frame rate                               : 29.970 fps
    Color space                              : YUV
    Chroma subsampling                       : 4:2:0
    Bit depth                                : 8 bits
    Scan type                                : Progressive
    Bits/(Pixel*Frame)                       : 0.047
    Stream size                              : 1 014 MiB (77%)
    Source stream size                       : 1 014 MiB (77%)
    Writing library                          : x264 core 120 r2164 da19765
    Encoding settings                        : cabac=1 / ref=3 / deblock=1:0:0 / analyse=0x3:0x113 / me=umh / subme=7 / psy=1 / psy_rd=1.00:0.00 / mixed_ref=1 / me_range=16 / chroma_me=1 / trellis=2 / 8x8dct=1 / cqm=0 / deadzone=21,11 / fast_pskip=1 / chroma_qp_offset=-2 / threads=12 / sliced_threads=0 / nr=0 / decimate=1 / interlaced=0 / bluray_compat=0 / constrained_intra=0 / bframes=3 / b_pyramid=0 / b_adapt=2 / b_bias=0 / direct=3 / weightb=1 / open_gop=0 / weightp=2 / keyint=300 / keyint_min=29 / scenecut=40 / intra_refresh=0 / rc_lookahead=40 / rc=2pass / mbtree=1 / bitrate=1300 / ratetol=1.0 / qcomp=0.60 / qpmin=0 / qpmax=69 / qpstep=4 / cplxblur=20.0 / qblur=0.5 / vbv_maxrate=17500 / vbv_bufsize=14000 / nal_hrd=none / ip_ratio=1.40 / aq=1:1.00
    Encoded date                             : UTC 2015-04-03 13:27:51
    Tagged date                              : UTC 2015-04-03 13:28:14
    mdhd_Duration                            : 6545078

    Audio
    ID                                       : 2
    Format                                   : AC-3
    Format/Info                              : Audio Coding 3
    Mode extension                           : CM (complete main)
    Format settings, Endianness              : Big
    Codec ID                                 : ac-3
    Duration                                 : 1h 49mn
    Bit rate mode                            : Constant
    Bit rate                                 : 384 Kbps
    Channel(s)                               : 2 channels
    Channel positions                        : Front: L R
    Sampling rate                            : 48.0 KHz
    Bit depth                                : 16 bits
    Compression mode                         : Lossy
    Stream size                              : 300 MiB (23%)
    Encoded date                             : UTC 2015-04-03 13:28:10
    Tagged date                              : UTC 2015-04-03 13:28:14



    0 0

    Original Post: Kasouken no Onna : New Year Special 2015 720p HDTV AVC AAC

    Title : 科捜研の女
    Format: Tanpatsu
    Genre: Crime, Science
    Episodes: 1
    Network: TV Asahi
    Release Date: 2015-Jan-18
    Air time: -
    Language: Japanese
    Subtitles: None

    Synopsis
    As criminals become more sophisticated and crimes more complex, the police must turn to speedier and more scientific means of weeding through clues and narrowing down suspects. That's where the forensics labs come into play. Sasaki Mariko is a highly talented forensics scientist who must dodge stereotypes, as well as disparaging comments from veteran detectives.

    Cast
    Sawaguchi Yasuko as Sakaki Mariko
    Naito Takashi as Domon Kaoru
    Wakamura Mayumi as Kazaoka Satsuki
    Kazama Toru as Usami Yuya
    Kaneda Akio as Fujikura Jinichi
    Saito Satoru as Hino Kazumasa
    Osada Seiya as Soma Ryo
    Sakimoto Hiromi as Kijima Shuhei
    Yamamoto Hikaru as Wakata Ami
    Nishida Ken as Saeki Shinobu







    Code
    Format                                   : MPEG-4
    Format profile                           : Base Media / Version 2
    Codec ID                                 : mp42
    File size                                : 2.20 GiB
    Duration                                 : 1h 47mn
    Overall bit rate mode                    : Variable
    Overall bit rate                         : 2 918 Kbps
    Writing application                      : TMPGEnc MPEG Smart Renderer 4 Version 4.1.5.60

    Video
    ID                                       : 1
    Format                                   : AVC
    Format/Info                              : Advanced Video Codec
    Format profile                           : High@L4.1
    Format settings, CABAC                   : Yes
    Format settings, ReFrames                : 4 frames
    Codec ID                                 : avc1
    Codec ID/Info                            : Advanced Video Coding
    Duration                                 : 1h 47mn
    Bit rate mode                            : Variable
    Bit rate                                 : 2 781 Kbps
    Width                                    : 1 280 pixels
    Height                                   : 720 pixels
    Display aspect ratio                     : 16:9
    Frame rate mode                          : Constant
    Frame rate                               : 29.970 fps
    Standard                                 : Component
    Color space                              : YUV
    Chroma subsampling                       : 4:2:0
    Bit depth                                : 8 bits
    Scan type                                : Progressive
    Bits/(Pixel*Frame)                       : 0.101
    Stream size                              : 2.09 GiB (95%)
    Color primaries                          : BT.709
    Transfer characteristics                 : BT.709
    Matrix coefficients                      : BT.709

    Audio
    ID                                       : 2
    Format                                   : AAC
    Format/Info                              : Advanced Audio Codec
    Format profile                           : LC
    Codec ID                                 : 40
    Duration                                 : 1h 47mn
    Bit rate mode                            : Variable
    Bit rate                                 : 132 Kbps
    Maximum bit rate                         : 576 Kbps
    Channel(s)                               : 2 channels
    Channel positions                        : Front: L R
    Sampling rate                            : 48.0 KHz
    Compression mode                         : Lossy
    Delay relative to video                  : 67ms
    Stream size                              : 102 MiB (5%)

    Text
    ID                                       : 3
    Format                                   : Timed text
    Codec ID                                 : tx3g
    Duration                                 : 1h 47mn
    Bit rate mode                            : Constant
    Bit rate                                 : 0 bps
    Delay relative to video                  : 67ms
    Stream size                              : 16.0 Bytes (0%)
    Language                                 : English



    0 0

    Original Post: Hwajung.E19.150615.HDTV.XviD-LIMO

    Details
    Title: 화정 / Hwajung
    Also known as: Splendid Politics
    Previously known as: Princess Jungmyung
    Genre: Historical, political, romance
    Episodes: 50
    Broadcast network: MBC
    Broadcast period: 2015-Apr-13 to 2015-Oct-??
    Air time: Monday & Tuesday 22:00
    Subtitles by Dramafever will be added later
    http://thetvdb.com/?tab=series&id=293910

    Synopsis
    Fair Princess Jungmyung (Lee Yeon Hee) lives a life of the highest privilege, until her half-brother Prince Gwanghae (Cha Seung Won) executes the rightful crown prince and usurps the throne. Exiled from court, Jungmyung goes under disguise as a man and learns to adapt to life as a commoner — never forgetting Gwanghae's wrongdoing. But amidst rampant corruption throughout the kingdom, can Jyungmyung exact her vengeance, restore order and take back her rightful place in the palace?

    Cast

    Main Cast
    Cha Seung Won as Prince Gwanghae
    Lee Tae Hwan as teen Gwanghae
    Lee Yun Hee as Princess Jungmyung
    Jung Chan Bi as teen Jungmyung
    Seo Jung Eun as child Jungmyung
    Kim Jae Won as King Injo
    Seo Kang Joon as Hong Ju Won
    Yoon Chan Young as teen Ju Won
    Choi Kwon Ju as child Ju Won
    Han Joo Wan as Kang In Woo
    Ahn Do Gyu as teen In Woo






    Code
    Video
    ID                                       : 0
    Format                                   : MPEG-4 Visual
    Format profile                           : Advanced Simple@L5
    Format settings, BVOP                    : No
    Format settings, QPel                    : No
    Format settings, GMC                     : No warppoints
    Format settings, Matrix                  : Default (MPEG)
    Codec ID                                 : XVID
    Codec ID/Hint                            : XviD
    Duration                                 : 1h 6mn
    Bit rate                                 : 1 391 Kbps
    Width                                    : 624 pixels
    Height                                   : 352 pixels
    Display aspect ratio                     : 16:9
    Frame rate                               : 29.970 fps
    Color space                              : YUV
    Chroma subsampling                       : 4:2:0
    Bit depth                                : 8 bits
    Scan type                                : Progressive
    Compression mode                         : Lossy
    Bits/(Pixel*Frame)                       : 0.211
    Stream size                              : 660 MiB (87%)
    Writing library                          : XviD 1.2.1 (UTC 2008-12-04)

    Audio
    ID                                       : 1
    Format                                   : MPEG Audio
    Format version                           : Version 1
    Format profile                           : Layer 3
    Mode                                     : Joint stereo
    Mode extension                           : MS Stereo
    Codec ID                                 : 55
    Codec ID/Hint                            : MP3
    Duration                                 : 1h 6mn
    Bit rate mode                            : Constant
    Bit rate                                 : 128 Kbps
    Channel(s)                               : 2 channels
    Sampling rate                            : 48.0 KHz
    Compression mode                         : Lossy
    Stream size                              : 60.8 MiB (8%)
    Alignment                                : Aligned on interleaves
    Writing library                          : LAME3.98.2



    0 0

    Original Post: Hwajung.E19.150615.HDTV.H264.720p-LIMO

    Details
    Title: 화정 / Hwajung
    Also known as: Splendid Politics
    Previously known as: Princess Jungmyung
    Genre: Historical, political, romance
    Episodes: 50
    Broadcast network: MBC
    Broadcast period: 2015-Apr-13 to 2015-Oct-??
    Air time: Monday & Tuesday 22:00
    Subtitles by Dramafever will be added later
    http://thetvdb.com/?tab=series&id=293910

    Synopsis
    Fair Princess Jungmyung (Lee Yeon Hee) lives a life of the highest privilege, until her half-brother Prince Gwanghae (Cha Seung Won) executes the rightful crown prince and usurps the throne. Exiled from court, Jungmyung goes under disguise as a man and learns to adapt to life as a commoner — never forgetting Gwanghae's wrongdoing. But amidst rampant corruption throughout the kingdom, can Jyungmyung exact her vengeance, restore order and take back her rightful place in the palace?

    Cast

    Main Cast
    Cha Seung Won as Prince Gwanghae
    Lee Tae Hwan as teen Gwanghae
    Lee Yun Hee as Princess Jungmyung
    Jung Chan Bi as teen Jungmyung
    Seo Jung Eun as child Jungmyung
    Kim Jae Won as King Injo
    Seo Kang Joon as Hong Ju Won
    Yoon Chan Young as teen Ju Won
    Choi Kwon Ju as child Ju Won
    Han Joo Wan as Kang In Woo
    Ahn Do Gyu as teen In Woo







    Code
    Video
    ID                             : 0
    Format                         : AVC
    Format/Info                    : Advanced Video Codec
    Format profile                 : High@L5.1
    Format settings, CABAC         : Yes
    Format settings, ReFrames      : 4 frames
    Codec ID                       : H264
    Duration                       : 1h 14mn
    Bit rate                       : 3 000 Kbps
    Width                          : 1 280 pixels
    Height                         : 720 pixels
    Display aspect ratio           : 16:9
    Frame rate mode                : Variable
    Frame rate                     : 29.970 fps
    Color space                    : YUV
    Chroma subsampling             : 4:2:0
    Bit depth                      : 8 bits
    Scan type                      : Progressive
    Bits/(Pixel*Frame)             : 0.109
    Stream size                    : 1.57 GiB (94%)
    Writing library                : x264 core 112
    Encoding settings              : cabac=1 / ref=3 / deblock=1:-1:-1 / analyse=0x3:0x113 / me=hex / subme=6 / psy=1 / psy_rd=1.00:1.00 / mixed_ref=1 / me_range=16 / chroma_me=1 / trellis=1 / 8x8dct=1 / cqm=0 / deadzone=21,11 / fast_pskip=0 / chroma_qp_offset=-4 / threads=12 / sliced_threads=0 / nr=0 / decimate=1 / interlaced=0 / constrained_intra=0 / bframes=3 / b_pyramid=2 / b_adapt=1 / b_bias=1 / direct=3 / weightb=1 / open_gop=0 / weightp=2 / keyint=299 / keyint_min=25 / scenecut=1 / intra_refresh=0 / rc_lookahead=40 / rc=abr / mbtree=1 / bitrate=3000 / ratetol=1.0 / qcomp=0.60 / qpmin=10 / qpmax=51 / qpstep=4 / ip_ratio=1.40 / aq=1:1.00

    Audio
    ID                             : 1
    Format                         : MPEG Audio
    Format version                 : Version 1
    Format profile                 : Layer 3
    Mode                           : Joint stereo
    Mode extension                 : MS Stereo
    Codec ID                       : 55
    Codec ID/Hint                  : MP3
    Duration                       : 1h 14mn
    Bit rate mode                  : Constant
    Bit rate                       : 192 Kbps
    Channel(s)                     : 2 channels
    Sampling rate                  : 48.0 KHz
    Compression mode               : Lossy
    Stream size                    : 102 MiB (6%)
    Alignment                      : Split accross interleaves
    Interleave, duration           : 33 ms (1.00 video frame)
    Interleave, preload duration   : 500 ms
    Writing library                : LAME3.98



    0 0

    Original Post: High.Society.E03.150615.HDTV.X264-LIMO

    http://thetvdb.com/?tab=series&id=296433

    Synopsis
    A love story between a woman, who is looking for a man who can love her although she is not wealthy, and an indigent man, who thinks love is simply a tool that the ruling class uses in order to control the people under them.

    Cast
    Main Cast
    UEE as Jang Yoon Ha (27)
    Sung Joon as Choi Joon Ki (29)
    Park Hyung Shik as Yoo Chang Soo (29)
    Im Ji Yeon as Lee Ji Yi (27)









    Code
    Video
    ID                             : 1
    Format                         : AVC
    Format/Info                    : Advanced Video Codec
    Format profile                 : Main@L4.0
    Format settings, CABAC         : Yes
    Format settings, ReFrames      : 4 frames
    Codec ID                       : V_MPEG4/ISO/AVC
    Duration                       : 58mn 44s
    Bit rate                       : 450 Kbps
    Width                          : 624 pixels
    Height                         : 350 pixels
    Display aspect ratio           : 16:9
    Frame rate mode                : Constant
    Frame rate                     : 29.970 fps
    Color space                    : YUV
    Chroma subsampling             : 4:2:0
    Bit depth                      : 8 bits
    Scan type                      : Progressive
    Bits/(Pixel*Frame)             : 0.069
    Stream size                    : 190 MiB (76%)
    Writing library                : x264 core 130 r2273 b3065e6
    Encoding settings              : cabac=1 / ref=1 / deblock=1:0:0 / analyse=0x1:0x111 / me=hex / subme=2 / psy=1 / psy_rd=1.00:0.00 / mixed_ref=0 / me_range=16 / chroma_me=1 / trellis=0 / 8x8dct=0 / cqm=0 / deadzone=21,11 / fast_pskip=1 / chroma_qp_offset=0 / threads=1 / lookahead_threads=1 / sliced_threads=0 / nr=0 / decimate=1 / interlaced=0 / bluray_compat=0 / constrained_intra=0 / bframes=3 / b_pyramid=2 / b_adapt=1 / b_bias=0 / direct=1 / weightb=1 / open_gop=0 / weightp=1 / keyint=300 / keyint_min=30 / scenecut=40 / intra_refresh=0 / rc_lookahead=10 / rc=abr / mbtree=1 / bitrate=450 / ratetol=1.0 / qcomp=0.60 / qpmin=0 / qpmax=69 / qpstep=4 / vbv_maxrate=20000 / vbv_bufsize=25000 / nal_hrd=none / ip_ratio=1.40 / aq=1:1.00
    Language                       : English
    Default                        : Yes
    Forced                         : No
    Color primaries                : BT.601 NTSC
    Transfer characteristics       : BT.709
    Matrix coefficients            : BT.601

    Audio
    ID                             : 2
    Format                         : MPEG Audio
    Format version                 : Version 1
    Format profile                 : Layer 3
    Mode                           : Joint stereo
    Mode extension                 : MS Stereo
    Codec ID                       : A_MPEG/L3
    Codec ID/Hint                  : MP3
    Duration                       : 58mn 44s
    Bit rate mode                  : Constant
    Bit rate                       : 128 Kbps
    Channel(s)                     : 2 channels
    Sampling rate                  : 48.0 KHz
    Compression mode               : Lossy
    Stream size                    : 53.8 MiB (22%)
    Default                        : Yes
    Forced                         : No



    0 0

    Original Post: High.Society.E03.150615.HDTV.H264.450p-LIMO

    http://thetvdb.com/?tab=series&id=296433

    Synopsis
    A love story between a woman, who is looking for a man who can love her although she is not wealthy, and an indigent man, who thinks love is simply a tool that the ruling class uses in order to control the people under them.

    Cast
    Main Cast
    UEE as Jang Yoon Ha (27)
    Sung Joon as Choi Joon Ki (29)
    Park Hyung Shik as Yoo Chang Soo (29)
    Im Ji Yeon as Lee Ji Yi (27)









    Code
    Video
    ID                                       : 0
    Format                                   : AVC
    Format/Info                              : Advanced Video Codec
    Format profile                           : High@L5.1
    Format settings, CABAC                   : Yes
    Format settings, ReFrames                : 4 frames
    Codec ID                                 : H264
    Bit rate                                 : 1 500 Kbps
    Width                                    : 800 pixels
    Height                                   : 450 pixels
    Display aspect ratio                     : 16:9
    Frame rate mode                          : Variable
    Frame rate                               : 29.970 fps
    Color space                              : YUV
    Chroma subsampling                       : 4:2:0
    Bit depth                                : 8 bits
    Scan type                                : Progressive
    Bits/(Pixel*Frame)                       : 0.139
    Stream size                              : 686 MiB (88%)
    Writing library                          : x264 core 112

    Audio
    ID                                       : 1
    Format                                   : MPEG Audio
    Format version                           : Version 1
    Format profile                           : Layer 3
    Mode                                     : Joint stereo
    Mode extension                           : MS Stereo
    Codec ID                                 : 55
    Codec ID/Hint                            : MP3
    Bit rate mode                            : Constant
    Bit rate                                 : 192 Kbps
    Channel(s)                               : 2 channels
    Sampling rate                            : 48.0 KHz
    Compression mode                         : Lossy
    Stream size                              : 88.3 MiB (11%)
    Alignment                                : Aligned on interleaves
    Interleave, duration                     : 24 ms (0.72 video frame)
    Writing library                          : LAME3.98.2
    Language                                 : Korean



    0 0

    Original Post: High.Society.E03.150615.HDTV.H264.720p-LIMO

    http://thetvdb.com/?tab=series&id=296433

    Synopsis
    A love story between a woman, who is looking for a man who can love her although she is not wealthy, and an indigent man, who thinks love is simply a tool that the ruling class uses in order to control the people under them.

    Cast
    Main Cast
    UEE as Jang Yoon Ha (27)
    Sung Joon as Choi Joon Ki (29)
    Park Hyung Shik as Yoo Chang Soo (29)
    Im Ji Yeon as Lee Ji Yi (27)









    Code
    Video
    ID                               : 0
    Format                           : AVC
    Format/Info                      : Advanced Video Codec
    Format profile                   : High@L5.1
    Format settings, CABAC           : Yes
    Format settings, ReFrames        : 4 frames
    Codec ID                         : H264
    Duration                         : 1h 4mn
    Bit rate                         : 3 000 Kbps
    Width                            : 1 280 pixels
    Height                           : 720 pixels
    Display aspect ratio             : 16:9
    Frame rate mode                  : Variable
    Frame rate                       : 29.970 fps
    Color space                      : YUV
    Chroma subsampling               : 4:2:0
    Bit depth                        : 8 bits
    Scan type                        : Progressive
    Bits/(Pixel*Frame)               : 0.109
    Stream size                      : 1.35 GiB (94%)
    Writing library                  : x264 core 112
    Encoding settings                : cabac=1 / ref=3 / deblock=1:-1:-1 / analyse=0x3:0x113 / me=hex / subme=6 / psy=1 / psy_rd=1.00:1.00 / mixed_ref=1 / me_range=16 / chroma_me=1 / trellis=1 / 8x8dct=1 / cqm=0 / deadzone=21,11 / fast_pskip=0 / chroma_qp_offset=-4 / threads=12 / sliced_threads=0 / nr=0 / decimate=1 / interlaced=0 / constrained_intra=0 / bframes=3 / b_pyramid=2 / b_adapt=1 / b_bias=1 / direct=3 / weightb=1 / open_gop=0 / weightp=2 / keyint=299 / keyint_min=25 / scenecut=1 / intra_refresh=0 / rc_lookahead=40 / rc=abr / mbtree=1 / bitrate=3000 / ratetol=1.0 / qcomp=0.60 / qpmin=10 / qpmax=51 / qpstep=4 / ip_ratio=1.40 / aq=1:1.00

    Audio
    ID                               : 1
    Format                           : MPEG Audio
    Format version                   : Version 1
    Format profile                   : Layer 3
    Mode                             : Joint stereo
    Mode extension                   : MS Stereo
    Codec ID                         : 55
    Codec ID/Hint                    : MP3
    Duration                         : 1h 4mn
    Bit rate mode                    : Constant
    Bit rate                         : 192 Kbps
    Channel(s)                       : 2 channels
    Sampling rate                    : 48.0 KHz
    Stream size                      : 88.0 MiB (6%)
    Alignment                        : Split accross interleaves
    Interleave, duration             : 33 ms (1.00 video frame)
    Interleave, preload duration     : 500 ms
    Writing library                  : LAME3.98.2



    0 0

    Original Post: Who Are You - School.2015.E15.150615.HDTV.XviD-LIMO

    Details

    Title: 후아유 - 학교 2015 / Hooayoo - Hakgyo 2015
    Also known as: 학교 6 (School 6)
    Genre: School, youth, drama, mystery
    Episodes: 16
    Broadcast network: KBS2
    Broadcast period: 2015-Apr-27 to 2015-???-??
    Air time: Monday & Tuesday 22:00
    Original Soundtrack: Who Are You - School 2015 OST
    Related TV Shows: School 1 (KBS2, 1999), School 2 (KBS2, 1999), School 3 (KBS2, 2000), School 4 (KBS2, 2001), School 2013 (KBS2, 2013)
    http://thetvdb.com/?tab=series&id=294815

    Synopsis

    This drama is a latest installment to the famed School Series. It will focus on portraying realistic issues, struggles, and dilemmas of today’s youths.

    Segang High School is a top school located in Gangnam District, Seoul. One of the students, Lee Eun Bi, wake up one day without knowing who she was. After find out that she used to be bullied, she changes herself and becomes popular. She then tries to recover her lost memories, and in the process, discovers the hidden truths behind her famous school.

    Cast
    Main Cast
    Kim So Hyun as Lee Eun Bi / Go Eun Byul
    Nam Joo Hyuk as Han Yi Ahn
    Yook Sung Jae as Gong Tae Kwang
    Extended Cast
    Lee Pil Mo as Teacher Kim Joon Suk
    Lee David as Park Min Joon
    Kim Hee Jung as Cha Song Joo
    Lee Cho Hee as Lee Shi Jin
    Jo Soo Hyang as Kang So Young
    Segang High School's teachers
    Lee Hee Do as Vice Principal
    Shin Jung Geun as Students' Supervisor
    The parents
    Jun Mi Sun as Song Mi Kyung (Eun Byul's mother)
    Lee Dae Yeon as Han Ki Choon (Yi Ahn's father)
    Jun Noh Min as Gong Jae Ho (Tae Kwang's father)
    Kim Jung Nan as Shin Jung Min (Min Joon's mother)
    Jung In Ki as Park Joon Hyung (Min Joon's father)
    Kim Se Ah as Shi Jin's mother
    Class 2-3 students
    Park Doo Shik as Kwon Ki Tae
    Yoo Young as Jo Hae Na
    Jang In Sub as Sung Yoon Jae
    Kim Bo Ra as Seo Young Eun






    Code
    Video
    ID                                       : 0
    Format                                   : MPEG-4 Visual
    Format profile                           : Advanced Simple@L5
    Format settings, BVOP                    : No
    Format settings, QPel                    : No
    Format settings, GMC                     : No warppoints
    Format settings, Matrix                  : Default (MPEG)
    Codec ID                                 : XVID
    Codec ID/Hint                            : XviD
    Duration                                 : 1h 6mn
    Bit rate                                 : 1 391 Kbps
    Width                                    : 624 pixels
    Height                                   : 352 pixels
    Display aspect ratio                     : 16:9
    Frame rate                               : 29.970 fps
    Color space                              : YUV
    Chroma subsampling                       : 4:2:0
    Bit depth                                : 8 bits
    Scan type                                : Progressive
    Compression mode                         : Lossy
    Bits/(Pixel*Frame)                       : 0.211
    Stream size                              : 660 MiB (87%)
    Writing library                          : XviD 1.2.1 (UTC 2008-12-04)

    Audio
    ID                                       : 1
    Format                                   : MPEG Audio
    Format version                           : Version 1
    Format profile                           : Layer 3
    Mode                                     : Joint stereo
    Mode extension                           : MS Stereo
    Codec ID                                 : 55
    Codec ID/Hint                            : MP3
    Duration                                 : 1h 6mn
    Bit rate mode                            : Constant
    Bit rate                                 : 128 Kbps
    Channel(s)                               : 2 channels
    Sampling rate                            : 48.0 KHz
    Compression mode                         : Lossy
    Stream size                              : 60.8 MiB (8%)
    Alignment                                : Aligned on interleaves
    Writing library                          : LAME3.98.2



    0 0

    Original Post: Who Are You - School.2015.E15.150615.HDTV.H264.720p-LIMO

    Details

    Title: 후아유 - 학교 2015 / Hooayoo - Hakgyo 2015
    Also known as: 학교 6 (School 6)
    Genre: School, youth, drama, mystery
    Episodes: 16
    Broadcast network: KBS2
    Broadcast period: 2015-Apr-27 to 2015-???-??
    Air time: Monday & Tuesday 22:00
    Original Soundtrack: Who Are You - School 2015 OST
    Related TV Shows: School 1 (KBS2, 1999), School 2 (KBS2, 1999), School 3 (KBS2, 2000), School 4 (KBS2, 2001), School 2013 (KBS2, 2013)
    http://thetvdb.com/?tab=series&id=294815

    Synopsis

    This drama is a latest installment to the famed School Series. It will focus on portraying realistic issues, struggles, and dilemmas of today’s youths.

    Segang High School is a top school located in Gangnam District, Seoul. One of the students, Lee Eun Bi, wake up one day without knowing who she was. After find out that she used to be bullied, she changes herself and becomes popular. She then tries to recover her lost memories, and in the process, discovers the hidden truths behind her famous school.

    Cast
    Main Cast
    Kim So Hyun as Lee Eun Bi / Go Eun Byul
    Nam Joo Hyuk as Han Yi Ahn
    Yook Sung Jae as Gong Tae Kwang
    Extended Cast
    Lee Pil Mo as Teacher Kim Joon Suk
    Lee David as Park Min Joon
    Kim Hee Jung as Cha Song Joo
    Lee Cho Hee as Lee Shi Jin
    Jo Soo Hyang as Kang So Young
    Segang High School's teachers
    Lee Hee Do as Vice Principal
    Shin Jung Geun as Students' Supervisor
    The parents
    Jun Mi Sun as Song Mi Kyung (Eun Byul's mother)
    Lee Dae Yeon as Han Ki Choon (Yi Ahn's father)
    Jun Noh Min as Gong Jae Ho (Tae Kwang's father)
    Kim Jung Nan as Shin Jung Min (Min Joon's mother)
    Jung In Ki as Park Joon Hyung (Min Joon's father)
    Kim Se Ah as Shi Jin's mother
    Class 2-3 students
    Park Doo Shik as Kwon Ki Tae
    Yoo Young as Jo Hae Na
    Jang In Sub as Sung Yoon Jae
    Kim Bo Ra as Seo Young Eun







    Code
    Video
    ID                             : 0
    Format                         : AVC
    Format/Info                    : Advanced Video Codec
    Format profile                 : High@L5.1
    Format settings, CABAC         : Yes
    Format settings, ReFrames      : 4 frames
    Codec ID                       : H264
    Duration                       : 1h 14mn
    Bit rate                       : 3 000 Kbps
    Width                          : 1 280 pixels
    Height                         : 720 pixels
    Display aspect ratio           : 16:9
    Frame rate mode                : Variable
    Frame rate                     : 29.970 fps
    Color space                    : YUV
    Chroma subsampling             : 4:2:0
    Bit depth                      : 8 bits
    Scan type                      : Progressive
    Bits/(Pixel*Frame)             : 0.109
    Stream size                    : 1.57 GiB (94%)
    Writing library                : x264 core 112
    Encoding settings              : cabac=1 / ref=3 / deblock=1:-1:-1 / analyse=0x3:0x113 / me=hex / subme=6 / psy=1 / psy_rd=1.00:1.00 / mixed_ref=1 / me_range=16 / chroma_me=1 / trellis=1 / 8x8dct=1 / cqm=0 / deadzone=21,11 / fast_pskip=0 / chroma_qp_offset=-4 / threads=12 / sliced_threads=0 / nr=0 / decimate=1 / interlaced=0 / constrained_intra=0 / bframes=3 / b_pyramid=2 / b_adapt=1 / b_bias=1 / direct=3 / weightb=1 / open_gop=0 / weightp=2 / keyint=299 / keyint_min=25 / scenecut=1 / intra_refresh=0 / rc_lookahead=40 / rc=abr / mbtree=1 / bitrate=3000 / ratetol=1.0 / qcomp=0.60 / qpmin=10 / qpmax=51 / qpstep=4 / ip_ratio=1.40 / aq=1:1.00

    Audio
    ID                             : 1
    Format                         : MPEG Audio
    Format version                 : Version 1
    Format profile                 : Layer 3
    Mode                           : Joint stereo
    Mode extension                 : MS Stereo
    Codec ID                       : 55
    Codec ID/Hint                  : MP3
    Duration                       : 1h 14mn
    Bit rate mode                  : Constant
    Bit rate                       : 192 Kbps
    Channel(s)                     : 2 channels
    Sampling rate                  : 48.0 KHz
    Compression mode               : Lossy
    Stream size                    : 102 MiB (6%)
    Alignment                      : Split accross interleaves
    Interleave, duration           : 33 ms (1.00 video frame)
    Interleave, preload duration   : 500 ms
    Writing library                : LAME3.98



    0 0

    Original Post: The Cage of Love Complete 720p HDTV x264-NGB





    Detail:
    Title: The Cage of Love
    Genre: Historical, Melodrama, Romance
    Release Date: May 26, 2015 to Jun 11, 2015
    Episodes: 34
    Director: Wu Jin Yuan, Deng Yan Cheng
    Rating: 8.3/10 from 9 users
    Country: China
    Language: Mandarin
    Subtitles:Chinese Hardcoded

    Synopsis:
    Set amongst the Republican era, the story tells of Jiang Yu who is a ruthless business man that sets out to seek revenge on his enemy, via punishing his daughter Wu Cai Hong, who is in love with her childhood sweetheart. The series is scripted and produced by famed c-author Tong Hua, as well as directed by the head director from Bu Bu Jing Xin.

    Cast:
    Zheng Shuang - Wu Cai Hong
    Lau Hawick - Jiang Yu
    Liu Yu Xin - Lu Man
    Li Dong Xue - Zhou Shao Tian
    Chow Kathy - Wu Fu Ren








    Code

    Video
    ID                                       : 1
    Format                                   : AVC
    Format/Info                              : Advanced Video Codec
    Format profile                           : High@L4.1
    Format settings, CABAC                   : Yes
    Format settings, ReFrames                : 5 frames
    Codec ID                                 : V_MPEG4/ISO/AVC
    Duration                                 : 40mn 8s
    Bit rate                                 : 4 500 Kbps
    Width                                    : 1 280 pixels
    Height                                   : 720 pixels
    Display aspect ratio                     : 16:9
    Frame rate                               : 24.000 fps
    Color space                              : YUV
    Chroma subsampling                       : 4:2:0
    Bit depth                                : 8 bits
    Scan type                                : Progressive
    Bits/(Pixel*Frame)                       : 0.203
    Stream size                              : 1.23 GiB (89%)
    Writing library                          : x264 core 133 r2334 a3ac64b
    Encoding settings                        : cabac=1 / ref=5 / deblock=1:-3:-3 / analyse=0x3:0x113 / me=umh / subme=7 / psy=1 / psy_rd=1.00:0.00 / mixed_ref=1 / me_range=16 / chroma_me=1 / trellis=1 / 8x8dct=1 / cqm=0 / deadzone=21,11 / fast_pskip=0 / chroma_qp_offset=-2 / threads=12 / lookahead_threads=2 / sliced_threads=0 / nr=0 / decimate=1 / interlaced=0 / bluray_compat=0 / constrained_intra=0 / bframes=3 / b_pyramid=2 / b_adapt=2 / b_bias=0 / direct=3 / weightb=1 / open_gop=0 / weightp=2 / keyint=250 / keyint_min=23 / scenecut=40 / intra_refresh=0 / rc_lookahead=50 / rc=2pass / mbtree=1 / bitrate=4500 / ratetol=1.0 / qcomp=0.70 / qpmin=0 / qpmax=69 / qpstep=4 / cplxblur=20.0 / qblur=0.5 / vbv_maxrate=14000 / vbv_bufsize=14000 / nal_hrd=none / ip_ratio=1.40 / aq=1:1.00
    Language                                 : English
    Default                                  : Yes
    Forced                                   : No

    Audio
    ID                                       : 2
    Format                                   : AC-3
    Format/Info                              : Audio Coding 3
    Mode extension                           : CM (complete main)
    Format settings, Endianness              : Big
    Codec ID                                 : A_AC3
    Duration                                 : 40mn 8s
    Bit rate mode                            : Constant
    Bit rate                                 : 448 Kbps
    Channel(s)                               : 2 channels
    Channel positions                        : Front: L R
    Sampling rate                            : 48.0 KHz
    Bit depth                                : 16 bits
    Compression mode                         : Lossy
    Stream size                              : 129 MiB (9%)
    Language                                 : English
    Default                                  : Yes
    Forced                                   : No



    0 0

    Original Post: Hafu: The Mixed-Race Experience in Japan 2013 DVDRip x264 AC3 Documentary



    Hafu

    IMDb:http://www.imdb.com/title/tt2844816
    Website:About the film
    Review:The Japan Times

    Directors: Megumi Nishikura, Lara Perez Takagi
    Genre: Documentary
    Release Date: 5 April 2013
    Runtime: 84 min
    Country: Japan
    Language: Japanese, English
    Subtitles: English, Japanese (Hardcoded English subs when Japanese is spoken and vice versa)
    Source: R2J DVD5 (Thanks to hybridism @ PTP for the disc)

    Synopsis: The film follows the lives of five "hafus" – the Japanese term for people who are half-Japanese – as they explore what it means to be multiracial and multicultural in a nation that once proudly proclaimed itself as the mono-ethnic nation. For some of these hafus, Japan is the only home they know. For others, living in Japan is an entirely new experience. There are also those caught somewhere between these two different worlds.

    MediaInfo
    Spoiler:show
    General
    Unique ID : 227875992051635338587481946627489303599 (0xAB6F51D5E34895C3ABC494BED0BE8C2F)
    Complete name : Hafu.2013.DVDRip.x264.AC3-Jongl0.mkv
    Format : Matroska
    Format version : Version 4 / Version 2
    File size : 1.27 GiB
    Duration : 1h 24mn
    Overall bit rate : 2 160 Kbps
    Encoded date : UTC 2015-06-10 18:56:07
    Writing application : mkvmerge v7.6.0 ('Garden of Dreams') 64bit built on Feb 8 2015 13:04:34
    Writing library : libebml v1.3.1 + libmatroska v1.4.2
    DURATION : 01:24:29.280000000
    NUMBER_OF_FRAMES : 158415
    NUMBER_OF_BYTES : 121662720
    _STATISTICS_WRITING_APP : mkvmerge v7.6.0 ('Garden of Dreams') 64bit built on Feb 8 2015 13:04:34
    _STATISTICS_WRITING_DATE_UTC : 2015-06-10 18:56:07
    _STATISTICS_TAGS : BPS DURATION NUMBER_OF_FRAMES NUMBER_OF_BYTES

    Video
    ID : 1
    Format : AVC
    Format/Info : Advanced Video Codec
    Format profile : High@L4.1
    Format settings, CABAC : Yes
    Format settings, ReFrames : 16 frames
    Codec ID : V_MPEG4/ISO/AVC
    Duration : 1h 24mn
    Bit rate : 1 925 Kbps
    Width : 720 pixels
    Height : 480 pixels
    Display aspect ratio : 16:9
    Frame rate mode : Constant
    Frame rate : 23.976 fps
    Standard : NTSC
    Color space : YUV
    Chroma subsampling : 4:2:0
    Bit depth : 8 bits
    Scan type : Progressive
    Bits/(Pixel*Frame) : 0.232
    Stream size : 1.14 GiB (89%)
    Writing library : x264 core 142 r2431 ac76440
    Encoding settings : cabac=1 / ref=16 / deblock=1:-3:-3 / analyse=0x3:0x133 / me=umh / subme=10 / psy=1 / psy_rd=1.00:0.05 / mixed_ref=1 / me_range=32 / chroma_me=1 / trellis=2 / 8x8dct=1 / cqm=0 / deadzone=21,11 / fast_pskip=0 / chroma_qp_offset=-3 / threads=12 / lookahead_threads=2 / sliced_threads=0 / nr=0 / decimate=0 / interlaced=0 / bluray_compat=0 / constrained_intra=0 / bframes=8 / b_pyramid=2 / b_adapt=2 / b_bias=0 / direct=3 / weightb=1 / open_gop=0 / weightp=2 / keyint=240 / keyint_min=23 / scenecut=40 / intra_refresh=0 / rc_lookahead=50 / rc=crf / mbtree=0 / crf=19.0 / qcomp=0.60 / qpmin=0 / qpmax=69 / qpstep=4 / vbv_maxrate=14000 / vbv_bufsize=14000 / crf_max=0.0 / nal_hrd=none / filler=0 / ip_ratio=1.40 / pb_ratio=1.20 / aq=1:1.00
    Default : Yes
    Forced : No
    DURATION : 01:24:29.523000000
    NUMBER_OF_FRAMES : 121547
    NUMBER_OF_BYTES : 1245730589
    _STATISTICS_WRITING_APP : mkvmerge v7.6.0 ('Garden of Dreams') 64bit built on Feb 8 2015 13:04:34
    _STATISTICS_WRITING_DATE_UTC : 2015-06-10 18:56:07
    _STATISTICS_TAGS : BPS DURATION NUMBER_OF_FRAMES NUMBER_OF_BYTES

    Audio
    ID : 2
    Format : AC-3
    Format/Info : Audio Coding 3
    Mode extension : CM (complete main)
    Format settings, Endianness : Big
    Codec ID : A_AC3
    Duration : 1h 24mn
    Bit rate mode : Constant
    Bit rate : 192 Kbps
    Channel(s) : 2 channels
    Channel positions : Front: L R
    Sampling rate : 48.0 KHz
    Bit depth : 16 bits
    Compression mode : Lossy
    Stream size : 116 MiB (9%)
    Language : Japanese
    Default : Yes
    Forced : No

    Menu
    00:00:00.000 : en:Chapter 1
    00:03:47.227 : en:Chapter 2
    00:08:34.013 : en:Chapter 3
    00:12:55.274 : en:Chapter 4
    00:16:33.492 : en:Chapter 5
    00:22:10.829 : en:Chapter 6
    00:26:46.104 : en:Chapter 7
    00:31:52.410 : en:Chapter 8
    00:34:33.071 : en:Chapter 9
    00:39:26.364 : en:Chapter 10
    00:44:09.647 : en:Chapter 11
    00:46:06.764 : en:Chapter 12
    00:50:44.541 : en:Chapter 13
    00:53:35.712 : en:Chapter 14
    00:55:24.321 : en:Chapter 15
    00:57:45.462 : en:Chapter 16
    01:00:39.636 : en:Chapter 17
    01:05:08.905 : en:Chapter 18
    01:08:46.622 : en:Chapter 19
    01:11:07.263 : en:Chapter 20
    01:13:34.410 : en:Chapter 21
    01:18:23.699 : en:Chapter 22
    01:21:01.857 : en:Chapter 23
    01:22:31.947 : en:Chapter 24


    Kaori Shoji @ The Japan Times :
    Until about two decades ago hafu (meaning “half-Japanese”) were viewed with a mixture of awe, envy, a bit of suspicion and a barrage of other emotions, some positive and some not. Now, mixed-race people are no longer that rare, and Japan has become more open about the whole thing. But have things really improved? Megumi Nishikura and Lara Perez Takagi’s documentary “Hafu” takes the bull by the horns and the results are intriguing.





    0 0
  • 06/15/15--07:08: We Are In Love E07 720p
  • Original Post: We Are In Love E07 720p



    English Title: We Are In Love
    Original: 我们相爱吧 (Wo Men Xiang Ai Ba)
    Broadcast: JSTV, 19 April 2015 Premiere
    Country: China
    Language: Mandarin, Korean
    Subtitles: Chinese

    NO ENGLISH SUBS

    This is the Chinese version of the South Korean variety show "We Got Married."
    Cast: Kimi Qiao & Xu Lu, Ruby Lin & Ren Zhong, Choi Siwon & Liu Wen







    Code
    General
    Format                                   : MPEG-4
    Format profile                           : Base Media / Version 2
    Codec ID                                 : mp42
    File size                                : 1.22 GiB
    Duration                                 : 1h 27mn
    Overall bit rate mode                    : Variable
    Overall bit rate                         : 2 004 Kbps

    Video
    ID                                       : 1
    Format                                   : AVC
    Format/Info                              : Advanced Video Codec
    Format profile                           : High@L3.1
    Format settings, CABAC                   : Yes
    Format settings, ReFrames                : 1 frame
    Codec ID                                 : avc1
    Codec ID/Info                            : Advanced Video Coding
    Duration                                 : 1h 27mn
    Bit rate                                 : 1 810 Kbps
    Maximum bit rate                         : 7 564 Kbps
    Width                                    : 1 280 pixels
    Height                                   : 720 pixels
    Display aspect ratio                     : 16:9
    Frame rate mode                          : Constant
    Frame rate                               : 25.000 fps
    Color space                              : YUV
    Chroma subsampling                       : 4:2:0
    Bit depth                                : 8 bits
    Scan type                                : Progressive
    Bits/(Pixel*Frame)                       : 0.079
    Stream size                              : 1.10 GiB (90%)

    Audio
    ID                                       : 2
    Format                                   : AAC
    Format/Info                              : Advanced Audio Codec
    Format profile                           : LC
    Codec ID                                 : 40
    Duration                                 : 1h 27mn
    Bit rate mode                            : Variable
    Bit rate                                 : 192 Kbps
    Maximum bit rate                         : 201 Kbps
    Channel count                            : 2 channels
    Channel positions                        : Front: L R
    Sampling rate                            : 44.1 KHz
    Compression mode                         : Lossy
    Stream size                              : 120 MiB (10%)


    The show's back!
    I've missed my dear Ruby and Ren Zhong so~ So much Hello Kitty though. So much.
    We also have a bit of a reformatting, with the introduction of both a guest commentary panel and a new couple: two ordinary people, who both happen to be teachers. Interesting thing to try out.



    0 0

    Original Post: The.Chronicles.of.Evil.2015.720p.HDRip.H264-Unknown



    Profile:
       Movie: The Chronicles of Evil (literal title)
       Revised romanization: Akui Yeondaegi
       Hangul: 악의 연대기
       Director: Baek Woon-Hak
       Writer: Baek Woon-Hak
       Producer: Choi Won-Ki
       Release Date: May 14, 2015
       Runtime: 102 min.
       Genre: Thriller / Mystery
       Distributor: CJ Entertainment
       Language: Korean
       Country: South Korea
       Subtitles: None ATM

    Plot:
    Detective Squad Chief Choi (Son Hyun-Joo) is set for a promotion. He has a party with his co-workers to celebrate, but, on the way home, a crime occurs and he accidentally commits murder. Because of his promotion, he decides to cover up the crime.

    The next morning, TV news reveals a body is hanging from a crane at a construction site. Choi is shocked because the body hanging is the person he killed last night. He takes charge of the murder investigation.

    More info

    Screenshots:







    Code

    Video
    ID                          : 2
    Format                      : AVC
    Format/Info                 : Advanced Video Codec
    Format profile              : Baseline@L3.1
    Format settings, CABAC      : No
    Format settings, ReFrames   : 1 frame
    Muxing mode                 : Header stripping
    Codec ID                    : V_MPEG4/ISO/AVC
    Duration                    : 1h 42mn
    Bit rate                    : 3 800 Kbps
    Width                       : 1 280 pixels
    Height                      : 720 pixels
    Display aspect ratio        : 16:9
    Frame rate mode             : Constant
    Frame rate                  : 24.000 fps
    Color space                 : YUV
    Chroma subsampling          : 4:2:0
    Bit depth                   : 8 bits
    Scan type                   : Progressive
    Bits/(Pixel*Frame)          : 0.172
    Stream size                 : 2.71 GiB (92%)
    Default                     : Yes
    Forced                      : No

    Audio #1
    ID                          : 1
    Format                      : MPEG Audio
    Format version              : Version 2.5
    Format profile              : Layer 3
    Muxing mode                 : Header stripping
    Codec ID                    : A_MPEG/L3
    Codec ID/Hint               : MP3
    Duration                    : 1h 42mn
    Bit rate mode               : Constant
    Bit rate                    : 128 Kbps
    Channel(s)                  : 1 channel
    Sampling rate               : 11.025 KHz
    Compression mode            : Lossy
    Stream size                 : 93.6 MiB (3%)
    Writing library             : LAME3.93
    Default                     : Yes
    Forced                      : No

    Audio #2
    ID                          : 3
    Format                      : MPEG Audio
    Format version              : Version 1
    Format profile              : Layer 3
    Mode                        : Joint stereo
    Mode extension              : MS Stereo
    Muxing mode                 : Header stripping
    Codec ID                    : A_MPEG/L3
    Codec ID/Hint               : MP3
    Duration                    : 1h 42mn
    Bit rate mode               : Constant
    Bit rate                    : 128 Kbps
    Channel(s)                  : 2 channels
    Sampling rate               : 44.1 KHz
    Compression mode            : Lossy
    Stream size                 : 93.6 MiB (3%)
    Writing library             : LAME3.98.2
    Default                     : No
    Forced                      : No




    0 0

    Original Post: Lunch no Akko-chan EP04 720p HDTV x264 AAC-DoA




    Title: Lunch no Akko-chan
    Japanese: ランチのアッコちゃん
    Release Date: May 12, 2015
    Genre: Food / Office / Comedy
    Language: Japanese
    Country: Japan
    Subtitles: NONE


    Episodes: 8
    TV Network: NHK
    Airtime: Tuesday's 23:15
    Official Site: http://www.nhk.or.jp/pyd/akkochan/


    Cast:
    Renbutsu Misako as Sawada Michiko
    Toda Naho as Kurokawa Atsuko
    Noro Kayo as Harada Chihiro
    Narita Ryo as Sasayama Ryuichiro
    Horiuchi Keiko as Shimizu Kimiko
    Suruga Taro
    Hamano Kenta
    Nonaka Takamitsu
    Mano Erina
    Tsurumi Shingo as Yamakawa
    Tayama Ryosei as Ikawa Yoshio


    Synopsis:
    Sawada Michiko, a temporary staff who works for a trading company, has just had her heart broken. On one of the boring days Michiko has been leading, her boss, Kurokawa Atsuko, makes an unexpected suggestion to her. “Exchange lunch with me.” Unable to go against Atsuko, Michiko reluctantly complies. In doing so, she soon realises the profundity of food and starts to change. Atsuko, whom people call Akko-chan, is feared by the people around her and has extensive contacts. What is her true character?









    Code
    General
    Complete name               : Lunch no Akko-chan EP04 720p HDTV x264 AAC-DoA.mkv
    Format                      : Matroska
    Format version              : Version 2
    File size                   : 545 MiB
    Duration                    : 29mn 0s
    Overall bit rate            : 2628 Kbps


    Video
    ID                          : 1
    Format                      : AVC
    Format/Info                 : Advanced Video Codec
    Format profile              : High@L4.1
    Format settings, CABAC      : Yes
    Format settings, ReFrames   : 8 frames
    Codec ID                    : V_MPEG4/ISO/AVC
    Duration                    : 29mn 0s
    Width                       : 1280 pixels
    Height                      : 720 pixels
    Display aspect ratio        : 16:9
    Frame rate mode             : Constant
    Frame rate                  : 29.970 fps
    Color space                 : YUV
    Chroma subsampling          : 4:2:0
    Bit depth                   : 8 bits
    Scan type                   : Progressive


    Audio
    ID                          : 2
    Format                      : AAC
    Format/Info                 : Advanced Audio Codec
    Format profile              : LC
    Codec ID                    : A_AAC
    Duration                    : 29mn 0s
    Channel(s)                  : 2 channels
    Channel positions           : Front: L R
    Sampling rate               : 48.0 KHz
    Compression mode            : Lossy
    Default                     : Yes
    Forced                      : No



older | 1 | .... | 1371 | 1372 | (Page 1373) | 1374 | 1375 | .... | 1405 | newer