Are you the publisher? Claim or contact us about this channel


Embed this content in your HTML

Search

Report adult content:

click to rate:

Account: (login)

More Channels


Showcase


Channel Catalog


Channel Description:

Asia Torrents RSS Feed

older | 1 | .... | 1372 | 1373 | (Page 1374) | 1375 | 1376 | .... | 1405 | newer

    0 0

    Original Post: Murphy's Law of Love [Ongoing] E13 720p



    Details:

    Also known as Perhaps, This is Called Love
    Genre Romance, Comedy
    Created by Sanlih E-Television
    Written by Wang Ruo-ting 王若婷
    Fang Yi-de 方懿德
    Wu Xiang-ying 吳香穎
    Chen Xin-ying 陳妡盈
    Directed by Ye Tian-lun 葉天倫
    Li Qing-rong 李青蓉
    Opening theme Fly With Me by Landy Wen 溫嵐
    Ending theme Want To Say 想說 by GJ 蔣卓嘉
    Country of origin Republic of China (Taiwan)
    Original language(s) Mandarin
    No. of episodes 20
    http://thetvdb.com/?tab=series&id=293952

    Video Raws: thanks to abugemilang
    Subtitles: English SRT, credit Drama Fever and/or Viki, thanks to abugemilang

    Synopsis

    What happens when true love meets Murphy’s Law? Murphy’s Law states “anything that can go wrong, will go wrong.” Guan Xiao Tong (Ivelyn Lee) is known as the “love guru” of the Meet and Match Online Dating Company, able to solve anybody’s relationship issues. After He Zhi Yu (Wang Si Ping), a beautiful model, leaves Ji Jia Wei (Danson Tang), he is heartbroken but his father tries to convince him to move on. To help his own divorced father get close to Wu Mei Zhen (Lin Mei Zhen), the boss of the dating company, Jia Wei proposes a joint-company matchmaking event. There, Jia Wei meets Xiao Tong, and the two get off on the wrong foot and they soon delight in tormenting each other. Meanwhile, Mei Zhen’s son, Xiang Zi Yan (Jolin Chien), gets to know Xiao Tong and begins to develop feelings for her. Can dating experts who hold the fate of other people’s happiness in their own hands be able to navigate the tides of their own hearts? “Murphy’s Law of Love” is a 2015 Taiwanese drama series.

    Main cast

       Danson Tang 唐禹哲 as Ji Jia-wei 紀家尉
       Ivelyn Lee 李佳穎 as Guan Xiao-tong 關曉彤
       Jolin Chien 簡宏霖 as Xiang Zi-yan 向子諺
       Jenna Wang 王思平 as He Zhi-yu 何芝羽







    Video Codec

    Code
    Video
    ID                                       : 1
    Format                                   : AVC
    Format/Info                              : Advanced Video Codec
    Format profile                           : Main@L3.1
    Format settings, CABAC                   : Yes
    Format settings, ReFrames                : 4 frames
    Codec ID                                 : avc1
    Codec ID/Info                            : Advanced Video Coding
    Duration                                 : 1h 13mn
    Bit rate                                 : 1 169 Kbps
    Width                                    : 1 280 pixels
    Height                                   : 720 pixels
    Display aspect ratio                     : 16:9
    Frame rate mode                          : Constant
    Frame rate                               : 29.970 fps
    Color space                              : YUV
    Chroma subsampling                       : 4:2:0
    Bit depth                                : 8 bits
    Scan type                                : Progressive
    Bits/(Pixel*Frame)                       : 0.042
    Stream size                              : 611 MiB (82%)
    Writing library                          : x264 core 138 r2 9e941d1
    Encoding settings                        : cabac=1 / ref=1 / deblock=1:0:0 / analyse=0x1:0 / me=dia / subme=2 / psy=1 / psy_rd=1.00:0.00 / mixed_ref=0 / me_range=16 / chroma_me=1 / trellis=0 / 8x8dct=0 / cqm=0 / deadzone=21,11 / fast_pskip=1 / chroma_qp_offset=0 / threads=12 / lookahead_threads=4 / sliced_threads=0 / nr=0 / decimate=1 / interlaced=0 / bluray_compat=0 / constrained_intra=0 / bframes=3 / b_pyramid=2 / b_adapt=1 / b_bias=0 / direct=1 / weightb=1 / open_gop=0 / weightp=2 / keyint=300 / keyint_min=29 / scenecut=40 / intra_refresh=0 / rc_lookahead=40 / rc=crf / mbtree=1 / crf=23.0 / qcomp=0.60 / qpmin=0 / qpmax=69 / qpstep=4 / ip_ratio=1.40 / aq=1:1.00
    Tagged date                              : UTC 2015-03-23 09:32:32

    Audio
    ID                                       : 2
    Format                                   : AAC
    Format/Info                              : Advanced Audio Codec
    Format profile                           : LC
    Codec ID                                 : 40
    Duration                                 : 1h 13mn
    Bit rate mode                            : Constant
    Bit rate                                 : 192 Kbps
    Channel(s)                               : 2 channels
    Channel positions                        : Front: L R
    Sampling rate                            : 48.0 KHz
    Compression mode                         : Lossy
    Stream size                              : 100 MiB (13%)
    Tagged date                              : UTC 2015-03-23 09:32:32




    0 0

    Original Post: Here.Comes.the.Bride.My.Mom.2010.720p.WEB-DL.x264


    Here Comes the Bride, My Mom! (2010)
    Romaji: Okan no Yomeiri
    Japanese: オカンの嫁入り
    Director: Mipo Oh
    Release Date: September 4, 2010
    Genre: Drama
    Country: Japan
    Language: Japanese
    Subtitles: English
    IMDb link: http://www.imdb.com/title/tt1587234/

    Cast:
    Shinobu Otake - Yoko Morii
    Aoi Miyazaki - Tsukiko Morii
    Kenta Kiritani - Kenji Hattori
    Moeko Ezawa - Saku Ueno
    Jun Kunimura - Akira Murakami
    Yasufumi Hayashi - Shinya Motohashi
    Yosuke Saito - Yoshio Sasaki
    Yasuko Haru - Sachi Shimamura
    Seiko Takuma - Makoto Wada
    Tomochika - Seiko Kotani

    Plot:
    45-year-old nurse and mother Yoko lives with her only daughter Tsukiko. The duo has a tight relationship that resembles more best friends rather than mother & daughter. Tsukiko's father passed away before she was born & since that time Yoko has always stated Tsukiko's father would be the first and last man she will marry.

    One evening, Yoko, who is drunk, brings home 30 year old Kenji Hattori and they both sleep outside on the porch. The next morning, Tsukiko becomes confused by the situation and becomes even confused when her mother announces that she will marry the much younger Kenji Hattori.

    Media Info:
    Spoiler:show

    General
    Complete name               : Here.Comes.the.Bride.My.Mom.2010.720p.WEB-DL.x264.mkv
    Format                      : Matroska
    Format version              : Version 4 / Version 2
    File size                   : 1.52 GiB
    Duration                    : 1h 50mn
    Overall bit rate            : 1 975 Kbps
    Encoded date                : UTC 2015-06-15 21:54:13
    Writing application         : mkvmerge v7.9.0 ('Birds') 64bit
    Writing library             : libebml v1.3.1 + libmatroska v1.4.2
    DURATION                    : 01:49:39.060000000
    NUMBER_OF_FRAMES            : 971
    NUMBER_OF_BYTES             : 24699
    _STATISTICS_WRITING_APP     : mkvmerge v7.9.0 ('Birds') 64bit
    _STATISTICS_WRITING_DATE_UT : 2015-06-15 21:54:13
    _STATISTICS_TAGS            : BPS DURATION NUMBER_OF_FRAMES NUMBER_OF_BYTES

    Video
    ID                          : 1
    Format                      : AVC
    Format/Info                 : Advanced Video Codec
    Format profile              : High@L3.1
    Format settings, CABAC      : Yes
    Format settings, ReFrames   : 5 frames
    Codec ID                    : V_MPEG4/ISO/AVC
    Width                       : 1 280 pixels
    Height                      : 720 pixels
    Display aspect ratio        : 16:9
    Frame rate mode             : Variable
    Color space                 : YUV
    Chroma subsampling          : 4:2:0
    Bit depth                   : 8 bits
    Scan type                   : Progressive
    Default                     : Yes
    Forced                      : No

    Audio
    ID                          : 2
    Format                      : AAC
    Format/Info                 : Advanced Audio Codec
    Format profile              : HE-AAC / LC
    Codec ID                    : A_AAC
    Duration                    : 1h 50mn
    Channel(s)                  : 2 channels
    Channel positions           : Front: L R
    Sampling rate               : 48.0 KHz / 24.0 KHz
    Compression mode            : Lossy
    Delay relative to video     : -83ms
    Title                       : Japanese 2.0
    Language                    : Japanese
    Default                     : Yes
    Forced                      : No

    Text
    ID                          : 3
    Format                      : UTF-8
    Codec ID                    : S_TEXT/UTF8
    Codec ID/Info               : UTF-8 Plain Text
    Title                       : English
    Language                    : English
    Default                     : Yes
    Forced                      : No


    :
    Translation from Japanese to Russian courtesy of дед_сто_лет

    This Custom DVD of Here Comes the Bride, My Mom! is an ADC community effort and couldn't have been done without the donations from the following members:
    JacktheBat, DrKoto, chapaev.
    Our gratitude to cheetman for translating this film to English at a reasonable price.
    Proofread by Obscureness
    Project coordination: nihoncineart


    I delayed the subs by .200 seconds to sync with this version.












    0 0

    Original Post: The Wayward Cloud (2005) DVDrip x264 AC3



    Title: The Wayward Cloud
    AKA: Tian bian yi duo yun
    Original: 天邊一朵雲
    Director: Tsai Ming-liang
    Release Date: 18 March 2005
    Runtime: 112 min.
    Genre: Erotic, Comedy, Musical
    Language: Mandarin
    Country: Taiwan
    Subtitles: English
    Source: DVD9 uploaded by brandy001 to ADC
    IMDB URL: http://www.imdb.com/title/tt0445760

    Cast:  Lee Kang-sheng, Chen Shiang-chyi

    Synopsis: There is a water shortage in Taiwan, and television programs are teaching various water-saving methods and encouraging the drinking of watermelon juice in place of water.

    Hsiao-Kang (Lee) and Shiang-chyi (Chen), two characters from one of Tsai's previous films, What Time Is It There?, meet again by chance and start a relationship. However, Shiang-chyi does not know that Hsiao-Kang is a pornographic film actor.

    The Wayward Cloud was filmed in Kaohsiung, Taiwan. The film was shot in various landmark locations in the area, including Dragon and Tiger Pagodas and Love River.

















    Mediainfo :
    Format                                   : Matroska
    Format version                           : Version 2
    File size                                : 1.73 GiB
    Duration                                 : 1h 49mn
    Overall bit rate                         : 2 274 Kbps
    Writing application                      : HandBrake 0.10.1 2015030800
    Writing library                          : Lavf55.12.0

    Video
    ID                                       : 1
    Format                                   : AVC
    Format/Info                              : Advanced Video Codec
    Format profile                           : High@L3.1
    Format settings, CABAC                   : Yes
    Format settings, ReFrames                : 16 frames
    Codec ID                                 : V_MPEG4/ISO/AVC
    Duration                                 : 1h 49mn
    Bit rate                                 : 2 005 Kbps
    Width                                    : 720 pixels
    Height                                   : 388 pixels
    Display aspect ratio                     : 1.85:1
    Frame rate mode                          : Constant
    Frame rate                               : 25.000 fps
    Color space                              : YUV
    Chroma subsampling                       : 4:2:0
    Bit depth                                : 8 bits
    Scan type                                : Progressive
    Bits/(Pixel*Frame)                       : 0.287
    Stream size                              : 1.53 GiB (88%)
    Writing library                          : x264 core 142 r2479 dd79a61
    Encoding settings                        : cabac=1 / ref=16 / deblock=1:0:0 / analyse=0x3:0x133 / me=umh / subme=10 / psy=1 / psy_rd=1.00:0.00 / mixed_ref=1 / me_range=24 / chroma_me=1 / trellis=2 / 8x8dct=1 / cqm=0 / deadzone=21,11 / fast_pskip=1 / chroma_qp_offset=-2 / threads=6 / lookahead_threads=1 / sliced_threads=0 / nr=0 / decimate=1 / interlaced=0 / bluray_compat=0 / constrained_intra=0 / bframes=8 / b_pyramid=2 / b_adapt=2 / b_bias=0 / direct=3 / weightb=1 / open_gop=0 / weightp=2 / keyint=250 / keyint_min=25 / scenecut=40 / intra_refresh=0 / rc_lookahead=60 / rc=crf / mbtree=1 / crf=16.0 / qcomp=0.60 / qpmin=0 / qpmax=69 / qpstep=4 / ip_ratio=1.40 / aq=1:1.00
    Default                                  : Yes
    Forced                                   : No
    Color primaries                          : BT.601 PAL
    Transfer characteristics                 : BT.709
    Matrix coefficients                      : BT.601
    Color range                              : Limited

    Audio
    ID                                       : 2
    Format                                   : AC-3
    Format/Info                              : Audio Coding 3
    Mode extension                           : CM (complete main)
    Format settings, Endianness              : Big
    Codec ID                                 : A_AC3
    Duration                                 : 1h 49mn
    Bit rate mode                            : Constant
    Bit rate                                 : 224 Kbps
    Channel(s)                               : 2 channels
    Channel positions                        : Front: L R
    Sampling rate                            : 48.0 KHz
    Bit depth                                : 16 bits
    Compression mode                         : Lossy
    Stream size                              : 175 MiB (10%)
    Title                                    : Stereo
    Language                                 : English
    Default                                  : Yes
    Forced                                   : No



    0 0

    Original Post: Hwajung.E20.150616.HDTV.XviD-LIMO

    Details
    Title: 화정 / Hwajung
    Also known as: Splendid Politics
    Previously known as: Princess Jungmyung
    Genre: Historical, political, romance
    Episodes: 50
    Broadcast network: MBC
    Broadcast period: 2015-Apr-13 to 2015-Oct-??
    Air time: Monday & Tuesday 22:00
    Subtitles by Dramafever will be added later
    http://thetvdb.com/?tab=series&id=293910

    Synopsis
    Fair Princess Jungmyung (Lee Yeon Hee) lives a life of the highest privilege, until her half-brother Prince Gwanghae (Cha Seung Won) executes the rightful crown prince and usurps the throne. Exiled from court, Jungmyung goes under disguise as a man and learns to adapt to life as a commoner — never forgetting Gwanghae's wrongdoing. But amidst rampant corruption throughout the kingdom, can Jyungmyung exact her vengeance, restore order and take back her rightful place in the palace?

    Cast

    Main Cast
    Cha Seung Won as Prince Gwanghae
    Lee Tae Hwan as teen Gwanghae
    Lee Yun Hee as Princess Jungmyung
    Jung Chan Bi as teen Jungmyung
    Seo Jung Eun as child Jungmyung
    Kim Jae Won as King Injo
    Seo Kang Joon as Hong Ju Won
    Yoon Chan Young as teen Ju Won
    Choi Kwon Ju as child Ju Won
    Han Joo Wan as Kang In Woo
    Ahn Do Gyu as teen In Woo






    Code
    Video
    ID                                       : 0
    Format                                   : MPEG-4 Visual
    Format profile                           : Advanced Simple@L5
    Format settings, BVOP                    : No
    Format settings, QPel                    : No
    Format settings, GMC                     : No warppoints
    Format settings, Matrix                  : Default (MPEG)
    Codec ID                                 : XVID
    Codec ID/Hint                            : XviD
    Duration                                 : 1h 6mn
    Bit rate                                 : 1 391 Kbps
    Width                                    : 624 pixels
    Height                                   : 352 pixels
    Display aspect ratio                     : 16:9
    Frame rate                               : 29.970 fps
    Color space                              : YUV
    Chroma subsampling                       : 4:2:0
    Bit depth                                : 8 bits
    Scan type                                : Progressive
    Compression mode                         : Lossy
    Bits/(Pixel*Frame)                       : 0.211
    Stream size                              : 660 MiB (87%)
    Writing library                          : XviD 1.2.1 (UTC 2008-12-04)

    Audio
    ID                                       : 1
    Format                                   : MPEG Audio
    Format version                           : Version 1
    Format profile                           : Layer 3
    Mode                                     : Joint stereo
    Mode extension                           : MS Stereo
    Codec ID                                 : 55
    Codec ID/Hint                            : MP3
    Duration                                 : 1h 6mn
    Bit rate mode                            : Constant
    Bit rate                                 : 128 Kbps
    Channel(s)                               : 2 channels
    Sampling rate                            : 48.0 KHz
    Compression mode                         : Lossy
    Stream size                              : 60.8 MiB (8%)
    Alignment                                : Aligned on interleaves
    Writing library                          : LAME3.98.2



    0 0

    Original Post: Hwajung.E20.150616.HDTV.H264.720p-LIMO

    Details
    Title: 화정 / Hwajung
    Also known as: Splendid Politics
    Previously known as: Princess Jungmyung
    Genre: Historical, political, romance
    Episodes: 50
    Broadcast network: MBC
    Broadcast period: 2015-Apr-13 to 2015-Oct-??
    Air time: Monday & Tuesday 22:00
    Subtitles by Dramafever will be added later
    http://thetvdb.com/?tab=series&id=293910

    Synopsis
    Fair Princess Jungmyung (Lee Yeon Hee) lives a life of the highest privilege, until her half-brother Prince Gwanghae (Cha Seung Won) executes the rightful crown prince and usurps the throne. Exiled from court, Jungmyung goes under disguise as a man and learns to adapt to life as a commoner — never forgetting Gwanghae's wrongdoing. But amidst rampant corruption throughout the kingdom, can Jyungmyung exact her vengeance, restore order and take back her rightful place in the palace?

    Cast

    Main Cast
    Cha Seung Won as Prince Gwanghae
    Lee Tae Hwan as teen Gwanghae
    Lee Yun Hee as Princess Jungmyung
    Jung Chan Bi as teen Jungmyung
    Seo Jung Eun as child Jungmyung
    Kim Jae Won as King Injo
    Seo Kang Joon as Hong Ju Won
    Yoon Chan Young as teen Ju Won
    Choi Kwon Ju as child Ju Won
    Han Joo Wan as Kang In Woo
    Ahn Do Gyu as teen In Woo







    Code
    Video
    ID                             : 0
    Format                         : AVC
    Format/Info                    : Advanced Video Codec
    Format profile                 : High@L5.1
    Format settings, CABAC         : Yes
    Format settings, ReFrames      : 4 frames
    Codec ID                       : H264
    Duration                       : 1h 14mn
    Bit rate                       : 3 000 Kbps
    Width                          : 1 280 pixels
    Height                         : 720 pixels
    Display aspect ratio           : 16:9
    Frame rate mode                : Variable
    Frame rate                     : 29.970 fps
    Color space                    : YUV
    Chroma subsampling             : 4:2:0
    Bit depth                      : 8 bits
    Scan type                      : Progressive
    Bits/(Pixel*Frame)             : 0.109
    Stream size                    : 1.57 GiB (94%)
    Writing library                : x264 core 112
    Encoding settings              : cabac=1 / ref=3 / deblock=1:-1:-1 / analyse=0x3:0x113 / me=hex / subme=6 / psy=1 / psy_rd=1.00:1.00 / mixed_ref=1 / me_range=16 / chroma_me=1 / trellis=1 / 8x8dct=1 / cqm=0 / deadzone=21,11 / fast_pskip=0 / chroma_qp_offset=-4 / threads=12 / sliced_threads=0 / nr=0 / decimate=1 / interlaced=0 / constrained_intra=0 / bframes=3 / b_pyramid=2 / b_adapt=1 / b_bias=1 / direct=3 / weightb=1 / open_gop=0 / weightp=2 / keyint=299 / keyint_min=25 / scenecut=1 / intra_refresh=0 / rc_lookahead=40 / rc=abr / mbtree=1 / bitrate=3000 / ratetol=1.0 / qcomp=0.60 / qpmin=10 / qpmax=51 / qpstep=4 / ip_ratio=1.40 / aq=1:1.00

    Audio
    ID                             : 1
    Format                         : MPEG Audio
    Format version                 : Version 1
    Format profile                 : Layer 3
    Mode                           : Joint stereo
    Mode extension                 : MS Stereo
    Codec ID                       : 55
    Codec ID/Hint                  : MP3
    Duration                       : 1h 14mn
    Bit rate mode                  : Constant
    Bit rate                       : 192 Kbps
    Channel(s)                     : 2 channels
    Sampling rate                  : 48.0 KHz
    Compression mode               : Lossy
    Stream size                    : 102 MiB (6%)
    Alignment                      : Split accross interleaves
    Interleave, duration           : 33 ms (1.00 video frame)
    Interleave, preload duration   : 500 ms
    Writing library                : LAME3.98



    0 0

    Original Post: Who Are You - School 2015 Complete HDTV.XviD-LIMO

    Details

    Title: 후아유 - 학교 2015 / Hooayoo - Hakgyo 2015
    Also known as: 학교 6 (School 6)
    Genre: School, youth, drama, mystery
    Episodes: 16
    Broadcast network: KBS2
    Broadcast period: 2015-Apr-27 to 2015-???-??
    Air time: Monday & Tuesday 22:00
    Original Soundtrack: Who Are You - School 2015 OST
    Related TV Shows: School 1 (KBS2, 1999), School 2 (KBS2, 1999), School 3 (KBS2, 2000), School 4 (KBS2, 2001), School 2013 (KBS2, 2013)
    http://thetvdb.com/?tab=series&id=294815

    Synopsis

    This drama is a latest installment to the famed School Series. It will focus on portraying realistic issues, struggles, and dilemmas of today’s youths.

    Segang High School is a top school located in Gangnam District, Seoul. One of the students, Lee Eun Bi, wake up one day without knowing who she was. After find out that she used to be bullied, she changes herself and becomes popular. She then tries to recover her lost memories, and in the process, discovers the hidden truths behind her famous school.

    Cast
    Main Cast
    Kim So Hyun as Lee Eun Bi / Go Eun Byul
    Nam Joo Hyuk as Han Yi Ahn
    Yook Sung Jae as Gong Tae Kwang
    Extended Cast
    Lee Pil Mo as Teacher Kim Joon Suk
    Lee David as Park Min Joon
    Kim Hee Jung as Cha Song Joo
    Lee Cho Hee as Lee Shi Jin
    Jo Soo Hyang as Kang So Young
    Segang High School's teachers
    Lee Hee Do as Vice Principal
    Shin Jung Geun as Students' Supervisor
    The parents
    Jun Mi Sun as Song Mi Kyung (Eun Byul's mother)
    Lee Dae Yeon as Han Ki Choon (Yi Ahn's father)
    Jun Noh Min as Gong Jae Ho (Tae Kwang's father)
    Kim Jung Nan as Shin Jung Min (Min Joon's mother)
    Jung In Ki as Park Joon Hyung (Min Joon's father)
    Kim Se Ah as Shi Jin's mother
    Class 2-3 students
    Park Doo Shik as Kwon Ki Tae
    Yoo Young as Jo Hae Na
    Jang In Sub as Sung Yoon Jae
    Kim Bo Ra as Seo Young Eun






    Code
    Video
    ID                                       : 0
    Format                                   : MPEG-4 Visual
    Format profile                           : Advanced Simple@L5
    Format settings, BVOP                    : No
    Format settings, QPel                    : No
    Format settings, GMC                     : No warppoints
    Format settings, Matrix                  : Default (MPEG)
    Codec ID                                 : XVID
    Codec ID/Hint                            : XviD
    Duration                                 : 1h 6mn
    Bit rate                                 : 1 391 Kbps
    Width                                    : 624 pixels
    Height                                   : 352 pixels
    Display aspect ratio                     : 16:9
    Frame rate                               : 29.970 fps
    Color space                              : YUV
    Chroma subsampling                       : 4:2:0
    Bit depth                                : 8 bits
    Scan type                                : Progressive
    Compression mode                         : Lossy
    Bits/(Pixel*Frame)                       : 0.211
    Stream size                              : 660 MiB (87%)
    Writing library                          : XviD 1.2.1 (UTC 2008-12-04)

    Audio
    ID                                       : 1
    Format                                   : MPEG Audio
    Format version                           : Version 1
    Format profile                           : Layer 3
    Mode                                     : Joint stereo
    Mode extension                           : MS Stereo
    Codec ID                                 : 55
    Codec ID/Hint                            : MP3
    Duration                                 : 1h 6mn
    Bit rate mode                            : Constant
    Bit rate                                 : 128 Kbps
    Channel(s)                               : 2 channels
    Sampling rate                            : 48.0 KHz
    Compression mode                         : Lossy
    Stream size                              : 60.8 MiB (8%)
    Alignment                                : Aligned on interleaves
    Writing library                          : LAME3.98.2



    0 0

    Original Post: Hidden.Identity.E01.150616.HDTV.XviD-WITH

    http://thetvdb.com/index.php?tab=series&id=296439&lid=7
    The heat is on in Investigation 5, an undercover police unit specializing in thwarting violent crimes. Led by Superintendent Jang Moon Won (Park Sung Woong), this team of young and elite officers, including Cha Gun Woo (Kim Bum), Jang Min Joo (Yoon So Yi), and Choi Tae Pyung (Lee Won Jong), assume new identities and infiltrate dangerous crime syndicates. With only their wits and poker faces at their disposal, can the team complete their missions without blowing their covers in hostile territory?

    Subtitles by Dramafever will be added later

    Cast
    Kim Bum as Cha Gun Woo
    Yoon So Yi as Jang Min Joo
    Park Sung Woong as Jang Moo Won
    Lee Won Jong as Choi Tae Pyung
    Kim Tae Hoon as Min Tae In










    Code
    Video
    ID                                       : 0
    Format                                   : MPEG-4 Visual
    Format profile                           : Advanced Simple@L5
    Format settings, BVOP                    : 2
    Format settings, QPel                    : No
    Format settings, GMC                     : No warppoints
    Format settings, Matrix                  : Default (H.263)
    Muxing mode                              : Packed bitstream
    Codec ID                                 : XVID
    Codec ID/Hint                            : XviD
    Duration                                 : 1h 2mn
    Bit rate                                 : 1 237 Kbps
    Width                                    : 640 pixels
    Height                                   : 352 pixels
    Display aspect ratio                     : 16:9
    Frame rate                               : 29.970 fps
    Color space                              : YUV
    Chroma subsampling                       : 4:2:0
    Bit depth                                : 8 bits
    Scan type                                : Progressive
    Compression mode                         : Lossy
    Bits/(Pixel*Frame)                       : 0.183
    Stream size                              : 550 MiB (90%)
    Writing library                          : XviD 58

    Audio
    ID                                       : 1
    Format                                   : MPEG Audio
    Format version                           : Version 1
    Format profile                           : Layer 3
    Mode                                     : Joint stereo
    Mode extension                           : MS Stereo
    Codec ID                                 : 55
    Codec ID/Hint                            : MP3
    Duration                                 : 1h 2mn
    Bit rate mode                            : Constant
    Bit rate                                 : 128 Kbps
    Channel(s)                               : 2 channels
    Sampling rate                            : 48.0 KHz
    Compression mode                         : Lossy
    Stream size                              : 56.9 MiB (9%)
    Alignment                                : Aligned on interleaves
    Interleave, duration                     : 33 ms (1.00 video frame)
    Interleave, preload duration             : 504 ms



    0 0

    Original Post: Hidden.Identity.E01.150616.HDTV.H264.720p-WITH

    http://thetvdb.com/index.php?tab=series&id=296439&lid=7
    The heat is on in Investigation 5, an undercover police unit specializing in thwarting violent crimes. Led by Superintendent Jang Moon Won (Park Sung Woong), this team of young and elite officers, including Cha Gun Woo (Kim Bum), Jang Min Joo (Yoon So Yi), and Choi Tae Pyung (Lee Won Jong), assume new identities and infiltrate dangerous crime syndicates. With only their wits and poker faces at their disposal, can the team complete their missions without blowing their covers in hostile territory?

    Subtitles by Dramafever will be added later

    Cast
    Kim Bum as Cha Gun Woo
    Yoon So Yi as Jang Min Joo
    Park Sung Woong as Jang Moo Won
    Lee Won Jong as Choi Tae Pyung
    Kim Tae Hoon as Min Tae In









    Code
    Video
    ID                                       : 1
    Format                                   : AVC
    Format/Info                              : Advanced Video Codec
    Format profile                           : Baseline@L1.3
    Format settings, CABAC                   : No
    Format settings, ReFrames                : 1 frame
    Codec ID                                 : avc1
    Codec ID/Info                            : Advanced Video Coding
    Duration                                 : 1h 3mn
    Bit rate                                 : 2 200 Kbps
    Maximum bit rate                         : 6 012 Kbps
    Width                                    : 1 280 pixels
    Height                                   : 720 pixels
    Display aspect ratio                     : 16:9
    Frame rate mode                          : Constant
    Frame rate                               : 29.970 fps
    Color space                              : YUV
    Chroma subsampling                       : 4:2:0
    Bit depth                                : 8 bits
    Scan type                                : Progressive
    Bits/(Pixel*Frame)                       : 0.080
    Stream size                              : 1 018 MiB (90%)
    Writing library                          : x264 core 128 r2216 198a7ea
    Encoding settings                        : cabac=0 / ref=1 / deblock=1:0:0 / analyse=0x1:0x111 / me=hex / subme=7 / psy=1 / psy_rd=1.00:0.00 / mixed_ref=0 / me_range=16 / chroma_me=1 / trellis=1 / 8x8dct=0 / cqm=0 / deadzone=21,11 / fast_pskip=1 / chroma_qp_offset=-2 / threads=12 / lookahead_threads=2 / sliced_threads=0 / nr=0 / decimate=1 / interlaced=0 / bluray_compat=0 / constrained_intra=0 / bframes=0 / weightp=0 / keyint=250 / keyint_min=25 / scenecut=40 / intra_refresh=0 / rc_lookahead=40 / rc=abr / mbtree=1 / bitrate=2200 / ratetol=1.0 / qcomp=0.60 / qpmin=0 / qpmax=69 / qpstep=4 / vbv_maxrate=50000 / vbv_bufsize=50000 / nal_hrd=none / ip_ratio=1.40 / aq=1:1.00


    Audio
    ID                                       : 2
    Format                                   : AAC
    Format/Info                              : Advanced Audio Codec
    Format profile                           : LC
    Codec ID                                 : 40
    Duration                                 : 1h 3mn
    Bit rate mode                            : Variable
    Bit rate                                 : 256 Kbps
    Maximum bit rate                         : 262 Kbps
    Channel(s)                               : 2 channels
    Channel positions                        : Front: L R
    Sampling rate                            : 48.0 KHz
    Compression mode                         : Lossy



    0 0

    Original Post: Hidden.Identity.E02.150617.HDTV.XviD-WITH

    http://thetvdb.com/index.php?tab=series&id=296439&lid=7
    The heat is on in Investigation 5, an undercover police unit specializing in thwarting violent crimes. Led by Superintendent Jang Moon Won (Park Sung Woong), this team of young and elite officers, including Cha Gun Woo (Kim Bum), Jang Min Joo (Yoon So Yi), and Choi Tae Pyung (Lee Won Jong), assume new identities and infiltrate dangerous crime syndicates. With only their wits and poker faces at their disposal, can the team complete their missions without blowing their covers in hostile territory?

    Subtitles by Dramafever will be added later

    Cast
    Kim Bum as Cha Gun Woo
    Yoon So Yi as Jang Min Joo
    Park Sung Woong as Jang Moo Won
    Lee Won Jong as Choi Tae Pyung
    Kim Tae Hoon as Min Tae In










    Code
    Video
    ID                                       : 0
    Format                                   : MPEG-4 Visual
    Format profile                           : Advanced Simple@L5
    Format settings, BVOP                    : 2
    Format settings, QPel                    : No
    Format settings, GMC                     : No warppoints
    Format settings, Matrix                  : Default (H.263)
    Muxing mode                              : Packed bitstream
    Codec ID                                 : XVID
    Codec ID/Hint                            : XviD
    Duration                                 : 1h 2mn
    Bit rate                                 : 1 237 Kbps
    Width                                    : 640 pixels
    Height                                   : 352 pixels
    Display aspect ratio                     : 16:9
    Frame rate                               : 29.970 fps
    Color space                              : YUV
    Chroma subsampling                       : 4:2:0
    Bit depth                                : 8 bits
    Scan type                                : Progressive
    Compression mode                         : Lossy
    Bits/(Pixel*Frame)                       : 0.183
    Stream size                              : 550 MiB (90%)
    Writing library                          : XviD 58

    Audio
    ID                                       : 1
    Format                                   : MPEG Audio
    Format version                           : Version 1
    Format profile                           : Layer 3
    Mode                                     : Joint stereo
    Mode extension                           : MS Stereo
    Codec ID                                 : 55
    Codec ID/Hint                            : MP3
    Duration                                 : 1h 2mn
    Bit rate mode                            : Constant
    Bit rate                                 : 128 Kbps
    Channel(s)                               : 2 channels
    Sampling rate                            : 48.0 KHz
    Compression mode                         : Lossy
    Stream size                              : 56.9 MiB (9%)
    Alignment                                : Aligned on interleaves
    Interleave, duration                     : 33 ms (1.00 video frame)
    Interleave, preload duration             : 504 ms



    0 0

    Original Post: Hidden.Identity.E02.150617.HDTV.H264.720p-WITH

    http://thetvdb.com/index.php?tab=series&id=296439&lid=7
    The heat is on in Investigation 5, an undercover police unit specializing in thwarting violent crimes. Led by Superintendent Jang Moon Won (Park Sung Woong), this team of young and elite officers, including Cha Gun Woo (Kim Bum), Jang Min Joo (Yoon So Yi), and Choi Tae Pyung (Lee Won Jong), assume new identities and infiltrate dangerous crime syndicates. With only their wits and poker faces at their disposal, can the team complete their missions without blowing their covers in hostile territory?

    Subtitles by Dramafever will be added later

    Cast
    Kim Bum as Cha Gun Woo
    Yoon So Yi as Jang Min Joo
    Park Sung Woong as Jang Moo Won
    Lee Won Jong as Choi Tae Pyung
    Kim Tae Hoon as Min Tae In









    Code
    Video
    ID                                       : 1
    Format                                   : AVC
    Format/Info                              : Advanced Video Codec
    Format profile                           : Baseline@L1.3
    Format settings, CABAC                   : No
    Format settings, ReFrames                : 1 frame
    Codec ID                                 : avc1
    Codec ID/Info                            : Advanced Video Coding
    Duration                                 : 1h 3mn
    Bit rate                                 : 2 200 Kbps
    Maximum bit rate                         : 6 012 Kbps
    Width                                    : 1 280 pixels
    Height                                   : 720 pixels
    Display aspect ratio                     : 16:9
    Frame rate mode                          : Constant
    Frame rate                               : 29.970 fps
    Color space                              : YUV
    Chroma subsampling                       : 4:2:0
    Bit depth                                : 8 bits
    Scan type                                : Progressive
    Bits/(Pixel*Frame)                       : 0.080
    Stream size                              : 1 018 MiB (90%)
    Writing library                          : x264 core 128 r2216 198a7ea
    Encoding settings                        : cabac=0 / ref=1 / deblock=1:0:0 / analyse=0x1:0x111 / me=hex / subme=7 / psy=1 / psy_rd=1.00:0.00 / mixed_ref=0 / me_range=16 / chroma_me=1 / trellis=1 / 8x8dct=0 / cqm=0 / deadzone=21,11 / fast_pskip=1 / chroma_qp_offset=-2 / threads=12 / lookahead_threads=2 / sliced_threads=0 / nr=0 / decimate=1 / interlaced=0 / bluray_compat=0 / constrained_intra=0 / bframes=0 / weightp=0 / keyint=250 / keyint_min=25 / scenecut=40 / intra_refresh=0 / rc_lookahead=40 / rc=abr / mbtree=1 / bitrate=2200 / ratetol=1.0 / qcomp=0.60 / qpmin=0 / qpmax=69 / qpstep=4 / vbv_maxrate=50000 / vbv_bufsize=50000 / nal_hrd=none / ip_ratio=1.40 / aq=1:1.00


    Audio
    ID                                       : 2
    Format                                   : AAC
    Format/Info                              : Advanced Audio Codec
    Format profile                           : LC
    Codec ID                                 : 40
    Duration                                 : 1h 3mn
    Bit rate mode                            : Variable
    Bit rate                                 : 256 Kbps
    Maximum bit rate                         : 262 Kbps
    Channel(s)                               : 2 channels
    Channel positions                        : Front: L R
    Sampling rate                            : 48.0 KHz
    Compression mode                         : Lossy



    0 0
  • 06/16/15--06:34: The Banquet - 2006 1080p DTS
  • Original Post: The Banquet - 2006 1080p DTS

    The Banquet








    Details:
    Title (English): The banquet
    A.K.A: Ye yan | Legend of the Black Scorpion
    Genre: Action | Drama | Fantasy | History | War
    Year: 2006
    Country: China
    Directed: Xiaogang Feng
    Language: Mandarin
    Subtitles: ENGLISH | CHINESE T/S Selectable(Embedded)
    MDB:http://www.imdb.com/title/tt0465676/
    WIKIpedia:[url]https://en.wikipedia.org/wiki/The_Banquet_(2006_film)[/url]


    Synopsis credit to Mastameta:
    Director Feng Xiaogang's The Banquet was submitted for the 2006 Academy Awards.
    This martial arts costume drama features multiple award-winning actor Ge You,
    Zhang Ziyi, Daniel Wu and Zhou Xun.
    Inspired by the Shakespeare play Hamlet, The Banquet is about desire and power
    struggles at the imperial court that come to a climax at a night banquet.


    Cast:
    Zhang Ziyi as Empress Wan
    Ge You as Emperor Li
    Daniel Wu as Crown Prince Wu Luan
    Zhou Xun as Qing
    Ma Jingwu as Minister Yin Taichang
    Huang Xiaoming as General Yin Sun
    Zhou Zhonghe as Lord Chamberlain
    Zeng Qiusheng as Governor Pei Hong
    Xu Xiyan as Ling
    Aaron Shang as Jiang Lei
    Liu Yanbin as messenger
    Ma Lun as pharmacist
    Xiang Bin as imperial guard
    Cheng Chun-yue as imperial guard
    Liu Tieyong as court secretary
    Wang Yubo as red-faced dancer
    Cheung Lam as joker
    Bo Bing as executioner
    Zhao Liang as dancer
    Cui Kai as dancer
    Fei Bo as dancer
    Du Jingyi as dancer
    Ou Siwei as dancer
    Toyomi Yusuke as dancer
    Takita Atsushi as dancer


    Technical INFO:

    Code

    Video
    ID                                       : 1
    Format                                   : AVC
    Format/Info                              : Advanced Video Codec
    Format profile                           : High@L4.1
    Format settings, CABAC                   : Yes
    Format settings, ReFrames                : 2 frames
    Codec ID                                 : V_MPEG4/ISO/AVC
    Duration                                 : 2h 11mn
    Bit rate mode                            : Variable
    Bit rate                                 : 7 891 Kbps
    Maximum bit rate                         : 35.0 Mbps
    Width                                    : 1 920 pixels
    Height                                   : 1 080 pixels
    Display aspect ratio                     : 16:9
    Frame rate mode                          : Constant
    Frame rate                               : 23.976 fps
    Color space                              : YUV
    Chroma subsampling                       : 4:2:0
    Bit depth                                : 8 bits
    Scan type                                : Progressive
    Bits/(Pixel*Frame)                       : 0.159
    Stream size                              : 7.23 GiB (82%)

    Audio
    ID                                       : 2
    Format                                   : DTS
    Format/Info                              : Digital Theater Systems
    Mode                                     : 16
    Format settings, Endianness              : Big
    Codec ID                                 : A_DTS
    Duration                                 : 2h 11mn
    Bit rate mode                            : Constant
    Bit rate                                 : 1 509 Kbps
    Channel(s)                               : 6 channels
    Channel positions                        : Front: L C R, Side: L R, LFE
    Sampling rate                            : 48.0 KHz
    Bit depth                                : 24 bits
    Compression mode                         : Lossy
    Stream size                              : 1.38 GiB (16%)
    Title                                    : Surround 5.1
    Language                                 : Chinese
    Default                                  : Yes
    Forced                                   : No

    Text #1
    ID                                       : 3
    Format                                   : PGS
    Codec ID                                 : S_HDMV/PGS
    Codec ID/Info                            : The same subtitle format used on BDs/HD-DVDs
    Language                                 : English
    Default                                  : Yes
    Forced                                   : No

    Text #2
    ID                                       : 4
    Format                                   : PGS
    Codec ID                                 : S_HDMV/PGS
    Codec ID/Info                            : The same subtitle format used on BDs/HD-DVDs
    Language                                 : Chinese
    Default                                  : No
    Forced                                   : No

    Text #3
    ID                                       : 5
    Format                                   : PGS
    Codec ID                                 : S_HDMV/PGS
    Codec ID/Info                            : The same subtitle format used on BDs/HD-DVDs
    Language                                 : Chinese
    Default                                  : No
    Forced                                   : No


    Enjoy LEECHING hump.gif , keep SEEDING  fish.gif


    0 0

    Original Post: The Yagyu Conspiracy: Complete Series (1978/1979 Remastered DVDRIP)

    This is the complete UNCUT AND UNCENSORED set of all 39 episodes, mastered from new prints, with removable English subtitles. NOT a Hawaiian or San Francisco censored TV recording, which has been available till now

    See here for the 1978 movie version "The Shogun's Samurai - The Yagyu Clan Conspiracy" with Kinnosuke Nakamura, Toshiro Mifune, Hiroyuki Matsukata, Sonny Chiba, Hiroyuki Sanada, and Tetsuro Tanba
    https://www.asiatorrents.me/index.php?page=torrent-details&id=ad1d42a1fb3fd5630e905073ffc844628f1254f5

    See here for the sequel of The Yagyu Conspiracy series "Yagyu Abaretabi" with Sonny Chiba - Please seed for those who have not seen it already
    https://www.asiatorrents.me/index.php?page=torrent-details&id=2cbcb16fe95d27eab2c900eb7d2df0a323ddf41d

    See here for another sequel of The Yagyu Conspiracy series "Yagyu Jubei Abaretabi" with Sonny Chiba - Please seed for those who have not seen it already
    https://www.asiatorrents.me/index.php?page=torrent-details&id=59ef1e952a0297455d86f620b8fe4b1272a1ff92

    Synopsis: The story opens during the last days of the second Shogun, who has two sons, Iemitsu and Tadanaga. Iemitsu is the elder son and is expected to become the next Shogun. However, the real lion's share of the power is held by the Shogun. The Emperor, who belongs to the Noble class must approve the selection of a new Shogun. This rules governing behaviour for the Nobles are distinctly different from the rules for the Samurai. The main goal of the Nobles is to restore the true governing power to Japan to the Emperor. To accomplish this goal, the Nobles feel the more chaos the better. The Yagyu Conspiracy retells the one of the most exciting and intriguing chapters found in Japanese history...

    Title: The Yagyu Conspiracy
    Japanese title: Yagyu Ichizoku No Inbo
    Director: Kinji Fukasaku
    Genre: Jidaigeki / Action / Drama
    Release date: 1978/79
    Runtime: 1800min approx
    Language: Japanese
    Country: Japan
    Subtitles: English (optional)
    IMDB URL:http://www.imdb.com/title/tt0278257/

    Starring: Sonny Chiba, So Yamamura, Yuki Meguro, Etsuo Shima, Etsuko Shihomi, Ryo Tamura, Ken Nishida, Mikio Narita, Michiyo Kogure, Etsushi Takahashi, Fumio Watanabe, Asao Koike, Yumi Takigawa, Hiromi Okamoto, Mariko Okada

    Special guest stars:Kinnosuke Nakamura, Hiroyuki Sanada



    Screen Shots

    Kinnosuke Nakamura


    Etsuko Shihomi


    Sonny Chiba


    Technical Information

    Video
    ID: 1
    Format: AVC
    Format/Info: Advanced Video Codec
    Format profile: Main@L4.0
    Format settings, CABAC: Yes
    Format settings, ReFrames: 4 frames
    Codec ID: V_MPEG4/ISO/AVC
    Bit rate: 1 622 Kbps
    Width*Height : 696*466, 696*470 pixels
    Display aspect ratio: 4:3
    Original display aspect ratio: 4:3
    Frame rate mode: Variable
    Color space: YUV
    Chroma subsampling: 4:2:0
    Bit depth: 8 bits
    Scan type: Progressive
    Writing library: x264 core 142 r2479 dd79a61
    Encoding settings: cabac=1 / ref=1 / deblock=1:0:0 / analyse=0x1:0x111 / me=hex / subme=2 / psy=1 / psy_rd=1.00:0.00 / mixed_ref=0 / me_range=16 / chroma_me=1 / trellis=0 / 8x8dct=0 / cqm=0 / deadzone=21,11 / fast_pskip=1 / chroma_qp_offset=0 / threads=6 / lookahead_threads=2 / sliced_threads=0 / nr=0 / decimate=1 / interlaced=0 / bluray_compat=0 / constrained_intra=0 / bframes=3 / b_pyramid=2 / b_adapt=1 / b_bias=0 / direct=1 / weightb=1 / open_gop=0 / weightp=1 / keyint=300 / keyint_min=30 / scenecut=40 / intra_refresh=0 / rc_lookahead=10 / rc=crf / mbtree=1 / crf=20.0 / qcomp=0.60 / qpmin=0 / qpmax=69 / qpstep=4 / vbv_maxrate=20000 / vbv_bufsize=25000 / crf_max=0.0 / nal_hrd=none / filler=0 / ip_ratio=1.40 / aq=1:1.00
    Default: Yes
    Forced: No
    Color primaries: BT.601 NTSC
    Transfer characteristics: BT.709
    Matrix coefficients: BT.601
    Color range: Limited

    Audio
    ID: 2
    Format: AC-3
    Format/Info: Audio Coding 3
    Mode extension: CM (complete main)
    Format settings, Endianness: Big
    Codec ID: A_AC3
    Duration: 1800mn
    Bit rate mode: Constant
    Bit rate: 384 Kbps
    Channel(s): 2 channels
    Channel positions: Front: L R
    Sampling rate: 48.0 KHz
    Bit depth: 16 bits
    Compression mode: Lossy
    Stream size: 126 MiB (19%)
    Title: Stereo
    Language: Japanese
    Default: Yes
    Forced: No

    Text
    ID: 3
    Format: VobSub
    Codec ID: S_VOBSUB
    Codec ID/Info: The same subtitle format used on DVDs
    Language: English
    Default: Yes
    Forced: No

    The torrent wont be seeded between 23:00 and 08:00 UK time.


    0 0

    Original Post: Who Are You - School 2015 Complete HDTV X264 Small LIMO

    Details

    Title: 후아유 - 학교 2015 / Hooayoo - Hakgyo 2015
    Also known as: 학교 6 (School 6)
    Genre: School, youth, drama, mystery
    Episodes: 16
    Broadcast network: KBS2
    Broadcast period: 2015-Apr-27 to 2015-???-??
    Air time: Monday & Tuesday 22:00
    Original Soundtrack: Who Are You - School 2015 OST
    Related TV Shows: School 1 (KBS2, 1999), School 2 (KBS2, 1999), School 3 (KBS2, 2000), School 4 (KBS2, 2001), School 2013 (KBS2, 2013)
    http://thetvdb.com/?tab=series&id=294815

    Synopsis

    This drama is a latest installment to the famed School Series. It will focus on portraying realistic issues, struggles, and dilemmas of today’s youths.

    Segang High School is a top school located in Gangnam District, Seoul. One of the students, Lee Eun Bi, wake up one day without knowing who she was. After find out that she used to be bullied, she changes herself and becomes popular. She then tries to recover her lost memories, and in the process, discovers the hidden truths behind her famous school.

    Cast
    Main Cast
    Kim So Hyun as Lee Eun Bi / Go Eun Byul
    Nam Joo Hyuk as Han Yi Ahn
    Yook Sung Jae as Gong Tae Kwang
    Extended Cast
    Lee Pil Mo as Teacher Kim Joon Suk
    Lee David as Park Min Joon
    Kim Hee Jung as Cha Song Joo
    Lee Cho Hee as Lee Shi Jin
    Jo Soo Hyang as Kang So Young
    Segang High School's teachers
    Lee Hee Do as Vice Principal
    Shin Jung Geun as Students' Supervisor
    The parents
    Jun Mi Sun as Song Mi Kyung (Eun Byul's mother)
    Lee Dae Yeon as Han Ki Choon (Yi Ahn's father)
    Jun Noh Min as Gong Jae Ho (Tae Kwang's father)
    Kim Jung Nan as Shin Jung Min (Min Joon's mother)
    Jung In Ki as Park Joon Hyung (Min Joon's father)
    Kim Se Ah as Shi Jin's mother
    Class 2-3 students
    Park Doo Shik as Kwon Ki Tae
    Yoo Young as Jo Hae Na
    Jang In Sub as Sung Yoon Jae
    Kim Bo Ra as Seo Young Eun






    Code
    Video
    ID                                       : 1
    Format                                   : AVC
    Format/Info                              : Advanced Video Codec
    Format profile                           : Main@L4.0
    Format settings, CABAC                   : Yes
    Format settings, ReFrames                : 4 frames
    Codec ID                                 : V_MPEG4/ISO/AVC
    Duration                                 : 58mn 22s
    Bit rate                                 : 450 Kbps
    Width                                    : 640 pixels
    Height                                   : 352 pixels
    Display aspect ratio                     : 16:9
    Frame rate mode                          : Variable
    Frame rate                               : 29.970 fps
    Color space                              : YUV
    Chroma subsampling                       : 4:2:0
    Bit depth                                : 8 bits
    Scan type                                : Progressive
    Bits/(Pixel*Frame)                       : 0.067
    Stream size                              : 187 MiB (76%)
    Writing library                          : x264 core 130 r2273 b3065e6
    Encoding settings                        : cabac=1 / ref=1 / deblock=1:0:0 / analyse=0x1:0x111 / me=hex / subme=2 / psy=1 / psy_rd=1.00:0.00 / mixed_ref=0 / me_range=16 / chroma_me=1 / trellis=0 / 8x8dct=0 / cqm=0 / deadzone=21,11 / fast_pskip=1 / chroma_qp_offset=0 / threads=1 / lookahead_threads=1 / sliced_threads=0 / nr=0 / decimate=1 / interlaced=0 / bluray_compat=0 / constrained_intra=0 / bframes=3 / b_pyramid=2 / b_adapt=1 / b_bias=0 / direct=1 / weightb=1 / open_gop=0 / weightp=1 / keyint=300 / keyint_min=30 / scenecut=40 / intra_refresh=0 / rc_lookahead=10 / rc=abr / mbtree=1 / bitrate=450 / ratetol=1.0 / qcomp=0.60 / qpmin=0 / qpmax=69 / qpstep=4 / vbv_maxrate=20000 / vbv_bufsize=25000 / nal_hrd=none / ip_ratio=1.40 / aq=1:1.00
    Language                                 : English
    Default                                  : Yes
    Forced                                   : No

    Audio
    ID                                       : 2
    Format                                   : MPEG Audio
    Format version                           : Version 1
    Format profile                           : Layer 3
    Mode                                     : Joint stereo
    Mode extension                           : MS Stereo
    Codec ID                                 : A_MPEG/L3
    Codec ID/Hint                            : MP3
    Duration                                 : 58mn 22s
    Bit rate mode                            : Constant
    Bit rate                                 : 128 Kbps
    Channel(s)                               : 2 channels
    Sampling rate                            : 48.0 KHz
    Compression mode                         : Lossy
    Stream size                              : 53.4 MiB (22%)



    0 0

    Original Post: Girl's Blood 2014 480p BDRip x264 AC3 Koichi Sakamoto Director's Cut

    Contains nudity



    Girl's Blood

    Original Title:赤×ピンク
    IMDb:http://www.imdb.com/title/tt3456784
    AsianWiki:http://asianwiki.com/Girl%27s_Blood
    Review:Bullets 'n' Babes

    Director: Koichi Sakamoto
    Writers: Kazuki Sakuraba (novel), Takehiko Minato
    Genre: Drama / Action
    Release Date: 22 February 2014
    Runtime: 128 min
    Country: Japan
    Language: Japanese
    Subtitles: English
    Source: Pony Canyon JP BD50 (Thanks to kemushi& Obscureness @ ADC for the disc)
    Obscureness :
    Thanks to kemushi for uploading the raw.

    The subs were translated from Chinese by Subscene user 9moon. WahDee from AT made substantial revisions to greatly improve the translation. So huge thanks to them! I made a few more edits and quite a bit of retiming for the Blu-ray.

    Synopsis: Set in the seedy underbelly of Tokyo, the film by director-former action choreographer Sakamoto Koichi follows the lives of four women who join an underground MMA fight club in an abandoned elementary school. Every night, the women escape their mundane lives and troubled pasts by stepping into the ring under unique personas and take on brutal fights in front of a spectacle-hungry audience.

    Uploader's Comments: Apart from the occasionally pervy camera work and overuse of slow motion in the more intimate scenes (Do we really need a 6 minute sex scene almost entirely in slowmo or lots of shower scenes taking the same approach? smile1.gif), I'd say this is quite successful as far as genre films go. The sound mixing in particular is great in the cage fights and for once I didn't mind the quick cuts. The lesbian take and gender identity issues are predictably not touched upon very deeply but it didn't feel painfully stereotypical.

    Rina Koike, the lolita girl, played Luna's human form in PGSM. Took me a while to realize where I'd seen her before.

    I re-timed about half of the lines as they often were too short and revised a select few where the translation was wrong. They're still not perfect and could do with some more work. But I feel that they're definitely good enough, so thanks to the ones involved in making them in the first place.

    MediaInfo
    Spoiler:show
    General
    Unique ID : 215724912337596912141829079230799158108 (0xA24B1B5A01799C6F8596B7AB7A841B5C)
    Complete name : Girls.Blood.2014.480p.BDRip.x264.AC3-Jongl0.mkv
    Format : Matroska
    Format version : Version 4 / Version 2
    File size : 1.87 GiB
    Duration : 2h 7mn
    Overall bit rate : 2 089 Kbps
    Encoded date : UTC 2015-06-16 16:09:03
    Writing application : mkvmerge v7.6.0 ('Garden of Dreams') 64bit built on Feb 8 2015 13:04:34
    Writing library : libebml v1.3.1 + libmatroska v1.4.2
    DURATION : 02:07:57.696000000
    NUMBER_OF_FRAMES : 239928
    NUMBER_OF_BYTES : 368529408
    _STATISTICS_WRITING_APP : mkvmerge v7.6.0 ('Garden of Dreams') 64bit built on Feb 8 2015 13:04:34
    _STATISTICS_WRITING_DATE_UTC : 2015-06-16 16:09:03
    _STATISTICS_TAGS : BPS DURATION NUMBER_OF_FRAMES NUMBER_OF_BYTES

    Video
    ID : 1
    Format : AVC
    Format/Info : Advanced Video Codec
    Format profile : High@L4.1
    Format settings, CABAC : Yes
    Format settings, ReFrames : 16 frames
    Codec ID : V_MPEG4/ISO/AVC
    Duration : 2h 7mn
    Bit rate : 1 663 Kbps
    Width : 854 pixels
    Height : 452 pixels
    Display aspect ratio : 1.889
    Frame rate mode : Constant
    Frame rate : 23.976 fps
    Color space : YUV
    Chroma subsampling : 4:2:0
    Bit depth : 8 bits
    Scan type : Progressive
    Bits/(Pixel*Frame) : 0.180
    Stream size : 1.49 GiB (80%)
    Writing library : x264 core 142 r2431 ac76440
    Encoding settings : cabac=1 / ref=16 / deblock=1:-3:-3 / analyse=0x3:0x133 / me=umh / subme=10 / psy=1 / psy_rd=1.00:0.05 / mixed_ref=1 / me_range=32 / chroma_me=1 / trellis=2 / 8x8dct=1 / cqm=0 / deadzone=21,11 / fast_pskip=0 / chroma_qp_offset=-3 / threads=12 / lookahead_threads=3 / sliced_threads=0 / nr=0 / decimate=0 / interlaced=0 / bluray_compat=0 / constrained_intra=0 / bframes=10 / b_pyramid=2 / b_adapt=2 / b_bias=0 / direct=3 / weightb=1 / open_gop=0 / weightp=2 / keyint=240 / keyint_min=23 / scenecut=40 / intra_refresh=0 / rc_lookahead=160 / rc=crf / mbtree=1 / crf=18.5 / qcomp=0.60 / qpmin=0 / qpmax=69 / qpstep=4 / vbv_maxrate=14000 / vbv_bufsize=14000 / crf_max=0.0 / nal_hrd=none / filler=0 / ip_ratio=1.40 / aq=1:0.90
    Default : Yes
    Forced : No
    DURATION : 02:07:57.629000000
    NUMBER_OF_FRAMES : 184079
    NUMBER_OF_BYTES : 1634530395
    _STATISTICS_WRITING_APP : mkvmerge v7.6.0 ('Garden of Dreams') 64bit built on Feb 8 2015 13:04:34
    _STATISTICS_WRITING_DATE_UTC : 2015-06-16 16:09:03
    _STATISTICS_TAGS : BPS DURATION NUMBER_OF_FRAMES NUMBER_OF_BYTES

    Audio
    ID : 2
    Format : AC-3
    Format/Info : Audio Coding 3
    Mode extension : CM (complete main)
    Format settings, Endianness : Big
    Codec ID : A_AC3
    Duration : 2h 7mn
    Bit rate mode : Constant
    Bit rate : 384 Kbps
    Channel(s) : 6 channels
    Channel positions : Front: L C R, Side: L R, LFE
    Sampling rate : 48.0 KHz
    Bit depth : 16 bits
    Compression mode : Lossy
    Stream size : 351 MiB (18%)
    Language : Japanese
    Default : Yes
    Forced : No

    Text
    ID : 3
    Format : UTF-8
    Codec ID : S_TEXT/UTF8
    Codec ID/Info : UTF-8 Plain Text
    Language : English
    Default : Yes
    Forced : No

    Menu
    00:00:00.000 : en:Chapter 1
    00:14:32.497 : en:Chapter 2
    00:25:15.139 : en:Chapter 3
    00:33:10.238 : en:Chapter 4
    00:45:41.822 : en:Chapter 5
    00:53:54.565 : en:Chapter 6
    01:06:16.264 : en:Chapter 7
    01:16:53.150 : en:Chapter 8
    01:30:49.319 : en:Chapter 9
    01:42:18.549 : en:Chapter 10
    01:53:27.259 : en:Chapter 11
    02:03:37.994 : en:Chapter 12


    Mark Schilling :
    Based on a novel by Sakuraba Kazuki, Sakamoto Koichi’s Girl’s Blood (Aka X Pinku) goes back to the basics of martial arts action, with no buzzing limb replacements and hardly any weapons in sight, save for a whip wielded by a pillowy-lipped dominatrix named Miko (Misaki Ayame). Also the mostly female cast expends real sweat, displays real fighting skills and takes dozens of painful-looking slams against steel mesh and other unforgiving surfaces, with little help from wires or CGI effects.




    0 0

    Original Post: Girl's Blood 2014 576p BDRip x264 AC3 Koichi Sakamoto Director's Cut

    Contains nudity



    Girl's Blood

    Original Title:赤×ピンク
    IMDb:http://www.imdb.com/title/tt3456784
    AsianWiki:http://asianwiki.com/Girl%27s_Blood
    Review:Bullets 'n' Babes

    Director: Koichi Sakamoto
    Writers: Kazuki Sakuraba (novel), Takehiko Minato
    Genre: Drama / Action
    Release Date: 22 February 2014
    Runtime: 128 min
    Country: Japan
    Language: Japanese
    Subtitles: English
    Source: Pony Canyon JP BD50 (Thanks to kemushi& Obscureness @ ADC for the disc)
    Obscureness :
    Thanks to kemushi for uploading the raw.

    The subs were translated from Chinese by Subscene user 9moon. WahDee from AT made substantial revisions to greatly improve the translation. So huge thanks to them! I made a few more edits and quite a bit of retiming for the Blu-ray.

    Synopsis: Set in the seedy underbelly of Tokyo, the film by director-former action choreographer Sakamoto Koichi follows the lives of four women who join an underground MMA fight club in an abandoned elementary school. Every night, the women escape their mundane lives and troubled pasts by stepping into the ring under unique personas and take on brutal fights in front of a spectacle-hungry audience.

    Uploader's Comments: Apart from the occasionally pervy camera work and overuse of slow motion in the more intimate scenes (Do we really need a 6 minute sex scene almost entirely in slowmo or lots of shower scenes taking the same approach? smile1.gif), I'd say this is quite successful as far as genre films go. The sound mixing in particular is great in the cage fights and for once I didn't mind the quick cuts. The lesbian take and gender identity issues are predictably not touched upon very deeply but it didn't feel painfully stereotypical.

    Rina Koike, the lolita girl, played Luna's human form in PGSM. Took me a while to realize where I'd seen her before.

    I re-timed about half of the lines as they often were too short and revised a select few where the translation was wrong. They're still not perfect and could do with some more work. But I feel that they're definitely good enough, so thanks to the ones involved in making them in the first place.

    MediaInfo
    Spoiler:show
    General
    Unique ID : 235884193375000411080593102780889650878 (0xB175A4A50295AC2B83EACDB10C5956BE)
    Complete name : Girls.Blood.2014.576p.BDRip.x264.AC3-Jongl0.mkv
    Format : Matroska
    Format version : Version 4 / Version 2
    File size : 2.84 GiB
    Duration : 2h 7mn
    Overall bit rate : 3 179 Kbps
    Encoded date : UTC 2015-06-16 15:51:02
    Writing application : mkvmerge v7.6.0 ('Garden of Dreams') 64bit built on Feb 8 2015 13:04:34
    Writing library : libebml v1.3.1 + libmatroska v1.4.2
    DURATION : 02:07:57.696000000
    NUMBER_OF_FRAMES : 239928
    NUMBER_OF_BYTES : 368529408
    _STATISTICS_WRITING_APP : mkvmerge v7.6.0 ('Garden of Dreams') 64bit built on Feb 8 2015 13:04:34
    _STATISTICS_WRITING_DATE_UTC : 2015-06-16 15:51:02
    _STATISTICS_TAGS : BPS DURATION NUMBER_OF_FRAMES NUMBER_OF_BYTES

    Video
    ID : 1
    Format : AVC
    Format/Info : Advanced Video Codec
    Format profile : High@L4.1
    Format settings, CABAC : Yes
    Format settings, ReFrames : 15 frames
    Codec ID : V_MPEG4/ISO/AVC
    Duration : 2h 7mn
    Bit rate : 2 732 Kbps
    Width : 1 024 pixels
    Height : 542 pixels
    Display aspect ratio : 1.889
    Frame rate mode : Constant
    Frame rate : 23.976 fps
    Color space : YUV
    Chroma subsampling : 4:2:0
    Bit depth : 8 bits
    Scan type : Progressive
    Bits/(Pixel*Frame) : 0.205
    Stream size : 2.44 GiB (86%)
    Writing library : x264 core 142 r2431 ac76440
    Encoding settings : cabac=1 / ref=15 / deblock=1:-3:-3 / analyse=0x3:0x133 / me=umh / subme=10 / psy=1 / psy_rd=1.10:0.05 / mixed_ref=1 / me_range=32 / chroma_me=1 / trellis=2 / 8x8dct=1 / cqm=0 / deadzone=21,11 / fast_pskip=0 / chroma_qp_offset=-3 / threads=12 / lookahead_threads=3 / sliced_threads=0 / nr=0 / decimate=0 / interlaced=0 / bluray_compat=0 / constrained_intra=0 / bframes=10 / b_pyramid=2 / b_adapt=2 / b_bias=0 / direct=3 / weightb=1 / open_gop=0 / weightp=2 / keyint=240 / keyint_min=23 / scenecut=40 / intra_refresh=0 / rc_lookahead=240 / rc=crf / mbtree=1 / crf=17.5 / qcomp=0.65 / qpmin=0 / qpmax=69 / qpstep=4 / vbv_maxrate=14000 / vbv_bufsize=14000 / crf_max=0.0 / nal_hrd=none / filler=0 / ip_ratio=1.40 / aq=1:0.90
    Default : Yes
    Forced : No
    DURATION : 02:07:57.629000000
    NUMBER_OF_FRAMES : 184079
    NUMBER_OF_BYTES : 2680915528
    _STATISTICS_WRITING_APP : mkvmerge v7.6.0 ('Garden of Dreams') 64bit built on Feb 8 2015 13:04:34
    _STATISTICS_WRITING_DATE_UTC : 2015-06-16 15:51:02
    _STATISTICS_TAGS : BPS DURATION NUMBER_OF_FRAMES NUMBER_OF_BYTES

    Audio
    ID : 2
    Format : AC-3
    Format/Info : Audio Coding 3
    Mode extension : CM (complete main)
    Format settings, Endianness : Big
    Codec ID : A_AC3
    Duration : 2h 7mn
    Bit rate mode : Constant
    Bit rate : 384 Kbps
    Channel(s) : 6 channels
    Channel positions : Front: L C R, Side: L R, LFE
    Sampling rate : 48.0 KHz
    Bit depth : 16 bits
    Compression mode : Lossy
    Stream size : 351 MiB (12%)
    Language : Japanese
    Default : Yes
    Forced : No

    Text
    ID : 3
    Format : UTF-8
    Codec ID : S_TEXT/UTF8
    Codec ID/Info : UTF-8 Plain Text
    Language : English
    Default : Yes
    Forced : No

    Menu
    00:00:00.000 : en:Chapter 1
    00:14:32.497 : en:Chapter 2
    00:25:15.139 : en:Chapter 3
    00:33:10.238 : en:Chapter 4
    00:45:41.822 : en:Chapter 5
    00:53:54.565 : en:Chapter 6
    01:06:16.264 : en:Chapter 7
    01:16:53.150 : en:Chapter 8
    01:30:49.319 : en:Chapter 9
    01:42:18.549 : en:Chapter 10
    01:53:27.259 : en:Chapter 11
    02:03:37.994 : en:Chapter 12


    Mark Schilling :
    Based on a novel by Sakuraba Kazuki, Sakamoto Koichi’s Girl’s Blood (Aka X Pinku) goes back to the basics of martial arts action, with no buzzing limb replacements and hardly any weapons in sight, save for a whip wielded by a pillowy-lipped dominatrix named Miko (Misaki Ayame). Also the mostly female cast expends real sweat, displays real fighting skills and takes dozens of painful-looking slams against steel mesh and other unforgiving surfaces, with little help from wires or CGI effects.




    0 0

    Original Post: Girl's Blood 2014 720p BDRip x264 AC3 Koichi Sakamoto Director's Cut

    Contains nudity



    Girl's Blood

    Original Title:赤×ピンク
    IMDb:http://www.imdb.com/title/tt3456784
    AsianWiki:http://asianwiki.com/Girl%27s_Blood
    Review:Bullets 'n' Babes

    Director: Koichi Sakamoto
    Writers: Kazuki Sakuraba (novel), Takehiko Minato
    Genre: Drama / Action
    Release Date: 22 February 2014
    Runtime: 128 min
    Country: Japan
    Language: Japanese
    Subtitles: English
    Source: Pony Canyon JP BD50 (Thanks to kemushi& Obscureness @ ADC for the disc)
    Obscureness :
    Thanks to kemushi for uploading the raw.

    The subs were translated from Chinese by Subscene user 9moon. WahDee from AT made substantial revisions to greatly improve the translation. So huge thanks to them! I made a few more edits and quite a bit of retiming for the Blu-ray.

    Synopsis: Set in the seedy underbelly of Tokyo, the film by director-former action choreographer Sakamoto Koichi follows the lives of four women who join an underground MMA fight club in an abandoned elementary school. Every night, the women escape their mundane lives and troubled pasts by stepping into the ring under unique personas and take on brutal fights in front of a spectacle-hungry audience.

    Uploader's Comments: Apart from the occasionally pervy camera work and overuse of slow motion in the more intimate scenes (Do we really need a 6 minute sex scene almost entirely in slowmo or lots of shower scenes taking the same approach? smile1.gif), I'd say this is quite successful as far as genre films go. The sound mixing in particular is great in the cage fights and for once I didn't mind the quick cuts. The lesbian take and gender identity issues are predictably not touched upon very deeply but it didn't feel painfully stereotypical.

    Rina Koike, the lolita girl, played Luna's human form in PGSM. Took me a while to realize where I'd seen her before.

    I re-timed about half of the lines as they often were too short and revised a select few where the translation was wrong. They're still not perfect and could do with some more work. But I feel that they're definitely good enough, so thanks to the ones involved in making them in the first place.

    MediaInfo
    Spoiler:show
    General
    Unique ID : 250903337509937102806777085999190583927 (0xBCC2399F378CD171BDECEC30E7472A77)
    Complete name : Girls.Blood.2014.720p.BDRip.x264.AC3-Jongl0.mkv
    Format : Matroska
    Format version : Version 4 / Version 2
    File size : 7.17 GiB
    Duration : 2h 7mn
    Overall bit rate : 8 027 Kbps
    Encoded date : UTC 2015-06-16 15:22:16
    Writing application : mkvmerge v7.6.0 ('Garden of Dreams') 64bit built on Feb 8 2015 13:04:34
    Writing library : libebml v1.3.1 + libmatroska v1.4.2
    DURATION : 02:04:42.517000000
    NUMBER_OF_FRAMES : 1622
    NUMBER_OF_BYTES : 13261181
    _STATISTICS_WRITING_APP : mkvmerge v7.6.0 ('Garden of Dreams') 64bit built on Feb 8 2015 13:04:34
    _STATISTICS_WRITING_DATE_UTC : 2015-06-16 15:22:16
    _STATISTICS_TAGS : BPS DURATION NUMBER_OF_FRAMES NUMBER_OF_BYTES

    Video
    ID : 1
    Format : AVC
    Format/Info : Advanced Video Codec
    Format profile : High@L4.1
    Format settings, CABAC : Yes
    Format settings, ReFrames : 9 frames
    Codec ID : V_MPEG4/ISO/AVC
    Duration : 2h 7mn
    Bit rate : 7 227 Kbps
    Width : 1 280 pixels
    Height : 676 pixels
    Display aspect ratio : 1.893
    Frame rate mode : Constant
    Frame rate : 23.976 fps
    Color space : YUV
    Chroma subsampling : 4:2:0
    Bit depth : 8 bits
    Scan type : Progressive
    Bits/(Pixel*Frame) : 0.348
    Stream size : 6.46 GiB (90%)
    Writing library : x264 core 142 r2431 ac76440
    Encoding settings : cabac=1 / ref=9 / deblock=1:-3:-3 / analyse=0x3:0x133 / me=umh / subme=10 / psy=1 / psy_rd=1.15:0.00 / mixed_ref=1 / me_range=32 / chroma_me=1 / trellis=2 / 8x8dct=1 / cqm=0 / deadzone=21,11 / fast_pskip=0 / chroma_qp_offset=-2 / threads=12 / lookahead_threads=3 / sliced_threads=0 / nr=0 / decimate=0 / interlaced=0 / bluray_compat=0 / constrained_intra=0 / bframes=11 / b_pyramid=2 / b_adapt=2 / b_bias=0 / direct=3 / weightb=1 / open_gop=0 / weightp=2 / keyint=240 / keyint_min=23 / scenecut=40 / intra_refresh=0 / rc_lookahead=50 / rc=crf / mbtree=0 / crf=15.7 / qcomp=0.70 / qpmin=0 / qpmax=69 / qpstep=4 / vbv_maxrate=62500 / vbv_bufsize=78125 / crf_max=0.0 / nal_hrd=none / filler=0 / ip_ratio=1.40 / pb_ratio=1.20 / aq=1:0.70
    Default : Yes
    Forced : No
    DURATION : 02:07:57.629000000
    NUMBER_OF_FRAMES : 184079
    NUMBER_OF_BYTES : 7073807369
    _STATISTICS_WRITING_APP : mkvmerge v7.6.0 ('Garden of Dreams') 64bit built on Feb 8 2015 13:04:34
    _STATISTICS_WRITING_DATE_UTC : 2015-06-16 15:22:16
    _STATISTICS_TAGS : BPS DURATION NUMBER_OF_FRAMES NUMBER_OF_BYTES

    Audio
    ID : 2
    Format : AC-3
    Format/Info : Audio Coding 3
    Mode extension : CM (complete main)
    Format settings, Endianness : Big
    Codec ID : A_AC3
    Duration : 2h 7mn
    Bit rate mode : Constant
    Bit rate : 640 Kbps
    Channel(s) : 6 channels
    Channel positions : Front: L C R, Side: L R, LFE
    Sampling rate : 48.0 KHz
    Bit depth : 16 bits
    Compression mode : Lossy
    Stream size : 586 MiB (8%)
    Language : Japanese
    Default : Yes
    Forced : No

    Text #1
    ID : 3
    Format : UTF-8
    Codec ID : S_TEXT/UTF8
    Codec ID/Info : UTF-8 Plain Text
    Language : English
    Default : Yes
    Forced : No

    Text #2
    ID : 4
    Format : PGS
    Codec ID : S_HDMV/PGS
    Codec ID/Info : The same subtitle format used on BDs/HD-DVDs
    Language : English
    Default : No
    Forced : No

    Menu
    00:00:00.000 : en:Chapter 1
    00:14:32.497 : en:Chapter 2
    00:25:15.139 : en:Chapter 3
    00:33:10.238 : en:Chapter 4
    00:45:41.822 : en:Chapter 5
    00:53:54.565 : en:Chapter 6
    01:06:16.264 : en:Chapter 7
    01:16:53.150 : en:Chapter 8
    01:30:49.319 : en:Chapter 9
    01:42:18.549 : en:Chapter 10
    01:53:27.259 : en:Chapter 11
    02:03:37.994 : en:Chapter 12


    Mark Schilling :
    Based on a novel by Sakuraba Kazuki, Sakamoto Koichi’s Girl’s Blood (Aka X Pinku) goes back to the basics of martial arts action, with no buzzing limb replacements and hardly any weapons in sight, save for a whip wielded by a pillowy-lipped dominatrix named Miko (Misaki Ayame). Also the mostly female cast expends real sweat, displays real fighting skills and takes dozens of painful-looking slams against steel mesh and other unforgiving surfaces, with little help from wires or CGI effects.




    0 0

    Original Post: TVB Wudang.Rules.E16.HDTV.H264.720p-W

    Also known as Wudang Worship
    Created by Hong Kong Television Broadcasts Limited
    Theme music composer Alan Cheung
    No. of episodes 20
    Original release 25 May 2015 – 19 June 2015
    Subtitles English srt (embedded)

    Starring
    Chin Siu-ho
    Tavia Yeung
    Yuen Qiu
    Timmy Hung
    Derek Kok
    Toby Leung


    Synopsis

    After a set-back in life, former Hong Kong undercover detective Pau Kai-chung (Chin Siu-ho) heads to the Wudang Mountains in Hubei, China to get away from life. At Wudang he re-connects with his former marital arts senior Mo Yee-shan (Yuen Qiu), who now operates an inn and martial arts school in the Wudang Mountains. She also takes in a mentally retarded man named Ho Ching-tung (Derek Kok) with a mysterious past. Kai-chung takes up a job as a chef at Yee-shan's inn. All is peaceful until a group of martial art students lead by Yee-shan's daughter Lok Yeung (Tavia Yeung) arrives. Lok Yeung and Kai-chung had previously met in Hong Kong, their encounter in Wudang brings back painful memories for Kai-chung. But Lok Yeung's true intentions for returning to Wudang is to persuade her mother to sell the inn and martial arts school to a Hong Kong investment group. Yee-shan makes a deal with Lok Yeung, that she will agree to sell the inn and martial arts school if Lok Yeung can win a competition within three months. Yee-shan pretends to be injured so Kai-chung would takeover as instructor at the martial art school. Soon Ching-tung regains his mind and exposes Kai-chung's true identity, which puts all at Wudang in danger.

    Cast
    Main cast
    Chin Siu-ho as Pau Kai-chung
    Tavia Yeung as Lok Yeung
    Yuen Qiu as Mo Yee-shan
    Timmy Hung as Cheung Ka-kong
    Derek Kok as Ho Ching-tung
    Toby Leung as Yeung Ching-wu

    http://thetvdb.com/?tab=series&id=295905&







    Code
    Video
    ID                             : 1
    Format                         : AVC
    Format/Info                    : Advanced Video Codec
    Format profile                 : Main@L4.0
    Format settings, CABAC         : Yes
    Format settings, ReFrames      : 4 frames
    Codec ID                       : V_MPEG4/ISO/AVC
    Bit rate                       : 4 500 Kbps
    Width                          : 1 280 pixels
    Height                         : 720 pixels
    Display aspect ratio           : 16:9
    Frame rate mode                : Variable
    Color space                    : YUV
    Chroma subsampling             : 4:2:0
    Bit depth                      : 8 bits
    Scan type                      : Progressive
    Title                          : Wudang.Rules.E16.HDTV.H264.720p-Wutang
    Writing library                : x264 core 130 r2273 b3065e6
    Language                       : Chinese
    Default                        : Yes
    Forced                         : No
    Color primaries                : BT.709
    Transfer characteristics       : BT.709
    Matrix coefficients            : BT.709

    Audio
    ID                             : 2
    Format                         : AC-3
    Format/Info                    : Audio Coding 3
    Mode extension                 : CM (complete main)
    Format settings, Endianness    : Big
    Codec ID                       : A_AC3
    Duration                       : 44mn 7s
    Bit rate mode                  : Constant
    Bit rate                       : 384 Kbps
    Channel(s)                     : 6 channels
    Channel positions              : Front: L C R, Side: L R, LFE
    Sampling rate                  : 48.0 KHz
    Bit depth                      : 16 bits
    Compression mode               : Lossy
    Stream size                    : 121 MiB (8%)
    Language                       : Chinese
    Default                        : Yes
    Forced                         : No

    Text
    ID                             : 3
    Format                         : UTF-8
    Codec ID                       : S_TEXT/UTF8
    Codec ID/Info                  : UTF-8 Plain Text
    Default                        : Yes
    Forced                         : No





    0 0

    Original Post: TVB Wudang.Rules.E17.HDTV.H264.720p-W

    Also known as Wudang Worship
    Created by Hong Kong Television Broadcasts Limited
    Theme music composer Alan Cheung
    No. of episodes 20
    Original release 25 May 2015 – 19 June 2015
    Subtitles English srt (embedded)

    Starring
    Chin Siu-ho
    Tavia Yeung
    Yuen Qiu
    Timmy Hung
    Derek Kok
    Toby Leung


    Synopsis

    After a set-back in life, former Hong Kong undercover detective Pau Kai-chung (Chin Siu-ho) heads to the Wudang Mountains in Hubei, China to get away from life. At Wudang he re-connects with his former marital arts senior Mo Yee-shan (Yuen Qiu), who now operates an inn and martial arts school in the Wudang Mountains. She also takes in a mentally retarded man named Ho Ching-tung (Derek Kok) with a mysterious past. Kai-chung takes up a job as a chef at Yee-shan's inn. All is peaceful until a group of martial art students lead by Yee-shan's daughter Lok Yeung (Tavia Yeung) arrives. Lok Yeung and Kai-chung had previously met in Hong Kong, their encounter in Wudang brings back painful memories for Kai-chung. But Lok Yeung's true intentions for returning to Wudang is to persuade her mother to sell the inn and martial arts school to a Hong Kong investment group. Yee-shan makes a deal with Lok Yeung, that she will agree to sell the inn and martial arts school if Lok Yeung can win a competition within three months. Yee-shan pretends to be injured so Kai-chung would takeover as instructor at the martial art school. Soon Ching-tung regains his mind and exposes Kai-chung's true identity, which puts all at Wudang in danger.

    Cast
    Main cast
    Chin Siu-ho as Pau Kai-chung
    Tavia Yeung as Lok Yeung
    Yuen Qiu as Mo Yee-shan
    Timmy Hung as Cheung Ka-kong
    Derek Kok as Ho Ching-tung
    Toby Leung as Yeung Ching-wu

    http://thetvdb.com/?tab=series&id=295905&






    Code
    Video
    ID                             : 1
    Format                         : AVC
    Format/Info                    : Advanced Video Codec
    Format profile                 : Main@L4.0
    Format settings, CABAC         : Yes
    Format settings, ReFrames      : 4 frames
    Codec ID                       : V_MPEG4/ISO/AVC
    Bit rate                       : 4 500 Kbps
    Width                          : 1 280 pixels
    Height                         : 720 pixels
    Display aspect ratio           : 16:9
    Frame rate mode                : Variable
    Color space                    : YUV
    Chroma subsampling             : 4:2:0
    Bit depth                      : 8 bits
    Scan type                      : Progressive
    Title                          : Wudang.Rules.E17.HDTV.H264.720p-Wutang
    Writing library                : x264 core 130 r2273 b3065e6
    Language                       : Chinese
    Default                        : Yes
    Forced                         : No
    Color primaries                : BT.709
    Transfer characteristics       : BT.709
    Matrix coefficients            : BT.709

    Audio
    ID                             : 2
    Format                         : AC-3
    Format/Info                    : Audio Coding 3
    Mode extension                 : CM (complete main)
    Format settings, Endianness    : Big
    Codec ID                       : A_AC3
    Duration                       : 44mn 7s
    Bit rate mode                  : Constant
    Bit rate                       : 384 Kbps
    Channel(s)                     : 6 channels
    Channel positions              : Front: L C R, Side: L R, LFE
    Sampling rate                  : 48.0 KHz
    Bit depth                      : 16 bits
    Compression mode               : Lossy
    Stream size                    : 121 MiB (8%)
    Language                       : Chinese
    Default                        : Yes
    Forced                         : No

    Text
    ID                             : 3
    Format                         : UTF-8
    Codec ID                       : S_TEXT/UTF8
    Codec ID/Info                  : UTF-8 Plain Text
    Default                        : Yes
    Forced                         : No





    0 0

    Original Post: Who Are You - School 2015 Complete HDTV.H264.720p-LIMO

    Details

    Title: 후아유 - 학교 2015 / Hooayoo - Hakgyo 2015
    Also known as: 학교 6 (School 6)
    Genre: School, youth, drama, mystery
    Episodes: 16
    Broadcast network: KBS2
    Broadcast period: 2015-Apr-27 to 2015-???-??
    Air time: Monday & Tuesday 22:00
    Original Soundtrack: Who Are You - School 2015 OST
    Related TV Shows: School 1 (KBS2, 1999), School 2 (KBS2, 1999), School 3 (KBS2, 2000), School 4 (KBS2, 2001), School 2013 (KBS2, 2013)
    http://thetvdb.com/?tab=series&id=294815

    Synopsis

    This drama is a latest installment to the famed School Series. It will focus on portraying realistic issues, struggles, and dilemmas of today’s youths.

    Segang High School is a top school located in Gangnam District, Seoul. One of the students, Lee Eun Bi, wake up one day without knowing who she was. After find out that she used to be bullied, she changes herself and becomes popular. She then tries to recover her lost memories, and in the process, discovers the hidden truths behind her famous school.

    Cast
    Main Cast
    Kim So Hyun as Lee Eun Bi / Go Eun Byul
    Nam Joo Hyuk as Han Yi Ahn
    Yook Sung Jae as Gong Tae Kwang
    Extended Cast
    Lee Pil Mo as Teacher Kim Joon Suk
    Lee David as Park Min Joon
    Kim Hee Jung as Cha Song Joo
    Lee Cho Hee as Lee Shi Jin
    Jo Soo Hyang as Kang So Young
    Segang High School's teachers
    Lee Hee Do as Vice Principal
    Shin Jung Geun as Students' Supervisor
    The parents
    Jun Mi Sun as Song Mi Kyung (Eun Byul's mother)
    Lee Dae Yeon as Han Ki Choon (Yi Ahn's father)
    Jun Noh Min as Gong Jae Ho (Tae Kwang's father)
    Kim Jung Nan as Shin Jung Min (Min Joon's mother)
    Jung In Ki as Park Joon Hyung (Min Joon's father)
    Kim Se Ah as Shi Jin's mother
    Class 2-3 students
    Park Doo Shik as Kwon Ki Tae
    Yoo Young as Jo Hae Na
    Jang In Sub as Sung Yoon Jae
    Kim Bo Ra as Seo Young Eun







    Code
    Video
    ID                             : 0
    Format                         : AVC
    Format/Info                    : Advanced Video Codec
    Format profile                 : High@L5.1
    Format settings, CABAC         : Yes
    Format settings, ReFrames      : 4 frames
    Codec ID                       : H264
    Duration                       : 1h 14mn
    Bit rate                       : 3 000 Kbps
    Width                          : 1 280 pixels
    Height                         : 720 pixels
    Display aspect ratio           : 16:9
    Frame rate mode                : Variable
    Frame rate                     : 29.970 fps
    Color space                    : YUV
    Chroma subsampling             : 4:2:0
    Bit depth                      : 8 bits
    Scan type                      : Progressive
    Bits/(Pixel*Frame)             : 0.109
    Stream size                    : 1.57 GiB (94%)
    Writing library                : x264 core 112
    Encoding settings              : cabac=1 / ref=3 / deblock=1:-1:-1 / analyse=0x3:0x113 / me=hex / subme=6 / psy=1 / psy_rd=1.00:1.00 / mixed_ref=1 / me_range=16 / chroma_me=1 / trellis=1 / 8x8dct=1 / cqm=0 / deadzone=21,11 / fast_pskip=0 / chroma_qp_offset=-4 / threads=12 / sliced_threads=0 / nr=0 / decimate=1 / interlaced=0 / constrained_intra=0 / bframes=3 / b_pyramid=2 / b_adapt=1 / b_bias=1 / direct=3 / weightb=1 / open_gop=0 / weightp=2 / keyint=299 / keyint_min=25 / scenecut=1 / intra_refresh=0 / rc_lookahead=40 / rc=abr / mbtree=1 / bitrate=3000 / ratetol=1.0 / qcomp=0.60 / qpmin=10 / qpmax=51 / qpstep=4 / ip_ratio=1.40 / aq=1:1.00

    Audio
    ID                             : 1
    Format                         : MPEG Audio
    Format version                 : Version 1
    Format profile                 : Layer 3
    Mode                           : Joint stereo
    Mode extension                 : MS Stereo
    Codec ID                       : 55
    Codec ID/Hint                  : MP3
    Duration                       : 1h 14mn
    Bit rate mode                  : Constant
    Bit rate                       : 192 Kbps
    Channel(s)                     : 2 channels
    Sampling rate                  : 48.0 KHz
    Compression mode               : Lossy
    Stream size                    : 102 MiB (6%)
    Alignment                      : Split accross interleaves
    Interleave, duration           : 33 ms (1.00 video frame)
    Interleave, preload duration   : 500 ms
    Writing library                : LAME3.98



    0 0

    Original Post: Dream Flight 1080p BRRip x264 AC3

    Dream Flight 1080p BRRip x264 AC3

    Title: Dream Flight
    Revised romanization: Xiǎng fēi
    Chinese: 想飛
    Release date: 17 October 2014
    Runtime: 02:26:57 (h:m:s)
    Genre: Drama, Romance, Biographical, Action, Thriller
    Languages: Mandarin
    Country: Taiwan
    Subtitles: English (PGS)
    Source: Blu-Ray
    IMDB url: n/a
    HKMDB url: http://hkmdb.com/db/movies/view.mhtml?id=17041

    Cast: Bryant Chang, Tiffany Hsu, Mason Lee, Paul Chiang, Tou Chung-Hua

    Synopsis: “Dream Flight” is based on the true story of a highly decorated Lieutenant Colonel in the Taiwan Air Force — Lee Cheng-liang (played by Bryant Chang) — and his selfless dedication to his visually impaired wife, played by model-turned-actress Tiffany Hsu.

    [screens]  






    Media Information:

    Code
    Video
    ID                                       : 1
    Format                                   : AVC
    Format/Info                              : Advanced Video Codec
    Format profile                           : High@L4.1
    Format settings, CABAC                   : Yes
    Format settings, ReFrames                : 4 frames
    Codec ID                                 : V_MPEG4/ISO/AVC
    Duration                                 : 2h 26mn
    Bit rate                                 : 5 000 Kbps
    Width                                    : 1 920 pixels
    Height                                   : 1 080 pixels
    Display aspect ratio                     : 16:9
    Frame rate mode                          : Constant
    Frame rate                               : 24.000 fps
    Color space                              : YUV
    Chroma subsampling                       : 4:2:0
    Bit depth                                : 8 bits
    Scan type                                : Progressive
    Bits/(Pixel*Frame)                       : 0.100
    Stream size                              : 5.04 GiB (90%)
    Writing library                          : x264 core 146 r2538 121396c
    Encoding settings                        : cabac=1 / ref=4 / deblock=1:0:0 / analyse=0x3:0x133 / me=umh / subme=9 / psy=1 / psy_rd=1.00:0.00 / mixed_ref=1 / me_range=16 / chroma_me=1 / trellis=2 / 8x8dct=1 / cqm=0 / deadzone=21,11 / fast_pskip=1 / chroma_qp_offset=-2 / threads=12 / lookahead_threads=1 / sliced_threads=0 / nr=0 / decimate=1 / interlaced=0 / bluray_compat=0 / constrained_intra=0 / bframes=3 / b_pyramid=2 / b_adapt=2 / b_bias=0 / direct=3 / weightb=1 / open_gop=0 / weightp=2 / keyint=250 / keyint_min=24 / scenecut=40 / intra_refresh=0 / rc_lookahead=60 / rc=2pass / mbtree=1 / bitrate=5000 / ratetol=1.0 / qcomp=0.60 / qpmin=0 / qpmax=69 / qpstep=4 / cplxblur=20.0 / qblur=0.5 / ip_ratio=1.40 / aq=1:1.00
    Default                                  : Yes
    Forced                                   : No

    Audio
    ID                                       : 2
    Format                                   : AC-3
    Format/Info                              : Audio Coding 3
    Mode extension                           : CM (complete main)
    Format settings, Endianness              : Big
    Codec ID                                 : A_AC3
    Duration                                 : 2h 26mn
    Bit rate mode                            : Constant
    Bit rate                                 : 448 Kbps
    Channel(s)                               : 6 channels
    Channel positions                        : Front: L C R, Side: L R, LFE
    Sampling rate                            : 48.0 KHz
    Bit depth                                : 16 bits
    Compression mode                         : Lossy
    Stream size                              : 471 MiB (8%)
    Language                                 : Chinese
    Default                                  : Yes
    Forced                                   : No

    Text
    ID                                       : 3
    Format                                   : PGS
    Muxing mode                              : zlib
    Codec ID                                 : S_HDMV/PGS
    Codec ID/Info                            : Picture based subtitle format used on BDs/HD-DVDs
    Language                                 : English
    Default                                  : No
    Forced                                   : No



older | 1 | .... | 1372 | 1373 | (Page 1374) | 1375 | 1376 | .... | 1405 | newer