Are you the publisher? Claim or contact us about this channel


Embed this content in your HTML

Search

Report adult content:

click to rate:

Account: (login)

More Channels


Showcase


Channel Catalog


Channel Description:

Asia Torrents RSS Feed

older | 1 | .... | 1373 | 1374 | (Page 1375) | 1376 | 1377 | .... | 1405 | newer

    0 0

    Original Post: Pluto 2012 576p BDRip x264 AC3 Shin Su-won



    Pluto

    Original Title:명왕성
    IMDb:http://www.imdb.com/title/tt2741624
    AsianWiki:http://asianwiki.com/Pluto_-_Korean_Movie
    Review:Sound On Sight

    Director: Shin Su-won
    Writer: Shin Su-won
    Genre: Drama / Thriller / Horror
    Premiere: 5 October 2012
    Runtime: 114 min
    Country: South Korea
    Language: Korean
    Subtitles: English
    Source: Third Window Films UK BD25 (Thanks to xtreplus8x @ ADC for the disc)

    Synopsis: June, a transfer student in an elite school, is driven to despair by the year's first examination results. One day he discovers that a mysterious clique of fellow students are sharing secret notebooks, which contain important exam information. In order to get his hands on the notebooks he begs the members of the secret circle to include him. They task him with a series of missions to earn them, turning June into a monster in the process.

    Uploader's Comments: I liked the eerie atmosphere and the constantly building tension the director was able to create. But at the same time I also felt that many of the satirical angles were too heavy-handed, to the point of quickly becoming tiresome. Overall, I'd say it's worth a watch if you find the premise intriguing and/or the trailer. By the way, this was shot on about $100k, I think. That's truly remarkable if so.

    Note: There's quite a bit of banding on this Blu-ray disc, as you might see in the screens.

    MediaInfo
    Spoiler:show
    General
    Unique ID : 212505439644895705533605003339313479524 (0x9FDF0F17B8FB481490BAB1F5C0887F64)
    Complete name : Pluto.2012.576p.BDRip.x264.AC3-Jongl0.mkv
    Format : Matroska
    Format version : Version 4 / Version 2
    File size : 1.30 GiB
    Duration : 1h 47mn
    Overall bit rate : 1 732 Kbps
    Encoded date : UTC 2015-06-16 05:37:37
    Writing application : mkvmerge v7.6.0 ('Garden of Dreams') 64bit built on Feb 8 2015 13:04:34
    Writing library : libebml v1.3.1 + libmatroska v1.4.2
    DURATION : 01:43:24.080000000
    NUMBER_OF_FRAMES : 1454
    NUMBER_OF_BYTES : 6069984
    _STATISTICS_WRITING_APP : mkvmerge v7.6.0 ('Garden of Dreams') 64bit built on Feb 8 2015 13:04:34
    _STATISTICS_WRITING_DATE_UTC : 2015-06-16 05:37:37
    _STATISTICS_TAGS : BPS DURATION NUMBER_OF_FRAMES NUMBER_OF_BYTES

    Video
    ID : 1
    Format : AVC
    Format/Info : Advanced Video Codec
    Format profile : High@L4.1
    Format settings, CABAC : Yes
    Format settings, ReFrames : 9 frames
    Codec ID : V_MPEG4/ISO/AVC
    Duration : 1h 47mn
    Bit rate : 1 250 Kbps
    Width : 1 024 pixels
    Height : 554 pixels
    Display aspect ratio : 1.85:1
    Frame rate mode : Constant
    Frame rate : 24.000 fps
    Color space : YUV
    Chroma subsampling : 4:2:0
    Bit depth : 8 bits
    Scan type : Progressive
    Bits/(Pixel*Frame) : 0.092
    Stream size : 959 MiB (72%)
    Writing library : x264 core 142 r2431 ac76440
    Encoding settings : cabac=1 / ref=9 / deblock=1:-1:-1 / analyse=0x3:0x133 / me=umh / subme=10 / psy=1 / psy_rd=1.00:0.15 / mixed_ref=1 / me_range=32 / chroma_me=1 / trellis=2 / 8x8dct=1 / cqm=0 / deadzone=21,11 / fast_pskip=0 / chroma_qp_offset=-3 / threads=12 / lookahead_threads=2 / sliced_threads=0 / nr=0 / decimate=0 / interlaced=0 / bluray_compat=0 / constrained_intra=0 / bframes=8 / b_pyramid=2 / b_adapt=2 / b_bias=0 / direct=3 / weightb=1 / open_gop=0 / weightp=2 / keyint=240 / keyint_min=24 / scenecut=40 / intra_refresh=0 / rc_lookahead=160 / rc=crf / mbtree=1 / crf=17.0 / qcomp=0.60 / qpmin=0 / qpmax=69 / qpstep=4 / vbv_maxrate=14000 / vbv_bufsize=14000 / crf_max=0.0 / nal_hrd=none / filler=0 / ip_ratio=1.40 / aq=1:1.00
    Default : Yes
    Forced : No
    DURATION : 01:47:19.959000000
    NUMBER_OF_FRAMES : 154559
    NUMBER_OF_BYTES : 1026106939
    _STATISTICS_WRITING_APP : mkvmerge v7.6.0 ('Garden of Dreams') 64bit built on Feb 8 2015 13:04:34
    _STATISTICS_WRITING_DATE_UTC : 2015-06-16 05:37:37
    _STATISTICS_TAGS : BPS DURATION NUMBER_OF_FRAMES NUMBER_OF_BYTES

    Audio
    ID : 2
    Format : AC-3
    Format/Info : Audio Coding 3
    Mode extension : CM (complete main)
    Format settings, Endianness : Big
    Codec ID : A_AC3
    Duration : 1h 47mn
    Bit rate mode : Constant
    Bit rate : 448 Kbps
    Channel(s) : 6 channels
    Channel positions : Front: L C R, Side: L R, LFE
    Sampling rate : 48.0 KHz
    Bit depth : 16 bits
    Compression mode : Lossy
    Stream size : 344 MiB (26%)
    Language : Korean
    Default : Yes
    Forced : No

    Text #1
    ID : 3
    Format : UTF-8
    Codec ID : S_TEXT/UTF8
    Codec ID/Info : UTF-8 Plain Text
    Language : English
    Default : Yes
    Forced : No

    Text #2
    ID : 4
    Format : PGS
    Codec ID : S_HDMV/PGS
    Codec ID/Info : The same subtitle format used on BDs/HD-DVDs
    Language : English
    Default : No
    Forced : No

    Menu
    00:00:00.000 : en:Chapter 1
    00:02:46.292 : en:Chapter 2
    00:12:44.417 : en:Chapter 3
    00:19:49.750 : en:Chapter 4
    00:26:59.875 : en:Chapter 5
    00:34:24.208 : en:Chapter 6
    00:40:23.292 : en:Chapter 7
    00:44:46.958 : en:Chapter 8
    00:51:06.333 : en:Chapter 9
    00:57:25.792 : en:Chapter 10
    01:01:32.625 : en:Chapter 11
    01:05:09.458 : en:Chapter 12
    01:08:33.833 : en:Chapter 13
    01:14:40.875 : en:Chapter 14
    01:18:23.958 : en:Chapter 15
    01:24:23.250 : en:Chapter 16
    01:32:12.375 : en:Chapter 17
    01:36:28.042 : en:Chapter 18
    01:40:27.250 : en:Chapter 19
    01:43:37.667 : en:Chapter 20


    Rob Dickie @ Sound On Sight :
    Aside from a few obscure lines about singing planets and unnecessary shots of outer space, there are few flaws to pick out. Pluto is consistently entertaining, captivatingly unhinged and expertly paced, building towards an undeniably smart conclusion. The elite society is at the same time darkly comic and deadly serious, but it is always made clear that violence and revolt are inevitable as long as it remains in place. Su-won gets fantastic performances from a fairly inexperienced cast and shows real skill in tying together the film’s many facets. Pluto is a remarkable debut, achieving the rare feat of being both a thrilling piece of cinema and an intellectual treat.




    0 0

    Original Post: Pluto 2012 720p BDRip x264 AC3 Shin Su-won



    Pluto

    Original Title:명왕성
    IMDb:http://www.imdb.com/title/tt2741624
    AsianWiki:http://asianwiki.com/Pluto_-_Korean_Movie
    Review:Sound On Sight

    Director: Shin Su-won
    Writer: Shin Su-won
    Genre: Drama / Thriller / Horror
    Premiere: 5 October 2012
    Runtime: 114 min
    Country: South Korea
    Language: Korean
    Subtitles: English
    Source: Third Window Films UK BD25 (Thanks to xtreplus8x @ ADC for the disc)

    Synopsis: June, a transfer student in an elite school, is driven to despair by the year's first examination results. One day he discovers that a mysterious clique of fellow students are sharing secret notebooks, which contain important exam information. In order to get his hands on the notebooks he begs the members of the secret circle to include him. They task him with a series of missions to earn them, turning June into a monster in the process.

    Uploader's Comments: I liked the eerie atmosphere and the constantly building tension the director was able to create. But at the same time I also felt that many of the satirical angles were too heavy-handed, to the point of quickly becoming tiresome. Overall, I'd say it's worth a watch if you find the premise and/or the trailer intriguing. By the way, this was shot on about $100k, I think. That's truly remarkable if so.

    Note: There's quite a bit of banding on this Blu-ray disc, as you might see in the screens.

    MediaInfo
    Spoiler:show
    General
    Unique ID                                : 254350795110415738192446294263493565425 (0xBF5A2E67977F53A38877F8D264141BF1)
    Complete name                            : Pluto.2012.720p.BDRip.x264.AC3-Jongl0.mkv
    Format                                   : Matroska
    Format version                           : Version 4 / Version 2
    File size                                : 3.64 GiB
    Duration                                 : 1h 47mn
    Overall bit rate                         : 4 849 Kbps
    Encoded date                             : UTC 2015-06-17 00:03:58
    Writing application                      : mkvmerge v7.6.0 ('Garden of Dreams') 64bit built on Feb  8 2015 13:04:34
    Writing library                          : libebml v1.3.1 + libmatroska v1.4.2
    DURATION                                 : 01:43:24.083000000
    NUMBER_OF_FRAMES                         : 727
    NUMBER_OF_BYTES                          : 24613
    _STATISTICS_WRITING_APP                  : mkvmerge v7.6.0 ('Garden of Dreams') 64bit built on Feb  8 2015 13:04:34
    _STATISTICS_WRITING_DATE_UTC             : 2015-06-17 00:03:58
    _STATISTICS_TAGS                         : BPS DURATION NUMBER_OF_FRAMES NUMBER_OF_BYTES

    Video
    ID                                       : 1
    Format                                   : AVC
    Format/Info                              : Advanced Video Codec
    Format profile                           : High@L4.1
    Format settings, CABAC                   : Yes
    Format settings, ReFrames                : 9 frames
    Codec ID                                 : V_MPEG4/ISO/AVC
    Duration                                 : 1h 47mn
    Bit rate                                 : 4 305 Kbps
    Width                                    : 1 280 pixels
    Height                                   : 692 pixels
    Display aspect ratio                     : 1.85:1
    Frame rate mode                          : Constant
    Frame rate                               : 24.000 fps
    Color space                              : YUV
    Chroma subsampling                       : 4:2:0
    Bit depth                                : 8 bits
    Scan type                                : Progressive
    Bits/(Pixel*Frame)                       : 0.202
    Stream size                              : 3.23 GiB (89%)
    Writing library                          : x264 core 142 r2431 ac76440
    Encoding settings                        : cabac=1 / ref=9 / deblock=1:-3:-3 / analyse=0x3:0x133 / me=umh / subme=10 / psy=1 / psy_rd=1.10:0.00 / mixed_ref=1 / me_range=32 / chroma_me=1 / trellis=2 / 8x8dct=1 / cqm=0 / deadzone=21,11 / fast_pskip=0 / chroma_qp_offset=-2 / threads=12 / lookahead_threads=2 / sliced_threads=0 / nr=0 / decimate=0 / interlaced=0 / bluray_compat=0 / constrained_intra=0 / bframes=9 / b_pyramid=2 / b_adapt=2 / b_bias=0 / direct=3 / weightb=1 / open_gop=0 / weightp=2 / keyint=240 / keyint_min=24 / scenecut=40 / intra_refresh=0 / rc_lookahead=50 / rc=crf / mbtree=0 / crf=15.1 / qcomp=0.70 / qpmin=0 / qpmax=69 / qpstep=4 / vbv_maxrate=62500 / vbv_bufsize=78125 / crf_max=0.0 / nal_hrd=none / filler=0 / ip_ratio=1.40 / pb_ratio=1.20 / aq=1:0.90
    Default                                  : Yes
    Forced                                   : No
    DURATION                                 : 01:47:19.959000000
    NUMBER_OF_FRAMES                         : 154559
    NUMBER_OF_BYTES                          : 3541488197
    _STATISTICS_WRITING_APP                  : mkvmerge v7.6.0 ('Garden of Dreams') 64bit built on Feb  8 2015 13:04:34
    _STATISTICS_WRITING_DATE_UTC             : 2015-06-17 00:03:58
    _STATISTICS_TAGS                         : BPS DURATION NUMBER_OF_FRAMES NUMBER_OF_BYTES

    Audio
    ID                                       : 2
    Format                                   : AC-3
    Format/Info                              : Audio Coding 3
    Mode extension                           : CM (complete main)
    Format settings, Endianness              : Big
    Codec ID                                 : A_AC3
    Duration                                 : 1h 47mn
    Bit rate mode                            : Constant
    Bit rate                                 : 448 Kbps
    Channel(s)                               : 6 channels
    Channel positions                        : Front: L C R, Side: L R, LFE
    Sampling rate                            : 48.0 KHz
    Bit depth                                : 16 bits
    Compression mode                         : Lossy
    Stream size                              : 344 MiB (9%)
    Language                                 : Korean
    Default                                  : Yes
    Forced                                   : No

    Text
    ID                                       : 3
    Format                                   : UTF-8
    Codec ID                                 : S_TEXT/UTF8
    Codec ID/Info                            : UTF-8 Plain Text
    Language                                 : English
    Default                                  : Yes
    Forced                                   : No

    Menu
    00:00:00.000                             : en:Chapter 1
    00:02:46.292                             : en:Chapter 2
    00:12:44.417                             : en:Chapter 3
    00:19:49.750                             : en:Chapter 4
    00:26:59.875                             : en:Chapter 5
    00:34:24.208                             : en:Chapter 6
    00:40:23.292                             : en:Chapter 7
    00:44:46.958                             : en:Chapter 8
    00:51:06.333                             : en:Chapter 9
    00:57:25.792                             : en:Chapter 10
    01:01:32.625                             : en:Chapter 11
    01:05:09.458                             : en:Chapter 12
    01:08:33.833                             : en:Chapter 13
    01:14:40.875                             : en:Chapter 14
    01:18:23.958                             : en:Chapter 15
    01:24:23.250                             : en:Chapter 16
    01:32:12.375                             : en:Chapter 17
    01:36:28.042                             : en:Chapter 18
    01:40:27.250                             : en:Chapter 19
    01:43:37.667                             : en:Chapter 20


    Rob Dickie @ Sound On Sight :
    Aside from a few obscure lines about singing planets and unnecessary shots of outer space, there are few flaws to pick out. Pluto is consistently entertaining, captivatingly unhinged and expertly paced, building towards an undeniably smart conclusion. The elite society is at the same time darkly comic and deadly serious, but it is always made clear that violence and revolt are inevitable as long as it remains in place. Su-won gets fantastic performances from a fairly inexperienced cast and shows real skill in tying together the film’s many facets. Pluto is a remarkable debut, achieving the rare feat of being both a thrilling piece of cinema and an intellectual treat.




    0 0

    Original Post: Blue Spring Ride 2014 720p BluRay x264-WiKi





    Detail:
    Title: Blue Spring Ride
    Genre: Drama | Romance
    Release Date: 13 December 2014 (Japan)
    Runtime: 121 min
    Director: Takahiro Miki
    Rating: 8.3/10 from 22 users
    Country: Japan
    Language: Japanese
    Subtitles:Chinese

    Synopsis:
    In a middle school, Yoshioka liked Kou who was unlike the other boys and quite gentle. Kou then moved away and they lost contact but in high school she meets Kou again. But now, he is not the same person anymore.

    Cast:
    Tsubasa Honda, Masahiro Higashide, Yua Shinkawa








    Code

    Video
    ID                                       : 1
    Format                                   : AVC
    Format/Info                              : Advanced Video Codec
    Format profile                           : High@L4.1
    Format settings, CABAC                   : Yes
    Format settings, ReFrames                : 9 frames
    Codec ID                                 : V_MPEG4/ISO/AVC
    Duration                                 : 2h 1mn
    Width                                    : 1 280 pixels
    Height                                   : 690 pixels
    Display aspect ratio                     : 1.85:1
    Frame rate                               : 23.976 fps
    Color space                              : YUV
    Chroma subsampling                       : 4:2:0
    Bit depth                                : 8 bits
    Scan type                                : Progressive
    Language                                 : Japanese
    Default                                  : Yes
    Forced                                   : No

    Audio
    ID                                       : 2
    Format                                   : AC-3
    Format/Info                              : Audio Coding 3
    Codec ID                                 : A_AC3
    Duration                                 : 2h 1mn
    Channel(s)                               : 6 channels
    Sampling rate                            : 48.0 KHz
    Compression mode                         : Lossy
    Language                                 : Japanese
    Default                                  : Yes
    Forced                                   : No

    Text #1
    ID                                       : 3
    Format                                   : ASS
    Codec ID                                 : S_TEXT/ASS
    Codec ID/Info                            : Advanced Sub Station Alpha
    Compression mode                         : Lossless
    Title                                    : Simplified
    Language                                 : Chinese
    Default                                  : Yes
    Forced                                   : No

    Text #2
    ID                                       : 4
    Format                                   : ASS
    Codec ID                                 : S_TEXT/ASS
    Codec ID/Info                            : Advanced Sub Station Alpha
    Compression mode                         : Lossless
    Title                                    : Traditional
    Language                                 : Chinese
    Default                                  : No
    Forced                                   : No



    0 0

    Original Post: Ishitachi no Renai Jijou ep10 480p



    http://wiki.d-addicts.com/Ishitachi_no_Renai_Jijou
    http://asianwiki.com/Ishitachi_no_Renai_Jijou
    http://www.thetvdb.com/?tab=series&id=294581&lid=7

    Title: 医師たちの恋愛事情
    Title (romaji): Ishitachi no Renai Jijou
    Also known as: Doctors' Affairs
    Format: Renzoku
    Genre: Romance, medical
    Episodes: 11
    Broadcast network: Fuji TV
    Broadcast period: 2015-Apr-09 to 2015-Jun-18
    Air time: Thursday 22:00
    Theme song: Don't be love by Shishido Kavka
    Language: Japanese
    Country: Japan
    Subtitles: will be added when available
    RAW credit to furransu

    Cast
       Saito Takumi as Morita Haruki
       Ishida Yuriko as Kondo Chizuru
       Aibu Saki as Kawai Nana
       Hirayama Hiroyuki as Takahashi Sotaro
       Miyake Hiroki as Oone Ryota
       Ihara Tsuyoshi as Nishi Yusuke
       Itaya Yuka as Ichikawa Tomoko
       Namase Katsuhisa as Watanabe Mikio

    Synopsis
    Morita Haruki is a surgeon who only thinks about saving patients 24 hours a day, every day. A compassionate man with a strong sense of justice, he pushes back against the university hospital system which prioritises profit and power. However, he has forgotten how to love because he has put work before romance and his hectic job. Haruki takes a position at a university hospital out of a desire to hone his skills as a surgeon. But it is a place where all sorts of desires swirl. He meets Kondo Chizuru, a surgeon who is his senior, here. Chizuru has been very wrapped up in her work and is now past marriageable age. He gets attracted to her little by little.

    General
    Complete name                  : Ishitachi no Renai Jijou ep10 (848x480 x264).mp4
    Format                         : MPEG-4
    Format profile                 : Base Media
    Codec ID                       : isom
    File size                      : 342 MiB
    Duration                       : 46mn 20s
    Overall bit rate mode          : Variable
    Overall bit rate               : 1 031 Kbps

    Video
    ID                             : 1
    Format                         : AVC
    Format/Info                    : Advanced Video Codec
    Format profile                 : High@L4.1
    Format settings, CABAC         : Yes
    Format settings, ReFrames      : 4 frames
    Codec ID                       : avc1
    Codec ID/Info                  : Advanced Video Coding
    Duration                       : 46mn 20s
    Bit rate                       : 898 Kbps
    Maximum bit rate               : 4 924 Kbps
    Width                          : 848 pixels
    Height                         : 480 pixels
    Display aspect ratio           : 16:9
    Frame rate mode                : Constant
    Frame rate                     : 29.970 fps
    Color space                    : YUV
    Chroma subsampling             : 4:2:0
    Bit depth                      : 8 bits
    Scan type                      : Progressive
    Bits/(Pixel*Frame)             : 0.074
    Stream size                    : 298 MiB (87%)

    Audio
    ID                             : 2
    Format                         : AAC
    Format/Info                    : Advanced Audio Codec
    Format profile                 : LC
    Codec ID                       : 40
    Duration                       : 46mn 20s
    Bit rate mode                  : Variable
    Bit rate                       : 128 Kbps
    Maximum bit rate               : 137 Kbps
    Channel(s)                     : 2 channels
    Channel positions              : Front: L R
    Sampling rate                  : 48.0 KHz
    Compression mode               : Lossy







    0 0
  • 06/16/15--20:21: Fuben na Benriya ep10 480p
  • Original Post: Fuben na Benriya ep10 480p



    http://wiki.d-addicts.com/Fuben_na_Benriya
    http://asianwiki.com/Fuben_na_Benriya
    http://thetvdb.com/?tab=series&id=294580

    Title: 不便な便利屋
    Title (romaji): Fuben na Benriya
    Format: Renzoku
    Genre: Comedy
    Episodes: 12
    Broadcast network: TV Tokyo
    Broadcast period: 2015-Apr-10 to 2015-Jun-27
    Air time: Friday 24:12
    Theme song: The Place Has No Name by Straightener
    Language: Japanese
    Country: Japan
    Subtitles: English here: Monchi
    RAW credit tot furransu

    Cast
       Okada Masaki as Takeyama Jun
       Suzuki Kosuke as Matsui Hideo
       Endo Kenichi as Umemoto Soichi
       Moriyama Eiji (森山栄治)
       Triendl Reina
       Morisaka Hiroyuki (森崎博之)
       Sakuma Mio (さくまみお)
       Tanaka Yoji
       Inoue Takashi

    Guests
       Tokito Saburo (ep1)
       Otoo Takuma (ep1)
       Shiratori Kumiko (白鳥久美子) (ep1)
       Uchiyama Rina
       Kohinata Fumiyo
       Sato Megumi
       Suzuki Fuku
       Takei Ryosuke (竹井亮介)
       Tanaka Misako
       Yanagisawa Shingo
       Yamashita Rio

    Synopsis
    Matsui runs a benriya (odd jobs for hire) in a small nameless Hokkaido village. Umemoto has divorced 3 times. Screenwriter Takeyama (Masaki Okada) wants to go to Furano, but the bus to Furano becomes stranded due to a snowstorm. Takeyama stops at a bar to eat something, but at the bar he loses his wallet and cellphone. Takeyama is now obliged to stay in the small and nameless village. Matsui, Umemoto and Takeyama are now all at Matsui’s Benriya.

    General
    Complete name                  : Fuben na Benriya ep10 (848x480 x264).mp4
    Format                         : MPEG-4
    Format profile                 : Base Media
    Codec ID                       : isom
    File size                      : 233 MiB
    Duration                       : 29mn 6s
    Overall bit rate mode          : Variable
    Overall bit rate               : 1 120 Kbps

    Video
    ID                             : 1
    Format                         : AVC
    Format/Info                    : Advanced Video Codec
    Format profile                 : High@L4.1
    Format settings, CABAC         : Yes
    Format settings, ReFrames      : 4 frames
    Codec ID                       : avc1
    Codec ID/Info                  : Advanced Video Coding
    Duration                       : 29mn 5s
    Bit rate                       : 989 Kbps
    Maximum bit rate               : 4 121 Kbps
    Width                          : 848 pixels
    Height                         : 480 pixels
    Display aspect ratio           : 16:9
    Frame rate mode                : Constant
    Frame rate                     : 29.970 fps
    Color space                    : YUV
    Chroma subsampling             : 4:2:0
    Bit depth                      : 8 bits
    Scan type                      : Progressive
    Bits/(Pixel*Frame)             : 0.081
    Stream size                    : 206 MiB (88%)

    Audio
    ID                             : 2
    Format                         : AAC
    Format/Info                    : Advanced Audio Codec
    Format profile                 : LC
    Codec ID                       : 40
    Duration                       : 29mn 6s
    Bit rate mode                  : Variable
    Bit rate                       : 128 Kbps
    Maximum bit rate               : 133 Kbps
    Channel(s)                     : 2 channels
    Channel positions              : Front: L R
    Sampling rate                  : 48.0 KHz
    Compression mode               : Lossy







    0 0

    Original Post: Algernon ni Hanataba o ep10 finale 480p



    http://wiki.d-addicts.com/Algernon_ni_Hanataba_wo_%282015%29
    http://asianwiki.com/Flowers_for_Algernon_%28Japanese_Drama%29
    http://thetvdb.com/?tab=series&id=293168&lid=7

    Title: アルジャーノンに花束を
    Title (romaji): Algernon ni Hanataba wo
    Also known as: Flowers for Algernon
    Format: Renzoku
    Genre: Drama
    Episodes: 10
    Broadcast network: TBS
    Broadcast period: 2015-Apr-10 to 2015-Jun-12
    Air time: Friday 22:00
    Related TV shows: Algernon ni Hanataba wo (Fuji TV, 2002), Hello, God (KBS2, 2006)
    Language: Japanese
    Country: Japan
    Subtitles: English here: areea-chan
    RAW credit to furransu

    Cast
       Yamashita Tomohisa as Shiratori Sakuto
       Kuriyama Chiaki as Mochizuki Haruka
       Kubota Masataka as Yanagawa Ryuichi
       Kudo Asuka (工藤阿須加)
       Kikuchi Fuma
       Tanimura Mitsuki
       Oomasa Aya
       Kaai Gamon
       Ishida Issei
       Kusakari Tamiyo
       Nakahara Takeo (special appearance)
       Hagiwara Masato
       Ishimaru Kanji as Hachisuka Daigo

    Synopsis
    Shiratori Sakuto is 28, but has the intelligence of a 6-year-old boy. He works for Dream Flower Service, a flower distribution centre which provides employment for problem youth. One day, he and a colleague, Yanagawa Ryuichi, delivers a rose bouquet to the apartment building where Mochizuki Haruka lives. Because Haruka does not know that the deliveryman is mentally challenged, she is shocked by his response and tries to call the police. Haruka works for a brain physiology research centre where Professor Hachisuka Daigo has been studying the improvement of mental performance. He has succeeded in lab experiments on a white mouse called Algernon. Sakuto is transformed into a genius through surgery. But Algernon's new intelligence begins to fade, and he dies. Sakuto realises that his genius, too, is destined to leave him.

    General
    Complete name                  : Algernon ni Hanataba o ep10 finale (848x480 x264).mp4
    Format                         : MPEG-4
    Format profile                 : Base Media
    Codec ID                       : isom
    File size                      : 315 MiB
    Duration                       : 46mn 18s
    Overall bit rate mode          : Variable
    Overall bit rate               : 952 Kbps

    Video
    ID                             : 1
    Format                         : AVC
    Format/Info                    : Advanced Video Codec
    Format profile                 : High@L4.1
    Format settings, CABAC         : Yes
    Format settings, ReFrames      : 4 frames
    Codec ID                       : avc1
    Codec ID/Info                  : Advanced Video Coding
    Duration                       : 46mn 18s
    Bit rate                       : 820 Kbps
    Maximum bit rate               : 7 764 Kbps
    Width                          : 848 pixels
    Height                         : 480 pixels
    Display aspect ratio           : 16:9
    Frame rate mode                : Constant
    Frame rate                     : 29.970 fps
    Color space                    : YUV
    Chroma subsampling             : 4:2:0
    Bit depth                      : 8 bits
    Scan type                      : Progressive
    Bits/(Pixel*Frame)             : 0.067
    Stream size                    : 272 MiB (86%)

    Audio
    ID                             : 2
    Format                         : AAC
    Format/Info                    : Advanced Audio Codec
    Format profile                 : LC
    Codec ID                       : 40
    Duration                       : 46mn 18s
    Bit rate mode                  : Variable
    Bit rate                       : 128 Kbps
    Maximum bit rate               : 133 Kbps
    Channel(s)                     : 2 channels
    Channel positions              : Front: L R
    Sampling rate                  : 48.0 KHz
    Compression mode               : Lossy







    0 0

    Original Post: Tennou no Ryouriban ep08 480p



    http://asianwiki.com/Tenno_no_Ryoriban
    http://thetvdb.com/?tab=series&id=296291&lid=7

    Title: The Emperor's Cook
    Romaji: Tenno no Ryoriban
    Japanese: 天皇の料理番
    Genre: Historical, Human Drama
    Director: Yuichiro Hirakawa, Shingo Okamoto
    Writer: Hisahide Sugimori (novel), Yoshiko Morishita
    Network: TBS
    Episodes: 12
    Release Date: 2015-Apr-26 to 2015-Jul-12
    Runtime: Sundays 21:00
    Theme song: Yume Miru Hito (Dreamer) by Sada Masashi
    Language: Japanese
    Country: Japan
    Subtitles: English here: subie06
    RAW credit to furransu

    Cast
       Takeru Satoh - Tokuzo Akiyama
       Haru Kuroki - Toshiko Takahama
       Kenta Kiritani - Shintaro Matsui
       Tasuku Emoto - Tatsuyoshi Yamagami
       Saki Takaoka - Ume Morita
       Gajiro Sato - Sennosuke Morita
       Sei Ashina - Kayano
       Ryu Morioka - Kurasaburo Akiyama
       Anna Ishibashi - Koshi Takahama
       Yoshiyuki Tsubokura - Okumura
       Jinta Nishizawa - Masashi Sasaki
       Daisuke Kuroda - Araki
       Takeshi Onishi - Sekiguchi
       Mamoru Watanabe - Sugiyama
       Hirotaka Ookuma - Fujita
       Yuji Kido - Suzuki
       Ryohei Suzuki - Shutaro Akiyama
       Tetsuya Takeda - Shogo
       Hideaki Ito - Yukichi Tanabe
       Yumi Asou - Okichi (restaurant owner)
       Masaya Kato - Takeshiro Ioki
       Yojin Hino - Kinnosuke Takahama
       Satoko Oshima - Harugo Takahama
       Jun Miho - Fuki Akiyama
       Tetta Sugimoto - Shuzo Akiyama
       Kaoru Kobayashi - Usami
       Satoko Oshima
       Hiromi Go - Shin'ichirō Awano

    Synopsis
    Tokuzo Akiyama (Takeru Satoh) is a young man living in a rural area. One day, he eats cutlet. That experience leads him to become a cook for western style food. He first goes to Tokyo and then Paris, France to learn about the culinary arts. Fighting against discrimination and prejudice, he becomes a chef at the Hotel Ritz in Paris, France. At the age of 26, he becomes the chef for the Emperor of Japan.

    In 1904, at New Year's, the Akiyama family in Fukui prefecture were full of hope except for one thing. Shuzo (Tetta Sugimoto) worries that his second son, Tokuzo (Takeru Satoh) just quits things too easily unlike the first son, Shutaro (Ryohei Suzuki). The worried father arranges his son to marry Toshiko (Haru Kuroki) of the Takahama family who runs a seaweed merchant. One day, newly-married Tokuzo encounters Sergeant Tanabe (Hideaki Ito) of the Sabae Regiment while delivering seaweed. Tokuzo has a piece of freshly-fried cutlet offered by Tanabe and is struck by the overwhelming taste. ~ TBS

    General
    Complete name                  : Tennou no Ryouriban ep08 (848x480 x264).mp4
    Format                         : MPEG-4
    Format profile                 : Base Media
    Codec ID                       : isom
    File size                      : 342 MiB
    Duration                       : 46mn 5s
    Overall bit rate mode          : Variable
    Overall bit rate               : 1 036 Kbps

    Video
    ID                             : 1
    Format                         : AVC
    Format/Info                    : Advanced Video Codec
    Format profile                 : High@L4.1
    Format settings, CABAC         : Yes
    Format settings, ReFrames      : 4 frames
    Codec ID                       : avc1
    Codec ID/Info                  : Advanced Video Coding
    Duration                       : 46mn 5s
    Bit rate                       : 903 Kbps
    Maximum bit rate               : 6 585 Kbps
    Width                          : 848 pixels
    Height                         : 480 pixels
    Display aspect ratio           : 16:9
    Frame rate mode                : Constant
    Frame rate                     : 29.970 fps
    Color space                    : YUV
    Chroma subsampling             : 4:2:0
    Bit depth                      : 8 bits
    Scan type                      : Progressive
    Bits/(Pixel*Frame)             : 0.074
    Stream size                    : 298 MiB (87%)

    Audio
    ID                             : 2
    Format                         : AAC
    Format/Info                    : Advanced Audio Codec
    Format profile                 : LC
    Codec ID                       : 40
    Duration                       : 46mn 5s
    Bit rate mode                  : Variable
    Bit rate                       : 128 Kbps
    Maximum bit rate               : 138 Kbps
    Channel(s)                     : 2 channels
    Channel positions              : Front: L R
    Sampling rate                  : 48.0 KHz
    Compression mode               : Lossy







    0 0

    Original Post: Yook Sung Jae (BTOB) – Who Are You – School 2015 OST Part.8



    육성재 – 후아유-학교 2015 (KBS2 월화드라마) OST – Part.8
    Release Date: 2015.06.16
    Genre: OST
    Language: Korean
    Bit Rate: MP3-320kbps
    credit to hulkpop

    Track List:

    01. Love Song (Feat. 박혜수)
    02. Love Song (Inst.)



    0 0

    Original Post: Algernon ni Hanataba o (2015) 480p Complete Series



    http://wiki.d-addicts.com/Algernon_ni_Hanataba_wo_%282015%29
    http://asianwiki.com/Flowers_for_Algernon_%28Japanese_Drama%29
    http://thetvdb.com/?tab=series&id=293168&lid=7

    Title: アルジャーノンに花束を
    Title (romaji): Algernon ni Hanataba wo
    Also known as: Flowers for Algernon
    Format: Renzoku
    Genre: Drama
    Episodes: 10
    Broadcast network: TBS
    Broadcast period: 2015-Apr-10 to 2015-Jun-12
    Air time: Friday 22:00
    Related TV shows: Algernon ni Hanataba wo (Fuji TV, 2002), Hello, God (KBS2, 2006)
    Language: Japanese
    Country: Japan
    Subtitles: English here: areea-chan
    RAW credit to furransu

    Cast
       Yamashita Tomohisa as Shiratori Sakuto
       Kuriyama Chiaki as Mochizuki Haruka
       Kubota Masataka as Yanagawa Ryuichi
       Kudo Asuka (工藤阿須加)
       Kikuchi Fuma
       Tanimura Mitsuki
       Oomasa Aya
       Kaai Gamon
       Ishida Issei
       Kusakari Tamiyo
       Nakahara Takeo (special appearance)
       Hagiwara Masato
       Ishimaru Kanji as Hachisuka Daigo

    Synopsis
    Shiratori Sakuto is 28, but has the intelligence of a 6-year-old boy. He works for Dream Flower Service, a flower distribution centre which provides employment for problem youth. One day, he and a colleague, Yanagawa Ryuichi, delivers a rose bouquet to the apartment building where Mochizuki Haruka lives. Because Haruka does not know that the deliveryman is mentally challenged, she is shocked by his response and tries to call the police. Haruka works for a brain physiology research centre where Professor Hachisuka Daigo has been studying the improvement of mental performance. He has succeeded in lab experiments on a white mouse called Algernon. Sakuto is transformed into a genius through surgery. But Algernon's new intelligence begins to fade, and he dies. Sakuto realises that his genius, too, is destined to leave him.

    General
    Complete name                  : Algernon ni Hanataba o ep10 finale (848x480 x264).mp4
    Format                         : MPEG-4
    Format profile                 : Base Media
    Codec ID                       : isom
    File size                      : 315 MiB
    Duration                       : 46mn 18s
    Overall bit rate mode          : Variable
    Overall bit rate               : 952 Kbps

    Video
    ID                             : 1
    Format                         : AVC
    Format/Info                    : Advanced Video Codec
    Format profile                 : High@L4.1
    Format settings, CABAC         : Yes
    Format settings, ReFrames      : 4 frames
    Codec ID                       : avc1
    Codec ID/Info                  : Advanced Video Coding
    Duration                       : 46mn 18s
    Bit rate                       : 820 Kbps
    Maximum bit rate               : 7 764 Kbps
    Width                          : 848 pixels
    Height                         : 480 pixels
    Display aspect ratio           : 16:9
    Frame rate mode                : Constant
    Frame rate                     : 29.970 fps
    Color space                    : YUV
    Chroma subsampling             : 4:2:0
    Bit depth                      : 8 bits
    Scan type                      : Progressive
    Bits/(Pixel*Frame)             : 0.067
    Stream size                    : 272 MiB (86%)

    Audio
    ID                             : 2
    Format                         : AAC
    Format/Info                    : Advanced Audio Codec
    Format profile                 : LC
    Codec ID                       : 40
    Duration                       : 46mn 18s
    Bit rate mode                  : Variable
    Bit rate                       : 128 Kbps
    Maximum bit rate               : 133 Kbps
    Channel(s)                     : 2 channels
    Channel positions              : Front: L R
    Sampling rate                  : 48.0 KHz
    Compression mode               : Lossy













    0 0
  • 06/17/15--04:04: Adventures of Zatoichi
  • Original Post: Adventures of Zatoichi

    Adventures of Zatoichi Criterion Collection NTSC DVD Rip



    A.K.A: Zatoichi sekisho yaburi
    IMDB LINK: http://www.imdb.com/title/tt0164984/
    Year: 1964
    Cast: Shintarô Katsu, Miwa Takada, Eiko Taki, Kichijirô Ueda, Daimaru, Mikijirô Hira, Gen Kimura, Akitake Kôno, Koichi Mizuhara, Ikuko Môri, Rocket Nakata, Teruko Ômi
    Directed: Kimiyoshi Yasuda  
    Genre: Action | Adventure | Drama
    Runtime: 86 min
    Country: Japan
    Language: Japanese
    Subtitles: English

    Plot:
    Ichi takes a clandestine message from a fugitive wanted for murder to the man's sister in a nearby village. In the advent of the New Year's festival, merchants arriving in town are being forced to pay an unfair tax by a yakuza gang in league with a local official. Zatoichi shares a room at the inn with a young woman searching for her vanished father, who disappeared after appealing to the authorities about the oppressed farmers. How will these plot strands resolve? Watch and find out.


    File Name: Adventures of Zatoichi.mkv
    File Size: 628 MB

    [Container]
    Format: MATROSKA,WEBM  (Matroska / WebM)
    Duration: 01:26:14.17
    Bit Rate: 1,018 kbps

    [Video]
    Codec: H264  (H.264 / AVC / MPEG-4 AVC / MPEG-4 part 10)
    Codec Tag: [0][0][0][0] (0x00000000)
    Picture Size: 720x364  (PAR 186:157, DAR 33480:14287)
    Frame Rate: 23.98 fps
    Bit Rate: 1,018 kbps

    [Metadata]
    language: eng

    [Audio]
    Codec: AAC  (AAC (Advanced Audio Coding))
    Channels: Monaural
    Sample Rate: 48,000 Hz
    Sample Data Format: 32 bits (Float)
    Bit Rate: N/A


    Screenshots









    0 0

    Original Post: Mask.E07.150617.HDTV.X264-LIMO

    Details
    Title: 가면 / Gamyun
    Genre: Romance, melodrama
    Episodes: TBA
    Broadcast network: SBS
    Broadcast period: 2015-May-27 to 2015-???-??
    Air time: Wednesday & Thursday 22:00
    Original Soundtrack: Mask OST
    http://thetvdb.com/index.php?tab=series&id=295976

    Synopsis
    Byun Ji Sook has always had a hard life with her father constantly going into debt and being chased by loan sharks. She desperately wants to know what life is like if she was born into a better family and didn’t have to worry about money all the time. When a series of circumstances brings Ji Sook to Eun Ha, a woman from a wealthy family who strongly resembles Ji Sook, she grabs hold of the chance for a better life and assumes Eun Ha’s identity and begins to live her elite life. She meets Min Woo, a chaebol heir who is mistrusting of the people around him. But when he realizes that Ji Sook is not like the other women he has met, he is drawn to her. How long can Ji Sook keep up the charade and hide her true identity?


    Main Cast
    Soo Ae as Byun Ji Sook (29) / Seo Eun Ha (27)
    Joo Ji Hoon as Choi Min Woo (30)
    Yun Jung Hoon as Min Suk Hoon (34, Mi Yun's husband)
    Yoo In Young as Choi Mi Yun (31, Min Woo's elder sister)
    Byun Ji Sook's family
    Jung Dong Hwan as Byun Dae Sung (50s, Ji Sook's father)
    Yang Mi Kyung as Kang Ok Soon (50s, Ji Sook's mother)
    Hoya as Byun Ji Hyuk (25, Ji Sook's younger brother)
    Choi Min Woo's family
    Jun Gook Hwan as President Choi Doo Hyun (60s, Min Woo's father)
    Park Joon Geum as Mrs. Song (50s, Min Woo's stepmother, Mi Yun's biological mother)
    Seo Eun Ha's family
    Park Yong Soo as Congressman Seo Jong Hoon (60s, Eun Ha's father)
    Lee Jong Nam as Mrs. Lee (50s, Eun Ha's stepmother)
    Others
    Kim Byung Ok as Director Shim (40s, loan shark)
    Jo Han Sun as Kim Jung Tae (29, 3rd generation of Chaebol)
    Park Yun Soo (박연수) as Myung Hwa (24, Ji Sook's colleague)
    Hwang Suk Jung as Mal Ja (late 50s, Ji Sook's colleague)
    Park Joon Myun as Yeo Bu Jang (40s)
    Joo Jin Mo as Professor Kim (60s, a psychiatrist)
    Kim Ji Min (김지민)as Kim Yun Soo (30s)
    Moon Sung Ho (문성호) as Nam Chul (40s)
    Jo Yoon Woo as Oh Chang Soo (20s, Min Woo's secretary)
    Sung Chang Hoon (성창훈) as Bbul Te (30s)









    Code
    Video
    ID                             : 1
    Format                         : AVC
    Format/Info                    : Advanced Video Codec
    Format profile                 : Main@L4.0
    Format settings, CABAC         : Yes
    Format settings, ReFrames      : 4 frames
    Codec ID                       : V_MPEG4/ISO/AVC
    Duration                       : 58mn 44s
    Bit rate                       : 450 Kbps
    Width                          : 624 pixels
    Height                         : 350 pixels
    Display aspect ratio           : 16:9
    Frame rate mode                : Constant
    Frame rate                     : 29.970 fps
    Color space                    : YUV
    Chroma subsampling             : 4:2:0
    Bit depth                      : 8 bits
    Scan type                      : Progressive
    Bits/(Pixel*Frame)             : 0.069
    Stream size                    : 190 MiB (76%)
    Writing library                : x264 core 130 r2273 b3065e6
    Encoding settings              : cabac=1 / ref=1 / deblock=1:0:0 / analyse=0x1:0x111 / me=hex / subme=2 / psy=1 / psy_rd=1.00:0.00 / mixed_ref=0 / me_range=16 / chroma_me=1 / trellis=0 / 8x8dct=0 / cqm=0 / deadzone=21,11 / fast_pskip=1 / chroma_qp_offset=0 / threads=1 / lookahead_threads=1 / sliced_threads=0 / nr=0 / decimate=1 / interlaced=0 / bluray_compat=0 / constrained_intra=0 / bframes=3 / b_pyramid=2 / b_adapt=1 / b_bias=0 / direct=1 / weightb=1 / open_gop=0 / weightp=1 / keyint=300 / keyint_min=30 / scenecut=40 / intra_refresh=0 / rc_lookahead=10 / rc=abr / mbtree=1 / bitrate=450 / ratetol=1.0 / qcomp=0.60 / qpmin=0 / qpmax=69 / qpstep=4 / vbv_maxrate=20000 / vbv_bufsize=25000 / nal_hrd=none / ip_ratio=1.40 / aq=1:1.00
    Language                       : English
    Default                        : Yes
    Forced                         : No
    Color primaries                : BT.601 NTSC
    Transfer characteristics       : BT.709
    Matrix coefficients            : BT.601

    Audio
    ID                             : 2
    Format                         : MPEG Audio
    Format version                 : Version 1
    Format profile                 : Layer 3
    Mode                           : Joint stereo
    Mode extension                 : MS Stereo
    Codec ID                       : A_MPEG/L3
    Codec ID/Hint                  : MP3
    Duration                       : 58mn 44s
    Bit rate mode                  : Constant
    Bit rate                       : 128 Kbps
    Channel(s)                     : 2 channels
    Sampling rate                  : 48.0 KHz
    Compression mode               : Lossy
    Stream size                    : 53.8 MiB (22%)
    Default                        : Yes
    Forced                         : No



    0 0

    Original Post: Mask.E07.150617.HDTV.H264.450p-LIMO

    Details
    Title: 가면 / Gamyun
    Genre: Romance, melodrama
    Episodes: TBA
    Broadcast network: SBS
    Broadcast period: 2015-May-27 to 2015-???-??
    Air time: Wednesday & Thursday 22:00
    Original Soundtrack: Mask OST
    http://thetvdb.com/index.php?tab=series&id=295976

    Synopsis
    Byun Ji Sook has always had a hard life with her father constantly going into debt and being chased by loan sharks. She desperately wants to know what life is like if she was born into a better family and didn’t have to worry about money all the time. When a series of circumstances brings Ji Sook to Eun Ha, a woman from a wealthy family who strongly resembles Ji Sook, she grabs hold of the chance for a better life and assumes Eun Ha’s identity and begins to live her elite life. She meets Min Woo, a chaebol heir who is mistrusting of the people around him. But when he realizes that Ji Sook is not like the other women he has met, he is drawn to her. How long can Ji Sook keep up the charade and hide her true identity?


    Main Cast
    Soo Ae as Byun Ji Sook (29) / Seo Eun Ha (27)
    Joo Ji Hoon as Choi Min Woo (30)
    Yun Jung Hoon as Min Suk Hoon (34, Mi Yun's husband)
    Yoo In Young as Choi Mi Yun (31, Min Woo's elder sister)
    Byun Ji Sook's family
    Jung Dong Hwan as Byun Dae Sung (50s, Ji Sook's father)
    Yang Mi Kyung as Kang Ok Soon (50s, Ji Sook's mother)
    Hoya as Byun Ji Hyuk (25, Ji Sook's younger brother)
    Choi Min Woo's family
    Jun Gook Hwan as President Choi Doo Hyun (60s, Min Woo's father)
    Park Joon Geum as Mrs. Song (50s, Min Woo's stepmother, Mi Yun's biological mother)
    Seo Eun Ha's family
    Park Yong Soo as Congressman Seo Jong Hoon (60s, Eun Ha's father)
    Lee Jong Nam as Mrs. Lee (50s, Eun Ha's stepmother)
    Others
    Kim Byung Ok as Director Shim (40s, loan shark)
    Jo Han Sun as Kim Jung Tae (29, 3rd generation of Chaebol)
    Park Yun Soo (박연수) as Myung Hwa (24, Ji Sook's colleague)
    Hwang Suk Jung as Mal Ja (late 50s, Ji Sook's colleague)
    Park Joon Myun as Yeo Bu Jang (40s)
    Joo Jin Mo as Professor Kim (60s, a psychiatrist)
    Kim Ji Min (김지민)as Kim Yun Soo (30s)
    Moon Sung Ho (문성호) as Nam Chul (40s)
    Jo Yoon Woo as Oh Chang Soo (20s, Min Woo's secretary)
    Sung Chang Hoon (성창훈) as Bbul Te (30s)










    Code
    Video
    ID                                       : 0
    Format                                   : AVC
    Format/Info                              : Advanced Video Codec
    Format profile                           : High@L5.1
    Format settings, CABAC                   : Yes
    Format settings, ReFrames                : 4 frames
    Codec ID                                 : H264
    Bit rate                                 : 1 500 Kbps
    Width                                    : 800 pixels
    Height                                   : 450 pixels
    Display aspect ratio                     : 16:9
    Frame rate mode                          : Variable
    Frame rate                               : 29.970 fps
    Color space                              : YUV
    Chroma subsampling                       : 4:2:0
    Bit depth                                : 8 bits
    Scan type                                : Progressive
    Bits/(Pixel*Frame)                       : 0.139
    Stream size                              : 686 MiB (88%)
    Writing library                          : x264 core 112

    Audio
    ID                                       : 1
    Format                                   : MPEG Audio
    Format version                           : Version 1
    Format profile                           : Layer 3
    Mode                                     : Joint stereo
    Mode extension                           : MS Stereo
    Codec ID                                 : 55
    Codec ID/Hint                            : MP3
    Bit rate mode                            : Constant
    Bit rate                                 : 192 Kbps
    Channel(s)                               : 2 channels
    Sampling rate                            : 48.0 KHz
    Compression mode                         : Lossy
    Stream size                              : 88.3 MiB (11%)
    Alignment                                : Aligned on interleaves
    Interleave, duration                     : 24 ms (0.72 video frame)
    Writing library                          : LAME3.98.2
    Language                                 : Korean



    0 0

    Original Post: Mask.E07.150617.HDTV.H264.720p-LIMO

    Details
    Title: 가면 / Gamyun
    Genre: Romance, melodrama
    Episodes: TBA
    Broadcast network: SBS
    Broadcast period: 2015-May-27 to 2015-???-??
    Air time: Wednesday & Thursday 22:00
    Original Soundtrack: Mask OST
    http://thetvdb.com/index.php?tab=series&id=295976

    Synopsis
    Byun Ji Sook has always had a hard life with her father constantly going into debt and being chased by loan sharks. She desperately wants to know what life is like if she was born into a better family and didn’t have to worry about money all the time. When a series of circumstances brings Ji Sook to Eun Ha, a woman from a wealthy family who strongly resembles Ji Sook, she grabs hold of the chance for a better life and assumes Eun Ha’s identity and begins to live her elite life. She meets Min Woo, a chaebol heir who is mistrusting of the people around him. But when he realizes that Ji Sook is not like the other women he has met, he is drawn to her. How long can Ji Sook keep up the charade and hide her true identity?


    Main Cast
    Soo Ae as Byun Ji Sook (29) / Seo Eun Ha (27)
    Joo Ji Hoon as Choi Min Woo (30)
    Yun Jung Hoon as Min Suk Hoon (34, Mi Yun's husband)
    Yoo In Young as Choi Mi Yun (31, Min Woo's elder sister)
    Byun Ji Sook's family
    Jung Dong Hwan as Byun Dae Sung (50s, Ji Sook's father)
    Yang Mi Kyung as Kang Ok Soon (50s, Ji Sook's mother)
    Hoya as Byun Ji Hyuk (25, Ji Sook's younger brother)
    Choi Min Woo's family
    Jun Gook Hwan as President Choi Doo Hyun (60s, Min Woo's father)
    Park Joon Geum as Mrs. Song (50s, Min Woo's stepmother, Mi Yun's biological mother)
    Seo Eun Ha's family
    Park Yong Soo as Congressman Seo Jong Hoon (60s, Eun Ha's father)
    Lee Jong Nam as Mrs. Lee (50s, Eun Ha's stepmother)
    Others
    Kim Byung Ok as Director Shim (40s, loan shark)
    Jo Han Sun as Kim Jung Tae (29, 3rd generation of Chaebol)
    Park Yun Soo (박연수) as Myung Hwa (24, Ji Sook's colleague)
    Hwang Suk Jung as Mal Ja (late 50s, Ji Sook's colleague)
    Park Joon Myun as Yeo Bu Jang (40s)
    Joo Jin Mo as Professor Kim (60s, a psychiatrist)
    Kim Ji Min (김지민)as Kim Yun Soo (30s)
    Moon Sung Ho (문성호) as Nam Chul (40s)
    Jo Yoon Woo as Oh Chang Soo (20s, Min Woo's secretary)
    Sung Chang Hoon (성창훈) as Bbul Te (30s)









    Code
    Video
    ID                               : 0
    Format                           : AVC
    Format/Info                      : Advanced Video Codec
    Format profile                   : High@L5.1
    Format settings, CABAC           : Yes
    Format settings, ReFrames        : 4 frames
    Codec ID                         : H264
    Duration                         : 1h 4mn
    Bit rate                         : 3 000 Kbps
    Width                            : 1 280 pixels
    Height                           : 720 pixels
    Display aspect ratio             : 16:9
    Frame rate mode                  : Variable
    Frame rate                       : 29.970 fps
    Color space                      : YUV
    Chroma subsampling               : 4:2:0
    Bit depth                        : 8 bits
    Scan type                        : Progressive
    Bits/(Pixel*Frame)               : 0.109
    Stream size                      : 1.35 GiB (94%)
    Writing library                  : x264 core 112
    Encoding settings                : cabac=1 / ref=3 / deblock=1:-1:-1 / analyse=0x3:0x113 / me=hex / subme=6 / psy=1 / psy_rd=1.00:1.00 / mixed_ref=1 / me_range=16 / chroma_me=1 / trellis=1 / 8x8dct=1 / cqm=0 / deadzone=21,11 / fast_pskip=0 / chroma_qp_offset=-4 / threads=12 / sliced_threads=0 / nr=0 / decimate=1 / interlaced=0 / constrained_intra=0 / bframes=3 / b_pyramid=2 / b_adapt=1 / b_bias=1 / direct=3 / weightb=1 / open_gop=0 / weightp=2 / keyint=299 / keyint_min=25 / scenecut=1 / intra_refresh=0 / rc_lookahead=40 / rc=abr / mbtree=1 / bitrate=3000 / ratetol=1.0 / qcomp=0.60 / qpmin=10 / qpmax=51 / qpstep=4 / ip_ratio=1.40 / aq=1:1.00

    Audio
    ID                               : 1
    Format                           : MPEG Audio
    Format version                   : Version 1
    Format profile                   : Layer 3
    Mode                             : Joint stereo
    Mode extension                   : MS Stereo
    Codec ID                         : 55
    Codec ID/Hint                    : MP3
    Duration                         : 1h 4mn
    Bit rate mode                    : Constant
    Bit rate                         : 192 Kbps
    Channel(s)                       : 2 channels
    Sampling rate                    : 48.0 KHz
    Stream size                      : 88.0 MiB (6%)
    Alignment                        : Split accross interleaves
    Interleave, duration             : 33 ms (1.00 video frame)
    Interleave, preload duration     : 500 ms
    Writing library                  : LAME3.98.2



    0 0

    Original Post: Masked.Prosecutor.E09.150617.HDTV.X264-LIMO

    Details
    Title: 복면검사 / Bogmyeongeomsa
    Genre: Action, thriller
    Episodes:
    Broadcast network: KBS2
    Broadcast period: 2015-May-20 to 2015-??-??
    Air time: Wednesday & Thursday 22:00
    http://thetvdb.com/?tab=series&id=295948&lid=7

    Synopsis
    The story is about a man, played by Joo Sang Wook with a double identity. He's a normal prosecutor during the day and a masked vigilante at night. Kim Sun Ah will play a role of detective chief in the violent crimes unit.

    Cast
    Joo Sang Wook as Ha Dae Chul (33, Prosecutor at Southern District)
    Kim Sun Ah as a Yoo Min Hee (33, Chief at Gangnam Police Station, Crime Division)
    Uhm Ki Joon as Kang Hyun Woong (30, Prosecutor at Seoul District)
    Jun Kwang Ryul as Jo Sang Taek (50s, former detective)









    Code
    Video
    ID                             : 1
    Format                         : AVC
    Format/Info                    : Advanced Video Codec
    Format profile                 : Main@L4.0
    Format settings, CABAC         : Yes
    Format settings, ReFrames      : 4 frames
    Codec ID                       : V_MPEG4/ISO/AVC
    Duration                       : 58mn 44s
    Bit rate                       : 450 Kbps
    Width                          : 624 pixels
    Height                         : 350 pixels
    Display aspect ratio           : 16:9
    Frame rate mode                : Constant
    Frame rate                     : 29.970 fps
    Color space                    : YUV
    Chroma subsampling             : 4:2:0
    Bit depth                      : 8 bits
    Scan type                      : Progressive
    Bits/(Pixel*Frame)             : 0.069
    Stream size                    : 190 MiB (76%)
    Writing library                : x264 core 130 r2273 b3065e6
    Encoding settings              : cabac=1 / ref=1 / deblock=1:0:0 / analyse=0x1:0x111 / me=hex / subme=2 / psy=1 / psy_rd=1.00:0.00 / mixed_ref=0 / me_range=16 / chroma_me=1 / trellis=0 / 8x8dct=0 / cqm=0 / deadzone=21,11 / fast_pskip=1 / chroma_qp_offset=0 / threads=1 / lookahead_threads=1 / sliced_threads=0 / nr=0 / decimate=1 / interlaced=0 / bluray_compat=0 / constrained_intra=0 / bframes=3 / b_pyramid=2 / b_adapt=1 / b_bias=0 / direct=1 / weightb=1 / open_gop=0 / weightp=1 / keyint=300 / keyint_min=30 / scenecut=40 / intra_refresh=0 / rc_lookahead=10 / rc=abr / mbtree=1 / bitrate=450 / ratetol=1.0 / qcomp=0.60 / qpmin=0 / qpmax=69 / qpstep=4 / vbv_maxrate=20000 / vbv_bufsize=25000 / nal_hrd=none / ip_ratio=1.40 / aq=1:1.00
    Language                       : English
    Default                        : Yes
    Forced                         : No
    Color primaries                : BT.601 NTSC
    Transfer characteristics       : BT.709
    Matrix coefficients            : BT.601

    Audio
    ID                             : 2
    Format                         : MPEG Audio
    Format version                 : Version 1
    Format profile                 : Layer 3
    Mode                           : Joint stereo
    Mode extension                 : MS Stereo
    Codec ID                       : A_MPEG/L3
    Codec ID/Hint                  : MP3
    Duration                       : 58mn 44s
    Bit rate mode                  : Constant
    Bit rate                       : 128 Kbps
    Channel(s)                     : 2 channels
    Sampling rate                  : 48.0 KHz
    Compression mode               : Lossy
    Stream size                    : 53.8 MiB (22%)
    Default                        : Yes
    Forced                         : No



    0 0

    Original Post: Masked.Prosecutor.E09.150617.HDTV.H264.450p-LIMO

    Details
    Title: 복면검사 / Bogmyeongeomsa
    Genre: Action, thriller
    Episodes:
    Broadcast network: KBS2
    Broadcast period: 2015-May-20 to 2015-??-??
    Air time: Wednesday & Thursday 22:00
    http://thetvdb.com/?tab=series&id=295948&lid=7

    Synopsis
    The story is about a man, played by Joo Sang Wook with a double identity. He's a normal prosecutor during the day and a masked vigilante at night. Kim Sun Ah will play a role of detective chief in the violent crimes unit.

    Cast
    Joo Sang Wook as Ha Dae Chul (33, Prosecutor at Southern District)
    Kim Sun Ah as a Yoo Min Hee (33, Chief at Gangnam Police Station, Crime Division)
    Uhm Ki Joon as Kang Hyun Woong (30, Prosecutor at Seoul District)
    Jun Kwang Ryul as Jo Sang Taek (50s, former detective)










    Code
    Video
    ID                                       : 0
    Format                                   : AVC
    Format/Info                              : Advanced Video Codec
    Format profile                           : High@L5.1
    Format settings, CABAC                   : Yes
    Format settings, ReFrames                : 4 frames
    Codec ID                                 : H264
    Bit rate                                 : 1 500 Kbps
    Width                                    : 800 pixels
    Height                                   : 450 pixels
    Display aspect ratio                     : 16:9
    Frame rate mode                          : Variable
    Frame rate                               : 29.970 fps
    Color space                              : YUV
    Chroma subsampling                       : 4:2:0
    Bit depth                                : 8 bits
    Scan type                                : Progressive
    Bits/(Pixel*Frame)                       : 0.139
    Stream size                              : 686 MiB (88%)
    Writing library                          : x264 core 112

    Audio
    ID                                       : 1
    Format                                   : MPEG Audio
    Format version                           : Version 1
    Format profile                           : Layer 3
    Mode                                     : Joint stereo
    Mode extension                           : MS Stereo
    Codec ID                                 : 55
    Codec ID/Hint                            : MP3
    Bit rate mode                            : Constant
    Bit rate                                 : 192 Kbps
    Channel(s)                               : 2 channels
    Sampling rate                            : 48.0 KHz
    Compression mode                         : Lossy
    Stream size                              : 88.3 MiB (11%)
    Alignment                                : Aligned on interleaves
    Interleave, duration                     : 24 ms (0.72 video frame)
    Writing library                          : LAME3.98.2
    Language                                 : Korean



    0 0

    Original Post: Masked.Prosecutor.E09.150617.HDTV.H264.720p-LIMO

    Details
    Title: 복면검사 / Bogmyeongeomsa
    Genre: Action, thriller
    Episodes:
    Broadcast network: KBS2
    Broadcast period: 2015-May-20 to 2015-??-??
    Air time: Wednesday & Thursday 22:00
    http://thetvdb.com/?tab=series&id=295948&lid=7

    Synopsis
    The story is about a man, played by Joo Sang Wook with a double identity. He's a normal prosecutor during the day and a masked vigilante at night. Kim Sun Ah will play a role of detective chief in the violent crimes unit.

    Cast
    Joo Sang Wook as Ha Dae Chul (33, Prosecutor at Southern District)
    Kim Sun Ah as a Yoo Min Hee (33, Chief at Gangnam Police Station, Crime Division)
    Uhm Ki Joon as Kang Hyun Woong (30, Prosecutor at Seoul District)
    Jun Kwang Ryul as Jo Sang Taek (50s, former detective)









    Code
    Video
    ID                               : 0
    Format                           : AVC
    Format/Info                      : Advanced Video Codec
    Format profile                   : High@L5.1
    Format settings, CABAC           : Yes
    Format settings, ReFrames        : 4 frames
    Codec ID                         : H264
    Duration                         : 1h 4mn
    Bit rate                         : 3 000 Kbps
    Width                            : 1 280 pixels
    Height                           : 720 pixels
    Display aspect ratio             : 16:9
    Frame rate mode                  : Variable
    Frame rate                       : 29.970 fps
    Color space                      : YUV
    Chroma subsampling               : 4:2:0
    Bit depth                        : 8 bits
    Scan type                        : Progressive
    Bits/(Pixel*Frame)               : 0.109
    Stream size                      : 1.35 GiB (94%)
    Writing library                  : x264 core 112
    Encoding settings                : cabac=1 / ref=3 / deblock=1:-1:-1 / analyse=0x3:0x113 / me=hex / subme=6 / psy=1 / psy_rd=1.00:1.00 / mixed_ref=1 / me_range=16 / chroma_me=1 / trellis=1 / 8x8dct=1 / cqm=0 / deadzone=21,11 / fast_pskip=0 / chroma_qp_offset=-4 / threads=12 / sliced_threads=0 / nr=0 / decimate=1 / interlaced=0 / constrained_intra=0 / bframes=3 / b_pyramid=2 / b_adapt=1 / b_bias=1 / direct=3 / weightb=1 / open_gop=0 / weightp=2 / keyint=299 / keyint_min=25 / scenecut=1 / intra_refresh=0 / rc_lookahead=40 / rc=abr / mbtree=1 / bitrate=3000 / ratetol=1.0 / qcomp=0.60 / qpmin=10 / qpmax=51 / qpstep=4 / ip_ratio=1.40 / aq=1:1.00

    Audio
    ID                               : 1
    Format                           : MPEG Audio
    Format version                   : Version 1
    Format profile                   : Layer 3
    Mode                             : Joint stereo
    Mode extension                   : MS Stereo
    Codec ID                         : 55
    Codec ID/Hint                    : MP3
    Duration                         : 1h 4mn
    Bit rate mode                    : Constant
    Bit rate                         : 192 Kbps
    Channel(s)                       : 2 channels
    Sampling rate                    : 48.0 KHz
    Stream size                      : 88.0 MiB (6%)
    Alignment                        : Split accross interleaves
    Interleave, duration             : 33 ms (1.00 video frame)
    Interleave, preload duration     : 500 ms
    Writing library                  : LAME3.98.2



    0 0

    Original Post: Warm.and.Cozy.E11.150617.HDTV.X264-LIMO

    Details
    Title: 맨도롱 또똣 / Maendorong Ttottos
    Previously known as: 제주도 개츠비 / Jeju Island Gatsby
    Genre: Romance
    Episodes: 16
    Broadcast network: MBC
    Broadcast period: 2015-May-13 to 2015-Jul-??
    Air time: Wednesday & Thursday 22:00
    Subtitles will be added later
    http://thetvdb.com/?tab=series&id=295029&lid=7

    Synopsis
    Desperate to escape the drama and stress of modern life in the city, Baek Gun Woo (Yoo Yeon Seok) and Lee Jung Joo (Kang So Ra) take off to South Korea's idyllic Jeju Island. But when these two urbane strangers meet on the island, they discover the magical island's restorative qualities include unexpected romance.

    Cast
    Main Cast
    Yoo Yun Suk as Baek Gun Woo
    Kang So Ra as Lee Jung Joo










    Code
    Video
    ID                             : 1
    Format                         : AVC
    Format/Info                    : Advanced Video Codec
    Format profile                 : Main@L4.0
    Format settings, CABAC         : Yes
    Format settings, ReFrames      : 4 frames
    Codec ID                       : V_MPEG4/ISO/AVC
    Duration                       : 58mn 44s
    Bit rate                       : 450 Kbps
    Width                          : 624 pixels
    Height                         : 350 pixels
    Display aspect ratio           : 16:9
    Frame rate mode                : Constant
    Frame rate                     : 29.970 fps
    Color space                    : YUV
    Chroma subsampling             : 4:2:0
    Bit depth                      : 8 bits
    Scan type                      : Progressive
    Bits/(Pixel*Frame)             : 0.069
    Stream size                    : 190 MiB (76%)
    Writing library                : x264 core 130 r2273 b3065e6
    Encoding settings              : cabac=1 / ref=1 / deblock=1:0:0 / analyse=0x1:0x111 / me=hex / subme=2 / psy=1 / psy_rd=1.00:0.00 / mixed_ref=0 / me_range=16 / chroma_me=1 / trellis=0 / 8x8dct=0 / cqm=0 / deadzone=21,11 / fast_pskip=1 / chroma_qp_offset=0 / threads=1 / lookahead_threads=1 / sliced_threads=0 / nr=0 / decimate=1 / interlaced=0 / bluray_compat=0 / constrained_intra=0 / bframes=3 / b_pyramid=2 / b_adapt=1 / b_bias=0 / direct=1 / weightb=1 / open_gop=0 / weightp=1 / keyint=300 / keyint_min=30 / scenecut=40 / intra_refresh=0 / rc_lookahead=10 / rc=abr / mbtree=1 / bitrate=450 / ratetol=1.0 / qcomp=0.60 / qpmin=0 / qpmax=69 / qpstep=4 / vbv_maxrate=20000 / vbv_bufsize=25000 / nal_hrd=none / ip_ratio=1.40 / aq=1:1.00
    Language                       : English
    Default                        : Yes
    Forced                         : No
    Color primaries                : BT.601 NTSC
    Transfer characteristics       : BT.709
    Matrix coefficients            : BT.601

    Audio
    ID                             : 2
    Format                         : MPEG Audio
    Format version                 : Version 1
    Format profile                 : Layer 3
    Mode                           : Joint stereo
    Mode extension                 : MS Stereo
    Codec ID                       : A_MPEG/L3
    Codec ID/Hint                  : MP3
    Duration                       : 58mn 44s
    Bit rate mode                  : Constant
    Bit rate                       : 128 Kbps
    Channel(s)                     : 2 channels
    Sampling rate                  : 48.0 KHz
    Compression mode               : Lossy
    Stream size                    : 53.8 MiB (22%)
    Default                        : Yes
    Forced                         : No



    0 0

    Original Post: Warm.and.Cozy.E11.150617.HDTV.H264.450p-LIMO

    Details
    Title: 맨도롱 또똣 / Maendorong Ttottos
    Previously known as: 제주도 개츠비 / Jeju Island Gatsby
    Genre: Romance
    Episodes: 16
    Broadcast network: MBC
    Broadcast period: 2015-May-13 to 2015-Jul-??
    Air time: Wednesday & Thursday 22:00
    Subtitles will be added later
    http://thetvdb.com/?tab=series&id=295029&lid=7

    Synopsis
    Desperate to escape the drama and stress of modern life in the city, Baek Gun Woo (Yoo Yeon Seok) and Lee Jung Joo (Kang So Ra) take off to South Korea's idyllic Jeju Island. But when these two urbane strangers meet on the island, they discover the magical island's restorative qualities include unexpected romance.

    Cast
    Main Cast
    Yoo Yun Suk as Baek Gun Woo
    Kang So Ra as Lee Jung Joo









    Code
    Video
    ID                                       : 0
    Format                                   : AVC
    Format/Info                              : Advanced Video Codec
    Format profile                           : High@L5.1
    Format settings, CABAC                   : Yes
    Format settings, ReFrames                : 4 frames
    Codec ID                                 : H264
    Bit rate                                 : 1 500 Kbps
    Width                                    : 800 pixels
    Height                                   : 450 pixels
    Display aspect ratio                     : 16:9
    Frame rate mode                          : Variable
    Frame rate                               : 29.970 fps
    Color space                              : YUV
    Chroma subsampling                       : 4:2:0
    Bit depth                                : 8 bits
    Scan type                                : Progressive
    Bits/(Pixel*Frame)                       : 0.139
    Stream size                              : 686 MiB (88%)
    Writing library                          : x264 core 112

    Audio
    ID                                       : 1
    Format                                   : MPEG Audio
    Format version                           : Version 1
    Format profile                           : Layer 3
    Mode                                     : Joint stereo
    Mode extension                           : MS Stereo
    Codec ID                                 : 55
    Codec ID/Hint                            : MP3
    Bit rate mode                            : Constant
    Bit rate                                 : 192 Kbps
    Channel(s)                               : 2 channels
    Sampling rate                            : 48.0 KHz
    Compression mode                         : Lossy
    Stream size                              : 88.3 MiB (11%)
    Alignment                                : Aligned on interleaves
    Interleave, duration                     : 24 ms (0.72 video frame)
    Writing library                          : LAME3.98.2
    Language                                 : Korean



    0 0

    Original Post: Warm.and.Cozy.E11.150617.HDTV.H264.720p-LIMO

    Details
    Title: 맨도롱 또똣 / Maendorong Ttottos
    Previously known as: 제주도 개츠비 / Jeju Island Gatsby
    Genre: Romance
    Episodes: 16
    Broadcast network: MBC
    Broadcast period: 2015-May-13 to 2015-Jul-??
    Air time: Wednesday & Thursday 22:00
    Subtitles will be added later
    http://thetvdb.com/?tab=series&id=295029&lid=7

    Synopsis
    Desperate to escape the drama and stress of modern life in the city, Baek Gun Woo (Yoo Yeon Seok) and Lee Jung Joo (Kang So Ra) take off to South Korea's idyllic Jeju Island. But when these two urbane strangers meet on the island, they discover the magical island's restorative qualities include unexpected romance.

    Cast
    Main Cast
    Yoo Yun Suk as Baek Gun Woo
    Kang So Ra as Lee Jung Joo









    Code
    Video
    ID                               : 0
    Format                           : AVC
    Format/Info                      : Advanced Video Codec
    Format profile                   : High@L5.1
    Format settings, CABAC           : Yes
    Format settings, ReFrames        : 4 frames
    Codec ID                         : H264
    Duration                         : 1h 4mn
    Bit rate                         : 3 000 Kbps
    Width                            : 1 280 pixels
    Height                           : 720 pixels
    Display aspect ratio             : 16:9
    Frame rate mode                  : Variable
    Frame rate                       : 29.970 fps
    Color space                      : YUV
    Chroma subsampling               : 4:2:0
    Bit depth                        : 8 bits
    Scan type                        : Progressive
    Bits/(Pixel*Frame)               : 0.109
    Stream size                      : 1.35 GiB (94%)
    Writing library                  : x264 core 112
    Encoding settings                : cabac=1 / ref=3 / deblock=1:-1:-1 / analyse=0x3:0x113 / me=hex / subme=6 / psy=1 / psy_rd=1.00:1.00 / mixed_ref=1 / me_range=16 / chroma_me=1 / trellis=1 / 8x8dct=1 / cqm=0 / deadzone=21,11 / fast_pskip=0 / chroma_qp_offset=-4 / threads=12 / sliced_threads=0 / nr=0 / decimate=1 / interlaced=0 / constrained_intra=0 / bframes=3 / b_pyramid=2 / b_adapt=1 / b_bias=1 / direct=3 / weightb=1 / open_gop=0 / weightp=2 / keyint=299 / keyint_min=25 / scenecut=1 / intra_refresh=0 / rc_lookahead=40 / rc=abr / mbtree=1 / bitrate=3000 / ratetol=1.0 / qcomp=0.60 / qpmin=10 / qpmax=51 / qpstep=4 / ip_ratio=1.40 / aq=1:1.00

    Audio
    ID                               : 1
    Format                           : MPEG Audio
    Format version                   : Version 1
    Format profile                   : Layer 3
    Mode                             : Joint stereo
    Mode extension                   : MS Stereo
    Codec ID                         : 55
    Codec ID/Hint                    : MP3
    Duration                         : 1h 4mn
    Bit rate mode                    : Constant
    Bit rate                         : 192 Kbps
    Channel(s)                       : 2 channels
    Sampling rate                    : 48.0 KHz
    Stream size                      : 88.0 MiB (6%)
    Alignment                        : Split accross interleaves
    Interleave, duration             : 33 ms (1.00 video frame)
    Interleave, preload duration     : 500 ms
    Writing library                  : LAME3.98.2



    0 0

    Original Post: [Album] 2PM – NO.5 [5th Album]



    https://en.wikipedia.org/wiki/2PM

    앨범 정보 – NO.5
    Release Date: 2015.06.14
    Genre: Dance Pop
    Language: Korean
    Bit Rate: MP3-320kbps
    credit to k2nblog

    2PM joins the summer comeback rush with No. 5! The group’s fifth album covers a colorful variety of genres including acoustic, urban R&B, funk and electronic. Continuing to impress as a songwriter, Jun.K composed 2PM’s new dance title song “Our House.”

    Track List:

    01. 우리집 (Our House)
    02. Nobody Else
    03. 환각
    04. 너만의 남자
    05. 여름보다 뜨거운 너
    06. 미칠 것 같아
    07. RED
    08. Wanna Love You Again
    09. Know Your Mind
    10. Magic
    11. Jump
    12. Good Man



older | 1 | .... | 1373 | 1374 | (Page 1375) | 1376 | 1377 | .... | 1405 | newer