Are you the publisher? Claim or contact us about this channel


Embed this content in your HTML

Search

Report adult content:

click to rate:

Account: (login)

More Channels


Showcase


Channel Catalog


Channel Description:

Asia Torrents RSS Feed

older | 1 | .... | 1378 | 1379 | (Page 1380) | 1381 | 1382 | .... | 1405 | newer

    0 0

    Original Post: Dr. Rintaro 720p DoA Complete

    Title (romaji): Dr. Rintaro
    Format: Renzoku
    Genre: Medical
    Episodes: TBD
    Broadcast network: NTV
    Broadcast period: 2015-Apr-15 start
    Air time: Wednesday 22:00
    Subtitles: English - torachan2006
    RAW credit to DoA


    Cast

       Sakai Masato as Hino Rintaro
       Aoi Yu as Yumeno
       Kichise Michiko as Mizushima Yuriko
       Uchida Yuki as Kiryuu Kaoru
       Takanashi Rin as Kawakami Yoko
       Takahashi Issei as Fukuhara Daisaku
       Matobu Sei as Yabe Machiko
       Nakanishi Miho (中西美帆) as Koyume
       Yo Kimiko as Masuda Ikumi
       Endo Kenichi as Araki Shigeto
       Sakai Wakana as Nakahata Madoka
       Nagatsuka Keishi (長塚圭史) as Miyagawa Takahiro
       Matsushige Yutaka as Hasumi Eisuke
       Ishibashi Renji as Ike Masayuki
       Takahata Atsuko as Aizawa Ruriko
       Kohinata Fumiyo as Ennouji Kazuo


    Synopsis

    His name is Hino Rintaro. He listens closely to the aching hearts of people and relieves them of their pain. He is published and makes television appearances. The number of people waiting to receive his consultation continues to grow. Despite his achievements, Dr. Rintaro falls short in one department: love. He even dismisses it by saying “Falling in love is just like a passing mental illness.” One day, during a meal with the president of the university, Rintaro meets a woman. Her name is Yumeno, a highly sought-after geisha in Shimbashi. Little did Rintaro know that this encounter would drastically change his life. -- NTV


    Mediainfo
    Spoiler:show

    Code
    Format                                   : Matroska
    Format version                           : Version 4 / Version 2
    File size                                : 1.03 GiB
    Duration                                 : 59mn 4s
    Overall bit rate                         : 2 500 Kbps
    Encoded date                             : UTC 2015-04-16 14:24:57
    Writing application                      : mkvmerge v7.6.0 ('Garden of Dreams') 64bit built on Feb  8 2015 13:04:34
    Writing library                          : libebml v1.3.1 + libmatroska v1.4.2
    DURATION                                 : 00:59:04.853000000
    NUMBER_OF_FRAMES                         : 166165
    NUMBER_OF_BYTES                          : 83580995
    _STATISTICS_WRITING_APP                  : mkvmerge v7.6.0 ('Garden of Dreams') 64bit built on Feb  8 2015 13:04:34
    _STATISTICS_WRITING_DATE_UTC             : 2015-04-16 14:24:57
    _STATISTICS_TAGS                         : BPS DURATION NUMBER_OF_FRAMES NUMBER_OF_BYTES

    Video
    ID                                       : 1
    Format                                   : AVC
    Format/Info                              : Advanced Video Codec
    Format profile                           : High@L4.1
    Format settings, CABAC                   : Yes
    Format settings, ReFrames                : 9 frames
    Codec ID                                 : V_MPEG4/ISO/AVC
    Duration                                 : 59mn 4s
    Width                                    : 1 280 pixels
    Height                                   : 720 pixels
    Display aspect ratio                     : 16:9
    Frame rate mode                          : Constant
    Frame rate                               : 29.970 fps
    Color space                              : YUV
    Chroma subsampling                       : 4:2:0
    Bit depth                                : 8 bits
    Scan type                                : Progressive
    Title                                    : DoA encoder
    Writing library                          : x264 core 146 r2538 121396c
    Encoding settings                        : cabac=1 / ref=9 / deblock=1:-2:-2 / analyse=0x3:0x133 / me=umh / subme=10 / psy=1 / psy_rd=1.00:0.15 / mixed_ref=1 / me_range=48 / chroma_me=1 / trellis=2 / 8x8dct=1 / cqm=0 / deadzone=21,11 / fast_pskip=0 / chroma_qp_offset=-3 / threads=12 / lookahead_threads=2 / sliced_threads=0 / nr=0 / decimate=1 / interlaced=0 / bluray_compat=0 / constrained_intra=0 / bframes=8 / b_pyramid=2 / b_adapt=2 / b_bias=0 / direct=3 / weightb=1 / open_gop=0 / weightp=2 / keyint=300 / keyint_min=29 / scenecut=40 / intra_refresh=0 / rc_lookahead=60 / rc=crf / mbtree=1 / crf=17.0 / qcomp=0.60 / qpmin=0 / qpmax=69 / qpstep=4 / ip_ratio=1.40 / aq=1:1.00
    Language                                 : English
    Default                                  : Yes
    Forced                                   : No
    DURATION                                 : 00:59:04.874000000
    NUMBER_OF_FRAMES                         : 106240
    NUMBER_OF_BYTES                          : 1023101072
    _STATISTICS_WRITING_APP                  : mkvmerge v7.6.0 ('Garden of Dreams') 64bit built on Feb  8 2015 13:04:34
    _STATISTICS_WRITING_DATE_UTC             : 2015-04-16 14:24:57
    _STATISTICS_TAGS                         : BPS DURATION NUMBER_OF_FRAMES NUMBER_OF_BYTES

    Audio
    ID                                       : 2
    Format                                   : AAC
    Format/Info                              : Advanced Audio Codec
    Format profile                           : LC
    Codec ID                                 : A_AAC
    Duration                                 : 59mn 4s
    Channel(s)                               : 2 channels
    Channel positions                        : Front: L R
    Sampling rate                            : 48.0 KHz
    Compression mode                         : Lossy
    Default                                  : Yes
    Forced                                   : No













    0 0
  • 06/23/15--14:00: Yamegoku 720p DoA Complete
  • Original Post: Yamegoku 720p DoA Complete

    Title (romaji): Yamegoku
    Tagline: ヤクザやめて頂きます / Yakuza Yamete Itadakimasu
    Format: Renzoku
    Genre: Detective
    Episodes: TBD
    Broadcast network: TBS
    Broadcast period: 2015-Apr-16 start
    Air time: Thursday 21:00
    Theme song: Sekai wa Owaranai by Thinking Dogs
    Subtitles: None
    RAW credit to DoA


    Cast

       Oshima Yuko as Nagamitsu Bakushu
       Kitamura Kazuki as Mikajima Kakeru
       Katsuji Ryo as Sano Naomichi
       Honda Tsubasa as Nagamitsu Haruka
       Tanaka Tetsushi as Ishiyama Hakubun
       Shounozaki Ken as Tojo Ken
       Okada Kohki as Mizuhara Koki
       Yamaguchi Sayaka as Aridome Shoko
       Miyatake Mio as Nagamitsu Sakura
       Matsuoka Emiko as Mikajima Yuka
       Kamata Erena (鎌田英怜奈) as Mikajima Haru
       Yamaguchi Makiya as Tanigawa Eitoku
       Kim Sungrak (金すんら) as Mizuta Senichi
       Sakata Tadashi as Fujita Kiichiro
       Natori Yuko as Nagamitsu Yumiko (special appearance)
       Endo Kenichi as Tachibana Isao


    Synopsis

    Bakushu is an adviser in the "Clean Break Helpline" - a special unit in the Organized Crime Department at Tokyo Metropolitan Police which helps those who want to make a clean break from a gang group. Although she treats gang member clients like "scum", she goes far beyond her responsibility to help them quit the organization by getting a written agreement from the gang boss and finding jobs for them afterwards. Also, her colleague and a former detective at the Organized Crime Department - Mikajima Kakeru doesn't get along with Bakushu.

    One day "Clean Break Helpline" receives a call from a client. He is the leader of a gang group under the umbrella of a designated organized crime group "Kanto Kifune Gumi", and claims that he already made an apology to the boss of Kanto Kifune Gumi - Tachibana Isao. The client says that his group has got in trouble because of Bakushu... -- TBS


    Mediainfo
    Spoiler:show

    Code
    Format                                   : Matroska
    Format version                           : Version 4 / Version 2
    File size                                : 1.50 GiB
    Duration                                 : 1h 1mn
    Overall bit rate                         : 3 512 Kbps
    Encoded date                             : UTC 2015-04-19 08:11:08
    Writing application                      : mkvmerge v7.6.0 ('Garden of Dreams') 64bit built on Feb  8 2015 13:04:34
    Writing library                          : libebml v1.3.1 + libmatroska v1.4.2
    DURATION                                 : 01:01:19.914000000
    NUMBER_OF_FRAMES                         : 172496
    NUMBER_OF_BYTES                          : 86765488
    _STATISTICS_WRITING_APP                  : mkvmerge v7.6.0 ('Garden of Dreams') 64bit built on Feb  8 2015 13:04:34
    _STATISTICS_WRITING_DATE_UTC             : 2015-04-19 08:11:08
    _STATISTICS_TAGS                         : BPS DURATION NUMBER_OF_FRAMES NUMBER_OF_BYTES

    Video
    ID                                       : 1
    Format                                   : AVC
    Format/Info                              : Advanced Video Codec
    Format profile                           : High@L4.1
    Format settings, CABAC                   : Yes
    Format settings, ReFrames                : 9 frames
    Codec ID                                 : V_MPEG4/ISO/AVC
    Duration                                 : 1h 1mn
    Width                                    : 1 280 pixels
    Height                                   : 720 pixels
    Display aspect ratio                     : 16:9
    Frame rate mode                          : Constant
    Frame rate                               : 29.970 fps
    Color space                              : YUV
    Chroma subsampling                       : 4:2:0
    Bit depth                                : 8 bits
    Scan type                                : Progressive
    Title                                    : DoA Encoder
    Writing library                          : x264 core 146 r2538 121396c
    Encoding settings                        : cabac=1 / ref=9 / deblock=1:-2:-2 / analyse=0x3:0x133 / me=umh / subme=10 / psy=1 / psy_rd=1.00:0.15 / mixed_ref=1 / me_range=48 / chroma_me=1 / trellis=2 / 8x8dct=1 / cqm=0 / deadzone=21,11 / fast_pskip=0 / chroma_qp_offset=-3 / threads=12 / lookahead_threads=2 / sliced_threads=0 / nr=0 / decimate=1 / interlaced=0 / bluray_compat=0 / constrained_intra=0 / bframes=8 / b_pyramid=2 / b_adapt=2 / b_bias=0 / direct=3 / weightb=1 / open_gop=0 / weightp=2 / keyint=300 / keyint_min=29 / scenecut=40 / intra_refresh=0 / rc_lookahead=60 / rc=crf / mbtree=1 / crf=17.5 / qcomp=0.60 / qpmin=0 / qpmax=69 / qpstep=4 / ip_ratio=1.40 / aq=1:1.00
    Language                                 : English
    Default                                  : Yes
    Forced                                   : No
    DURATION                                 : 01:01:19.913000000
    NUMBER_OF_FRAMES                         : 109806
    NUMBER_OF_BYTES                          : 1527589707
    _STATISTICS_WRITING_APP                  : mkvmerge v7.6.0 ('Garden of Dreams') 64bit built on Feb  8 2015 13:04:34
    _STATISTICS_WRITING_DATE_UTC             : 2015-04-19 08:11:08
    _STATISTICS_TAGS                         : BPS DURATION NUMBER_OF_FRAMES NUMBER_OF_BYTES

    Audio
    ID                                       : 2
    Format                                   : AAC
    Format/Info                              : Advanced Audio Codec
    Format profile                           : LC
    Codec ID                                 : A_AAC
    Duration                                 : 1h 1mn
    Channel(s)                               : 2 channels
    Channel positions                        : Front: L R
    Sampling rate                            : 48.0 KHz
    Compression mode                         : Lossy
    Default                                  : Yes
    Forced                                   : No













    0 0
  • 06/23/15--14:16: DoS Deka 720p DoA Complete
  • Original Post: DoS Deka 720p DoA Complete

    Title (romaji): DoS Deka
    Also known as: Ms. Sadistic Detective
    Format: Renzoku
    Genre: Detective comedy
    Episodes: TBD
    Broadcast network: NTV
    Broadcast period: 2015-Apr-11 start
    Air time: Saturday 21:00
    Theme song: Tsuyoku Tsuyoku Tsuyoku by Kanjani8
    Subtitles: English - hikaruisyum
    RAW credit to DoA


    Cast

       Tabe Mikako as Kuroi Maya
       Okura Tadayoshi as Daikanyama Shusuke
       Yoshida Yo as Shirokane Fujiko
       Yaotome Hikaru as Hamda Soichiro
       Nakamura Yasuhi as Nakane Masanobu
       Katsumura Masanobu as Arisugawa Tsuneo
       Ishii Masanori as Yura Fumio
       Mitz Mangrove (ミッツ・マングローブ) as Inui Kenzaburo
       Seto Saori (瀬戸さおり) as Daikanyama Kaori
       Suga Yusuke (菅裕輔) as Ken-chan
       Ibu Masato as Kondo Tokuji
       Kishimoto Kayoko as Daikanyama Keiko


    Synopsis

    An uber-sadistic female detective and her nice-guy cop—an unbeatable partnership?! A delightful police comedy is born!

    She has no loyalty to her organization and doesn't follow any rules. She's a detective who enjoys seeing people's troubled faces. Her name is Kuroi Maya. She chose to become a detective because she thought she could torment bad people all she wants. With her sharp intuition, she finds the suspects quicker than anybody else. Beautiful but also a pain in the neck, she unleashes her sadistic ways to round up the bad people from society. This is a story about a never-before-seen uber-sadistic detective.

    Her unlucky partner? Daikanyama Shusuke, an officer who works in a police box. Caught in between a strong-willed mother and younger sister, he is constantly being pushed around at home. Shusuke and Maya have their chance encounter at a crime scene and the two end up as buddies. -- NTV


    Mediainfo
    Spoiler:show

    Code
    Format                                   : Matroska
    Format version                           : Version 4 / Version 2
    File size                                : 1.40 GiB
    Duration                                 : 51mn 39s
    Overall bit rate                         : 3 867 Kbps
    Movie name                               : ドS刑事 第1話 720p HDTV x264 AAC-DoA
    Encoded date                             : UTC 2015-04-12 21:47:01
    Writing application                      : mkvmerge v7.8.0 ('River Man') 64bit built on Mar 27 2015 16:31:37
    Writing library                          : libebml v1.3.1 + libmatroska v1.4.2
    DURATION                                 : 00:51:39.946000000
    NUMBER_OF_FRAMES                         : 145310
    NUMBER_OF_BYTES                          : 73090930
    _STATISTICS_WRITING_APP                  : mkvmerge v7.8.0 ('River Man') 64bit built on Mar 27 2015 16:31:37
    _STATISTICS_WRITING_DATE_UTC             : 2015-04-12 21:47:01
    _STATISTICS_TAGS                         : BPS DURATION NUMBER_OF_FRAMES NUMBER_OF_BYTES

    Video
    ID                                       : 1
    Format                                   : AVC
    Format/Info                              : Advanced Video Codec
    Format profile                           : High@L4.1
    Format settings, CABAC                   : Yes
    Format settings, ReFrames                : 9 frames
    Codec ID                                 : V_MPEG4/ISO/AVC
    Duration                                 : 51mn 39s
    Width                                    : 1 280 pixels
    Height                                   : 720 pixels
    Display aspect ratio                     : 16:9
    Frame rate mode                          : Constant
    Frame rate                               : 29.970 fps
    Color space                              : YUV
    Chroma subsampling                       : 4:2:0
    Bit depth                                : 8 bits
    Scan type                                : Progressive
    Title                                    : Encode by TTG-DoA
    Writing library                          : x264 core 146 r2538 121396c
    Encoding settings                        : cabac=1 / ref=9 / deblock=1:-2:-2 / analyse=0x3:0x133 / me=umh / subme=10 / psy=1 / psy_rd=1.00:0.15 / mixed_ref=1 / me_range=48 / chroma_me=1 / trellis=2 / 8x8dct=1 / cqm=0 / deadzone=21,11 / fast_pskip=0 / chroma_qp_offset=-3 / threads=12 / lookahead_threads=2 / sliced_threads=0 / nr=0 / decimate=1 / interlaced=0 / bluray_compat=0 / constrained_intra=0 / bframes=8 / b_pyramid=2 / b_adapt=2 / b_bias=0 / direct=3 / weightb=1 / open_gop=0 / weightp=2 / keyint=300 / keyint_min=29 / scenecut=40 / intra_refresh=0 / rc_lookahead=60 / rc=crf / mbtree=1 / crf=17.0 / qcomp=0.60 / qpmin=0 / qpmax=69 / qpstep=4 / ip_ratio=1.40 / aq=1:1.00
    Language                                 : Japanese
    Default                                  : Yes
    Forced                                   : No
    _STATISTICS_WRITING_APP                  : mkvmerge v7.8.0 ('River Man') 64bit built on Mar 27 2015 16:31:37
    _STATISTICS_WRITING_DATE_UTC             : 2015-04-12 21:47:01
    _STATISTICS_TAGS                         : BPS DURATION NUMBER_OF_FRAMES NUMBER_OF_BYTES
    DURATION                                 : 00:51:39.963000000
    NUMBER_OF_FRAMES                         : 92906
    NUMBER_OF_BYTES                          : 1424435201

    Audio
    ID                                       : 2
    Format                                   : AAC
    Format/Info                              : Advanced Audio Codec
    Format profile                           : LC
    Codec ID                                 : A_AAC
    Duration                                 : 51mn 39s
    Channel(s)                               : 2 channels
    Channel positions                        : Front: L R
    Sampling rate                            : 48.0 KHz
    Compression mode                         : Lossy
    Language                                 : Japanese
    Default                                  : Yes
    Forced                                   : No

    Menu
    00:00:00.000                             : ja:Chapter 01
    00:19:53.992                             : ja:Chapter 02
    00:24:30.969                             : ja:Chapter 03
    00:29:45.950                             : ja:Chapter 04
    00:35:13.945                             : ja:Chapter 05













    0 0

    Original Post: Masked.Prosecutor.E11.150624.HDTV.H264.450p-LIMO

    Details
    Title: 복면검사 / Bogmyeongeomsa
    Genre: Action, thriller
    Episodes:
    Broadcast network: KBS2
    Broadcast period: 2015-May-20 to 2015-??-??
    Air time: Wednesday & Thursday 22:00
    http://thetvdb.com/?tab=series&id=295948&lid=7

    Synopsis
    The story is about a man, played by Joo Sang Wook with a double identity. He's a normal prosecutor during the day and a masked vigilante at night. Kim Sun Ah will play a role of detective chief in the violent crimes unit.

    Cast
    Joo Sang Wook as Ha Dae Chul (33, Prosecutor at Southern District)
    Kim Sun Ah as a Yoo Min Hee (33, Chief at Gangnam Police Station, Crime Division)
    Uhm Ki Joon as Kang Hyun Woong (30, Prosecutor at Seoul District)
    Jun Kwang Ryul as Jo Sang Taek (50s, former detective)










    Code
    Video
    ID                                       : 0
    Format                                   : AVC
    Format/Info                              : Advanced Video Codec
    Format profile                           : High@L5.1
    Format settings, CABAC                   : Yes
    Format settings, ReFrames                : 4 frames
    Codec ID                                 : H264
    Bit rate                                 : 1 500 Kbps
    Width                                    : 800 pixels
    Height                                   : 450 pixels
    Display aspect ratio                     : 16:9
    Frame rate mode                          : Variable
    Frame rate                               : 29.970 fps
    Color space                              : YUV
    Chroma subsampling                       : 4:2:0
    Bit depth                                : 8 bits
    Scan type                                : Progressive
    Bits/(Pixel*Frame)                       : 0.139
    Stream size                              : 686 MiB (88%)
    Writing library                          : x264 core 112

    Audio
    ID                                       : 1
    Format                                   : MPEG Audio
    Format version                           : Version 1
    Format profile                           : Layer 3
    Mode                                     : Joint stereo
    Mode extension                           : MS Stereo
    Codec ID                                 : 55
    Codec ID/Hint                            : MP3
    Bit rate mode                            : Constant
    Bit rate                                 : 192 Kbps
    Channel(s)                               : 2 channels
    Sampling rate                            : 48.0 KHz
    Compression mode                         : Lossy
    Stream size                              : 88.3 MiB (11%)
    Alignment                                : Aligned on interleaves
    Interleave, duration                     : 24 ms (0.72 video frame)
    Writing library                          : LAME3.98.2
    Language                                 : Korean



    0 0

    Original Post: Masked.Prosecutor.E11.150624.HDTV.H264.720p-LIMO

    Details
    Title: 복면검사 / Bogmyeongeomsa
    Genre: Action, thriller
    Episodes:
    Broadcast network: KBS2
    Broadcast period: 2015-May-20 to 2015-??-??
    Air time: Wednesday & Thursday 22:00
    http://thetvdb.com/?tab=series&id=295948&lid=7

    Synopsis
    The story is about a man, played by Joo Sang Wook with a double identity. He's a normal prosecutor during the day and a masked vigilante at night. Kim Sun Ah will play a role of detective chief in the violent crimes unit.

    Cast
    Joo Sang Wook as Ha Dae Chul (33, Prosecutor at Southern District)
    Kim Sun Ah as a Yoo Min Hee (33, Chief at Gangnam Police Station, Crime Division)
    Uhm Ki Joon as Kang Hyun Woong (30, Prosecutor at Seoul District)
    Jun Kwang Ryul as Jo Sang Taek (50s, former detective)









    Code
    Video
    ID                               : 0
    Format                           : AVC
    Format/Info                      : Advanced Video Codec
    Format profile                   : High@L5.1
    Format settings, CABAC           : Yes
    Format settings, ReFrames        : 4 frames
    Codec ID                         : H264
    Duration                         : 1h 4mn
    Bit rate                         : 3 000 Kbps
    Width                            : 1 280 pixels
    Height                           : 720 pixels
    Display aspect ratio             : 16:9
    Frame rate mode                  : Variable
    Frame rate                       : 29.970 fps
    Color space                      : YUV
    Chroma subsampling               : 4:2:0
    Bit depth                        : 8 bits
    Scan type                        : Progressive
    Bits/(Pixel*Frame)               : 0.109
    Stream size                      : 1.35 GiB (94%)
    Writing library                  : x264 core 112
    Encoding settings                : cabac=1 / ref=3 / deblock=1:-1:-1 / analyse=0x3:0x113 / me=hex / subme=6 / psy=1 / psy_rd=1.00:1.00 / mixed_ref=1 / me_range=16 / chroma_me=1 / trellis=1 / 8x8dct=1 / cqm=0 / deadzone=21,11 / fast_pskip=0 / chroma_qp_offset=-4 / threads=12 / sliced_threads=0 / nr=0 / decimate=1 / interlaced=0 / constrained_intra=0 / bframes=3 / b_pyramid=2 / b_adapt=1 / b_bias=1 / direct=3 / weightb=1 / open_gop=0 / weightp=2 / keyint=299 / keyint_min=25 / scenecut=1 / intra_refresh=0 / rc_lookahead=40 / rc=abr / mbtree=1 / bitrate=3000 / ratetol=1.0 / qcomp=0.60 / qpmin=10 / qpmax=51 / qpstep=4 / ip_ratio=1.40 / aq=1:1.00

    Audio
    ID                               : 1
    Format                           : MPEG Audio
    Format version                   : Version 1
    Format profile                   : Layer 3
    Mode                             : Joint stereo
    Mode extension                   : MS Stereo
    Codec ID                         : 55
    Codec ID/Hint                    : MP3
    Duration                         : 1h 4mn
    Bit rate mode                    : Constant
    Bit rate                         : 192 Kbps
    Channel(s)                       : 2 channels
    Sampling rate                    : 48.0 KHz
    Stream size                      : 88.0 MiB (6%)
    Alignment                        : Split accross interleaves
    Interleave, duration             : 33 ms (1.00 video frame)
    Interleave, preload duration     : 500 ms
    Writing library                  : LAME3.98.2



    0 0

    Original Post: Mask.E09.150624.HDTV.X264-LIMO

    Details
    Title: 가면 / Gamyun
    Genre: Romance, melodrama
    Episodes: TBA
    Broadcast network: SBS
    Broadcast period: 2015-May-27 to 2015-???-??
    Air time: Wednesday & Thursday 22:00
    Original Soundtrack: Mask OST
    http://thetvdb.com/index.php?tab=series&id=295976

    Synopsis
    Byun Ji Sook has always had a hard life with her father constantly going into debt and being chased by loan sharks. She desperately wants to know what life is like if she was born into a better family and didn’t have to worry about money all the time. When a series of circumstances brings Ji Sook to Eun Ha, a woman from a wealthy family who strongly resembles Ji Sook, she grabs hold of the chance for a better life and assumes Eun Ha’s identity and begins to live her elite life. She meets Min Woo, a chaebol heir who is mistrusting of the people around him. But when he realizes that Ji Sook is not like the other women he has met, he is drawn to her. How long can Ji Sook keep up the charade and hide her true identity?


    Main Cast
    Soo Ae as Byun Ji Sook (29) / Seo Eun Ha (27)
    Joo Ji Hoon as Choi Min Woo (30)
    Yun Jung Hoon as Min Suk Hoon (34, Mi Yun's husband)
    Yoo In Young as Choi Mi Yun (31, Min Woo's elder sister)
    Byun Ji Sook's family
    Jung Dong Hwan as Byun Dae Sung (50s, Ji Sook's father)
    Yang Mi Kyung as Kang Ok Soon (50s, Ji Sook's mother)
    Hoya as Byun Ji Hyuk (25, Ji Sook's younger brother)
    Choi Min Woo's family
    Jun Gook Hwan as President Choi Doo Hyun (60s, Min Woo's father)
    Park Joon Geum as Mrs. Song (50s, Min Woo's stepmother, Mi Yun's biological mother)
    Seo Eun Ha's family
    Park Yong Soo as Congressman Seo Jong Hoon (60s, Eun Ha's father)
    Lee Jong Nam as Mrs. Lee (50s, Eun Ha's stepmother)
    Others
    Kim Byung Ok as Director Shim (40s, loan shark)
    Jo Han Sun as Kim Jung Tae (29, 3rd generation of Chaebol)
    Park Yun Soo (박연수) as Myung Hwa (24, Ji Sook's colleague)
    Hwang Suk Jung as Mal Ja (late 50s, Ji Sook's colleague)
    Park Joon Myun as Yeo Bu Jang (40s)
    Joo Jin Mo as Professor Kim (60s, a psychiatrist)
    Kim Ji Min (김지민)as Kim Yun Soo (30s)
    Moon Sung Ho (문성호) as Nam Chul (40s)
    Jo Yoon Woo as Oh Chang Soo (20s, Min Woo's secretary)
    Sung Chang Hoon (성창훈) as Bbul Te (30s)









    Code
    Video
    ID                             : 1
    Format                         : AVC
    Format/Info                    : Advanced Video Codec
    Format profile                 : Main@L4.0
    Format settings, CABAC         : Yes
    Format settings, ReFrames      : 4 frames
    Codec ID                       : V_MPEG4/ISO/AVC
    Duration                       : 58mn 44s
    Bit rate                       : 450 Kbps
    Width                          : 624 pixels
    Height                         : 350 pixels
    Display aspect ratio           : 16:9
    Frame rate mode                : Constant
    Frame rate                     : 29.970 fps
    Color space                    : YUV
    Chroma subsampling             : 4:2:0
    Bit depth                      : 8 bits
    Scan type                      : Progressive
    Bits/(Pixel*Frame)             : 0.069
    Stream size                    : 190 MiB (76%)
    Writing library                : x264 core 130 r2273 b3065e6
    Encoding settings              : cabac=1 / ref=1 / deblock=1:0:0 / analyse=0x1:0x111 / me=hex / subme=2 / psy=1 / psy_rd=1.00:0.00 / mixed_ref=0 / me_range=16 / chroma_me=1 / trellis=0 / 8x8dct=0 / cqm=0 / deadzone=21,11 / fast_pskip=1 / chroma_qp_offset=0 / threads=1 / lookahead_threads=1 / sliced_threads=0 / nr=0 / decimate=1 / interlaced=0 / bluray_compat=0 / constrained_intra=0 / bframes=3 / b_pyramid=2 / b_adapt=1 / b_bias=0 / direct=1 / weightb=1 / open_gop=0 / weightp=1 / keyint=300 / keyint_min=30 / scenecut=40 / intra_refresh=0 / rc_lookahead=10 / rc=abr / mbtree=1 / bitrate=450 / ratetol=1.0 / qcomp=0.60 / qpmin=0 / qpmax=69 / qpstep=4 / vbv_maxrate=20000 / vbv_bufsize=25000 / nal_hrd=none / ip_ratio=1.40 / aq=1:1.00
    Language                       : English
    Default                        : Yes
    Forced                         : No
    Color primaries                : BT.601 NTSC
    Transfer characteristics       : BT.709
    Matrix coefficients            : BT.601

    Audio
    ID                             : 2
    Format                         : MPEG Audio
    Format version                 : Version 1
    Format profile                 : Layer 3
    Mode                           : Joint stereo
    Mode extension                 : MS Stereo
    Codec ID                       : A_MPEG/L3
    Codec ID/Hint                  : MP3
    Duration                       : 58mn 44s
    Bit rate mode                  : Constant
    Bit rate                       : 128 Kbps
    Channel(s)                     : 2 channels
    Sampling rate                  : 48.0 KHz
    Compression mode               : Lossy
    Stream size                    : 53.8 MiB (22%)
    Default                        : Yes
    Forced                         : No



    0 0

    Original Post: Mask.E09.150624.HDTV.H264.450p-LIMO

    Details
    Title: 가면 / Gamyun
    Genre: Romance, melodrama
    Episodes: TBA
    Broadcast network: SBS
    Broadcast period: 2015-May-27 to 2015-???-??
    Air time: Wednesday & Thursday 22:00
    Original Soundtrack: Mask OST
    http://thetvdb.com/index.php?tab=series&id=295976

    Synopsis
    Byun Ji Sook has always had a hard life with her father constantly going into debt and being chased by loan sharks. She desperately wants to know what life is like if she was born into a better family and didn’t have to worry about money all the time. When a series of circumstances brings Ji Sook to Eun Ha, a woman from a wealthy family who strongly resembles Ji Sook, she grabs hold of the chance for a better life and assumes Eun Ha’s identity and begins to live her elite life. She meets Min Woo, a chaebol heir who is mistrusting of the people around him. But when he realizes that Ji Sook is not like the other women he has met, he is drawn to her. How long can Ji Sook keep up the charade and hide her true identity?


    Main Cast
    Soo Ae as Byun Ji Sook (29) / Seo Eun Ha (27)
    Joo Ji Hoon as Choi Min Woo (30)
    Yun Jung Hoon as Min Suk Hoon (34, Mi Yun's husband)
    Yoo In Young as Choi Mi Yun (31, Min Woo's elder sister)
    Byun Ji Sook's family
    Jung Dong Hwan as Byun Dae Sung (50s, Ji Sook's father)
    Yang Mi Kyung as Kang Ok Soon (50s, Ji Sook's mother)
    Hoya as Byun Ji Hyuk (25, Ji Sook's younger brother)
    Choi Min Woo's family
    Jun Gook Hwan as President Choi Doo Hyun (60s, Min Woo's father)
    Park Joon Geum as Mrs. Song (50s, Min Woo's stepmother, Mi Yun's biological mother)
    Seo Eun Ha's family
    Park Yong Soo as Congressman Seo Jong Hoon (60s, Eun Ha's father)
    Lee Jong Nam as Mrs. Lee (50s, Eun Ha's stepmother)
    Others
    Kim Byung Ok as Director Shim (40s, loan shark)
    Jo Han Sun as Kim Jung Tae (29, 3rd generation of Chaebol)
    Park Yun Soo (박연수) as Myung Hwa (24, Ji Sook's colleague)
    Hwang Suk Jung as Mal Ja (late 50s, Ji Sook's colleague)
    Park Joon Myun as Yeo Bu Jang (40s)
    Joo Jin Mo as Professor Kim (60s, a psychiatrist)
    Kim Ji Min (김지민)as Kim Yun Soo (30s)
    Moon Sung Ho (문성호) as Nam Chul (40s)
    Jo Yoon Woo as Oh Chang Soo (20s, Min Woo's secretary)
    Sung Chang Hoon (성창훈) as Bbul Te (30s)










    Code
    Video
    ID                                       : 0
    Format                                   : AVC
    Format/Info                              : Advanced Video Codec
    Format profile                           : High@L5.1
    Format settings, CABAC                   : Yes
    Format settings, ReFrames                : 4 frames
    Codec ID                                 : H264
    Bit rate                                 : 1 500 Kbps
    Width                                    : 800 pixels
    Height                                   : 450 pixels
    Display aspect ratio                     : 16:9
    Frame rate mode                          : Variable
    Frame rate                               : 29.970 fps
    Color space                              : YUV
    Chroma subsampling                       : 4:2:0
    Bit depth                                : 8 bits
    Scan type                                : Progressive
    Bits/(Pixel*Frame)                       : 0.139
    Stream size                              : 686 MiB (88%)
    Writing library                          : x264 core 112

    Audio
    ID                                       : 1
    Format                                   : MPEG Audio
    Format version                           : Version 1
    Format profile                           : Layer 3
    Mode                                     : Joint stereo
    Mode extension                           : MS Stereo
    Codec ID                                 : 55
    Codec ID/Hint                            : MP3
    Bit rate mode                            : Constant
    Bit rate                                 : 192 Kbps
    Channel(s)                               : 2 channels
    Sampling rate                            : 48.0 KHz
    Compression mode                         : Lossy
    Stream size                              : 88.3 MiB (11%)
    Alignment                                : Aligned on interleaves
    Interleave, duration                     : 24 ms (0.72 video frame)
    Writing library                          : LAME3.98.2
    Language                                 : Korean



    0 0

    Original Post: Mask.E09.150624.HDTV.H264.720p-LIMO

    Details
    Title: 가면 / Gamyun
    Genre: Romance, melodrama
    Episodes: TBA
    Broadcast network: SBS
    Broadcast period: 2015-May-27 to 2015-???-??
    Air time: Wednesday & Thursday 22:00
    Original Soundtrack: Mask OST
    http://thetvdb.com/index.php?tab=series&id=295976

    Synopsis
    Byun Ji Sook has always had a hard life with her father constantly going into debt and being chased by loan sharks. She desperately wants to know what life is like if she was born into a better family and didn’t have to worry about money all the time. When a series of circumstances brings Ji Sook to Eun Ha, a woman from a wealthy family who strongly resembles Ji Sook, she grabs hold of the chance for a better life and assumes Eun Ha’s identity and begins to live her elite life. She meets Min Woo, a chaebol heir who is mistrusting of the people around him. But when he realizes that Ji Sook is not like the other women he has met, he is drawn to her. How long can Ji Sook keep up the charade and hide her true identity?


    Main Cast
    Soo Ae as Byun Ji Sook (29) / Seo Eun Ha (27)
    Joo Ji Hoon as Choi Min Woo (30)
    Yun Jung Hoon as Min Suk Hoon (34, Mi Yun's husband)
    Yoo In Young as Choi Mi Yun (31, Min Woo's elder sister)
    Byun Ji Sook's family
    Jung Dong Hwan as Byun Dae Sung (50s, Ji Sook's father)
    Yang Mi Kyung as Kang Ok Soon (50s, Ji Sook's mother)
    Hoya as Byun Ji Hyuk (25, Ji Sook's younger brother)
    Choi Min Woo's family
    Jun Gook Hwan as President Choi Doo Hyun (60s, Min Woo's father)
    Park Joon Geum as Mrs. Song (50s, Min Woo's stepmother, Mi Yun's biological mother)
    Seo Eun Ha's family
    Park Yong Soo as Congressman Seo Jong Hoon (60s, Eun Ha's father)
    Lee Jong Nam as Mrs. Lee (50s, Eun Ha's stepmother)
    Others
    Kim Byung Ok as Director Shim (40s, loan shark)
    Jo Han Sun as Kim Jung Tae (29, 3rd generation of Chaebol)
    Park Yun Soo (박연수) as Myung Hwa (24, Ji Sook's colleague)
    Hwang Suk Jung as Mal Ja (late 50s, Ji Sook's colleague)
    Park Joon Myun as Yeo Bu Jang (40s)
    Joo Jin Mo as Professor Kim (60s, a psychiatrist)
    Kim Ji Min (김지민)as Kim Yun Soo (30s)
    Moon Sung Ho (문성호) as Nam Chul (40s)
    Jo Yoon Woo as Oh Chang Soo (20s, Min Woo's secretary)
    Sung Chang Hoon (성창훈) as Bbul Te (30s)









    Code
    Video
    ID                               : 0
    Format                           : AVC
    Format/Info                      : Advanced Video Codec
    Format profile                   : High@L5.1
    Format settings, CABAC           : Yes
    Format settings, ReFrames        : 4 frames
    Codec ID                         : H264
    Duration                         : 1h 4mn
    Bit rate                         : 3 000 Kbps
    Width                            : 1 280 pixels
    Height                           : 720 pixels
    Display aspect ratio             : 16:9
    Frame rate mode                  : Variable
    Frame rate                       : 29.970 fps
    Color space                      : YUV
    Chroma subsampling               : 4:2:0
    Bit depth                        : 8 bits
    Scan type                        : Progressive
    Bits/(Pixel*Frame)               : 0.109
    Stream size                      : 1.35 GiB (94%)
    Writing library                  : x264 core 112
    Encoding settings                : cabac=1 / ref=3 / deblock=1:-1:-1 / analyse=0x3:0x113 / me=hex / subme=6 / psy=1 / psy_rd=1.00:1.00 / mixed_ref=1 / me_range=16 / chroma_me=1 / trellis=1 / 8x8dct=1 / cqm=0 / deadzone=21,11 / fast_pskip=0 / chroma_qp_offset=-4 / threads=12 / sliced_threads=0 / nr=0 / decimate=1 / interlaced=0 / constrained_intra=0 / bframes=3 / b_pyramid=2 / b_adapt=1 / b_bias=1 / direct=3 / weightb=1 / open_gop=0 / weightp=2 / keyint=299 / keyint_min=25 / scenecut=1 / intra_refresh=0 / rc_lookahead=40 / rc=abr / mbtree=1 / bitrate=3000 / ratetol=1.0 / qcomp=0.60 / qpmin=10 / qpmax=51 / qpstep=4 / ip_ratio=1.40 / aq=1:1.00

    Audio
    ID                               : 1
    Format                           : MPEG Audio
    Format version                   : Version 1
    Format profile                   : Layer 3
    Mode                             : Joint stereo
    Mode extension                   : MS Stereo
    Codec ID                         : 55
    Codec ID/Hint                    : MP3
    Duration                         : 1h 4mn
    Bit rate mode                    : Constant
    Bit rate                         : 192 Kbps
    Channel(s)                       : 2 channels
    Sampling rate                    : 48.0 KHz
    Stream size                      : 88.0 MiB (6%)
    Alignment                        : Split accross interleaves
    Interleave, duration             : 33 ms (1.00 video frame)
    Interleave, preload duration     : 500 ms
    Writing library                  : LAME3.98.2



    0 0

    Original Post: Warm.and.Cozy.E13.150624.HDTV.X264-LIMO

    Details
    Title: 맨도롱 또똣 / Maendorong Ttottos
    Previously known as: 제주도 개츠비 / Jeju Island Gatsby
    Genre: Romance
    Episodes: 16
    Broadcast network: MBC
    Broadcast period: 2015-May-13 to 2015-Jul-??
    Air time: Wednesday & Thursday 22:00
    Subtitles will be added later
    http://thetvdb.com/?tab=series&id=295029&lid=7

    Synopsis
    Desperate to escape the drama and stress of modern life in the city, Baek Gun Woo (Yoo Yeon Seok) and Lee Jung Joo (Kang So Ra) take off to South Korea's idyllic Jeju Island. But when these two urbane strangers meet on the island, they discover the magical island's restorative qualities include unexpected romance.

    Cast
    Main Cast
    Yoo Yun Suk as Baek Gun Woo
    Kang So Ra as Lee Jung Joo










    Code
    Video
    ID                             : 1
    Format                         : AVC
    Format/Info                    : Advanced Video Codec
    Format profile                 : Main@L4.0
    Format settings, CABAC         : Yes
    Format settings, ReFrames      : 4 frames
    Codec ID                       : V_MPEG4/ISO/AVC
    Duration                       : 58mn 44s
    Bit rate                       : 450 Kbps
    Width                          : 624 pixels
    Height                         : 350 pixels
    Display aspect ratio           : 16:9
    Frame rate mode                : Constant
    Frame rate                     : 29.970 fps
    Color space                    : YUV
    Chroma subsampling             : 4:2:0
    Bit depth                      : 8 bits
    Scan type                      : Progressive
    Bits/(Pixel*Frame)             : 0.069
    Stream size                    : 190 MiB (76%)
    Writing library                : x264 core 130 r2273 b3065e6
    Encoding settings              : cabac=1 / ref=1 / deblock=1:0:0 / analyse=0x1:0x111 / me=hex / subme=2 / psy=1 / psy_rd=1.00:0.00 / mixed_ref=0 / me_range=16 / chroma_me=1 / trellis=0 / 8x8dct=0 / cqm=0 / deadzone=21,11 / fast_pskip=1 / chroma_qp_offset=0 / threads=1 / lookahead_threads=1 / sliced_threads=0 / nr=0 / decimate=1 / interlaced=0 / bluray_compat=0 / constrained_intra=0 / bframes=3 / b_pyramid=2 / b_adapt=1 / b_bias=0 / direct=1 / weightb=1 / open_gop=0 / weightp=1 / keyint=300 / keyint_min=30 / scenecut=40 / intra_refresh=0 / rc_lookahead=10 / rc=abr / mbtree=1 / bitrate=450 / ratetol=1.0 / qcomp=0.60 / qpmin=0 / qpmax=69 / qpstep=4 / vbv_maxrate=20000 / vbv_bufsize=25000 / nal_hrd=none / ip_ratio=1.40 / aq=1:1.00
    Language                       : English
    Default                        : Yes
    Forced                         : No
    Color primaries                : BT.601 NTSC
    Transfer characteristics       : BT.709
    Matrix coefficients            : BT.601

    Audio
    ID                             : 2
    Format                         : MPEG Audio
    Format version                 : Version 1
    Format profile                 : Layer 3
    Mode                           : Joint stereo
    Mode extension                 : MS Stereo
    Codec ID                       : A_MPEG/L3
    Codec ID/Hint                  : MP3
    Duration                       : 58mn 44s
    Bit rate mode                  : Constant
    Bit rate                       : 128 Kbps
    Channel(s)                     : 2 channels
    Sampling rate                  : 48.0 KHz
    Compression mode               : Lossy
    Stream size                    : 53.8 MiB (22%)
    Default                        : Yes
    Forced                         : No



    0 0

    Original Post: Warm.and.Cozy.E13.150624.HDTV.H264.450p-LIMO

    Details
    Title: 맨도롱 또똣 / Maendorong Ttottos
    Previously known as: 제주도 개츠비 / Jeju Island Gatsby
    Genre: Romance
    Episodes: 16
    Broadcast network: MBC
    Broadcast period: 2015-May-13 to 2015-Jul-??
    Air time: Wednesday & Thursday 22:00
    Subtitles will be added later
    http://thetvdb.com/?tab=series&id=295029&lid=7

    Synopsis
    Desperate to escape the drama and stress of modern life in the city, Baek Gun Woo (Yoo Yeon Seok) and Lee Jung Joo (Kang So Ra) take off to South Korea's idyllic Jeju Island. But when these two urbane strangers meet on the island, they discover the magical island's restorative qualities include unexpected romance.

    Cast
    Main Cast
    Yoo Yun Suk as Baek Gun Woo
    Kang So Ra as Lee Jung Joo









    Code
    Video
    ID                                       : 0
    Format                                   : AVC
    Format/Info                              : Advanced Video Codec
    Format profile                           : High@L5.1
    Format settings, CABAC                   : Yes
    Format settings, ReFrames                : 4 frames
    Codec ID                                 : H264
    Bit rate                                 : 1 500 Kbps
    Width                                    : 800 pixels
    Height                                   : 450 pixels
    Display aspect ratio                     : 16:9
    Frame rate mode                          : Variable
    Frame rate                               : 29.970 fps
    Color space                              : YUV
    Chroma subsampling                       : 4:2:0
    Bit depth                                : 8 bits
    Scan type                                : Progressive
    Bits/(Pixel*Frame)                       : 0.139
    Stream size                              : 686 MiB (88%)
    Writing library                          : x264 core 112

    Audio
    ID                                       : 1
    Format                                   : MPEG Audio
    Format version                           : Version 1
    Format profile                           : Layer 3
    Mode                                     : Joint stereo
    Mode extension                           : MS Stereo
    Codec ID                                 : 55
    Codec ID/Hint                            : MP3
    Bit rate mode                            : Constant
    Bit rate                                 : 192 Kbps
    Channel(s)                               : 2 channels
    Sampling rate                            : 48.0 KHz
    Compression mode                         : Lossy
    Stream size                              : 88.3 MiB (11%)
    Alignment                                : Aligned on interleaves
    Interleave, duration                     : 24 ms (0.72 video frame)
    Writing library                          : LAME3.98.2
    Language                                 : Korean



    0 0

    Original Post: Warm.and.Cozy.E13.150624.HDTV.H264.720p-LIMO

    Details
    Title: 맨도롱 또똣 / Maendorong Ttottos
    Previously known as: 제주도 개츠비 / Jeju Island Gatsby
    Genre: Romance
    Episodes: 16
    Broadcast network: MBC
    Broadcast period: 2015-May-13 to 2015-Jul-??
    Air time: Wednesday & Thursday 22:00
    Subtitles will be added later
    http://thetvdb.com/?tab=series&id=295029&lid=7

    Synopsis
    Desperate to escape the drama and stress of modern life in the city, Baek Gun Woo (Yoo Yeon Seok) and Lee Jung Joo (Kang So Ra) take off to South Korea's idyllic Jeju Island. But when these two urbane strangers meet on the island, they discover the magical island's restorative qualities include unexpected romance.

    Cast
    Main Cast
    Yoo Yun Suk as Baek Gun Woo
    Kang So Ra as Lee Jung Joo









    Code
    Video
    ID                               : 0
    Format                           : AVC
    Format/Info                      : Advanced Video Codec
    Format profile                   : High@L5.1
    Format settings, CABAC           : Yes
    Format settings, ReFrames        : 4 frames
    Codec ID                         : H264
    Duration                         : 1h 4mn
    Bit rate                         : 3 000 Kbps
    Width                            : 1 280 pixels
    Height                           : 720 pixels
    Display aspect ratio             : 16:9
    Frame rate mode                  : Variable
    Frame rate                       : 29.970 fps
    Color space                      : YUV
    Chroma subsampling               : 4:2:0
    Bit depth                        : 8 bits
    Scan type                        : Progressive
    Bits/(Pixel*Frame)               : 0.109
    Stream size                      : 1.35 GiB (94%)
    Writing library                  : x264 core 112
    Encoding settings                : cabac=1 / ref=3 / deblock=1:-1:-1 / analyse=0x3:0x113 / me=hex / subme=6 / psy=1 / psy_rd=1.00:1.00 / mixed_ref=1 / me_range=16 / chroma_me=1 / trellis=1 / 8x8dct=1 / cqm=0 / deadzone=21,11 / fast_pskip=0 / chroma_qp_offset=-4 / threads=12 / sliced_threads=0 / nr=0 / decimate=1 / interlaced=0 / constrained_intra=0 / bframes=3 / b_pyramid=2 / b_adapt=1 / b_bias=1 / direct=3 / weightb=1 / open_gop=0 / weightp=2 / keyint=299 / keyint_min=25 / scenecut=1 / intra_refresh=0 / rc_lookahead=40 / rc=abr / mbtree=1 / bitrate=3000 / ratetol=1.0 / qcomp=0.60 / qpmin=10 / qpmax=51 / qpstep=4 / ip_ratio=1.40 / aq=1:1.00

    Audio
    ID                               : 1
    Format                           : MPEG Audio
    Format version                   : Version 1
    Format profile                   : Layer 3
    Mode                             : Joint stereo
    Mode extension                   : MS Stereo
    Codec ID                         : 55
    Codec ID/Hint                    : MP3
    Duration                         : 1h 4mn
    Bit rate mode                    : Constant
    Bit rate                         : 192 Kbps
    Channel(s)                       : 2 channels
    Sampling rate                    : 48.0 KHz
    Stream size                      : 88.0 MiB (6%)
    Alignment                        : Split accross interleaves
    Interleave, duration             : 33 ms (1.00 video frame)
    Interleave, preload duration     : 500 ms
    Writing library                  : LAME3.98.2



    0 0

    Original Post: Masked Prosecutor OST – Part.1-2-3



    Champagne (샴페인), Tae Wan (태완) – 복면검사 (KBS 수목드라마) OST – Part.1
    Release Date: 2015.05.27
    Genre: OST
    Language: Korean
    Bit Rate: MP3-320kbps
    credit to hulkpop

    Track List:

    01. Mask
    02. Mask (Inst.)



    As One (애즈원), Eluphant (이루펀트) – 복면검사 (KBS 수목드라마) OST – Part.2
    Release Date: 2015.06.10
    Genre: OST
    Language: Korean
    Bit Rate: MP3-320kbps
    credit to hulkpop

    Track List:

    01. 어떡하죠
    02. 어떡하죠 (Inst.)



    Kim Jo Han (김조한) – 복면검사 (KBS 수목드라마) OST – Part.3
    Release Date: 2015.06.24
    Genre: OST
    Language: Korean
    Bit Rate: MP3-320kbps
    credit to hulkpop

    Track List:

    01. 크리스탈
    02. 크리스탈 (Inst.)



    0 0

    Original Post: A.Man's.Flower.Road.1986.WEB-DL.x264


    A Man's Flower Road (1986)
    Romaji: Otoko no hanamichi
    Japanese: 男の花道
    Director: Sion Sono
    Release Date: 1986
    Genre: Drama
    Country: Japan
    Language: Japanese
    Subtitles: English
    IMDb link: http://www.imdb.com/title/tt2056670/

    Plot:
    Shot in Super8 and divided in two parts, the film shows some moments from the life of a young university student, who lives with his family in a house in the outskirts.

    Media Info:
    Spoiler:show

    General
    Complete name               : A.Mans.Flower.Road.1986.WEB-DL.x264.mkv
    Format                      : Matroska
    Format version              : Version 4 / Version 2
    File size                   : 1.23 GiB
    Duration                    : 1h 41mn
    Overall bit rate            : 1 738 Kbps
    Encoded date                : UTC 2015-06-24 01:48:12
    Writing application         : mkvmerge v8.0.0 ('Til The Day That I Die') 64bit
    Writing library             : libebml v1.3.1 + libmatroska v1.4.2
    DURATION                    : 01:41:05.225000000
    NUMBER_OF_FRAMES            : 523
    NUMBER_OF_BYTES             : 10295
    _STATISTICS_WRITING_APP     : mkvmerge v8.0.0 ('Til The Day That I Die') 64bit
    _STATISTICS_WRITING_DATE_UT : 2015-06-24 01:48:12
    _STATISTICS_TAGS            : BPS DURATION NUMBER_OF_FRAMES NUMBER_OF_BYTES

    Video #1
    ID                          : 2
    Format                      : AVC
    Format/Info                 : Advanced Video Codec
    Format profile              : Baseline@L3.0
    Format settings, CABAC      : No
    Format settings, ReFrames   : 1 frame
    Codec ID                    : V_MPEG4/ISO/AVC
    Duration                    : 1h 41mn
    Width                       : 484 pixels
    Height                      : 478 pixels
    Display aspect ratio        : 4:3
    Original display aspect rat : 4:3
    Frame rate mode             : Constant
    Frame rate                  : 29.970 fps
    Color space                 : YUV
    Chroma subsampling          : 4:2:0
    Bit depth                   : 8 bits
    Scan type                   : Progressive
    Default                     : Yes
    Forced                      : No
    Color primaries             : BT.601 NTSC
    Transfer characteristics    : BT.709
    Matrix coefficients         : BT.601
    Color range                 : Limited

    Video #2
    ID                          : 3
    Format                      : V_QUICKTIME
    Codec ID                    : V_QUICKTIME
    Width                       : 640 pixels
    Height                      : 484 pixels
    Display aspect ratio        : 4:3
    Frame rate mode             : Constant
    Default                     : No
    Forced                      : No

    Audio
    ID                          : 1
    Format                      : AAC
    Format/Info                 : Advanced Audio Codec
    Format profile              : LC
    Codec ID                    : A_AAC
    Duration                    : 1h 41mn
    Channel(s)                  : 2 channels
    Channel positions           : Front: L R
    Sampling rate               : 44.1 KHz
    Compression mode            : Lossy
    Title                       : Japanese
    Language                    : Japanese
    Default                     : Yes
    Forced                      : No

    Text
    ID                          : 4
    Format                      : UTF-8
    Codec ID                    : S_TEXT/UTF8
    Codec ID/Info               : UTF-8 Plain Text
    Title                       : English
    Language                    : English
    Default                     : Yes
    Forced                      : No

    Menu
    00:00:00.000                : en:Chapter 1
    00:12:06.000                : en:Chapter 2
    00:21:54.000                : en:Chapter 3
    00:30:54.000                : en:Chapter 4
    00:34:08.000                : en:Chapter 5
    00:41:56.000                : en:Chapter 6
    00:53:16.000                : en:Chapter 7
    00:59:47.000                : en:Chapter 8
    01:10:01.000                : en:Chapter 9
    01:19:10.000                : en:Chapter 10
    01:28:10.000                : en:Chapter 11












    0 0

    Original Post: Perfect Proposal.2015.720p.HDRip.H264-Unknown



    Profile:
       Movie: Perfect Proposal (English title) / Secret Temptation (literal title)
       Revised romanization: Eunmilhan Yoohok
       Hangul: 은밀한 유혹
       Director: Yoon Jae-Koo
       Writer: Catherine Arley (novel), Yoon Jae-Koo
       Producer: No Jae-Hoon
       Release Date: June 4, 2015
       Runtime: 110 min.
       Genre: Crime / Maritime
       Distributor: CJ Entertainment
       Language: Korean
       Country: South Korea
       Subtitles: None ATM

    Plot:
    Ji-Yeon (Lim Soo-Jung) works at a bar in Macao to pay off debts owed by a former friend and ex-business partner. Sung-Yeol (Yoo Yeon-Seok) offers Ji-Yeon a way out. She soon boards the lavish yacht owned by his father, Kim Seok-Koo (Lee Kyoung-Young). A dangerous, high-stakes game of deception takes place on the yacht between Ji-Yeon, Sung-Yeol and Kim Seok-Koo. --More Info










    Code

    Video
    ID                          : 2
    Format                      : AVC
    Format/Info                 : Advanced Video Codec
    Format profile              : Baseline@L3.1
    Format settings, CABAC      : No
    Format settings, ReFrames   : 1 frame
    Muxing mode                 : Header stripping
    Codec ID                    : V_MPEG4/ISO/AVC
    Duration                    : 1h 50mn
    Bit rate                    : 3 498 Kbps
    Width                       : 1 280 pixels
    Height                      : 720 pixels
    Display aspect ratio        : 16:9
    Frame rate mode             : Constant
    Frame rate                  : 24.000 fps
    Color space                 : YUV
    Chroma subsampling          : 4:2:0
    Bit depth                   : 8 bits
    Scan type                   : Progressive
    Bits/(Pixel*Frame)          : 0.158
    Stream size                 : 2.70 GiB (91%)
    Default                     : Yes
    Forced                      : No

    Audio #1
    ID                          : 1
    Format                      : MPEG Audio
    Format version              : Version 2.5
    Format profile              : Layer 3
    Muxing mode                 : Header stripping
    Codec ID                    : A_MPEG/L3
    Codec ID/Hint               : MP3
    Duration                    : 1h 50mn
    Bit rate mode               : Constant
    Bit rate                    : 128 Kbps
    Channel(s)                  : 1 channel
    Sampling rate               : 11.025 KHz
    Compression mode            : Lossy
    Stream size                 : 101 MiB (3%)
    Writing library             : LAME3.93
    Default                     : Yes
    Forced                      : No

    Audio #2
    ID                          : 3
    Format                      : MPEG Audio
    Format version              : Version 1
    Format profile              : Layer 3
    Mode                        : Joint stereo
    Mode extension              : MS Stereo
    Muxing mode                 : Header stripping
    Codec ID                    : A_MPEG/L3
    Codec ID/Hint               : MP3
    Duration                    : 1h 50mn
    Bit rate mode               : Constant
    Bit rate                    : 128 Kbps
    Channel(s)                  : 2 channels
    Sampling rate               : 44.1 KHz
    Compression mode            : Lossy
    Stream size                 : 101 MiB (3%)
    Writing library             : LAME3.98.2
    Default                     : No
    Forced                      : No





    0 0

    Original Post: Kamoshirenai Joyutachi SP 2015 720p HDTV AVC AAC



    Title : かもしれない女優たち
    Format: Tanpatsu
    Genre: Drama, Comedy
    Episodes: 1
    Network: Fuji TV
    Release Date: 2015-Jun-23
    Air time: 22:00
    Language: Japanese
    Subtitles: None

    Synopsis
    Famous actresses Takeuchi Yuko, Maki Yoko, Mizukawa Asami briskly come through the entrance of a studio. Although they have glittering acting careers, when they enter a dressing room, they find themselves in a parallel universe. In this world, Yoko did not pass the audition for a production that would be the turning point for her as an actress, and goes on to work part-time at a bar while she plays minor roles as an extra. She has been keeping a diary because she cannot forget the embarrassment of being left behind by the people around her. Asami lost out on an audition for a production too. She feels insecure and jealous that Nanao, a friend of the same age who also aspires to be an actress, has scored a significant role. On the other hand, Takeuchi Yuko is scouted in Harajuku, but turns down the offer that would have been the turning point for her as an actress. She is now busy with her magazine editorial job at a publishing company, but leads a fulfilling life with her boyfriend. One day, Yuko is instructed by her boss to turn the manga which an acquaintance has drawn into a book. In an unexpected turn of events, the lives of these three women strangely start to have common ground and eventually get intertwined

    Cast
    Masuno Hidetomo (Bakarhythm)(Sutekina Sentaxi)
    Cast: Takeuchi Yuko, Maki Yoko, Mizukawa Asami, Katagiri Jin, Masuno Hidetomo (Bakarhythm)








    Code
    Format                                   : MPEG-4
    Format profile                           : Base Media / Version 2
    Codec ID                                 : mp42
    File size                                : 977 MiB
    Duration                                 : 1h 8mn
    Overall bit rate mode                    : Variable
    Overall bit rate                         : 1 989 Kbps
    Writing application                      : TMPGEnc MPEG Smart Renderer 4 Version 4.1.5.60

    Video
    ID                                       : 1
    Format                                   : AVC
    Format/Info                              : Advanced Video Codec
    Format profile                           : High@L4.1
    Format settings, CABAC                   : Yes
    Format settings, ReFrames                : 4 frames
    Codec ID                                 : avc1
    Codec ID/Info                            : Advanced Video Coding
    Duration                                 : 1h 8mn
    Bit rate mode                            : Variable
    Bit rate                                 : 1 856 Kbps
    Width                                    : 1 280 pixels
    Height                                   : 720 pixels
    Display aspect ratio                     : 16:9
    Frame rate mode                          : Constant
    Frame rate                               : 23.976 fps
    Standard                                 : Component
    Color space                              : YUV
    Chroma subsampling                       : 4:2:0
    Bit depth                                : 8 bits
    Scan type                                : Progressive
    Bits/(Pixel*Frame)                       : 0.084
    Stream size                              : 911 MiB (93%)
    Color primaries                          : BT.709
    Transfer characteristics                 : BT.709
    Matrix coefficients                      : BT.709

    Audio
    ID                                       : 2
    Format                                   : AAC
    Format/Info                              : Advanced Audio Codec
    Format profile                           : LC
    Codec ID                                 : 40
    Duration                                 : 1h 8mn
    Bit rate mode                            : Variable
    Bit rate                                 : 132 Kbps
    Maximum bit rate                         : 576 Kbps
    Channel(s)                               : 2 channels
    Channel positions                        : Front: L R
    Sampling rate                            : 48.0 KHz
    Compression mode                         : Lossy
    Delay relative to video                  : 83ms
    Stream size                              : 63.7 MiB (7%)

    Text
    ID                                       : 3
    Format                                   : Timed text
    Codec ID                                 : tx3g
    Duration                                 : 1h 8mn
    Bit rate mode                            : Constant
    Bit rate                                 : 0 bps
    Delay relative to video                  : 83ms
    Stream size                              : 18.0 Bytes (0%)
    Language                                 : English



    0 0
  • 06/24/15--08:36: Cow (2009) DVDrip x264 AC3
  • Original Post: Cow (2009) DVDrip x264 AC3



    Title: Cow
    AKA: Dou niu
    Original: 斗牛
    Director: Guan Hu
    Release Date: 11 September 2009
    Runtime: 110 min.
    Genre: War, Drama, Comedy
    Language: Mandarin
    Country: China
    Subtitles: English
    Source: DVD9 uploaded by katoonba to ADC
    IMDB URL: http://www.imdb.com/title/tt1500703

    Cast: Huang Bo, Ni Yan, Gao Hu, Hua Zi

    Synopsis: Niu’er, a slightly slow, slightly odd farmer in a remote Shandong town, is assigned the task of taking care of the town’s brand new 8th Route Army-provided Foreign Cow which produces more milk than their regular cows. He resents the task, but when he wakes up one day to find himself and the cow alone in the village, their tale of survival and friendship begins.

















    Mediainfo :
    Format                                   : Matroska
    Format version                           : Version 2
    File size                                : 2.13 GiB
    Duration                                 : 1h 49mn
    Overall bit rate                         : 2 782 Kbps
    Writing application                      : HandBrake 0.10.1 2015030800
    Writing library                          : Lavf55.12.0

    Video
    ID                                       : 1
    Format                                   : AVC
    Format/Info                              : Advanced Video Codec
    Format profile                           : High@L3.2
    Format settings, CABAC                   : Yes
    Format settings, ReFrames                : 16 frames
    Codec ID                                 : V_MPEG4/ISO/AVC
    Duration                                 : 1h 49mn
    Bit rate                                 : 2 279 Kbps
    Width                                    : 720 pixels
    Height                                   : 402 pixels
    Display aspect ratio                     : 16:9
    Frame rate mode                          : Constant
    Frame rate                               : 25.000 fps
    Color space                              : YUV
    Chroma subsampling                       : 4:2:0
    Bit depth                                : 8 bits
    Scan type                                : Progressive
    Bits/(Pixel*Frame)                       : 0.315
    Stream size                              : 1.74 GiB (82%)
    Writing library                          : x264 core 142 r2479 dd79a61
    Encoding settings                        : cabac=1 / ref=16 / deblock=1:0:0 / analyse=0x3:0x133 / me=umh / subme=10 / psy=1 / psy_rd=1.00:0.00 / mixed_ref=1 / me_range=24 / chroma_me=1 / trellis=2 / 8x8dct=1 / cqm=0 / deadzone=21,11 / fast_pskip=1 / chroma_qp_offset=-2 / threads=6 / lookahead_threads=1 / sliced_threads=0 / nr=0 / decimate=1 / interlaced=0 / bluray_compat=0 / constrained_intra=0 / bframes=8 / b_pyramid=2 / b_adapt=2 / b_bias=0 / direct=3 / weightb=1 / open_gop=0 / weightp=2 / keyint=250 / keyint_min=25 / scenecut=40 / intra_refresh=0 / rc_lookahead=60 / rc=crf / mbtree=1 / crf=17.0 / qcomp=0.60 / qpmin=0 / qpmax=69 / qpstep=4 / ip_ratio=1.40 / aq=1:1.00
    Default                                  : Yes
    Forced                                   : No
    Color primaries                          : BT.601 PAL
    Transfer characteristics                 : BT.709
    Matrix coefficients                      : BT.601
    Color range                              : Limited

    Audio
    ID                                       : 2
    Format                                   : AC-3
    Format/Info                              : Audio Coding 3
    Mode extension                           : CM (complete main)
    Format settings, Endianness              : Big
    Codec ID                                 : A_AC3
    Duration                                 : 1h 49mn
    Bit rate mode                            : Constant
    Bit rate                                 : 448 Kbps
    Channel(s)                               : 6 channels
    Channel positions                        : Front: L C R, Side: L R, LFE
    Sampling rate                            : 48.0 KHz
    Bit depth                                : 16 bits
    Compression mode                         : Lossy
    Stream size                              : 351 MiB (16%)
    Title                                    : Surround
    Language                                 : Chinese
    Default                                  : Yes
    Forced                                   : No



    0 0

    Original Post: Hidden.Identity.E04.150623.HDTV.XviD-WITH

    http://thetvdb.com/index.php?tab=series&id=296439&lid=7
    The heat is on in Investigation 5, an undercover police unit specializing in thwarting violent crimes. Led by Superintendent Jang Moon Won (Park Sung Woong), this team of young and elite officers, including Cha Gun Woo (Kim Bum), Jang Min Joo (Yoon So Yi), and Choi Tae Pyung (Lee Won Jong), assume new identities and infiltrate dangerous crime syndicates. With only their wits and poker faces at their disposal, can the team complete their missions without blowing their covers in hostile territory?

    Subtitles by Dramafever will be added later

    Cast
    Kim Bum as Cha Gun Woo
    Yoon So Yi as Jang Min Joo
    Park Sung Woong as Jang Moo Won
    Lee Won Jong as Choi Tae Pyung
    Kim Tae Hoon as Min Tae In










    Code
    Video
    ID                                       : 0
    Format                                   : MPEG-4 Visual
    Format profile                           : Advanced Simple@L5
    Format settings, BVOP                    : 2
    Format settings, QPel                    : No
    Format settings, GMC                     : No warppoints
    Format settings, Matrix                  : Default (H.263)
    Muxing mode                              : Packed bitstream
    Codec ID                                 : XVID
    Codec ID/Hint                            : XviD
    Duration                                 : 1h 2mn
    Bit rate                                 : 1 237 Kbps
    Width                                    : 640 pixels
    Height                                   : 352 pixels
    Display aspect ratio                     : 16:9
    Frame rate                               : 29.970 fps
    Color space                              : YUV
    Chroma subsampling                       : 4:2:0
    Bit depth                                : 8 bits
    Scan type                                : Progressive
    Compression mode                         : Lossy
    Bits/(Pixel*Frame)                       : 0.183
    Stream size                              : 550 MiB (90%)
    Writing library                          : XviD 58

    Audio
    ID                                       : 1
    Format                                   : MPEG Audio
    Format version                           : Version 1
    Format profile                           : Layer 3
    Mode                                     : Joint stereo
    Mode extension                           : MS Stereo
    Codec ID                                 : 55
    Codec ID/Hint                            : MP3
    Duration                                 : 1h 2mn
    Bit rate mode                            : Constant
    Bit rate                                 : 128 Kbps
    Channel(s)                               : 2 channels
    Sampling rate                            : 48.0 KHz
    Compression mode                         : Lossy
    Stream size                              : 56.9 MiB (9%)
    Alignment                                : Aligned on interleaves
    Interleave, duration                     : 33 ms (1.00 video frame)
    Interleave, preload duration             : 504 ms



    0 0

    Original Post: Hidden.Identity.E04.150623.HDTV.H264.720p-WITH

    http://thetvdb.com/index.php?tab=series&id=296439&lid=7
    The heat is on in Investigation 5, an undercover police unit specializing in thwarting violent crimes. Led by Superintendent Jang Moon Won (Park Sung Woong), this team of young and elite officers, including Cha Gun Woo (Kim Bum), Jang Min Joo (Yoon So Yi), and Choi Tae Pyung (Lee Won Jong), assume new identities and infiltrate dangerous crime syndicates. With only their wits and poker faces at their disposal, can the team complete their missions without blowing their covers in hostile territory?

    Subtitles by Dramafever will be added later

    Cast
    Kim Bum as Cha Gun Woo
    Yoon So Yi as Jang Min Joo
    Park Sung Woong as Jang Moo Won
    Lee Won Jong as Choi Tae Pyung
    Kim Tae Hoon as Min Tae In









    Code
    Video
    ID                                       : 1
    Format                                   : AVC
    Format/Info                              : Advanced Video Codec
    Format profile                           : Baseline@L1.3
    Format settings, CABAC                   : No
    Format settings, ReFrames                : 1 frame
    Codec ID                                 : avc1
    Codec ID/Info                            : Advanced Video Coding
    Duration                                 : 1h 3mn
    Bit rate                                 : 2 200 Kbps
    Maximum bit rate                         : 6 012 Kbps
    Width                                    : 1 280 pixels
    Height                                   : 720 pixels
    Display aspect ratio                     : 16:9
    Frame rate mode                          : Constant
    Frame rate                               : 29.970 fps
    Color space                              : YUV
    Chroma subsampling                       : 4:2:0
    Bit depth                                : 8 bits
    Scan type                                : Progressive
    Bits/(Pixel*Frame)                       : 0.080
    Stream size                              : 1 018 MiB (90%)
    Writing library                          : x264 core 128 r2216 198a7ea
    Encoding settings                        : cabac=0 / ref=1 / deblock=1:0:0 / analyse=0x1:0x111 / me=hex / subme=7 / psy=1 / psy_rd=1.00:0.00 / mixed_ref=0 / me_range=16 / chroma_me=1 / trellis=1 / 8x8dct=0 / cqm=0 / deadzone=21,11 / fast_pskip=1 / chroma_qp_offset=-2 / threads=12 / lookahead_threads=2 / sliced_threads=0 / nr=0 / decimate=1 / interlaced=0 / bluray_compat=0 / constrained_intra=0 / bframes=0 / weightp=0 / keyint=250 / keyint_min=25 / scenecut=40 / intra_refresh=0 / rc_lookahead=40 / rc=abr / mbtree=1 / bitrate=2200 / ratetol=1.0 / qcomp=0.60 / qpmin=0 / qpmax=69 / qpstep=4 / vbv_maxrate=50000 / vbv_bufsize=50000 / nal_hrd=none / ip_ratio=1.40 / aq=1:1.00


    Audio
    ID                                       : 2
    Format                                   : AAC
    Format/Info                              : Advanced Audio Codec
    Format profile                           : LC
    Codec ID                                 : 40
    Duration                                 : 1h 3mn
    Bit rate mode                            : Variable
    Bit rate                                 : 256 Kbps
    Maximum bit rate                         : 262 Kbps
    Channel(s)                               : 2 channels
    Channel positions                        : Front: L R
    Sampling rate                            : 48.0 KHz
    Compression mode                         : Lossy



    0 0

    Original Post: Lady of the Storm (2014) HDTV 720p LIMO Complete

    Details
    Title: 폭풍의 여자 / Pokpoongui Yeoja
    Also known as: Stormy Woman / Ladies of Storm / Woman of Storm
    Genre: Melodrama, family, romance
    Episodes: 140
    Broadcast network: MBC
    Broadcast period: 2014-Nov-03 to 2015-May-15
    Air time: Monday to Friday 7:50 AM

    Synopsis
    Jung-Im lives an ordinary life as a wife and mother. Her ordinary life comes to a halt when her friend has an affair with her husband and she loses her daughter So-Yoon.

    Cast
    Main Cast
    Park Sun Young as Han Jung Im
    Go Eun Mi as Do Hye Bin
    Hyun Woo Sung as Park Hyun Woo
    Jung Chan as Park Hyun Sung
    Sun Woo Jae Duk as Do Joon Tae
    Park Joon Hyuk as Jang Moo Young








    Code
    Video
    ID                             : 0
    Format                         : AVC
    Format/Info                    : Advanced Video Codec
    Format profile                 : High@L5.1
    Format settings, CABAC         : Yes
    Format settings, ReFrames      : 4 frames
    Codec ID                       : H264
    Duration                       : 32mn 57s
    Bit rate                       : 3 000 Kbps
    Width                          : 1 280 pixels
    Height                         : 720 pixels
    Display aspect ratio           : 16:9
    Frame rate mode                : Variable
    Frame rate                     : 29.970 fps
    Color space                    : YUV
    Chroma subsampling             : 4:2:0
    Bit depth                      : 8 bits
    Scan type                      : Progressive
    Bits/(Pixel*Frame)             : 0.109
    Stream size                    : 712 MiB (94%)
    Writing library                : x264 core 112
    Encoding settings              : cabac=1 / ref=3 / deblock=1:-1:-1 / analyse=0x3:0x113 / me=hex / subme=6 / psy=1 / psy_rd=1.00:1.00 / mixed_ref=1 / me_range=16 / chroma_me=1 / trellis=1 / 8x8dct=1 / cqm=0 / deadzone=21,11 / fast_pskip=0 / chroma_qp_offset=-4 / threads=12 / sliced_threads=0 / nr=0 / decimate=1 / interlaced=0 / constrained_intra=0 / bframes=3 / b_pyramid=2 / b_adapt=1 / b_bias=1 / direct=3 / weightb=1 / open_gop=0 / weightp=2 / keyint=299 / keyint_min=25 / scenecut=1 / intra_refresh=0 / rc_lookahead=40 / rc=abr / mbtree=1 / bitrate=3000 / ratetol=1.0 / qcomp=0.60 / qpmin=10 / qpmax=51 / qpstep=4 / ip_ratio=1.40 / aq=1:1.00

    Audio
    ID                             : 1
    Format                         : MPEG Audio
    Format version                 : Version 1
    Format profile                 : Layer 3
    Mode                           : Joint stereo
    Mode extension                 : MS Stereo
    Codec ID                       : 55
    Codec ID/Hint                  : MP3
    Duration                       : 32mn 57s
    Bit rate mode                  : Constant
    Bit rate                       : 192 Kbps
    Channel(s)                     : 2 channels
    Sampling rate                  : 48.0 KHz
    Compression mode               : Lossy
    Stream size                    : 45.3 MiB (6%)
    Alignment                      : Aligned on interleaves
    Interleave, duration           : 24 ms (0.72 video frame)
    Writing library                : LAME3.98.2
    Language                       : Undefined




    0 0

    Original Post: Constellation Women Series LEO (2015) COMPLETE Eng Sub



    Details

       Title: 星座愛情獅子女 / Xing Zuo Ai Qing Shi Zi Nu
       English title: Leo
       Also known as:Constellation Women Series - Leo Woman
       Genre: Romance
       Episodes: 9
       Broadcast network: FTV
       Broadcast period: 2015-Apr-19 to 2015-Jun-14
       Air time: 22:00-23:30
       Opening theme song: Nu Wang De Tiao Jian (女王的條件) by Tseng Jin Wen 曾靜玟
       Ending theme song: Ke Xi (可惜) by Claire Kuo 郭靜
       Related shows: Constellation Women Series
       thetvdb: none

    Video Raws: thanks to abugemilang
    Subtitles: Eng Srt, credit Viki, thanks to abugemilang
    **The volume for ep 1 is on the lower side compared to the rest of the eps, just crank up the volume and it's fine.

    Synopsis

    A relationship that doesn’t work in your 20s can be exactly what you need in your 30s. Li Ren (Alice Ke) couldn’t make her marriage to Hao Yu (Tender Huang) work, and the two get divorced. But the ex-spouses still deal with each other through work because they are in complementary industries. At 30, Li Ren is now dating a kind and attentive man named Michael (Tom Price), but she is starting to find his affections a little suffocating. Meanwhile, Hao Yu also has moved on and is dating Xin Jie (Yao Yi Ti), a strong young woman who will do anything for Hao Yu. Li Ren begins to realize that in her 20s, a Leo woman wanted passion and excitement. But in her 30s, she just wants a man she can be comfortable with and be her true self. But did Li Ren foolishly give up her chance at true love? “Constellation Women Series – Leo Woman” is a 2015 Taiwanese drama series. It is a spin-off of the 1998 series “Constellation Women Series – Taurus Woman” and the 2015 series “Constellation Women Series – Aries Woman.” (Source: Viki)
    Cast

       Alice Ke as Liu Li Ren 劉俐人
       Tender Huang as Chen Hao Yu 陳皓宇
       Yao Yi Ti (姚以緹) as He Xin Jie 何心潔
       Tom Price as Michael

    Production Credits

       Producer: Ma Fa da 瑪法達
       Director: Yang Guan Yu 楊冠玉, Zhou Xiao Peng 周曉鵬
       Screenwriter: Zhang Li Yi Jun 張李怡君








    Code
    Video
    ID                                       : 1
    Format                                   : AVC
    Format/Info                              : Advanced Video Codec
    Format profile                           : Main@L3.1
    Format settings, CABAC                   : Yes
    Format settings, ReFrames                : 4 frames
    Codec ID                                 : avc1
    Codec ID/Info                            : Advanced Video Coding
    Duration                                 : 1h 11mn
    Bit rate                                 : 1 242 Kbps
    Width                                    : 1 280 pixels
    Height                                   : 720 pixels
    Display aspect ratio                     : 16:9
    Frame rate mode                          : Constant
    Frame rate                               : 29.970 fps
    Color space                              : YUV
    Chroma subsampling                       : 4:2:0
    Bit depth                                : 8 bits
    Scan type                                : Progressive
    Bits/(Pixel*Frame)                       : 0.045
    Stream size                              : 638 MiB (82%)
    Writing library                          : x264 core 138 r2 9e941d1
    Encoding settings                        : cabac=1 / ref=1 / deblock=1:0:0 / analyse=0x1:0 / me=dia / subme=2 / psy=1 / psy_rd=1.00:0.00 / mixed_ref=0 / me_range=16 / chroma_me=1 / trellis=0 / 8x8dct=0 / cqm=0 / deadzone=21,11 / fast_pskip=1 / chroma_qp_offset=0 / threads=12 / lookahead_threads=4 / sliced_threads=0 / nr=0 / decimate=1 / interlaced=0 / bluray_compat=0 / constrained_intra=0 / bframes=3 / b_pyramid=2 / b_adapt=1 / b_bias=0 / direct=1 / weightb=1 / open_gop=0 / weightp=2 / keyint=300 / keyint_min=29 / scenecut=40 / intra_refresh=0 / rc_lookahead=40 / rc=crf / mbtree=1 / crf=23.0 / qcomp=0.60 / qpmin=0 / qpmax=69 / qpstep=4 / ip_ratio=1.40 / aq=1:1.00
    Tagged date                              : UTC 2015-04-21 09:00:40

    Audio
    ID                                       : 2
    Format                                   : AAC
    Format/Info                              : Advanced Audio Codec
    Format profile                           : LC
    Codec ID                                 : 40
    Duration                                 : 1h 11mn
    Bit rate mode                            : Constant
    Bit rate                                 : 192 Kbps
    Channel(s)                               : 2 channels
    Channel positions                        : Front: L R
    Sampling rate                            : 48.0 KHz
    Compression mode                         : Lossy
    Stream size                              : 98.7 MiB (13%)
    Language                                 : English
    Tagged date                              : UTC 2015-04-21 09:00:40




older | 1 | .... | 1378 | 1379 | (Page 1380) | 1381 | 1382 | .... | 1405 | newer