Are you the publisher? Claim or contact us about this channel


Embed this content in your HTML

Search

Report adult content:

click to rate:

Account: (login)

More Channels


Showcase


Channel Catalog


Channel Description:

Asia Torrents RSS Feed

older | 1 | .... | 1380 | 1381 | (Page 1382) | 1383 | 1384 | .... | 1405 | newer

    0 0

    Original Post: Yokokuhan−THE PAIN− EP03 720p HDTV x264 AAC-DoA

    Romaji: Yokokuhan−THE PAIN−
    Director: Yoshihiro Nakamura, Katsutoshi Hirabayashi, Megumi Sawada
    Writer: Tetsuya Tsutsui (manga), Tamio Hayashi, Hiroshi Tanaka
    Network: WOWOW
    Episodes: 5
    Release Date: June 7 - July 5, 2015
    Runtime: Sundays 22:00
    Language: Japanese
    Country: Japan
    Subtitles: English - [url]Areea-chan(announced)[/url]  
    RAW credit to DoA

    Cast

       Higashiyama Noriyuki as Eiji Sakuma
       Toda Erika as Erika Yoshino
       Kiritani Kenta as Takeshi Mizutani
       Ichikawa Mikako as Keiko Okinaka
       Hashimoto Satoshi as Yuzo Tabuchi
       Morioka Ryu as Subaru Shintani
       Tsumura Noriyoshi as Kakine
       Tanaka Ryuzo as Atsushi Hirasawa
       Toshimasa Komatsu as Kaneko
       Matsubayashi Shinji as Sakoda
       Onishi Shima as Shintaro Yazaki
       Murai Kunio as Tooru Hanayama


    Synopsis

    Eiji Sakuma (Noriyuki Higashiyama) is a judge. He also leads the group Shinbunshi in secret The group holds court on a video site and imposes punishment against defendants. Detectives, including Erika Yoshino (Erika Toda), attempt to take down the group.


    Mediainfo
    Spoiler:show

    Code
    Format                                   : Matroska
    Format version                           : Version 4 / Version 2
    File size                                : 1.26 GiB
    Duration                                 : 48mn 0s
    Overall bit rate                         : 3 764 Kbps
    Movie name                               : 予告犯 -THE PAIN- CASE #3
    Encoded by                               : 愛衣ちゃん大勝利 。゚( ゚இωஇ゚)゚。
    Encoded date                             : UTC 2015-06-23 13:52:31
    Writing application                      : mkvmerge v7.6.0 ('Garden of Dreams') 64bit built on Feb  9 2015 20:32:11
    Writing library                          : libebml v1.3.1 + libmatroska v1.4.2
    DATE_RECORDED                            : JST 2015-06-21 21:59:05
    TITLE                                    : 予告犯 -THE PAIN- CASE #3
    TITLE/Url                                : http://www.wowow.co.jp/dramaw/yokoku-han/
    WRITTEN_BY                               : 林民夫
    DIRECTOR                                 : 中村義洋
    ACTOR                                    : 戸田恵梨香
    ACTOR/CHARACTER                          : 吉野 絵里香
    COMMENT                                  : ルートスフィア
    ENCODER_SETTINGS                         : wine avs-plus/avs2yuv.exe yokokuhan.avs - | x264 -
    ENCODER_SETTINGS/AviSynth                : tfm/tdecimate/2pass/qtgmc
    DURATION                                 : 00:48:00.000000000
    NUMBER_OF_FRAMES                         : 135000
    NUMBER_OF_BYTES                          : 67906163
    _STATISTICS_WRITING_APP                  : mkvmerge v7.6.0 ('Garden of Dreams') 64bit built on Feb  9 2015 20:32:11
    _STATISTICS_WRITING_DATE_UTC             : 2015-06-23 13:52:31
    _STATISTICS_TAGS                         : BPS DURATION NUMBER_OF_FRAMES NUMBER_OF_BYTES

    Video
    ID                                       : 1
    Format                                   : AVC
    Format/Info                              : Advanced Video Codec
    Format profile                           : High@L4
    Format settings, CABAC                   : Yes
    Format settings, ReFrames                : 6 frames
    Codec ID                                 : V_MPEG4/ISO/AVC
    Duration                                 : 48mn 0s
    Width                                    : 1 280 pixels
    Height                                   : 720 pixels
    Display aspect ratio                     : 16:9
    Frame rate mode                          : Constant
    Frame rate                               : 23.976 fps
    Color space                              : YUV
    Chroma subsampling                       : 4:2:0
    Bit depth                                : 8 bits
    Scan type                                : Progressive
    Writing library                          : x264 core 146 r2538 121396c
    Encoding settings                        : cabac=1 / ref=6 / deblock=1:-3:-3 / analyse=0x3:0x133 / me=umh / subme=11 / psy=1 / psy_rd=1.00:0.15 / mixed_ref=1 / me_range=24 / chroma_me=1 / trellis=2 / 8x8dct=1 / cqm=0 / deadzone=21,11 / fast_pskip=1 / chroma_qp_offset=-3 / threads=12 / lookahead_threads=1 / sliced_threads=0 / nr=0 / decimate=1 / interlaced=0 / bluray_compat=0 / constrained_intra=0 / bframes=5 / b_pyramid=2 / b_adapt=2 / b_bias=0 / direct=3 / weightb=1 / open_gop=0 / weightp=2 / keyint=250 / keyint_min=24 / scenecut=40 / intra_refresh=0 / rc_lookahead=60 / rc=crf / mbtree=1 / crf=18.0 / qcomp=0.60 / qpmin=0 / qpmax=69 / qpstep=4 / ip_ratio=1.40 / aq=1:1.00
    Language                                 : Japanese
    Default                                  : Yes
    Forced                                   : No

    Audio
    ID                                       : 2
    Format                                   : AAC
    Format/Info                              : Advanced Audio Codec
    Format profile                           : LC
    Codec ID                                 : A_AAC
    Duration                                 : 48mn 0s
    Channel(s)                               : 2 channels
    Channel positions                        : Front: L R
    Sampling rate                            : 48.0 KHz
    Compression mode                         : Lossy
    Delay relative to video                  : 16ms
    Language                                 : Japanese
    Default                                  : Yes
    Forced                                   : No








    0 0

    Original Post: A Chinese Odyssey Part One 1080p BRRip x264 DTS-HDMA & AC3 (CAN-MAN)

    A Chinese Odyssey Part One 1080p BRRip x264 DTS-HDMA & AC3 (CAN-MAN)


    Title: A Chinese Odyssey Part One: Pandora's Box
    Revised romanization: Sai yau gei: Yut gwong bou haap
    Chinese: 西遊記第壹佰零壹回之月光寶盒

    Release date: 21 January 1995
    Runtime: 01:28:16 (h:m:s)
    Genre: Action, Adventure, Comedy, Fantasy
    Languages: Cantonese, Mandarin
    Country: Hong Kong
    Subtitles: English, Chinese (Traditional), Chinese (Simplified), Korean, Japanese (PGS)
    Source: Blu-Ray
    IMDB url: http://www.imdb.com/title/tt0112778/
    HKMDB url: http://hkmdb.com/db/movies/view.mhtml?id=7958&display_set=eng

    Written and Directed by Jeffrey Lau

    Cast: Stephen Chow, Athena Chu, Ng Man-tat, Yammie Lam, Karen Mok, Law Kar-ying, Jeffrey Lau, Lu Shuming, Ada Choi

    Synopsis: 'Pandora's Box' - An ambitious, highly-produced costume fable based upon the folk legend "Journey to the West," which finds the playful, once-divine Monkey King (now reborn in a human form) employing a mysterious time-travel device (the titular box) in his quest to shed his human feet of clay. A showcase for the comic gifts of the rubber-faced and nimble Chow, with plenty of dramatic interest, special effects, and martial arts action.

    [screens]  







    Media Information:

    Code
    Video
    ID                                       : 1
    Format                                   : AVC
    Format/Info                              : Advanced Video Codec
    Format profile                           : High@L4.1
    Format settings, CABAC                   : Yes
    Format settings, ReFrames                : 4 frames
    Codec ID                                 : V_MPEG4/ISO/AVC
    Duration                                 : 1h 28mn
    Nominal bit rate                         : 4 655 Kbps
    Width                                    : 1 920 pixels
    Height                                   : 1 080 pixels
    Display aspect ratio                     : 16:9
    Frame rate mode                          : Constant
    Frame rate                               : 24.000 fps
    Color space                              : YUV
    Chroma subsampling                       : 4:2:0
    Bit depth                                : 8 bits
    Scan type                                : Progressive
    Bits/(Pixel*Frame)                       : 0.094
    Writing library                          : x264 core 146 r2538 121396c
    Encoding settings                        : cabac=1 / ref=4 / deblock=1:0:0 / analyse=0x3:0x133 / me=umh / subme=10 / psy=1 / psy_rd=1.00:0.00 / mixed_ref=1 / me_range=24 / chroma_me=1 / trellis=2 / 8x8dct=1 / cqm=0 / deadzone=21,11 / fast_pskip=1 / chroma_qp_offset=-2 / threads=12 / lookahead_threads=2 / sliced_threads=0 / nr=100 / decimate=1 / interlaced=0 / bluray_compat=0 / constrained_intra=0 / bframes=8 / b_pyramid=2 / b_adapt=2 / b_bias=0 / direct=3 / weightb=1 / open_gop=0 / weightp=2 / keyint=250 / keyint_min=24 / scenecut=40 / intra_refresh=0 / rc_lookahead=60 / rc=2pass / mbtree=1 / bitrate=4655 / ratetol=1.0 / qcomp=0.60 / qpmin=0 / qpmax=69 / qpstep=4 / cplxblur=20.0 / qblur=0.5 / ip_ratio=1.40 / aq=1:1.00
    Default                                  : Yes
    Forced                                   : No

    Audio #1
    ID                                       : 2
    Format                                   : DTS
    Format/Info                              : Digital Theater Systems
    Format profile                           : MA / Core
    Mode                                     : 16
    Format settings, Endianness              : Big
    Codec ID                                 : A_DTS
    Duration                                 : 1h 28mn
    Bit rate mode                            : Variable
    Bit rate                                 : Unknown / 1 509 Kbps
    Channel(s)                               : 7 channels / 6 channels
    Channel positions                        : Front: L C R, Side: L R, Back: C, LFE / Front: L C R, Side: L R, LFE
    Sampling rate                            : 48.0 KHz
    Bit depth                                : 16 bits
    Compression mode                         : Lossless / Lossy
    Title                                    : Cantonese DTS-HD Master Audio
    Language                                 : Chinese
    Default                                  : Yes
    Forced                                   : No

    Audio #2
    ID                                       : 3
    Format                                   : AC-3
    Format/Info                              : Audio Coding 3
    Mode extension                           : CM (complete main)
    Format settings, Endianness              : Big
    Codec ID                                 : A_AC3
    Duration                                 : 1h 28mn
    Bit rate mode                            : Constant
    Bit rate                                 : 640 Kbps
    Channel(s)                               : 6 channels
    Channel positions                        : Front: L C R, Side: L R, LFE
    Sampling rate                            : 48.0 KHz
    Bit depth                                : 16 bits
    Compression mode                         : Lossy
    Stream size                              : 404 MiB (8%)
    Title                                    : Mandarin
    Language                                 : Chinese
    Default                                  : No
    Forced                                   : No

    Text #1
    ID                                       : 4
    Format                                   : PGS
    Muxing mode                              : zlib
    Codec ID                                 : S_HDMV/PGS
    Codec ID/Info                            : Picture based subtitle format used on BDs/HD-DVDs
    Title                                    : English
    Language                                 : English
    Default                                  : Yes
    Forced                                   : No

    Text #2
    ID                                       : 5
    Format                                   : PGS
    Muxing mode                              : zlib
    Codec ID                                 : S_HDMV/PGS
    Codec ID/Info                            : Picture based subtitle format used on BDs/HD-DVDs
    Title                                    : Chinese
    Default                                  : No
    Forced                                   : No

    Text #3
    ID                                       : 6
    Format                                   : PGS
    Muxing mode                              : zlib
    Codec ID                                 : S_HDMV/PGS
    Codec ID/Info                            : Picture based subtitle format used on BDs/HD-DVDs
    Title                                    : Chinese
    Default                                  : No
    Forced                                   : No

    Text #4
    ID                                       : 7
    Format                                   : PGS
    Muxing mode                              : zlib
    Codec ID                                 : S_HDMV/PGS
    Codec ID/Info                            : Picture based subtitle format used on BDs/HD-DVDs
    Title                                    : Chinese
    Default                                  : No
    Forced                                   : No

    Text #5
    ID                                       : 8
    Format                                   : PGS
    Muxing mode                              : zlib
    Codec ID                                 : S_HDMV/PGS
    Codec ID/Info                            : Picture based subtitle format used on BDs/HD-DVDs
    Title                                    : Chinese
    Default                                  : No
    Forced                                   : No

    Text #6
    ID                                       : 9
    Format                                   : PGS
    Muxing mode                              : zlib
    Codec ID                                 : S_HDMV/PGS
    Codec ID/Info                            : Picture based subtitle format used on BDs/HD-DVDs
    Title                                    : Japanese
    Default                                  : No
    Forced                                   : No

    Text #7
    ID                                       : 10
    Format                                   : PGS
    Muxing mode                              : zlib
    Codec ID                                 : S_HDMV/PGS
    Codec ID/Info                            : Picture based subtitle format used on BDs/HD-DVDs
    Title                                    : Korean
    Default                                  : No
    Forced                                   : No

    Menu
    00:00:00.000                             : en:00:00:00.000
    00:05:30.625                             : en:00:05:30.625
    00:10:41.208                             : en:00:10:41.208
    00:14:53.000                             : en:00:14:53.000
    00:19:49.167                             : en:00:19:49.167
    00:23:05.417                             : en:00:23:05.417
    00:27:03.917                             : en:00:27:03.917
    00:30:55.750                             : en:00:30:55.750
    00:34:53.958                             : en:00:34:53.958
    00:39:32.417                             : en:00:39:32.417
    00:44:25.542                             : en:00:44:25.542
    00:48:49.333                             : en:00:48:49.333
    00:52:13.792                             : en:00:52:13.792
    00:56:33.208                             : en:00:56:33.208
    00:59:57.250                             : en:00:59:57.250
    01:04:24.583                             : en:01:04:24.583
    01:09:27.042                             : en:01:09:27.042
    01:16:26.208                             : en:01:16:26.208
    01:21:43.375                             : en:01:21:43.375
    01:26:04.292                             : en:01:26:04.292



    0 0

    Original Post: Father's Day 2003 WEB-DL x264

    Warning: Contains nudity on a poster in the movie.


    Father's Day (2003)
    Romaji: Chichi no hi
    Japanese: 父亲节 父の日
    Director: Sion Sono
    Release Date: 2003
    Genre: Drama
    Country: Japan
    Language: Japanese
    Subtitles: English
    IMDb link: http://www.imdb.com/title/tt2083949/

    Plot:
    13 minute short.

    Media Info:
    Spoiler:show

    General
    Complete name               : Fathers.Day.2003.WEB-DL.x264.mkv
    Format                      : Matroska
    Format version              : Version 4 / Version 2
    File size                   : 156 MiB
    Duration                    : 12mn 55s
    Overall bit rate            : 1 685 Kbps
    Encoded date                : UTC 2015-06-25 21:44:47
    Writing application         : mkvmerge v8.0.0 ('Til The Day That I Die') 64bit
    Writing library             : libebml v1.3.1 + libmatroska v1.4.2
    DURATION                    : 00:12:35.398000000
    NUMBER_OF_FRAMES            : 166
    NUMBER_OF_BYTES             : 2819
    _STATISTICS_WRITING_APP     : mkvmerge v8.0.0 ('Til The Day That I Die') 64bit
    _STATISTICS_WRITING_DATE_UT : 2015-06-25 21:44:47
    _STATISTICS_TAGS            : BPS DURATION NUMBER_OF_FRAMES NUMBER_OF_BYTES

    Video
    ID                          : 2
    Format                      : AVC
    Format/Info                 : Advanced Video Codec
    Format profile              : Baseline@L3.0
    Format settings, CABAC      : No
    Format settings, ReFrames   : 1 frame
    Codec ID                    : V_MPEG4/ISO/AVC
    Duration                    : 12mn 55s
    Width                       : 482 pixels
    Height                      : 476 pixels
    Display aspect ratio        : 4:3
    Original display aspect rat : 4:3
    Frame rate mode             : Constant
    Frame rate                  : 29.970 fps
    Color space                 : YUV
    Chroma subsampling          : 4:2:0
    Bit depth                   : 8 bits
    Scan type                   : Progressive
    Title                       : Japanese 2.0
    Language                    : English
    Default                     : Yes
    Forced                      : No
    Color primaries             : BT.601 NTSC
    Transfer characteristics    : BT.709
    Matrix coefficients         : BT.601
    Color range                 : Limited

    Audio
    ID                          : 1
    Format                      : AAC
    Format/Info                 : Advanced Audio Codec
    Format profile              : LC
    Codec ID                    : A_AAC
    Duration                    : 12mn 55s
    Channel(s)                  : 2 channels
    Channel positions           : Front: L R
    Sampling rate               : 44.1 KHz
    Compression mode            : Lossy
    Language                    : Japanese
    Default                     : Yes
    Forced                      : No

    Text
    ID                          : 3
    Format                      : UTF-8
    Codec ID                    : S_TEXT/UTF8
    Codec ID/Info               : UTF-8 Plain Text
    Title                       : English
    Language                    : English
    Default                     : Yes
    Forced                      : No







    Warning: The spoilered screenshots contain nudity.
    Spoiler:show







    0 0

    Original Post: Eien no Bokura Sea Side Blue SP 2015 720p HDTV AVC AAC [NOP]



    Title : 永遠のぼくら Sea Side Blue
    Format: Tanpatsu
    Genre: Drama
    Episodes: 1
    Network: NTV
    Release Date: 2015-Jun-24
    Air time: 21:00
    Language: Japanese
    Subtitles: None

    Synopsis
    The winter for third-year university students is the crossroads in their lives. The season where they are confronted with life choices. It is a season that students cannot disregard. There are those who are about to become adults without making any of their own decisions as well as those who have made up their minds. 21-year-old Matsuoka Aoi (Arimura Kasumi) dislikes making trouble for the people around her. Although she likes the sea, she has given up on her dream of oceanographic research and is about to obey her parents (Sakai Maki, Yajima Kenichi) and get a job with their connections. At that moment, she unexpectedly meets students of Kaiyo University and they have to work together for a time at an aquarium near the sea. The sight of them pursuing their own dreams starts to influence Aoi little by little and their own lives also start to change too. Nagata Taku (Yamazaki Kento), Aoi’s childhood friend who has been wholeheartedly in love with her; Yamauchi Kota (Kubota Masataka), the senior whom Aoi admires; the proud Saeki Yuka (Narumi Riko) who is Kota’s ex-girlfriend; Serizawa Ryo (Asaka Kodai) who has something like love for Yuka; Niwa Reiko (Seino Nana) who cannot break off her affair with a married university old boy, Ichinose Hisashi (Ozawa Kazuhiro); Iino Sosuke (Yamoto Yuma) who has given up on his dream because of his parents’ debts. And then, there is the enigmatic photographer, Kondo Shunji (Higashide Masahiro) who passes by Aoi. While the eight of them spend time together, love and friendship gets entwined.

    Cast
    Arimura Kasumi, Yamazaki Kento, Asaka Kodai, Seino Nana, Yamoto Yuma, Narumi Riko, Higashide Masahiro, Kubota Masataka, Ozawa Kazuhiro, Sakai Maki, Yajima Kenichi, Takahashi Hitomi, Yanagisawa Shingo, Hanasaka Shiina







    Code
    Format                                   : MPEG-4
    Format profile                           : Base Media
    Codec ID                                 : isom
    File size                                : 994 MiB
    Duration                                 : 1h 34mn
    Overall bit rate                         : 1 477 Kbps
    Writing application                      : Lavf54.59.106

    Video
    ID                                       : 1
    Format                                   : AVC
    Format/Info                              : Advanced Video Codec
    Format profile                           : High@L3.1
    Format settings, CABAC                   : Yes
    Format settings, ReFrames                : 5 frames
    Codec ID                                 : avc1
    Codec ID/Info                            : Advanced Video Coding
    Duration                                 : 1h 34mn
    Bit rate                                 : 1 406 Kbps
    Width                                    : 1 280 pixels
    Height                                   : 720 pixels
    Display aspect ratio                     : 16:9
    Frame rate mode                          : Variable
    Frame rate                               : 29.970 fps
    Minimum frame rate                       : 3.623 fps
    Maximum frame rate                       : 1 000.000 fps
    Color space                              : YUV
    Chroma subsampling                       : 4:2:0
    Bit depth                                : 8 bits
    Scan type                                : Progressive
    Bits/(Pixel*Frame)                       : 0.051
    Stream size                              : 946 MiB (95%)

    Audio
    ID                                       : 2
    Format                                   : AAC
    Format/Info                              : Advanced Audio Codec
    Format profile                           : HE-AAC / LC
    Codec ID                                 : 40
    Duration                                 : 1h 34mn
    Bit rate mode                            : Constant
    Bit rate                                 : 64.0 Kbps
    Channel(s)                               : 2 channels
    Channel positions                        : Front: L R
    Sampling rate                            : 48.0 KHz / 24.0 KHz
    Compression mode                         : Lossy
    Stream size                              : 43.1 MiB (4%)



    0 0

    Original Post: Renai Aru Aru SP 2015 720p HDTV AVC AAC



    Title : 恋愛あるある
    Format: Tanpatsu
    Genre: Drama, Comedy, Romance
    Episodes: 1
    Network: Fuji TV
    Release Date: 2015-Jun-24
    Air time: 22:00
    Language: Japanese
    Subtitles: None

    Synopsis
    Story 1: Shanai Renai Aru Aru
    Synopsis: Michiyama Kiyomi (Kuroki Meisa) has lived with the belief that romance with a person who is close to her will devastate her life ever since her bitter memories of the past. She has vowed in her heart not to have an office romance. But after she is designated as a staff of some project with Tamaki Kenichi (Fuchikami Yasushi), the distance between the two of them quickly shrinks. Will the day eventually come when Kiyomi releases herself from own vow?
    Cast: Kuroki Meisa, Fuchikami Yasushi, Okura Koji, Nanao, Shirasu Jin, Sugaya Tetsuya, Sakai Maki

    Story 2: Single Mother Renai Aru Aru
    Synopsis: Ever since her divorce from her husband, Akai Hitoe (Sasaki Nozomi) has raised her 5-year-old son, Atsushi (Ebizuka Yukiyasu), on her own. They constantly live hand to mouth. Her honest personality is a bane, and she ends up being immediately asked to leave her part-time job. Hitoe finally finds employment as a dental assistant. One day, Kuroda Tomoharu (Chiba Yudai), a patient who is the second-generation owner of a construction company, comes to invite her for lunch. Hitoe’s response to his feelings is … …
    Cast: Sasaki Nozomi, Chiba Yudai, Asami Reina, Megumi, Muramoto Daisuke, Shinagawa Hiroshi, YOU

    Story 3: Dousei Renai Aru Aru
    Synopsis: Ozawa Mari (Toda Erika) and Aoyagi Shinta (Muro Tsuyoshi) finally fulfil their long-cherished dream and start living together. They are very happy every day from morning until night. The two of them think it is good to cohabit. But their relationship begins to get awkward because Shinta has become busy with work as well as trivial matters.
    Cast: Toda Erika, Muro Tsuyoshi, Mori Kanna, Yashima Norito, Horibe Keisuke, Sugawara Daikichi
    --- All text copyright © jdramas.wordpress.com. ---








    Code
    Format                                   : MPEG-4
    Format profile                           : Base Media / Version 2
    Codec ID                                 : mp42
    File size                                : 968 MiB
    Duration                                 : 1h 10mn
    Overall bit rate mode                    : Variable
    Overall bit rate                         : 1 930 Kbps
    Writing application                      : TMPGEnc MPEG Smart Renderer 4 Version 4.1.5.60

    Video
    ID                                       : 1
    Format                                   : AVC
    Format/Info                              : Advanced Video Codec
    Format profile                           : High@L4.1
    Format settings, CABAC                   : Yes
    Format settings, ReFrames                : 4 frames
    Codec ID                                 : avc1
    Codec ID/Info                            : Advanced Video Coding
    Duration                                 : 1h 10mn
    Bit rate mode                            : Variable
    Bit rate                                 : 1 796 Kbps
    Width                                    : 1 280 pixels
    Height                                   : 720 pixels
    Display aspect ratio                     : 16:9
    Frame rate mode                          : Constant
    Frame rate                               : 29.970 fps
    Standard                                 : Component
    Color space                              : YUV
    Chroma subsampling                       : 4:2:0
    Bit depth                                : 8 bits
    Scan type                                : Progressive
    Bits/(Pixel*Frame)                       : 0.065
    Stream size                              : 901 MiB (93%)
    Color primaries                          : BT.709
    Transfer characteristics                 : BT.709
    Matrix coefficients                      : BT.709

    Audio
    ID                                       : 2
    Format                                   : AAC
    Format/Info                              : Advanced Audio Codec
    Format profile                           : LC
    Codec ID                                 : 40
    Duration                                 : 1h 10mn
    Bit rate mode                            : Variable
    Bit rate                                 : 129 Kbps
    Maximum bit rate                         : 576 Kbps
    Channel(s)                               : 2 channels
    Channel positions                        : Front: L R
    Sampling rate                            : 48.0 KHz
    Compression mode                         : Lossy
    Delay relative to video                  : 67ms
    Stream size                              : 64.7 MiB (7%)

    Text
    ID                                       : 3
    Format                                   : Timed text
    Codec ID                                 : tx3g
    Duration                                 : 1h 10mn
    Bit rate mode                            : Constant
    Bit rate                                 : 0 bps
    Delay relative to video                  : 67ms
    Stream size                              : 16.0 Bytes (0%)
    Language                                 : English



    0 0

    Original Post: When I See You Again (2015) E01 Eng Sub (Ongoing) 720p



    Details

    Title: 他看她的第2眼
    English title: When I See You Again
    Genre: Romance, comedy
    Episodes: 20
    Broadcast network: TTV / SETTV
    Broadcast period: 2015-May-31
    Air time: Sunday 22:00
    Opening theme song: xxx by xxx
    Ending theme song: xxx by xxx
    thetvdb: none

    English Srt: Credit DramaFever, thanks to abugemilang

    Synopsis

    Xia You Qian (Jasper Liu) is the total package. He’s good-looking, a highly successful head of a private equity company and well liked by everyone around him. Even competitors like Hu Yan Ze (Jet Chao) can’t help but respect him and wealthy socialites like Hu Yong Qing (Ivy Shao) are in love with him. But You Qian also has the keen ability to make accurate assessments about people at first sight using his strong observational skills. When You Qian and his grandfather are invited to Pu Lang village to judge a competition, he runs into An Xi (Mandy Wei), a woman who was responsible for You Qian nearly losing his life 10 years ago. An Xi is forced to enter the competition to try to earn the prize money to save her hostel, which she inherited from her father but is riddled with debt. After You Qian’s prejudice forces An Xi to lose the competition, will she be forced to marry her creditor to pay back her debts? “When I See You Again” is a 2015 Taiwanese drama series.

    Cast

    Main Cast
    Jasper Liu
    Mandy Wei
    Ivy Shao
    Jet Chao
    Xiu Qin
    Zooey Tseng








    Code
    Video
    ID                                       : 1
    Format                                   : AVC
    Format/Info                              : Advanced Video Codec
    Format profile                           : Main@L3.1
    Format settings, CABAC                   : Yes
    Format settings, ReFrames                : 4 frames
    Codec ID                                 : avc1
    Codec ID/Info                            : Advanced Video Coding
    Duration                                 : 1h 13mn
    Bit rate                                 : 1 504 Kbps
    Width                                    : 1 280 pixels
    Height                                   : 720 pixels
    Display aspect ratio                     : 16:9
    Frame rate mode                          : Constant
    Frame rate                               : 29.970 fps
    Color space                              : YUV
    Chroma subsampling                       : 4:2:0
    Bit depth                                : 8 bits
    Scan type                                : Progressive
    Bits/(Pixel*Frame)                       : 0.054
    Stream size                              : 796 MiB (84%)
    Writing library                          : x264 core 138 r2 9e941d1
    Encoding settings                        : cabac=1 / ref=1 / deblock=1:0:0 / analyse=0x1:0 / me=dia / subme=2 / psy=1 / psy_rd=1.00:0.00 / mixed_ref=0 / me_range=16 / chroma_me=1 / trellis=0 / 8x8dct=0 / cqm=0 / deadzone=21,11 / fast_pskip=1 / chroma_qp_offset=0 / threads=12 / lookahead_threads=4 / sliced_threads=0 / nr=0 / decimate=1 / interlaced=0 / bluray_compat=0 / constrained_intra=0 / bframes=3 / b_pyramid=2 / b_adapt=1 / b_bias=0 / direct=1 / weightb=1 / open_gop=0 / weightp=2 / keyint=300 / keyint_min=29 / scenecut=40 / intra_refresh=0 / rc_lookahead=40 / rc=crf / mbtree=1 / crf=23.0 / qcomp=0.60 / qpmin=0 / qpmax=69 / qpstep=4 / ip_ratio=1.40 / aq=1:1.00
    Tagged date                              : UTC 2015-06-01 11:16:11

    Audio
    ID                                       : 2
    Format                                   : AAC
    Format/Info                              : Advanced Audio Codec
    Format profile                           : LC
    Codec ID                                 : 40
    Duration                                 : 1h 13mn
    Bit rate mode                            : Constant
    Bit rate                                 : 192 Kbps
    Channel(s)                               : 2 channels
    Channel positions                        : Front: L R
    Sampling rate                            : 48.0 KHz
    Compression mode                         : Lossy
    Stream size                              : 102 MiB (11%)
    Tagged date                              : UTC 2015-06-01 11:16:11




    0 0

    Original Post: When I See You Again (2015) E02 Eng Sub (Ongoing) 720p



    Details

    Title: 他看她的第2眼
    English title: When I See You Again
    Genre: Romance, comedy
    Episodes: TBA
    Broadcast network: TTV / SETTV
    Broadcast period: 2015-May-31
    Air time: Sunday 22:00
    Opening theme song: xxx by xxx
    Ending theme song: xxx by xxx
    thetvdb: none

    English Srt: Credit DramaFever, thanks to abugemilang

    Synopsis

    Xia You Qian (Jasper Liu) is the total package. He’s good-looking, a highly successful head of a private equity company and well liked by everyone around him. Even competitors like Hu Yan Ze (Jet Chao) can’t help but respect him and wealthy socialites like Hu Yong Qing (Ivy Shao) are in love with him. But You Qian also has the keen ability to make accurate assessments about people at first sight using his strong observational skills. When You Qian and his grandfather are invited to Pu Lang village to judge a competition, he runs into An Xi (Mandy Wei), a woman who was responsible for You Qian nearly losing his life 10 years ago. An Xi is forced to enter the competition to try to earn the prize money to save her hostel, which she inherited from her father but is riddled with debt. After You Qian’s prejudice forces An Xi to lose the competition, will she be forced to marry her creditor to pay back her debts? “When I See You Again” is a 2015 Taiwanese drama series.

    Cast

    Main Cast
    Jasper Liu
    Mandy Wei
    Ivy Shao
    Jet Chao
    Xiu Qin
    Zooey Tseng








    Code
    Video
    ID                                       : 1
    Format                                   : AVC
    Format/Info                              : Advanced Video Codec
    Format profile                           : Main@L3.1
    Format settings, CABAC                   : Yes
    Format settings, ReFrames                : 4 frames
    Codec ID                                 : avc1
    Codec ID/Info                            : Advanced Video Coding
    Duration                                 : 1h 13mn
    Bit rate                                 : 1 504 Kbps
    Width                                    : 1 280 pixels
    Height                                   : 720 pixels
    Display aspect ratio                     : 16:9
    Frame rate mode                          : Constant
    Frame rate                               : 29.970 fps
    Color space                              : YUV
    Chroma subsampling                       : 4:2:0
    Bit depth                                : 8 bits
    Scan type                                : Progressive
    Bits/(Pixel*Frame)                       : 0.054
    Stream size                              : 796 MiB (84%)
    Writing library                          : x264 core 138 r2 9e941d1
    Encoding settings                        : cabac=1 / ref=1 / deblock=1:0:0 / analyse=0x1:0 / me=dia / subme=2 / psy=1 / psy_rd=1.00:0.00 / mixed_ref=0 / me_range=16 / chroma_me=1 / trellis=0 / 8x8dct=0 / cqm=0 / deadzone=21,11 / fast_pskip=1 / chroma_qp_offset=0 / threads=12 / lookahead_threads=4 / sliced_threads=0 / nr=0 / decimate=1 / interlaced=0 / bluray_compat=0 / constrained_intra=0 / bframes=3 / b_pyramid=2 / b_adapt=1 / b_bias=0 / direct=1 / weightb=1 / open_gop=0 / weightp=2 / keyint=300 / keyint_min=29 / scenecut=40 / intra_refresh=0 / rc_lookahead=40 / rc=crf / mbtree=1 / crf=23.0 / qcomp=0.60 / qpmin=0 / qpmax=69 / qpstep=4 / ip_ratio=1.40 / aq=1:1.00
    Tagged date                              : UTC 2015-06-01 11:16:11

    Audio
    ID                                       : 2
    Format                                   : AAC
    Format/Info                              : Advanced Audio Codec
    Format profile                           : LC
    Codec ID                                 : 40
    Duration                                 : 1h 13mn
    Bit rate mode                            : Constant
    Bit rate                                 : 192 Kbps
    Channel(s)                               : 2 channels
    Channel positions                        : Front: L R
    Sampling rate                            : 48.0 KHz
    Compression mode                         : Lossy
    Stream size                              : 102 MiB (11%)
    Tagged date                              : UTC 2015-06-01 11:16:11




    0 0

    Original Post: When I See You Again (2015) E03 Eng Sub (Ongoing) 720p



    Details

    Title: 他看她的第2眼
    English title: When I See You Again
    Genre: Romance, comedy
    Episodes: TBA
    Broadcast network: TTV / SETTV
    Broadcast period: 2015-May-31
    Air time: Sunday 22:00
    Opening theme song: xxx by xxx
    Ending theme song: xxx by xxx
    thetvdb: none

    English Srt: Credit DramaFever, thanks to abugemilang

    Synopsis

    Xia You Qian (Jasper Liu) is the total package. He’s good-looking, a highly successful head of a private equity company and well liked by everyone around him. Even competitors like Hu Yan Ze (Jet Chao) can’t help but respect him and wealthy socialites like Hu Yong Qing (Ivy Shao) are in love with him. But You Qian also has the keen ability to make accurate assessments about people at first sight using his strong observational skills. When You Qian and his grandfather are invited to Pu Lang village to judge a competition, he runs into An Xi (Mandy Wei), a woman who was responsible for You Qian nearly losing his life 10 years ago. An Xi is forced to enter the competition to try to earn the prize money to save her hostel, which she inherited from her father but is riddled with debt. After You Qian’s prejudice forces An Xi to lose the competition, will she be forced to marry her creditor to pay back her debts? “When I See You Again” is a 2015 Taiwanese drama series.

    Cast

    Main Cast
    Jasper Liu
    Mandy Wei
    Ivy Shao
    Jet Chao
    Xiu Qin
    Zooey Tseng








    Code
    Video
    ID                                       : 1
    Format                                   : AVC
    Format/Info                              : Advanced Video Codec
    Format profile                           : Main@L3.1
    Format settings, CABAC                   : Yes
    Format settings, ReFrames                : 4 frames
    Codec ID                                 : avc1
    Codec ID/Info                            : Advanced Video Coding
    Duration                                 : 1h 13mn
    Bit rate                                 : 1 504 Kbps
    Width                                    : 1 280 pixels
    Height                                   : 720 pixels
    Display aspect ratio                     : 16:9
    Frame rate mode                          : Constant
    Frame rate                               : 29.970 fps
    Color space                              : YUV
    Chroma subsampling                       : 4:2:0
    Bit depth                                : 8 bits
    Scan type                                : Progressive
    Bits/(Pixel*Frame)                       : 0.054
    Stream size                              : 796 MiB (84%)
    Writing library                          : x264 core 138 r2 9e941d1
    Encoding settings                        : cabac=1 / ref=1 / deblock=1:0:0 / analyse=0x1:0 / me=dia / subme=2 / psy=1 / psy_rd=1.00:0.00 / mixed_ref=0 / me_range=16 / chroma_me=1 / trellis=0 / 8x8dct=0 / cqm=0 / deadzone=21,11 / fast_pskip=1 / chroma_qp_offset=0 / threads=12 / lookahead_threads=4 / sliced_threads=0 / nr=0 / decimate=1 / interlaced=0 / bluray_compat=0 / constrained_intra=0 / bframes=3 / b_pyramid=2 / b_adapt=1 / b_bias=0 / direct=1 / weightb=1 / open_gop=0 / weightp=2 / keyint=300 / keyint_min=29 / scenecut=40 / intra_refresh=0 / rc_lookahead=40 / rc=crf / mbtree=1 / crf=23.0 / qcomp=0.60 / qpmin=0 / qpmax=69 / qpstep=4 / ip_ratio=1.40 / aq=1:1.00
    Tagged date                              : UTC 2015-06-01 11:16:11

    Audio
    ID                                       : 2
    Format                                   : AAC
    Format/Info                              : Advanced Audio Codec
    Format profile                           : LC
    Codec ID                                 : 40
    Duration                                 : 1h 13mn
    Bit rate mode                            : Constant
    Bit rate                                 : 192 Kbps
    Channel(s)                               : 2 channels
    Channel positions                        : Front: L R
    Sampling rate                            : 48.0 KHz
    Compression mode                         : Lossy
    Stream size                              : 102 MiB (11%)
    Tagged date                              : UTC 2015-06-01 11:16:11




    0 0

    Original Post: When I See You Again (2015) E04 Eng Sub (Ongoing) 720p



    Details

    Title: 他看她的第2眼
    English title: When I See You Again
    Genre: Romance, comedy
    Episodes: TBA
    Broadcast network: TTV / SETTV
    Broadcast period: 2015-May-31
    Air time: Sunday 22:00
    Opening theme song: xxx by xxx
    Ending theme song: xxx by xxx
    thetvdb: none

    English Srt: Credit DramaFever, thanks to abugemilang

    Synopsis

    Xia You Qian (Jasper Liu) is the total package. He’s good-looking, a highly successful head of a private equity company and well liked by everyone around him. Even competitors like Hu Yan Ze (Jet Chao) can’t help but respect him and wealthy socialites like Hu Yong Qing (Ivy Shao) are in love with him. But You Qian also has the keen ability to make accurate assessments about people at first sight using his strong observational skills. When You Qian and his grandfather are invited to Pu Lang village to judge a competition, he runs into An Xi (Mandy Wei), a woman who was responsible for You Qian nearly losing his life 10 years ago. An Xi is forced to enter the competition to try to earn the prize money to save her hostel, which she inherited from her father but is riddled with debt. After You Qian’s prejudice forces An Xi to lose the competition, will she be forced to marry her creditor to pay back her debts? “When I See You Again” is a 2015 Taiwanese drama series.

    Cast

    Main Cast
    Jasper Liu
    Mandy Wei
    Ivy Shao
    Jet Chao
    Xiu Qin
    Zooey Tseng








    Code
    Video
    ID                                       : 1
    Format                                   : AVC
    Format/Info                              : Advanced Video Codec
    Format profile                           : Main@L3.1
    Format settings, CABAC                   : Yes
    Format settings, ReFrames                : 4 frames
    Codec ID                                 : avc1
    Codec ID/Info                            : Advanced Video Coding
    Duration                                 : 1h 13mn
    Bit rate                                 : 1 504 Kbps
    Width                                    : 1 280 pixels
    Height                                   : 720 pixels
    Display aspect ratio                     : 16:9
    Frame rate mode                          : Constant
    Frame rate                               : 29.970 fps
    Color space                              : YUV
    Chroma subsampling                       : 4:2:0
    Bit depth                                : 8 bits
    Scan type                                : Progressive
    Bits/(Pixel*Frame)                       : 0.054
    Stream size                              : 796 MiB (84%)
    Writing library                          : x264 core 138 r2 9e941d1
    Encoding settings                        : cabac=1 / ref=1 / deblock=1:0:0 / analyse=0x1:0 / me=dia / subme=2 / psy=1 / psy_rd=1.00:0.00 / mixed_ref=0 / me_range=16 / chroma_me=1 / trellis=0 / 8x8dct=0 / cqm=0 / deadzone=21,11 / fast_pskip=1 / chroma_qp_offset=0 / threads=12 / lookahead_threads=4 / sliced_threads=0 / nr=0 / decimate=1 / interlaced=0 / bluray_compat=0 / constrained_intra=0 / bframes=3 / b_pyramid=2 / b_adapt=1 / b_bias=0 / direct=1 / weightb=1 / open_gop=0 / weightp=2 / keyint=300 / keyint_min=29 / scenecut=40 / intra_refresh=0 / rc_lookahead=40 / rc=crf / mbtree=1 / crf=23.0 / qcomp=0.60 / qpmin=0 / qpmax=69 / qpstep=4 / ip_ratio=1.40 / aq=1:1.00
    Tagged date                              : UTC 2015-06-01 11:16:11

    Audio
    ID                                       : 2
    Format                                   : AAC
    Format/Info                              : Advanced Audio Codec
    Format profile                           : LC
    Codec ID                                 : 40
    Duration                                 : 1h 13mn
    Bit rate mode                            : Constant
    Bit rate                                 : 192 Kbps
    Channel(s)                               : 2 channels
    Channel positions                        : Front: L R
    Sampling rate                            : 48.0 KHz
    Compression mode                         : Lossy
    Stream size                              : 102 MiB (11%)
    Tagged date                              : UTC 2015-06-01 11:16:11




    0 0

    Original Post: Temisu no Kyuke 720p DoA Complete

    http://thetvdb.com/?tab=series&id=294430&lid=7

    Romaji: Temisu no Kyuukei
    Director: Hajime Gonno
    Writer: Takeaki Daimon (novel), Takafumi Kosaka
    Network: WOWOW
    Episodes: 4
    Release Date: May 10 - May 31, 2015
    Runtime: Sundays 22:00
    Language: Japanese
    Country: Japan
    Subtitles: None - [url=][/url]  
    RAW credit to DoA


    Cast

       Naka Riisa as Hirakawa Serina
       Sugimoto Tetta as Takigawa Kaname
       Takaoka Sousuke as Mizutani Kosuke
       Hakamada Yoshihiko as prawnik Fukamachi
       Hotaru Yukijiro as Hirakawa Shozo
       Sato Jiro as Kuronuma Kazuhiko
       Sera Masanori as Sawanobori Eitaro
       Kishitani Goro as Tajima Ryoji
       Hotta Mayu as Hirakawa Honoka


    Synopsis

    Serina Hirakawa (Riisa Naka) is a deputy director at a public prosecutor's office. Her father (Yukijiro Hotaru) was a police officer, but killed. Kentaro was charged for murdering her father. Serina's father was investigating Kentaro and his involvement in a string of thefts inside of cars. Kentaro was found guilty for the murder. Serina Hirakawa admired Prosecutor Ryoji Tajima (Goro Kishitani) who extracted a confession from Kentaro.

    Now, Serina works for Prosecutor Ryoji. One day, Kentaro insists he is innocent of the murder charge and kills himself in prison.

    Several days later, Prosecutor Ryoji meets Attorney Kuromiya (Jiro Sato). The attorney defended Kentaro in the murder case. Attorney Kuromiya tells Prosecutor Ryoji about the real killer in the murder case. Soon, Attorney Kuromiya is found dead. Doubts about the death of Serina's father is aroused. Prosecutor Ryoji is suspected in the murder of Attorney Kuromiya. Serina is dumbfounded by the recent chain of events. She soon begins to investigate the two murder cases: her father's murder and the death of Attorney Kuromiya.


    Mediainfo
    Spoiler:show

    Code
    Format                                   : Matroska
    Format version                           : Version 4 / Version 2
    File size                                : 1.24 GiB
    Duration                                 : 55mn 49s
    Overall bit rate                         : 3 180 Kbps
    Encoded date                             : UTC 2015-06-01 01:49:42
    Writing application                      : mkvmerge v7.9.0 ('Birds') 64bit
    Writing library                          : libebml v1.3.1 + libmatroska v1.4.2
    DURATION                                 : 00:55:49.696000000
    NUMBER_OF_FRAMES                         : 157017
    NUMBER_OF_BYTES                          : 78979551
    _STATISTICS_WRITING_APP                  : mkvmerge v7.9.0 ('Birds') 64bit
    _STATISTICS_WRITING_DATE_UTC             : 2015-06-01 01:49:42
    _STATISTICS_TAGS                         : BPS DURATION NUMBER_OF_FRAMES NUMBER_OF_BYTES

    Video
    ID                                       : 1
    Format                                   : AVC
    Format/Info                              : Advanced Video Codec
    Format profile                           : High@L4.1
    Format settings, CABAC                   : Yes
    Format settings, ReFrames                : 9 frames
    Codec ID                                 : V_MPEG4/ISO/AVC
    Duration                                 : 55mn 49s
    Width                                    : 1 280 pixels
    Height                                   : 720 pixels
    Display aspect ratio                     : 16:9
    Frame rate mode                          : Constant
    Frame rate                               : 23.976 fps
    Color space                              : YUV
    Chroma subsampling                       : 4:2:0
    Bit depth                                : 8 bits
    Scan type                                : Progressive
    Writing library                          : x264 core 146 r2538kMod 121396c
    Encoding settings                        : cabac=1 / ref=9 / deblock=1:-3:-3 / analyse=0x3:0x133 / me=umh / subme=10 / psy=1 / fade_compensate=0.00 / psy_rd=1.00:0.15 / mixed_ref=1 / me_range=64 / chroma_me=1 / trellis=2 / 8x8dct=1 / cqm=0 / deadzone=21,11 / fast_pskip=0 / chroma_qp_offset=-3 / threads=12 / lookahead_threads=2 / sliced_threads=0 / nr=0 / decimate=1 / interlaced=0 / bluray_compat=0 / constrained_intra=0 / fgo=0 / bframes=8 / b_pyramid=2 / b_adapt=2 / b_bias=0 / direct=3 / weightb=1 / open_gop=0 / weightp=2 / keyint=300 / keyint_min=29 / scenecut=40 / intra_refresh=0 / rc_lookahead=120 / rc=crf / mbtree=1 / crf=18.0000 / qcomp=0.60 / qpmin=0 / qpmax=69 / qpstep=4 / ip_ratio=1.40 / aq=3:1.00
    Default                                  : Yes
    Forced                                   : No

    Audio
    ID                                       : 2
    Format                                   : AAC
    Format/Info                              : Advanced Audio Codec
    Format profile                           : HE-AAC / LC
    Codec ID                                 : A_AAC
    Duration                                 : 55mn 49s
    Channel(s)                               : 2 channels
    Channel positions                        : Front: L R
    Sampling rate                            : 96.0 KHz / 48.0 KHz
    Compression mode                         : Lossy
    Delay relative to video                  : 7ms
    Default                                  : Yes
    Forced                                   : No













    0 0

    Original Post: Eien no Bokura Sea Side Blue SP 2015 480p x264 AAC



    Title : 永遠のぼくら Sea Side Blue
    Format: Tanpatsu
    Genre: Drama
    Episodes: 1
    Network: NTV
    Release Date: 2015-Jun-24
    Air time: 21:00
    Language: Japanese
    Subtitles: None

    Synopsis
    The winter for third-year university students is the crossroads in their lives. The season where they are confronted with life choices. It is a season that students cannot disregard. There are those who are about to become adults without making any of their own decisions as well as those who have made up their minds. 21-year-old Matsuoka Aoi (Arimura Kasumi) dislikes making trouble for the people around her. Although she likes the sea, she has given up on her dream of oceanographic research and is about to obey her parents (Sakai Maki, Yajima Kenichi) and get a job with their connections. At that moment, she unexpectedly meets students of Kaiyo University and they have to work together for a time at an aquarium near the sea. The sight of them pursuing their own dreams starts to influence Aoi little by little and their own lives also start to change too. Nagata Taku (Yamazaki Kento), Aoi’s childhood friend who has been wholeheartedly in love with her; Yamauchi Kota (Kubota Masataka), the senior whom Aoi admires; the proud Saeki Yuka (Narumi Riko) who is Kota’s ex-girlfriend; Serizawa Ryo (Asaka Kodai) who has something like love for Yuka; Niwa Reiko (Seino Nana) who cannot break off her affair with a married university old boy, Ichinose Hisashi (Ozawa Kazuhiro); Iino Sosuke (Yamoto Yuma) who has given up on his dream because of his parents’ debts. And then, there is the enigmatic photographer, Kondo Shunji (Higashide Masahiro) who passes by Aoi. While the eight of them spend time together, love and friendship gets entwined.

    Cast
    Arimura Kasumi, Yamazaki Kento, Asaka Kodai, Seino Nana, Yamoto Yuma, Narumi Riko, Higashide Masahiro, Kubota Masataka, Ozawa Kazuhiro, Sakai Maki, Yajima Kenichi, Takahashi Hitomi, Yanagisawa Shingo, Hanasaka Shiina







    Code
    Format                                   : MPEG-4
    Format profile                           : Base Media
    Codec ID                                 : isom
    File size                                : 796 MiB
    Duration                                 : 1h 34mn
    Overall bit rate mode                    : Variable
    Overall bit rate                         : 1 173 Kbps
    Encoded date                             : UTC 2015-06-26 03:44:49
    Tagged date                              : UTC 2015-06-26 03:44:49

    Video
    ID                                       : 1
    Format                                   : AVC
    Format/Info                              : Advanced Video Codec
    Format profile                           : High@L4.1
    Format settings, CABAC                   : Yes
    Format settings, ReFrames                : 4 frames
    Codec ID                                 : avc1
    Codec ID/Info                            : Advanced Video Coding
    Duration                                 : 1h 34mn
    Bit rate                                 : 1 041 Kbps
    Maximum bit rate                         : 12.7 Mbps
    Width                                    : 848 pixels
    Height                                   : 480 pixels
    Display aspect ratio                     : 16:9
    Frame rate mode                          : Constant
    Frame rate                               : 29.970 fps
    Color space                              : YUV
    Chroma subsampling                       : 4:2:0
    Bit depth                                : 8 bits
    Scan type                                : Progressive
    Bits/(Pixel*Frame)                       : 0.085
    Stream size                              : 706 MiB (89%)
    Writing library                          : x264 core 142 r2431 ac76440
    Encoding settings                        : cabac=1 / ref=3 / deblock=1:0:0 / analyse=0x3:0x113 / me=hex / subme=7 / psy=1 / psy_rd=1.00:0.00 / mixed_ref=1 / me_range=16 / chroma_me=1 / trellis=1 / 8x8dct=1 / cqm=0 / deadzone=21,11 / fast_pskip=1 / chroma_qp_offset=-2 / threads=12 / lookahead_threads=2 / sliced_threads=0 / nr=0 / decimate=1 / interlaced=0 / bluray_compat=0 / constrained_intra=0 / bframes=3 / b_pyramid=2 / b_adapt=1 / b_bias=0 / direct=1 / weightb=1 / open_gop=0 / weightp=2 / keyint=300 / keyint_min=29 / scenecut=40 / intra_refresh=0 / rc_lookahead=40 / rc=crf / mbtree=1 / crf=22.0 / qcomp=0.60 / qpmin=0 / qpmax=69 / qpstep=4 / ip_ratio=1.40 / aq=1:1.00
    Encoded date                             : UTC 2015-06-26 03:44:49
    Tagged date                              : UTC 2015-06-26 03:48:17

    Audio
    ID                                       : 2
    Format                                   : AAC
    Format/Info                              : Advanced Audio Codec
    Format profile                           : LC
    Codec ID                                 : 40
    Duration                                 : 1h 34mn
    Bit rate mode                            : Variable
    Bit rate                                 : 128 Kbps
    Maximum bit rate                         : 138 Kbps
    Channel(s)                               : 2 channels
    Channel positions                        : Front: L R
    Sampling rate                            : 48.0 KHz
    Compression mode                         : Lossy
    Stream size                              : 86.8 MiB (11%)
    Encoded date                             : UTC 2015-06-26 03:05:21
    Tagged date                              : UTC 2015-06-26 03:48:17



    0 0

    Original Post: Producer.SP.150626.HDTV.X264-LIMO

    http://thetvdb.com/?tab=series&id=294814
    Details
    Title: 프로듀사 / Peurodyusa
    Genre: Drama
    Episodes: 12
    Broadcast network: KBS2
    Broadcast period: 2015-May-15 to 2015-Jun-20
    Air time: Friday & Saturday 21:15
    Original Soundtrack: Producer OST

    Synopsis
    A group of young television producers — Ra Jun Mo (Cha Tae Hyun), Baek Sung Chan (Kim Soo Hyun), Tak Ye Ji (Gong Hyo Jin), and Cindy (IU) — work tirelessly around the clock within the entertainment division of a major broadcasting network. Amidst their dynamic and challenging workloads, serious drama reaches new heights in this backstage glimpse of the people who make television magic happen.

    Main Cast
    Cha Tae Hyun as Ra Joon Mo (35, 2 Days & 1 Night's PD)
    Kim Soo Hyun as Baek Seung Chan (27, KBS Entertainment World newbie PD)
    Gong Hyo Jin as Tak Ye Jin (35, Music Bank's PD)
    IU as Cindy (23, singer)

    NOTE: All screenshots were randomly selected







    Code
    Video
    ID                             : 1
    Format                         : AVC
    Format/Info                    : Advanced Video Codec
    Format profile                 : Main@L4.0
    Format settings, CABAC         : Yes
    Format settings, ReFrames      : 4 frames
    Codec ID                       : V_MPEG4/ISO/AVC
    Duration                       : 58mn 44s
    Bit rate                       : 450 Kbps
    Width                          : 624 pixels
    Height                         : 350 pixels
    Display aspect ratio           : 16:9
    Frame rate mode                : Constant
    Frame rate                     : 29.970 fps
    Color space                    : YUV
    Chroma subsampling             : 4:2:0
    Bit depth                      : 8 bits
    Scan type                      : Progressive
    Bits/(Pixel*Frame)             : 0.069
    Stream size                    : 190 MiB (76%)
    Writing library                : x264 core 130 r2273 b3065e6
    Encoding settings              : cabac=1 / ref=1 / deblock=1:0:0 / analyse=0x1:0x111 / me=hex / subme=2 / psy=1 / psy_rd=1.00:0.00 / mixed_ref=0 / me_range=16 / chroma_me=1 / trellis=0 / 8x8dct=0 / cqm=0 / deadzone=21,11 / fast_pskip=1 / chroma_qp_offset=0 / threads=1 / lookahead_threads=1 / sliced_threads=0 / nr=0 / decimate=1 / interlaced=0 / bluray_compat=0 / constrained_intra=0 / bframes=3 / b_pyramid=2 / b_adapt=1 / b_bias=0 / direct=1 / weightb=1 / open_gop=0 / weightp=1 / keyint=300 / keyint_min=30 / scenecut=40 / intra_refresh=0 / rc_lookahead=10 / rc=abr / mbtree=1 / bitrate=450 / ratetol=1.0 / qcomp=0.60 / qpmin=0 / qpmax=69 / qpstep=4 / vbv_maxrate=20000 / vbv_bufsize=25000 / nal_hrd=none / ip_ratio=1.40 / aq=1:1.00
    Language                       : English
    Default                        : Yes
    Forced                         : No
    Color primaries                : BT.601 NTSC
    Transfer characteristics       : BT.709
    Matrix coefficients            : BT.601

    Audio
    ID                             : 2
    Format                         : MPEG Audio
    Format version                 : Version 1
    Format profile                 : Layer 3
    Mode                           : Joint stereo
    Mode extension                 : MS Stereo
    Codec ID                       : A_MPEG/L3
    Codec ID/Hint                  : MP3
    Duration                       : 58mn 44s
    Bit rate mode                  : Constant
    Bit rate                       : 128 Kbps
    Channel(s)                     : 2 channels
    Sampling rate                  : 48.0 KHz
    Compression mode               : Lossy
    Stream size                    : 53.8 MiB (22%)
    Default                        : Yes
    Forced                         : No



    0 0

    Original Post: Producer.SP.150626.HDTV.H264.450p-LIMO

    http://thetvdb.com/?tab=series&id=294814
    Details
    Title: 프로듀사 / Peurodyusa
    Genre: Drama
    Episodes: 12
    Broadcast network: KBS2
    Broadcast period: 2015-May-15 to 2015-Jun-20
    Air time: Friday & Saturday 21:15
    Original Soundtrack: Producer OST

    Synopsis
    A group of young television producers — Ra Jun Mo (Cha Tae Hyun), Baek Sung Chan (Kim Soo Hyun), Tak Ye Ji (Gong Hyo Jin), and Cindy (IU) — work tirelessly around the clock within the entertainment division of a major broadcasting network. Amidst their dynamic and challenging workloads, serious drama reaches new heights in this backstage glimpse of the people who make television magic happen.

    Main Cast
    Cha Tae Hyun as Ra Joon Mo (35, 2 Days & 1 Night's PD)
    Kim Soo Hyun as Baek Seung Chan (27, KBS Entertainment World newbie PD)
    Gong Hyo Jin as Tak Ye Jin (35, Music Bank's PD)
    IU as Cindy (23, singer)

    NOTE: All screenshots were randomly selected







    Code
    Video
    ID                                       : 0
    Format                                   : AVC
    Format/Info                              : Advanced Video Codec
    Format profile                           : High@L5.1
    Format settings, CABAC                   : Yes
    Format settings, ReFrames                : 4 frames
    Codec ID                                 : H264
    Duration                                 : 1h 20mn
    Bit rate                                 : 1 500 Kbps
    Width                                    : 800 pixels
    Height                                   : 450 pixels
    Display aspect ratio                     : 16:9
    Frame rate mode                          : Variable
    Frame rate                               : 29.970 fps
    Color space                              : YUV
    Chroma subsampling                       : 4:2:0
    Bit depth                                : 8 bits
    Scan type                                : Progressive
    Bits/(Pixel*Frame)                       : 0.139
    Stream size                              : 860 MiB (88%)
    Writing library                          : x264 core 112
    Encoding settings                        : cabac=1 / ref=3 / deblock=1:-1:-1 / analyse=0x3:0x113 / me=hex / subme=6 / psy=1 / psy_rd=1.00:1.00 / mixed_ref=1 / me_range=16 / chroma_me=1 / trellis=1 / 8x8dct=1 / cqm=0 / deadzone=21,11 / fast_pskip=0 / chroma_qp_offset=-4 / threads=12 / sliced_threads=0 / nr=0 / decimate=1 / interlaced=0 / constrained_intra=0 / bframes=3 / b_pyramid=2 / b_adapt=1 / b_bias=1 / direct=3 / weightb=1 / open_gop=0 / weightp=2 / keyint=299 / keyint_min=25 / scenecut=1 / intra_refresh=0 / rc_lookahead=40 / rc=abr / mbtree=1 / bitrate=1500 / ratetol=1.0 / qcomp=0.60 / qpmin=1 / qpmax=51 / qpstep=4 / vbv_maxrate=1950 / vbv_bufsize=1950 / ip_ratio=1.40 / aq=1:1.00 / nal_hrd=none

    Audio
    ID                                       : 1
    Format                                   : MPEG Audio
    Format version                           : Version 1
    Format profile                           : Layer 3
    Mode                                     : Joint stereo
    Mode extension                           : MS Stereo
    Codec ID                                 : 55
    Codec ID/Hint                            : MP3
    Duration                                 : 1h 20mn
    Bit rate mode                            : Constant
    Bit rate                                 : 192 Kbps
    Channel(s)                               : 2 channels
    Sampling rate                            : 48.0 KHz
    Compression mode                         : Lossy
    Stream size                              : 111 MiB (11%)
    Alignment                                : Aligned on interleaves
    Interleave, duration                     : 24 ms (0.72 video frame)
    Writing library                          : LAME3.98.2



    0 0

    Original Post: Producer.SP.150626.HDTV.H264.720p-LIMO

    http://thetvdb.com/?tab=series&id=294814
    Details
    Title: 프로듀사 / Peurodyusa
    Genre: Drama
    Episodes: 12
    Broadcast network: KBS2
    Broadcast period: 2015-May-15 to 2015-Jun-20
    Air time: Friday & Saturday 21:15
    Original Soundtrack: Producer OST

    Synopsis
    A group of young television producers — Ra Jun Mo (Cha Tae Hyun), Baek Sung Chan (Kim Soo Hyun), Tak Ye Ji (Gong Hyo Jin), and Cindy (IU) — work tirelessly around the clock within the entertainment division of a major broadcasting network. Amidst their dynamic and challenging workloads, serious drama reaches new heights in this backstage glimpse of the people who make television magic happen.

    Main Cast
    Cha Tae Hyun as Ra Joon Mo (35, 2 Days & 1 Night's PD)
    Kim Soo Hyun as Baek Seung Chan (27, KBS Entertainment World newbie PD)
    Gong Hyo Jin as Tak Ye Jin (35, Music Bank's PD)
    IU as Cindy (23, singer)

    NOTE: All screenshots were randomly selected








    Code
    Video
    ID                               : 0
    Format                           : AVC
    Format/Info                      : Advanced Video Codec
    Format profile                   : High@L5.1
    Format settings, CABAC           : Yes
    Format settings, ReFrames        : 4 frames
    Codec ID                         : H264
    Duration                         : 1h 4mn
    Bit rate                         : 3 000 Kbps
    Width                            : 1 280 pixels
    Height                           : 720 pixels
    Display aspect ratio             : 16:9
    Frame rate mode                  : Variable
    Frame rate                       : 29.970 fps
    Color space                      : YUV
    Chroma subsampling               : 4:2:0
    Bit depth                        : 8 bits
    Scan type                        : Progressive
    Bits/(Pixel*Frame)               : 0.109
    Stream size                      : 1.35 GiB (94%)
    Writing library                  : x264 core 112
    Encoding settings                : cabac=1 / ref=3 / deblock=1:-1:-1 / analyse=0x3:0x113 / me=hex / subme=6 / psy=1 / psy_rd=1.00:1.00 / mixed_ref=1 / me_range=16 / chroma_me=1 / trellis=1 / 8x8dct=1 / cqm=0 / deadzone=21,11 / fast_pskip=0 / chroma_qp_offset=-4 / threads=12 / sliced_threads=0 / nr=0 / decimate=1 / interlaced=0 / constrained_intra=0 / bframes=3 / b_pyramid=2 / b_adapt=1 / b_bias=1 / direct=3 / weightb=1 / open_gop=0 / weightp=2 / keyint=299 / keyint_min=25 / scenecut=1 / intra_refresh=0 / rc_lookahead=40 / rc=abr / mbtree=1 / bitrate=3000 / ratetol=1.0 / qcomp=0.60 / qpmin=10 / qpmax=51 / qpstep=4 / ip_ratio=1.40 / aq=1:1.00

    Audio
    ID                               : 1
    Format                           : MPEG Audio
    Format version                   : Version 1
    Format profile                   : Layer 3
    Mode                             : Joint stereo
    Mode extension                   : MS Stereo
    Codec ID                         : 55
    Codec ID/Hint                    : MP3
    Duration                         : 1h 4mn
    Bit rate mode                    : Constant
    Bit rate                         : 192 Kbps
    Channel(s)                       : 2 channels
    Sampling rate                    : 48.0 KHz
    Stream size                      : 88.0 MiB (6%)
    Alignment                        : Split accross interleaves
    Interleave, duration             : 33 ms (1.00 video frame)
    Interleave, preload duration     : 500 ms
    Writing library                  : LAME3.98.2



    0 0

    Original Post: I'm Home (2015) 720p DoA Complete



    http://wiki.d-addicts.com/I%27m_Home_%28TV_Asahi%29
    http://asianwiki.com/I%27m_Home
    http://thetvdb.com/?tab=series&id=293799&lid=7

    Title: アイムホーム
    Title (English): I'm home
    Format: Renzoku
    Genre: Family mystery
    Broadcast network: TV Asahi
    Episodes: 10
    Broadcast period: 2015-Apr-16 to 2015-Jun-18
    Air time: Thursday 21:00
    Language: Japanese
    Country: Japan
    Subtitles: English here: Watanuki and Chiyoko Fansub
    RAWs credit to DoA

    Cast
       Kimura Takuya as Ieji Hisashi
       Ueto Aya as Ieji Megumi
       Mizuno Miki as Nozawa Kaoru
       Tanaka Kei as Honjo Tsuyoshi
       Suzuki Kosuke as Watanuki Shinji
       Yoshimoto Miyu as Takanashi Yua
       Ino Manabu (猪野学) as Hifumi Tsutomu
       Anami Atsuko as Isami Yoko
       Nomaguchi Toru as Iwashita Noboru
       Yano Masato as Tokura Shingo
       Takahashi Rai (高橋來) as Ieji Yoshio
       Yamaguchi Mayu (山口まゆ) as Nozawa Subaru
       Arai Hirofumi as Kuroki Jin
       Mitsuishi Ken as Todoroki Haruki
       Watanabe Ikkei as Teshigawara Yosuke
       Oikawa Mitsuhiro as Tsukuba Yoshiaki
       Nishida Toshiyuki as Kozukue Yukio

    Synopsis
    Ieji Hisashi, a salaryman who works for a securities company, has a fuzzy memory of the recent five years because of an accident at his job posting. His wife of five years, Megumi and their 4-year-old son seem to wear masks. He can neither tell their facial expressions nor their emotions. He also struggles about his love for them. On the other hand, Ieji feels an attachment to his ex-wife, whom he divorced five years ago, and their daughter. What sort of days did he have in those five years which are a blank to him? Ieji sets out on a journey to find his past self with a mysterious bunch of 10 keys that he has. He becomes aware that he was a cold, career-minded man before the accident, and the persona that is gradually revealed is beyond the imagination of his present kindhearted self.

    General
    Complete name                  : I'm.Home.EP01.720p.HDTV.x264.AAC-DoA.mkv
    Format                         : Matroska
    Format version                 : Version 4 / Version 2
    File size                      : 1.34 GiB
    Duration                       : 1h 0mn
    Overall bit rate               : 3 190 Kbps

    Video
    ID                             : 1
    Format                         : AVC
    Format/Info                    : Advanced Video Codec
    Format profile                 : High@L4.1
    Format settings, CABAC         : Yes
    Format settings, ReFrames      : 9 frames
    Codec ID                       : V_MPEG4/ISO/AVC
    Width                          : 1 280 pixels
    Height                         : 720 pixels
    Display aspect ratio           : 16:9
    Frame rate mode                : Variable
    Original frame rate            : 29.970 fps
    Color space                    : YUV
    Chroma subsampling             : 4:2:0
    Bit depth                      : 8 bits
    Scan type                      : Progressive

    Audio
    ID                             : 2
    Format                         : AAC
    Format/Info                    : Advanced Audio Codec
    Format profile                 : LC
    Codec ID                       : A_AAC
    Duration                       : 1h 0mn
    Channel count                  : 2 channels
    Channel positions              : Front: L R
    Sampling rate                  : 48.0 KHz
    Compression mode               : Lossy













    0 0

    Original Post: Orange.Marmalade.E08.150626.HDTV.X264-LIMO

    http://www.thetvdb.com/?tab=series&id=295007
    Details
    Title: 오렌지마말레이드 / Orenji Marmaleideu
    Genre: School, fantasy, romance
    Episodes: 12
    Broadcast network: KBS2
    Broadcast period: 2015-May-15 to 2015-???-??
    Air time: Friday 22:35
    Original Soundtrack: Orange Marmalade OST

    Synopsis
    Despite a 200-year-old treaty between humans and vampires, both races still don't get along. Amidst the looming tension, Jung Jae Min (Yeo Jin Goo), a posh yet kindhearted high school student, quickly falls for the mysterious new girl Baek Ma Ri (Seol Hyun). But can Ma Ri conceal her true vampire identity and give love an honest chance? If these star-crossed lovers can find the courage to make the leap, Jae Min and Ma Ri may just be the key to a final resolution between humans and vampires...

    Main Cast
    Yeo Jin Goo as Jung Jae Min (18)
    Kim Seol Hyun as Baek Ma Ri (18)
    Lee Jong Hyun as Han Shi Hoo (18)
    Gil Eun Hye as Jo Ah Ra (18)










    Code
    Video
    ID                             : 1
    Format                         : AVC
    Format/Info                    : Advanced Video Codec
    Format profile                 : Main@L4.0
    Format settings, CABAC         : Yes
    Format settings, ReFrames      : 4 frames
    Codec ID                       : V_MPEG4/ISO/AVC
    Duration                       : 58mn 44s
    Bit rate                       : 450 Kbps
    Width                          : 624 pixels
    Height                         : 350 pixels
    Display aspect ratio           : 16:9
    Frame rate mode                : Constant
    Frame rate                     : 29.970 fps
    Color space                    : YUV
    Chroma subsampling             : 4:2:0
    Bit depth                      : 8 bits
    Scan type                      : Progressive
    Bits/(Pixel*Frame)             : 0.069
    Stream size                    : 190 MiB (76%)
    Writing library                : x264 core 130 r2273 b3065e6
    Encoding settings              : cabac=1 / ref=1 / deblock=1:0:0 / analyse=0x1:0x111 / me=hex / subme=2 / psy=1 / psy_rd=1.00:0.00 / mixed_ref=0 / me_range=16 / chroma_me=1 / trellis=0 / 8x8dct=0 / cqm=0 / deadzone=21,11 / fast_pskip=1 / chroma_qp_offset=0 / threads=1 / lookahead_threads=1 / sliced_threads=0 / nr=0 / decimate=1 / interlaced=0 / bluray_compat=0 / constrained_intra=0 / bframes=3 / b_pyramid=2 / b_adapt=1 / b_bias=0 / direct=1 / weightb=1 / open_gop=0 / weightp=1 / keyint=300 / keyint_min=30 / scenecut=40 / intra_refresh=0 / rc_lookahead=10 / rc=abr / mbtree=1 / bitrate=450 / ratetol=1.0 / qcomp=0.60 / qpmin=0 / qpmax=69 / qpstep=4 / vbv_maxrate=20000 / vbv_bufsize=25000 / nal_hrd=none / ip_ratio=1.40 / aq=1:1.00
    Language                       : English
    Default                        : Yes
    Forced                         : No
    Color primaries                : BT.601 NTSC
    Transfer characteristics       : BT.709
    Matrix coefficients            : BT.601

    Audio
    ID                             : 2
    Format                         : MPEG Audio
    Format version                 : Version 1
    Format profile                 : Layer 3
    Mode                           : Joint stereo
    Mode extension                 : MS Stereo
    Codec ID                       : A_MPEG/L3
    Codec ID/Hint                  : MP3
    Duration                       : 58mn 44s
    Bit rate mode                  : Constant
    Bit rate                       : 128 Kbps
    Channel(s)                     : 2 channels
    Sampling rate                  : 48.0 KHz
    Compression mode               : Lossy
    Stream size                    : 53.8 MiB (22%)
    Default                        : Yes
    Forced                         : No



    0 0

    Original Post: Orange.Marmalade.E08.150626.HDTV.H264.450p-LIMO

    http://www.thetvdb.com/?tab=series&id=295007
    Details
    Title: 오렌지마말레이드 / Orenji Marmaleideu
    Genre: School, fantasy, romance
    Episodes: 12
    Broadcast network: KBS2
    Broadcast period: 2015-May-15 to 2015-???-??
    Air time: Friday 22:35
    Original Soundtrack: Orange Marmalade OST

    Synopsis
    Despite a 200-year-old treaty between humans and vampires, both races still don't get along. Amidst the looming tension, Jung Jae Min (Yeo Jin Goo), a posh yet kindhearted high school student, quickly falls for the mysterious new girl Baek Ma Ri (Seol Hyun). But can Ma Ri conceal her true vampire identity and give love an honest chance? If these star-crossed lovers can find the courage to make the leap, Jae Min and Ma Ri may just be the key to a final resolution between humans and vampires...

    Main Cast
    Yeo Jin Goo as Jung Jae Min (18)
    Kim Seol Hyun as Baek Ma Ri (18)
    Lee Jong Hyun as Han Shi Hoo (18)
    Gil Eun Hye as Jo Ah Ra (18)










    Code
    Video
    ID                                       : 0
    Format                                   : AVC
    Format/Info                              : Advanced Video Codec
    Format profile                           : High@L5.1
    Format settings, CABAC                   : Yes
    Format settings, ReFrames                : 4 frames
    Codec ID                                 : H264
    Bit rate                                 : 1 500 Kbps
    Width                                    : 800 pixels
    Height                                   : 450 pixels
    Display aspect ratio                     : 16:9
    Frame rate mode                          : Variable
    Frame rate                               : 29.970 fps
    Color space                              : YUV
    Chroma subsampling                       : 4:2:0
    Bit depth                                : 8 bits
    Scan type                                : Progressive
    Bits/(Pixel*Frame)                       : 0.139
    Stream size                              : 686 MiB (88%)
    Writing library                          : x264 core 112

    Audio
    ID                                       : 1
    Format                                   : MPEG Audio
    Format version                           : Version 1
    Format profile                           : Layer 3
    Mode                                     : Joint stereo
    Mode extension                           : MS Stereo
    Codec ID                                 : 55
    Codec ID/Hint                            : MP3
    Bit rate mode                            : Constant
    Bit rate                                 : 192 Kbps
    Channel(s)                               : 2 channels
    Sampling rate                            : 48.0 KHz
    Compression mode                         : Lossy
    Stream size                              : 88.3 MiB (11%)
    Alignment                                : Aligned on interleaves
    Interleave, duration                     : 24 ms (0.72 video frame)
    Writing library                          : LAME3.98.2
    Language                                 : Korean



    0 0

    Original Post: Orange.Marmalade.E08.150626.HDTV.H264.720p-LIMO

    http://www.thetvdb.com/?tab=series&id=295007
    Details
    Title: 오렌지마말레이드 / Orenji Marmaleideu
    Genre: School, fantasy, romance
    Episodes: 12
    Broadcast network: KBS2
    Broadcast period: 2015-May-15 to 2015-???-??
    Air time: Friday 22:35
    Original Soundtrack: Orange Marmalade OST

    Synopsis
    Despite a 200-year-old treaty between humans and vampires, both races still don't get along. Amidst the looming tension, Jung Jae Min (Yeo Jin Goo), a posh yet kindhearted high school student, quickly falls for the mysterious new girl Baek Ma Ri (Seol Hyun). But can Ma Ri conceal her true vampire identity and give love an honest chance? If these star-crossed lovers can find the courage to make the leap, Jae Min and Ma Ri may just be the key to a final resolution between humans and vampires...

    Main Cast
    Yeo Jin Goo as Jung Jae Min (18)
    Kim Seol Hyun as Baek Ma Ri (18)
    Lee Jong Hyun as Han Shi Hoo (18)
    Gil Eun Hye as Jo Ah Ra (18)










    Code
    Video
    ID                               : 0
    Format                           : AVC
    Format/Info                      : Advanced Video Codec
    Format profile                   : High@L5.1
    Format settings, CABAC           : Yes
    Format settings, ReFrames        : 4 frames
    Codec ID                         : H264
    Duration                         : 1h 4mn
    Bit rate                         : 3 000 Kbps
    Width                            : 1 280 pixels
    Height                           : 720 pixels
    Display aspect ratio             : 16:9
    Frame rate mode                  : Variable
    Frame rate                       : 29.970 fps
    Color space                      : YUV
    Chroma subsampling               : 4:2:0
    Bit depth                        : 8 bits
    Scan type                        : Progressive
    Bits/(Pixel*Frame)               : 0.109
    Stream size                      : 1.35 GiB (94%)
    Writing library                  : x264 core 112
    Encoding settings                : cabac=1 / ref=3 / deblock=1:-1:-1 / analyse=0x3:0x113 / me=hex / subme=6 / psy=1 / psy_rd=1.00:1.00 / mixed_ref=1 / me_range=16 / chroma_me=1 / trellis=1 / 8x8dct=1 / cqm=0 / deadzone=21,11 / fast_pskip=0 / chroma_qp_offset=-4 / threads=12 / sliced_threads=0 / nr=0 / decimate=1 / interlaced=0 / constrained_intra=0 / bframes=3 / b_pyramid=2 / b_adapt=1 / b_bias=1 / direct=3 / weightb=1 / open_gop=0 / weightp=2 / keyint=299 / keyint_min=25 / scenecut=1 / intra_refresh=0 / rc_lookahead=40 / rc=abr / mbtree=1 / bitrate=3000 / ratetol=1.0 / qcomp=0.60 / qpmin=10 / qpmax=51 / qpstep=4 / ip_ratio=1.40 / aq=1:1.00

    Audio
    ID                               : 1
    Format                           : MPEG Audio
    Format version                   : Version 1
    Format profile                   : Layer 3
    Mode                             : Joint stereo
    Mode extension                   : MS Stereo
    Codec ID                         : 55
    Codec ID/Hint                    : MP3
    Duration                         : 1h 4mn
    Bit rate mode                    : Constant
    Bit rate                         : 192 Kbps
    Channel(s)                       : 2 channels
    Sampling rate                    : 48.0 KHz
    Stream size                      : 88.0 MiB (6%)
    Alignment                        : Split accross interleaves
    Interleave, duration             : 33 ms (1.00 video frame)
    Interleave, preload duration     : 500 ms
    Writing library                  : LAME3.98.2



    0 0

    Original Post: Various Artists – Warm and Cozy OST



    Various Artists – 맨도롱 또똣 (MBC 수목드라마) OST
    Release Date: 2015.06.26
    Genre: OST
    Language: Korean
    Bit Rate: MP3-320kbps
    credit to hulkpop

    Track List:

    01. Thank U – 케이윌 (K.Will)
    02. Butterfly – 하늘해, 공보경
    03. 더 가까이 – 효린 [씨스타]
    04. 보이지 말아줘 – 주비 [써니힐]
    05. 널 위한거야 – 손승연
    06. Jeju Hands – 보이쳐 (Voiture)
    07. 라라 테마 – 보이쳐 (Voiture)
    08. Funning Guitar – 김정민 [O.S.T.]
    09. I Missing You – 김정민 [O.S.T.]
    10. In Deserted House – 이희선
    11. Broken Heart – 이희선
    12. Sea Of Love – 서웅석
    13. Falling – 서웅석



    0 0

    Original Post: By a Man's Face Shall You Know Him (1966) NTSC DVD5



    Staged across three distinct time periods with the bulk of the story unfolding in the post-war disorder of 1948, By a Man's Face Shall You Know Him is an early attempt at dramatising tensions between Japanese and zainichi Korean residents sharing an uneasy existence within the same living space. The film opens 8 years after the main action, introducing the character of Amamiya (Ando), a doctor at a rundown hospital who has just served an 8-year sentence for murder. When a man (Nakatani) is brought into the hospital fatally wounded after being hit by a car, Amamiya initially refuses to operate, seeing the case as hopeless. But after he sees the victim, whose given name is Sai, and recognises him as a private who fought under him under the Japanese name of Shibata in Okinawa during the war, he has a change of heart.

    Amamiya and Sai, however, have a deeper history. During the subsequent occupation period, the town marketplace for which Amamiya acts in the capacity of a landlord sees itself falling prey to the demands of a powerful group of Korean mobsters. With the Japanese locals weary and debilitated after their defeat, the gangsters cause regular havoc and threaten to take over this heart of the community. Amamiya initially remains unwilling to get involved in this local struggle, having seen too much bloodshed during the war. But when his hot-headed brother Shunji (Itami, later the director of such internationally popular hits as Tampopo and A Taxing Woman) courts danger in the form of a young Japanese-born Korean girl Li Keishun (Mari), he finds himself unable to remain detached indefinitely.  

    Screenshots












    IMDB
    Cast: Noboru Andô, Kanjûrô Arashi, Torahiko Hamada
    Directed: Tai Katô
    Genre: Action / Drama / Yakuza
    Runtime: 89 min
    DVD Format: NTSC
    DVD Size: DVD5
    Also Known As: Otokonokao wa rirekisho
    Country: Japan
    Language: Japanese
    Subtitles: English (custom)

    -----------------------------------------------------------

    Complete name                            : By a Man's Face - Tai Kato - Subs
    Format                                   : DVD Video
    Format profile                           : Program
    File size                                : 66.0 KiB
    Duration                                 : 1h 29mn
    Overall bit rate mode                    : Variable
    Overall bit rate                         : 101 bps

    Video
    ID                                       : 224 (0xE0)
    Format                                   : MPEG Video
    Format version                           : Version 2
    Duration                                 : 1h 29mn
    Bit rate mode                            : Variable
    Width                                    : 720 pixels
    Height                                   : 480 pixels
    Display aspect ratio                     : 16:9
    Frame rate                               : 29.970 fps
    Standard                                 : NTSC
    Compression mode                         : Lossy

    Audio
    ID                                       : 128 (0x80)
    Format                                   : AC-3
    Format/Info                              : Audio Coding 3
    Duration                                 : 1h 29mn
    Channel(s)                               : 2 channels
    Sampling rate                            : 48.0 KHz
    Compression mode                         : Lossy
    Language                                 : Japanese

    Text
    ID                                       : 32 (0x20)
    Format                                   : RLE
    Format/Info                              : Run-length encoding
    Bit depth                                : 2 bits
    Language                                 : English
    Language, more info                      : Normal



older | 1 | .... | 1380 | 1381 | (Page 1382) | 1383 | 1384 | .... | 1405 | newer