Are you the publisher? Claim or contact us about this channel


Embed this content in your HTML

Search

Report adult content:

click to rate:

Account: (login)

More Channels


Showcase


Channel Catalog


Channel Description:

Asia Torrents RSS Feed

older | 1 | .... | 1386 | 1387 | (Page 1388) | 1389 | 1390 | .... | 1405 | newer

    0 0

    Original Post: Hidden.Identity.E06.150630.HDTV.H264.720p-WITH

    http://thetvdb.com/index.php?tab=series&id=296439&lid=7
    The heat is on in Investigation 5, an undercover police unit specializing in thwarting violent crimes. Led by Superintendent Jang Moon Won (Park Sung Woong), this team of young and elite officers, including Cha Gun Woo (Kim Bum), Jang Min Joo (Yoon So Yi), and Choi Tae Pyung (Lee Won Jong), assume new identities and infiltrate dangerous crime syndicates. With only their wits and poker faces at their disposal, can the team complete their missions without blowing their covers in hostile territory?

    Subtitles by Dramafever will be added later

    Cast
    Kim Bum as Cha Gun Woo
    Yoon So Yi as Jang Min Joo
    Park Sung Woong as Jang Moo Won
    Lee Won Jong as Choi Tae Pyung
    Kim Tae Hoon as Min Tae In









    Code
    Video
    ID                                       : 1
    Format                                   : AVC
    Format/Info                              : Advanced Video Codec
    Format profile                           : Baseline@L1.3
    Format settings, CABAC                   : No
    Format settings, ReFrames                : 1 frame
    Codec ID                                 : avc1
    Codec ID/Info                            : Advanced Video Coding
    Duration                                 : 1h 3mn
    Bit rate                                 : 2 200 Kbps
    Maximum bit rate                         : 6 012 Kbps
    Width                                    : 1 280 pixels
    Height                                   : 720 pixels
    Display aspect ratio                     : 16:9
    Frame rate mode                          : Constant
    Frame rate                               : 29.970 fps
    Color space                              : YUV
    Chroma subsampling                       : 4:2:0
    Bit depth                                : 8 bits
    Scan type                                : Progressive
    Bits/(Pixel*Frame)                       : 0.080
    Stream size                              : 1 018 MiB (90%)
    Writing library                          : x264 core 128 r2216 198a7ea
    Encoding settings                        : cabac=0 / ref=1 / deblock=1:0:0 / analyse=0x1:0x111 / me=hex / subme=7 / psy=1 / psy_rd=1.00:0.00 / mixed_ref=0 / me_range=16 / chroma_me=1 / trellis=1 / 8x8dct=0 / cqm=0 / deadzone=21,11 / fast_pskip=1 / chroma_qp_offset=-2 / threads=12 / lookahead_threads=2 / sliced_threads=0 / nr=0 / decimate=1 / interlaced=0 / bluray_compat=0 / constrained_intra=0 / bframes=0 / weightp=0 / keyint=250 / keyint_min=25 / scenecut=40 / intra_refresh=0 / rc_lookahead=40 / rc=abr / mbtree=1 / bitrate=2200 / ratetol=1.0 / qcomp=0.60 / qpmin=0 / qpmax=69 / qpstep=4 / vbv_maxrate=50000 / vbv_bufsize=50000 / nal_hrd=none / ip_ratio=1.40 / aq=1:1.00


    Audio
    ID                                       : 2
    Format                                   : AAC
    Format/Info                              : Advanced Audio Codec
    Format profile                           : LC
    Codec ID                                 : 40
    Duration                                 : 1h 3mn
    Bit rate mode                            : Variable
    Bit rate                                 : 256 Kbps
    Maximum bit rate                         : 262 Kbps
    Channel(s)                               : 2 channels
    Channel positions                        : Front: L R
    Sampling rate                            : 48.0 KHz
    Compression mode                         : Lossy



    0 0

    Original Post: TVB Master.of.Destiny.E08.HDTV.H264.2Audio.720p-Hallo

    http://thetvdb.com/index.php?tab=series&id=297278

    Synopsis

    Kwan Yeuk-nam (Liza Wang) is a legendary woman. After her husband committed suicide due to a business failure, she single-handedly raised her three sons to adulthood, also establishing her own business empire, Sun Hon Lik, in the process. Now ready to retire, she is prepared to pass down her empire to her three sons.

    Starring
    Liza Wang
    Angie Chiu
    Hawick Lau
    Tiffany Tang
    Monica Mok
    Wayne Lai
    Selena Li
    Kenny Wong
    Edwin Siu
    Kimmy Tong







    Code
    Video
    ID                             : 1
    Format                         : AVC
    Format/Info                    : Advanced Video Codec
    Format profile                 : Main@L4.0
    Format settings, CABAC         : Yes
    Format settings, ReFrames      : 4 frames
    Codec ID                       : V_MPEG4/ISO/AVC
    Nominal bit rate               : 4 500 Kbps
    Width                          : 1 280 pixels
    Height                         : 720 pixels
    Display aspect ratio           : 16:9
    Frame rate mode                : Variable
    Color space                    : YUV
    Chroma subsampling             : 4:2:0
    Bit depth                      : 8 bits
    Scan type                      : Progressive
    Writing library                : x264 core 130 r2273 b3065e6
    Encoding settings              : cabac=1 / ref=1 / deblock=1:0:0 / analyse=0x1:0x111 / me=hex / subme=2 / psy=1 / psy_rd=1.00:0.00 / mixed_ref=0 / me_range=16 / chroma_me=1 / trellis=0 / 8x8dct=0 / cqm=0 / deadzone=21,11 / fast_pskip=1 / chroma_qp_offset=0 / threads=1 / lookahead_threads=1 / sliced_threads=0 / nr=0 / decimate=1 / interlaced=0 / bluray_compat=0 / constrained_intra=0 / bframes=3 / b_pyramid=2 / b_adapt=1 / b_bias=0 / direct=1 / weightb=1 / open_gop=0 / weightp=1 / keyint=250 / keyint_min=25 / scenecut=40 / intra_refresh=0 / rc_lookahead=10 / rc=abr / mbtree=1 / bitrate=4500 / ratetol=1.0 / qcomp=0.60 / qpmin=0 / qpmax=69 / qpstep=4 / vbv_maxrate=20000 / vbv_bufsize=25000 / nal_hrd=none / ip_ratio=1.40 / aq=1:1.00
    Language                       : Chinese
    Default                        : Yes
    Forced                         : No
    Color primaries                : BT.709
    Transfer characteristics       : BT.709
    Matrix coefficients            : BT.709

    Audio #1
    ID                             : 2
    Format                         : AC-3
    Format/Info                    : Audio Coding 3
    Mode extension                 : CM (complete main)
    Format settings, Endianness    : Big
    Codec ID                       : A_AC3
    Duration                       : 44mn 13s
    Bit rate mode                  : Constant
    Bit rate                       : 192 Kbps
    Channel(s)                     : 2 channels
    Channel positions              : Front: L R
    Sampling rate                  : 48.0 KHz
    Bit depth                      : 16 bits
    Compression mode               : Lossy
    Stream size                    : 60.7 MiB (81%)
    Title                          : Cantonese
    Language                       : Chinese
    Default                        : Yes
    Forced                         : No

    Audio #2
    ID                             : 3
    Format                         : AC-3
    Format/Info                    : Audio Coding 3
    Mode extension                 : CM (complete main)
    Format settings, Endianness    : Big
    Codec ID                       : A_AC3
    Duration                       : 44mn 13s
    Bit rate mode                  : Constant
    Bit rate                       : 384 Kbps
    Channel(s)                     : 6 channels
    Channel positions              : Front: L C R, Side: L R, LFE
    Sampling rate                  : 48.0 KHz
    Bit depth                      : 16 bits
    Compression mode               : Lossy
    Stream size                    : 121 MiB
    Title                          : Mandarin
    Language                       : Chinese
    Default                        : No
    Forced                         : No

    Text
    ID                             : 4
    Format                         : UTF-8
    Codec ID                       : S_TEXT/UTF8
    Codec ID/Info                  : UTF-8 Plain Text
    Default                        : Yes
    Forced                         : No



    0 0

    Original Post: Live.2014.DVDRip.x264.AC3.WahDee (No Eng Subs)

    THE IGUCHI GAMES!





    Live (2014)

    Also known as: Raivu
    Year: 2014
    Country: Japan
    Directed by: Noboru Iguchi
    Duration: 1 hr, 45 min
    Language: Japan
    Subtitles: NONE

    Cast:
    Yuki Yamada
    Ito Ōno
    Yūki Morinaga
    Mari Iriki
    Suzuka Morita
    Airi Yamamoto
    Asami Sugiura
    Kokone Sasaki
    Ryūnosuke Kawai
    Mitsuki Koga

    Plot:
    On the morning of a certain Tuesday, a mysterious “death race” is suddenly announced on television. Viewers are enthralled by the excitement of the competition, with participants getting knocked out of the race one after another in unpredictable ways. Meanwhile, survivors refer to a certain guide book for tips on how to succeed.

    Viewers remain oblivious to the real reason people are participating in such a deadly event—each has fallen into a cruel trap while trying to protect the ones they love.

    Technical info about video file:

    GENERAL
    Format: Matroska
    File size: 1.81GB
    Duration: 1 hr, 45 min
    Bitrate: 2448kb/s
    Subtitles: NONE
    Source: DVD9 (thanks to jpfiles.eu)

    VIDEO
    Format: AVC
    Codec: H264 - MPEG-4 AVC (part10) (avc1)
    Bitrate: 2000 kb/s
    Display aspect ratio: 16:9
    Frame rate: 23.976
    Resolution: 720x304

    AUDIO
    Format: AC3
    Bitrate: 448kb/s
    Channel(s): 6
    Sampling rate: 48.0KHz
    Language: Japanese

    Screenshots:












    Trailer:



    Quickie Review

    PROS
    Surprisingly inventive storytelling and adapting of source material (the film is both legitimate and self-referential; heck, even the book itself is a major plot device)
    The cast are all game to the violent mayhem (Love seeing the cutie Suzuka Morita on the screen again; Kokone Sasaki has been quite the trooper in films like this, Tokyo Tribe and Puzzle; Asami is always a plus)
    Many loving references to game-of-death films like Battle Royale, The Hunger Games, The Running Man and, of course, Game of Death
    The action scenes are outrageous, the pacing is frenetic, the music is suitably goofy and the film-making style is surprisingly more conventional and self-aware (lingering towards breasts suddenly turn to male torsos)

    CONS
    CGI blood
    The climax has an abrupt change in tone that could irk some
    The running time may be a bit padded

    SCORE: 8/10 (A Noboru Iguchi film that is a surprisingly a meta-adaptation that more films should do. More conventional, yet still retaining the Iguchi spirit.)


    0 0

    Original Post: Warm.and.Cozy.E16.END.150702.HDTV.H264.720p-LIMO

    Details
    Title: 맨도롱 또똣 / Maendorong Ttottos
    Previously known as: 제주도 개츠비 / Jeju Island Gatsby
    Genre: Romance
    Episodes: 16
    Broadcast network: MBC
    Broadcast period: 2015-May-13 to 2015-Jul-??
    Air time: Wednesday & Thursday 22:00
    Subtitles will be added later
    http://thetvdb.com/?tab=series&id=295029&lid=7

    Synopsis
    Desperate to escape the drama and stress of modern life in the city, Baek Gun Woo (Yoo Yeon Seok) and Lee Jung Joo (Kang So Ra) take off to South Korea's idyllic Jeju Island. But when these two urbane strangers meet on the island, they discover the magical island's restorative qualities include unexpected romance.

    Cast
    Main Cast
    Yoo Yun Suk as Baek Gun Woo
    Kang So Ra as Lee Jung Joo









    Code
    Video
    ID                               : 0
    Format                           : AVC
    Format/Info                      : Advanced Video Codec
    Format profile                   : High@L5.1
    Format settings, CABAC           : Yes
    Format settings, ReFrames        : 4 frames
    Codec ID                         : H264
    Duration                         : 1h 4mn
    Bit rate                         : 3 000 Kbps
    Width                            : 1 280 pixels
    Height                           : 720 pixels
    Display aspect ratio             : 16:9
    Frame rate mode                  : Variable
    Frame rate                       : 29.970 fps
    Color space                      : YUV
    Chroma subsampling               : 4:2:0
    Bit depth                        : 8 bits
    Scan type                        : Progressive
    Bits/(Pixel*Frame)               : 0.109
    Stream size                      : 1.35 GiB (94%)
    Writing library                  : x264 core 112
    Encoding settings                : cabac=1 / ref=3 / deblock=1:-1:-1 / analyse=0x3:0x113 / me=hex / subme=6 / psy=1 / psy_rd=1.00:1.00 / mixed_ref=1 / me_range=16 / chroma_me=1 / trellis=1 / 8x8dct=1 / cqm=0 / deadzone=21,11 / fast_pskip=0 / chroma_qp_offset=-4 / threads=12 / sliced_threads=0 / nr=0 / decimate=1 / interlaced=0 / constrained_intra=0 / bframes=3 / b_pyramid=2 / b_adapt=1 / b_bias=1 / direct=3 / weightb=1 / open_gop=0 / weightp=2 / keyint=299 / keyint_min=25 / scenecut=1 / intra_refresh=0 / rc_lookahead=40 / rc=abr / mbtree=1 / bitrate=3000 / ratetol=1.0 / qcomp=0.60 / qpmin=10 / qpmax=51 / qpstep=4 / ip_ratio=1.40 / aq=1:1.00

    Audio
    ID                               : 1
    Format                           : MPEG Audio
    Format version                   : Version 1
    Format profile                   : Layer 3
    Mode                             : Joint stereo
    Mode extension                   : MS Stereo
    Codec ID                         : 55
    Codec ID/Hint                    : MP3
    Duration                         : 1h 4mn
    Bit rate mode                    : Constant
    Bit rate                         : 192 Kbps
    Channel(s)                       : 2 channels
    Sampling rate                    : 48.0 KHz
    Stream size                      : 88.0 MiB (6%)
    Alignment                        : Split accross interleaves
    Interleave, duration             : 33 ms (1.00 video frame)
    Interleave, preload duration     : 500 ms
    Writing library                  : LAME3.98.2



    0 0

    Original Post: Masked.Prosecutor.E14.150702.HDTV.X264-LIMO

    Details
    Title: 복면검사 / Bogmyeongeomsa
    Genre: Action, thriller
    Episodes:
    Broadcast network: KBS2
    Broadcast period: 2015-May-20 to 2015-??-??
    Air time: Wednesday & Thursday 22:00
    http://thetvdb.com/?tab=series&id=295948&lid=7

    Synopsis
    The story is about a man, played by Joo Sang Wook with a double identity. He's a normal prosecutor during the day and a masked vigilante at night. Kim Sun Ah will play a role of detective chief in the violent crimes unit.

    Cast
    Joo Sang Wook as Ha Dae Chul (33, Prosecutor at Southern District)
    Kim Sun Ah as a Yoo Min Hee (33, Chief at Gangnam Police Station, Crime Division)
    Uhm Ki Joon as Kang Hyun Woong (30, Prosecutor at Seoul District)
    Jun Kwang Ryul as Jo Sang Taek (50s, former detective)









    Code
    Video
    ID                             : 1
    Format                         : AVC
    Format/Info                    : Advanced Video Codec
    Format profile                 : Main@L4.0
    Format settings, CABAC         : Yes
    Format settings, ReFrames      : 4 frames
    Codec ID                       : V_MPEG4/ISO/AVC
    Duration                       : 58mn 44s
    Bit rate                       : 450 Kbps
    Width                          : 624 pixels
    Height                         : 350 pixels
    Display aspect ratio           : 16:9
    Frame rate mode                : Constant
    Frame rate                     : 29.970 fps
    Color space                    : YUV
    Chroma subsampling             : 4:2:0
    Bit depth                      : 8 bits
    Scan type                      : Progressive
    Bits/(Pixel*Frame)             : 0.069
    Stream size                    : 190 MiB (76%)
    Writing library                : x264 core 130 r2273 b3065e6
    Encoding settings              : cabac=1 / ref=1 / deblock=1:0:0 / analyse=0x1:0x111 / me=hex / subme=2 / psy=1 / psy_rd=1.00:0.00 / mixed_ref=0 / me_range=16 / chroma_me=1 / trellis=0 / 8x8dct=0 / cqm=0 / deadzone=21,11 / fast_pskip=1 / chroma_qp_offset=0 / threads=1 / lookahead_threads=1 / sliced_threads=0 / nr=0 / decimate=1 / interlaced=0 / bluray_compat=0 / constrained_intra=0 / bframes=3 / b_pyramid=2 / b_adapt=1 / b_bias=0 / direct=1 / weightb=1 / open_gop=0 / weightp=1 / keyint=300 / keyint_min=30 / scenecut=40 / intra_refresh=0 / rc_lookahead=10 / rc=abr / mbtree=1 / bitrate=450 / ratetol=1.0 / qcomp=0.60 / qpmin=0 / qpmax=69 / qpstep=4 / vbv_maxrate=20000 / vbv_bufsize=25000 / nal_hrd=none / ip_ratio=1.40 / aq=1:1.00
    Language                       : English
    Default                        : Yes
    Forced                         : No
    Color primaries                : BT.601 NTSC
    Transfer characteristics       : BT.709
    Matrix coefficients            : BT.601

    Audio
    ID                             : 2
    Format                         : MPEG Audio
    Format version                 : Version 1
    Format profile                 : Layer 3
    Mode                           : Joint stereo
    Mode extension                 : MS Stereo
    Codec ID                       : A_MPEG/L3
    Codec ID/Hint                  : MP3
    Duration                       : 58mn 44s
    Bit rate mode                  : Constant
    Bit rate                       : 128 Kbps
    Channel(s)                     : 2 channels
    Sampling rate                  : 48.0 KHz
    Compression mode               : Lossy
    Stream size                    : 53.8 MiB (22%)
    Default                        : Yes
    Forced                         : No



    0 0

    Original Post: Masked.Prosecutor.E14.150702.HDTV.H264.450p-LIMO

    Details
    Title: 복면검사 / Bogmyeongeomsa
    Genre: Action, thriller
    Episodes:
    Broadcast network: KBS2
    Broadcast period: 2015-May-20 to 2015-??-??
    Air time: Wednesday & Thursday 22:00
    http://thetvdb.com/?tab=series&id=295948&lid=7

    Synopsis
    The story is about a man, played by Joo Sang Wook with a double identity. He's a normal prosecutor during the day and a masked vigilante at night. Kim Sun Ah will play a role of detective chief in the violent crimes unit.

    Cast
    Joo Sang Wook as Ha Dae Chul (33, Prosecutor at Southern District)
    Kim Sun Ah as a Yoo Min Hee (33, Chief at Gangnam Police Station, Crime Division)
    Uhm Ki Joon as Kang Hyun Woong (30, Prosecutor at Seoul District)
    Jun Kwang Ryul as Jo Sang Taek (50s, former detective)










    Code
    Video
    ID                                       : 0
    Format                                   : AVC
    Format/Info                              : Advanced Video Codec
    Format profile                           : High@L5.1
    Format settings, CABAC                   : Yes
    Format settings, ReFrames                : 4 frames
    Codec ID                                 : H264
    Bit rate                                 : 1 500 Kbps
    Width                                    : 800 pixels
    Height                                   : 450 pixels
    Display aspect ratio                     : 16:9
    Frame rate mode                          : Variable
    Frame rate                               : 29.970 fps
    Color space                              : YUV
    Chroma subsampling                       : 4:2:0
    Bit depth                                : 8 bits
    Scan type                                : Progressive
    Bits/(Pixel*Frame)                       : 0.139
    Stream size                              : 686 MiB (88%)
    Writing library                          : x264 core 112

    Audio
    ID                                       : 1
    Format                                   : MPEG Audio
    Format version                           : Version 1
    Format profile                           : Layer 3
    Mode                                     : Joint stereo
    Mode extension                           : MS Stereo
    Codec ID                                 : 55
    Codec ID/Hint                            : MP3
    Bit rate mode                            : Constant
    Bit rate                                 : 192 Kbps
    Channel(s)                               : 2 channels
    Sampling rate                            : 48.0 KHz
    Compression mode                         : Lossy
    Stream size                              : 88.3 MiB (11%)
    Alignment                                : Aligned on interleaves
    Interleave, duration                     : 24 ms (0.72 video frame)
    Writing library                          : LAME3.98.2
    Language                                 : Korean



    0 0

    Original Post: Masked.Prosecutor.E14.150702.HDTV.H264.720p-LIMO

    Details
    Title: 복면검사 / Bogmyeongeomsa
    Genre: Action, thriller
    Episodes:
    Broadcast network: KBS2
    Broadcast period: 2015-May-20 to 2015-??-??
    Air time: Wednesday & Thursday 22:00
    http://thetvdb.com/?tab=series&id=295948&lid=7

    Synopsis
    The story is about a man, played by Joo Sang Wook with a double identity. He's a normal prosecutor during the day and a masked vigilante at night. Kim Sun Ah will play a role of detective chief in the violent crimes unit.

    Cast
    Joo Sang Wook as Ha Dae Chul (33, Prosecutor at Southern District)
    Kim Sun Ah as a Yoo Min Hee (33, Chief at Gangnam Police Station, Crime Division)
    Uhm Ki Joon as Kang Hyun Woong (30, Prosecutor at Seoul District)
    Jun Kwang Ryul as Jo Sang Taek (50s, former detective)









    Code
    Video
    ID                               : 0
    Format                           : AVC
    Format/Info                      : Advanced Video Codec
    Format profile                   : High@L5.1
    Format settings, CABAC           : Yes
    Format settings, ReFrames        : 4 frames
    Codec ID                         : H264
    Duration                         : 1h 4mn
    Bit rate                         : 3 000 Kbps
    Width                            : 1 280 pixels
    Height                           : 720 pixels
    Display aspect ratio             : 16:9
    Frame rate mode                  : Variable
    Frame rate                       : 29.970 fps
    Color space                      : YUV
    Chroma subsampling               : 4:2:0
    Bit depth                        : 8 bits
    Scan type                        : Progressive
    Bits/(Pixel*Frame)               : 0.109
    Stream size                      : 1.35 GiB (94%)
    Writing library                  : x264 core 112
    Encoding settings                : cabac=1 / ref=3 / deblock=1:-1:-1 / analyse=0x3:0x113 / me=hex / subme=6 / psy=1 / psy_rd=1.00:1.00 / mixed_ref=1 / me_range=16 / chroma_me=1 / trellis=1 / 8x8dct=1 / cqm=0 / deadzone=21,11 / fast_pskip=0 / chroma_qp_offset=-4 / threads=12 / sliced_threads=0 / nr=0 / decimate=1 / interlaced=0 / constrained_intra=0 / bframes=3 / b_pyramid=2 / b_adapt=1 / b_bias=1 / direct=3 / weightb=1 / open_gop=0 / weightp=2 / keyint=299 / keyint_min=25 / scenecut=1 / intra_refresh=0 / rc_lookahead=40 / rc=abr / mbtree=1 / bitrate=3000 / ratetol=1.0 / qcomp=0.60 / qpmin=10 / qpmax=51 / qpstep=4 / ip_ratio=1.40 / aq=1:1.00

    Audio
    ID                               : 1
    Format                           : MPEG Audio
    Format version                   : Version 1
    Format profile                   : Layer 3
    Mode                             : Joint stereo
    Mode extension                   : MS Stereo
    Codec ID                         : 55
    Codec ID/Hint                    : MP3
    Duration                         : 1h 4mn
    Bit rate mode                    : Constant
    Bit rate                         : 192 Kbps
    Channel(s)                       : 2 channels
    Sampling rate                    : 48.0 KHz
    Stream size                      : 88.0 MiB (6%)
    Alignment                        : Split accross interleaves
    Interleave, duration             : 33 ms (1.00 video frame)
    Interleave, preload duration     : 500 ms
    Writing library                  : LAME3.98.2



    0 0

    Original Post: Mask.E12.150702.HDTV.X264-LIMO

    Details
    Title: 가면 / Gamyun
    Genre: Romance, melodrama
    Episodes: TBA
    Broadcast network: SBS
    Broadcast period: 2015-May-27 to 2015-???-??
    Air time: Wednesday & Thursday 22:00
    Original Soundtrack: Mask OST
    http://thetvdb.com/index.php?tab=series&id=295976

    Synopsis
    Byun Ji Sook has always had a hard life with her father constantly going into debt and being chased by loan sharks. She desperately wants to know what life is like if she was born into a better family and didn’t have to worry about money all the time. When a series of circumstances brings Ji Sook to Eun Ha, a woman from a wealthy family who strongly resembles Ji Sook, she grabs hold of the chance for a better life and assumes Eun Ha’s identity and begins to live her elite life. She meets Min Woo, a chaebol heir who is mistrusting of the people around him. But when he realizes that Ji Sook is not like the other women he has met, he is drawn to her. How long can Ji Sook keep up the charade and hide her true identity?


    Main Cast
    Soo Ae as Byun Ji Sook (29) / Seo Eun Ha (27)
    Joo Ji Hoon as Choi Min Woo (30)
    Yun Jung Hoon as Min Suk Hoon (34, Mi Yun's husband)
    Yoo In Young as Choi Mi Yun (31, Min Woo's elder sister)
    Byun Ji Sook's family
    Jung Dong Hwan as Byun Dae Sung (50s, Ji Sook's father)
    Yang Mi Kyung as Kang Ok Soon (50s, Ji Sook's mother)
    Hoya as Byun Ji Hyuk (25, Ji Sook's younger brother)
    Choi Min Woo's family
    Jun Gook Hwan as President Choi Doo Hyun (60s, Min Woo's father)
    Park Joon Geum as Mrs. Song (50s, Min Woo's stepmother, Mi Yun's biological mother)
    Seo Eun Ha's family
    Park Yong Soo as Congressman Seo Jong Hoon (60s, Eun Ha's father)
    Lee Jong Nam as Mrs. Lee (50s, Eun Ha's stepmother)
    Others
    Kim Byung Ok as Director Shim (40s, loan shark)
    Jo Han Sun as Kim Jung Tae (29, 3rd generation of Chaebol)
    Park Yun Soo (박연수) as Myung Hwa (24, Ji Sook's colleague)
    Hwang Suk Jung as Mal Ja (late 50s, Ji Sook's colleague)
    Park Joon Myun as Yeo Bu Jang (40s)
    Joo Jin Mo as Professor Kim (60s, a psychiatrist)
    Kim Ji Min (김지민)as Kim Yun Soo (30s)
    Moon Sung Ho (문성호) as Nam Chul (40s)
    Jo Yoon Woo as Oh Chang Soo (20s, Min Woo's secretary)
    Sung Chang Hoon (성창훈) as Bbul Te (30s)









    Code
    Video
    ID                             : 1
    Format                         : AVC
    Format/Info                    : Advanced Video Codec
    Format profile                 : Main@L4.0
    Format settings, CABAC         : Yes
    Format settings, ReFrames      : 4 frames
    Codec ID                       : V_MPEG4/ISO/AVC
    Duration                       : 58mn 44s
    Bit rate                       : 450 Kbps
    Width                          : 624 pixels
    Height                         : 350 pixels
    Display aspect ratio           : 16:9
    Frame rate mode                : Constant
    Frame rate                     : 29.970 fps
    Color space                    : YUV
    Chroma subsampling             : 4:2:0
    Bit depth                      : 8 bits
    Scan type                      : Progressive
    Bits/(Pixel*Frame)             : 0.069
    Stream size                    : 190 MiB (76%)
    Writing library                : x264 core 130 r2273 b3065e6
    Encoding settings              : cabac=1 / ref=1 / deblock=1:0:0 / analyse=0x1:0x111 / me=hex / subme=2 / psy=1 / psy_rd=1.00:0.00 / mixed_ref=0 / me_range=16 / chroma_me=1 / trellis=0 / 8x8dct=0 / cqm=0 / deadzone=21,11 / fast_pskip=1 / chroma_qp_offset=0 / threads=1 / lookahead_threads=1 / sliced_threads=0 / nr=0 / decimate=1 / interlaced=0 / bluray_compat=0 / constrained_intra=0 / bframes=3 / b_pyramid=2 / b_adapt=1 / b_bias=0 / direct=1 / weightb=1 / open_gop=0 / weightp=1 / keyint=300 / keyint_min=30 / scenecut=40 / intra_refresh=0 / rc_lookahead=10 / rc=abr / mbtree=1 / bitrate=450 / ratetol=1.0 / qcomp=0.60 / qpmin=0 / qpmax=69 / qpstep=4 / vbv_maxrate=20000 / vbv_bufsize=25000 / nal_hrd=none / ip_ratio=1.40 / aq=1:1.00
    Language                       : English
    Default                        : Yes
    Forced                         : No
    Color primaries                : BT.601 NTSC
    Transfer characteristics       : BT.709
    Matrix coefficients            : BT.601

    Audio
    ID                             : 2
    Format                         : MPEG Audio
    Format version                 : Version 1
    Format profile                 : Layer 3
    Mode                           : Joint stereo
    Mode extension                 : MS Stereo
    Codec ID                       : A_MPEG/L3
    Codec ID/Hint                  : MP3
    Duration                       : 58mn 44s
    Bit rate mode                  : Constant
    Bit rate                       : 128 Kbps
    Channel(s)                     : 2 channels
    Sampling rate                  : 48.0 KHz
    Compression mode               : Lossy
    Stream size                    : 53.8 MiB (22%)
    Default                        : Yes
    Forced                         : No



    0 0

    Original Post: Mask.E12.150702.HDTV.H264.450p-LIMO

    Details
    Title: 가면 / Gamyun
    Genre: Romance, melodrama
    Episodes: TBA
    Broadcast network: SBS
    Broadcast period: 2015-May-27 to 2015-???-??
    Air time: Wednesday & Thursday 22:00
    Original Soundtrack: Mask OST
    http://thetvdb.com/index.php?tab=series&id=295976

    Synopsis
    Byun Ji Sook has always had a hard life with her father constantly going into debt and being chased by loan sharks. She desperately wants to know what life is like if she was born into a better family and didn’t have to worry about money all the time. When a series of circumstances brings Ji Sook to Eun Ha, a woman from a wealthy family who strongly resembles Ji Sook, she grabs hold of the chance for a better life and assumes Eun Ha’s identity and begins to live her elite life. She meets Min Woo, a chaebol heir who is mistrusting of the people around him. But when he realizes that Ji Sook is not like the other women he has met, he is drawn to her. How long can Ji Sook keep up the charade and hide her true identity?


    Main Cast
    Soo Ae as Byun Ji Sook (29) / Seo Eun Ha (27)
    Joo Ji Hoon as Choi Min Woo (30)
    Yun Jung Hoon as Min Suk Hoon (34, Mi Yun's husband)
    Yoo In Young as Choi Mi Yun (31, Min Woo's elder sister)
    Byun Ji Sook's family
    Jung Dong Hwan as Byun Dae Sung (50s, Ji Sook's father)
    Yang Mi Kyung as Kang Ok Soon (50s, Ji Sook's mother)
    Hoya as Byun Ji Hyuk (25, Ji Sook's younger brother)
    Choi Min Woo's family
    Jun Gook Hwan as President Choi Doo Hyun (60s, Min Woo's father)
    Park Joon Geum as Mrs. Song (50s, Min Woo's stepmother, Mi Yun's biological mother)
    Seo Eun Ha's family
    Park Yong Soo as Congressman Seo Jong Hoon (60s, Eun Ha's father)
    Lee Jong Nam as Mrs. Lee (50s, Eun Ha's stepmother)
    Others
    Kim Byung Ok as Director Shim (40s, loan shark)
    Jo Han Sun as Kim Jung Tae (29, 3rd generation of Chaebol)
    Park Yun Soo (박연수) as Myung Hwa (24, Ji Sook's colleague)
    Hwang Suk Jung as Mal Ja (late 50s, Ji Sook's colleague)
    Park Joon Myun as Yeo Bu Jang (40s)
    Joo Jin Mo as Professor Kim (60s, a psychiatrist)
    Kim Ji Min (김지민)as Kim Yun Soo (30s)
    Moon Sung Ho (문성호) as Nam Chul (40s)
    Jo Yoon Woo as Oh Chang Soo (20s, Min Woo's secretary)
    Sung Chang Hoon (성창훈) as Bbul Te (30s)










    Code
    Video
    ID                                       : 0
    Format                                   : AVC
    Format/Info                              : Advanced Video Codec
    Format profile                           : High@L5.1
    Format settings, CABAC                   : Yes
    Format settings, ReFrames                : 4 frames
    Codec ID                                 : H264
    Bit rate                                 : 1 500 Kbps
    Width                                    : 800 pixels
    Height                                   : 450 pixels
    Display aspect ratio                     : 16:9
    Frame rate mode                          : Variable
    Frame rate                               : 29.970 fps
    Color space                              : YUV
    Chroma subsampling                       : 4:2:0
    Bit depth                                : 8 bits
    Scan type                                : Progressive
    Bits/(Pixel*Frame)                       : 0.139
    Stream size                              : 686 MiB (88%)
    Writing library                          : x264 core 112

    Audio
    ID                                       : 1
    Format                                   : MPEG Audio
    Format version                           : Version 1
    Format profile                           : Layer 3
    Mode                                     : Joint stereo
    Mode extension                           : MS Stereo
    Codec ID                                 : 55
    Codec ID/Hint                            : MP3
    Bit rate mode                            : Constant
    Bit rate                                 : 192 Kbps
    Channel(s)                               : 2 channels
    Sampling rate                            : 48.0 KHz
    Compression mode                         : Lossy
    Stream size                              : 88.3 MiB (11%)
    Alignment                                : Aligned on interleaves
    Interleave, duration                     : 24 ms (0.72 video frame)
    Writing library                          : LAME3.98.2
    Language                                 : Korean



    0 0

    Original Post: Mask.E12.150702.HDTV.H264.720p-LIMO

    Details
    Title: 가면 / Gamyun
    Genre: Romance, melodrama
    Episodes: TBA
    Broadcast network: SBS
    Broadcast period: 2015-May-27 to 2015-???-??
    Air time: Wednesday & Thursday 22:00
    Original Soundtrack: Mask OST
    http://thetvdb.com/index.php?tab=series&id=295976

    Synopsis
    Byun Ji Sook has always had a hard life with her father constantly going into debt and being chased by loan sharks. She desperately wants to know what life is like if she was born into a better family and didn’t have to worry about money all the time. When a series of circumstances brings Ji Sook to Eun Ha, a woman from a wealthy family who strongly resembles Ji Sook, she grabs hold of the chance for a better life and assumes Eun Ha’s identity and begins to live her elite life. She meets Min Woo, a chaebol heir who is mistrusting of the people around him. But when he realizes that Ji Sook is not like the other women he has met, he is drawn to her. How long can Ji Sook keep up the charade and hide her true identity?


    Main Cast
    Soo Ae as Byun Ji Sook (29) / Seo Eun Ha (27)
    Joo Ji Hoon as Choi Min Woo (30)
    Yun Jung Hoon as Min Suk Hoon (34, Mi Yun's husband)
    Yoo In Young as Choi Mi Yun (31, Min Woo's elder sister)
    Byun Ji Sook's family
    Jung Dong Hwan as Byun Dae Sung (50s, Ji Sook's father)
    Yang Mi Kyung as Kang Ok Soon (50s, Ji Sook's mother)
    Hoya as Byun Ji Hyuk (25, Ji Sook's younger brother)
    Choi Min Woo's family
    Jun Gook Hwan as President Choi Doo Hyun (60s, Min Woo's father)
    Park Joon Geum as Mrs. Song (50s, Min Woo's stepmother, Mi Yun's biological mother)
    Seo Eun Ha's family
    Park Yong Soo as Congressman Seo Jong Hoon (60s, Eun Ha's father)
    Lee Jong Nam as Mrs. Lee (50s, Eun Ha's stepmother)
    Others
    Kim Byung Ok as Director Shim (40s, loan shark)
    Jo Han Sun as Kim Jung Tae (29, 3rd generation of Chaebol)
    Park Yun Soo (박연수) as Myung Hwa (24, Ji Sook's colleague)
    Hwang Suk Jung as Mal Ja (late 50s, Ji Sook's colleague)
    Park Joon Myun as Yeo Bu Jang (40s)
    Joo Jin Mo as Professor Kim (60s, a psychiatrist)
    Kim Ji Min (김지민)as Kim Yun Soo (30s)
    Moon Sung Ho (문성호) as Nam Chul (40s)
    Jo Yoon Woo as Oh Chang Soo (20s, Min Woo's secretary)
    Sung Chang Hoon (성창훈) as Bbul Te (30s)









    Code
    Video
    ID                               : 0
    Format                           : AVC
    Format/Info                      : Advanced Video Codec
    Format profile                   : High@L5.1
    Format settings, CABAC           : Yes
    Format settings, ReFrames        : 4 frames
    Codec ID                         : H264
    Duration                         : 1h 4mn
    Bit rate                         : 3 000 Kbps
    Width                            : 1 280 pixels
    Height                           : 720 pixels
    Display aspect ratio             : 16:9
    Frame rate mode                  : Variable
    Frame rate                       : 29.970 fps
    Color space                      : YUV
    Chroma subsampling               : 4:2:0
    Bit depth                        : 8 bits
    Scan type                        : Progressive
    Bits/(Pixel*Frame)               : 0.109
    Stream size                      : 1.35 GiB (94%)
    Writing library                  : x264 core 112
    Encoding settings                : cabac=1 / ref=3 / deblock=1:-1:-1 / analyse=0x3:0x113 / me=hex / subme=6 / psy=1 / psy_rd=1.00:1.00 / mixed_ref=1 / me_range=16 / chroma_me=1 / trellis=1 / 8x8dct=1 / cqm=0 / deadzone=21,11 / fast_pskip=0 / chroma_qp_offset=-4 / threads=12 / sliced_threads=0 / nr=0 / decimate=1 / interlaced=0 / constrained_intra=0 / bframes=3 / b_pyramid=2 / b_adapt=1 / b_bias=1 / direct=3 / weightb=1 / open_gop=0 / weightp=2 / keyint=299 / keyint_min=25 / scenecut=1 / intra_refresh=0 / rc_lookahead=40 / rc=abr / mbtree=1 / bitrate=3000 / ratetol=1.0 / qcomp=0.60 / qpmin=10 / qpmax=51 / qpstep=4 / ip_ratio=1.40 / aq=1:1.00

    Audio
    ID                               : 1
    Format                           : MPEG Audio
    Format version                   : Version 1
    Format profile                   : Layer 3
    Mode                             : Joint stereo
    Mode extension                   : MS Stereo
    Codec ID                         : 55
    Codec ID/Hint                    : MP3
    Duration                         : 1h 4mn
    Bit rate mode                    : Constant
    Bit rate                         : 192 Kbps
    Channel(s)                       : 2 channels
    Sampling rate                    : 48.0 KHz
    Stream size                      : 88.0 MiB (6%)
    Alignment                        : Split accross interleaves
    Interleave, duration             : 33 ms (1.00 video frame)
    Interleave, preload duration     : 500 ms
    Writing library                  : LAME3.98.2



    0 0

    Original Post: Warm and Cozy (2015) Complete HDTV.X264-LIMO

    Details
    Title: 맨도롱 또똣 / Maendorong Ttottos
    Previously known as: 제주도 개츠비 / Jeju Island Gatsby
    Genre: Romance
    Episodes: 16
    Broadcast network: MBC
    Broadcast period: 2015-May-13 to 2015-Jul-??
    Air time: Wednesday & Thursday 22:00
    Subtitles will be added later
    http://thetvdb.com/?tab=series&id=295029&lid=7

    Synopsis
    Desperate to escape the drama and stress of modern life in the city, Baek Gun Woo (Yoo Yeon Seok) and Lee Jung Joo (Kang So Ra) take off to South Korea's idyllic Jeju Island. But when these two urbane strangers meet on the island, they discover the magical island's restorative qualities include unexpected romance.

    Cast
    Main Cast
    Yoo Yun Suk as Baek Gun Woo
    Kang So Ra as Lee Jung Joo










    Code
    Video
    ID                             : 1
    Format                         : AVC
    Format/Info                    : Advanced Video Codec
    Format profile                 : Main@L4.0
    Format settings, CABAC         : Yes
    Format settings, ReFrames      : 4 frames
    Codec ID                       : V_MPEG4/ISO/AVC
    Duration                       : 58mn 44s
    Bit rate                       : 450 Kbps
    Width                          : 624 pixels
    Height                         : 350 pixels
    Display aspect ratio           : 16:9
    Frame rate mode                : Constant
    Frame rate                     : 29.970 fps
    Color space                    : YUV
    Chroma subsampling             : 4:2:0
    Bit depth                      : 8 bits
    Scan type                      : Progressive
    Bits/(Pixel*Frame)             : 0.069
    Stream size                    : 190 MiB (76%)
    Writing library                : x264 core 130 r2273 b3065e6
    Encoding settings              : cabac=1 / ref=1 / deblock=1:0:0 / analyse=0x1:0x111 / me=hex / subme=2 / psy=1 / psy_rd=1.00:0.00 / mixed_ref=0 / me_range=16 / chroma_me=1 / trellis=0 / 8x8dct=0 / cqm=0 / deadzone=21,11 / fast_pskip=1 / chroma_qp_offset=0 / threads=1 / lookahead_threads=1 / sliced_threads=0 / nr=0 / decimate=1 / interlaced=0 / bluray_compat=0 / constrained_intra=0 / bframes=3 / b_pyramid=2 / b_adapt=1 / b_bias=0 / direct=1 / weightb=1 / open_gop=0 / weightp=1 / keyint=300 / keyint_min=30 / scenecut=40 / intra_refresh=0 / rc_lookahead=10 / rc=abr / mbtree=1 / bitrate=450 / ratetol=1.0 / qcomp=0.60 / qpmin=0 / qpmax=69 / qpstep=4 / vbv_maxrate=20000 / vbv_bufsize=25000 / nal_hrd=none / ip_ratio=1.40 / aq=1:1.00
    Language                       : English
    Default                        : Yes
    Forced                         : No
    Color primaries                : BT.601 NTSC
    Transfer characteristics       : BT.709
    Matrix coefficients            : BT.601

    Audio
    ID                             : 2
    Format                         : MPEG Audio
    Format version                 : Version 1
    Format profile                 : Layer 3
    Mode                           : Joint stereo
    Mode extension                 : MS Stereo
    Codec ID                       : A_MPEG/L3
    Codec ID/Hint                  : MP3
    Duration                       : 58mn 44s
    Bit rate mode                  : Constant
    Bit rate                       : 128 Kbps
    Channel(s)                     : 2 channels
    Sampling rate                  : 48.0 KHz
    Compression mode               : Lossy
    Stream size                    : 53.8 MiB (22%)
    Default                        : Yes
    Forced                         : No



    0 0

    Original Post: Warm and Cozy (2015) Complete HDTV.H264.450p-LIMO

    Details
    Title: 맨도롱 또똣 / Maendorong Ttottos
    Previously known as: 제주도 개츠비 / Jeju Island Gatsby
    Genre: Romance
    Episodes: 16
    Broadcast network: MBC
    Broadcast period: 2015-May-13 to 2015-Jul-??
    Air time: Wednesday & Thursday 22:00
    Subtitles will be added later
    http://thetvdb.com/?tab=series&id=295029&lid=7

    Synopsis
    Desperate to escape the drama and stress of modern life in the city, Baek Gun Woo (Yoo Yeon Seok) and Lee Jung Joo (Kang So Ra) take off to South Korea's idyllic Jeju Island. But when these two urbane strangers meet on the island, they discover the magical island's restorative qualities include unexpected romance.

    Cast
    Main Cast
    Yoo Yun Suk as Baek Gun Woo
    Kang So Ra as Lee Jung Joo









    Code
    Video
    ID                                       : 0
    Format                                   : AVC
    Format/Info                              : Advanced Video Codec
    Format profile                           : High@L5.1
    Format settings, CABAC                   : Yes
    Format settings, ReFrames                : 4 frames
    Codec ID                                 : H264
    Bit rate                                 : 1 500 Kbps
    Width                                    : 800 pixels
    Height                                   : 450 pixels
    Display aspect ratio                     : 16:9
    Frame rate mode                          : Variable
    Frame rate                               : 29.970 fps
    Color space                              : YUV
    Chroma subsampling                       : 4:2:0
    Bit depth                                : 8 bits
    Scan type                                : Progressive
    Bits/(Pixel*Frame)                       : 0.139
    Stream size                              : 686 MiB (88%)
    Writing library                          : x264 core 112

    Audio
    ID                                       : 1
    Format                                   : MPEG Audio
    Format version                           : Version 1
    Format profile                           : Layer 3
    Mode                                     : Joint stereo
    Mode extension                           : MS Stereo
    Codec ID                                 : 55
    Codec ID/Hint                            : MP3
    Bit rate mode                            : Constant
    Bit rate                                 : 192 Kbps
    Channel(s)                               : 2 channels
    Sampling rate                            : 48.0 KHz
    Compression mode                         : Lossy
    Stream size                              : 88.3 MiB (11%)
    Alignment                                : Aligned on interleaves
    Interleave, duration                     : 24 ms (0.72 video frame)
    Writing library                          : LAME3.98.2
    Language                                 : Korean



    0 0

    Original Post: Warm and Cozy (2015) Complete HDTV.H264.720p-LIMO

    Details
    Title: 맨도롱 또똣 / Maendorong Ttottos
    Previously known as: 제주도 개츠비 / Jeju Island Gatsby
    Genre: Romance
    Episodes: 16
    Broadcast network: MBC
    Broadcast period: 2015-May-13 to 2015-Jul-??
    Air time: Wednesday & Thursday 22:00
    Subtitles will be added later
    http://thetvdb.com/?tab=series&id=295029&lid=7

    Synopsis
    Desperate to escape the drama and stress of modern life in the city, Baek Gun Woo (Yoo Yeon Seok) and Lee Jung Joo (Kang So Ra) take off to South Korea's idyllic Jeju Island. But when these two urbane strangers meet on the island, they discover the magical island's restorative qualities include unexpected romance.

    Cast
    Main Cast
    Yoo Yun Suk as Baek Gun Woo
    Kang So Ra as Lee Jung Joo









    Code
    Video
    ID                               : 0
    Format                           : AVC
    Format/Info                      : Advanced Video Codec
    Format profile                   : High@L5.1
    Format settings, CABAC           : Yes
    Format settings, ReFrames        : 4 frames
    Codec ID                         : H264
    Duration                         : 1h 4mn
    Bit rate                         : 3 000 Kbps
    Width                            : 1 280 pixels
    Height                           : 720 pixels
    Display aspect ratio             : 16:9
    Frame rate mode                  : Variable
    Frame rate                       : 29.970 fps
    Color space                      : YUV
    Chroma subsampling               : 4:2:0
    Bit depth                        : 8 bits
    Scan type                        : Progressive
    Bits/(Pixel*Frame)               : 0.109
    Stream size                      : 1.35 GiB (94%)
    Writing library                  : x264 core 112
    Encoding settings                : cabac=1 / ref=3 / deblock=1:-1:-1 / analyse=0x3:0x113 / me=hex / subme=6 / psy=1 / psy_rd=1.00:1.00 / mixed_ref=1 / me_range=16 / chroma_me=1 / trellis=1 / 8x8dct=1 / cqm=0 / deadzone=21,11 / fast_pskip=0 / chroma_qp_offset=-4 / threads=12 / sliced_threads=0 / nr=0 / decimate=1 / interlaced=0 / constrained_intra=0 / bframes=3 / b_pyramid=2 / b_adapt=1 / b_bias=1 / direct=3 / weightb=1 / open_gop=0 / weightp=2 / keyint=299 / keyint_min=25 / scenecut=1 / intra_refresh=0 / rc_lookahead=40 / rc=abr / mbtree=1 / bitrate=3000 / ratetol=1.0 / qcomp=0.60 / qpmin=10 / qpmax=51 / qpstep=4 / ip_ratio=1.40 / aq=1:1.00

    Audio
    ID                               : 1
    Format                           : MPEG Audio
    Format version                   : Version 1
    Format profile                   : Layer 3
    Mode                             : Joint stereo
    Mode extension                   : MS Stereo
    Codec ID                         : 55
    Codec ID/Hint                    : MP3
    Duration                         : 1h 4mn
    Bit rate mode                    : Constant
    Bit rate                         : 192 Kbps
    Channel(s)                       : 2 channels
    Sampling rate                    : 48.0 KHz
    Stream size                      : 88.0 MiB (6%)
    Alignment                        : Split accross interleaves
    Interleave, duration             : 33 ms (1.00 video frame)
    Interleave, preload duration     : 500 ms
    Writing library                  : LAME3.98.2



    0 0

    Original Post: Ashes.of.Time.Redux.2008.BluRay.Remux.1080p.DTS.CHI.Hunsub-69.mkv



    Ashes of Time Redux (2008)1080p Bluray remux

    Imdb: http://www.imdb.com/title/tt0109688/
    Cast: Leslie Cheung Kwok-Wing, Tony Leung Chiu-Wai, Brigitte Lin Ching-Hsia, Tony Leung Ka-Fai, Jacky Cheung Hok-Yau, Carina Lau Ka-Ling
    Directed: Kar Wai Wong
    Genre:  Action, Drama
    Runtime: 01h 33mn
    Also Known As: Dung che sai duk
    Country:  Hong Kong | Taiwan
    Language: Chinese
    Subtitles: Hungarian

    Plot/Synopsis:

    Ou-yang Feng lives in the middle of a desert, where he acts as a middle man to various swordsmen in ancient China. One of those swordsmen is Huang Yao-shi, who has found some magic wine that causes one to forget the past. At another time, Huang met Mu-rong Yin and under the influence of drink, promised to marry Mu-rong's sister Mu-rong Yang. Huang jilts her, and Mu-rong Yin hires Ou-yang to kill Huang. But then Mu-rong Yang hires Ou-yang to protect Huang. This is awkward, because Mu-rong Yang and Mu-rong Yin are in reality the same person. Other unrelated plot lines careen about. Among them is Ou-yang's continuing efforts to destroy a band of horse thieves. Oy-yang recruits another swordsman, a man who is going blind and wants to get home to see his wife before his sight goes completely. The swordsman is killed. Ou-yang then meets another swordsman who doesn't like wearing shoes. Oy-yang sends this man after the horse thieves, with better results. We then find out what a man must give...

    Tech info:
    Video
    ID                                       : 1
    Format                                   : VC-1
    Format profile                           : Advanced@L3
    Codec ID                                 : V_MS/VFW/FOURCC / WVC1
    Codec ID/Hint                            : Microsoft
    Duration                                 : 1h 33mn
    Bit rate                                 : 23.2 Mbps
    Width                                    : 1 920 pixels
    Height                                   : 1 080 pixels
    Display aspect ratio                     : 16:9
    Frame rate mode                          : Constant
    Frame rate                               : 23.976 fps
    Color space                              : YUV
    Chroma subsampling                       : 4:2:0
    Bit depth                                : 8 bits
    Scan type                                : Progressive
    Compression mode                         : Lossy
    Bits/(Pixel*Frame)                       : 0.466
    Stream size                              : 15.1 GiB (90%)
    Default                                  : Yes
    Forced                                   : No

    Audio
    ID                                       : 2
    Format                                   : DTS
    Format/Info                              : Digital Theater Systems
    Format profile                           : HRA / Core
    Mode                                     : 16
    Format settings, Endianness              : Big
    Codec ID                                 : A_DTS
    Duration                                 : 1h 33mn
    Bit rate mode                            : Constant
    Bit rate                                 : 2 046 Kbps / 1 509 Kbps
    Channel(s)                               : 6 channels
    Channel positions                        : Front: L C R, Side: L R, LFE
    Sampling rate                            : 48.0 KHz
    Bit depth                                : 24 bits
    Compression mode                         : Lossy
    Delay relative to video                  : 42ms
    Stream size                              : 1.33 GiB (8%)
    Language                                 : Chinese
    Default                                  : Yes
    Forced                                   : No

    Text
    ID                                       : 3
    Format                                   : UTF-8
    Codec ID                                 : S_TEXT/UTF8
    Codec ID/Info                            : UTF-8 Plain Text
    Language                                 : Hungarian
    Default                                  : Yes
    Forced                                   : No

    Menu
    00:00:00.000                             : :00:00:00.000
    00:07:02.422                             : :00:07:02.422
    00:15:49.949                             : :00:15:49.949
    00:23:31.452                             : :00:23:31.452
    00:31:11.870                             : :00:31:11.870
    00:39:03.341                             : :00:39:03.341
    00:47:11.746                             : :00:47:11.746
    00:53:51.228                             : :00:53:51.228
    01:00:32.629                             : :01:00:32.629
    01:08:50.209                             : :01:08:50.209
    01:17:46.871                             : :01:17:46.871
    01:30:36.431                             : :01:30:36.431








    0 0

    Original Post: Her Secret Weapon E01 150619 HDTV 1080i shaytyen

    Uploader comments: I can't find a regular source that's making these in a more common file type. I might re-encode these to MP4 for the complete series batch upload after it finishes airing. Maybe try de-interlacing as well... I'll worry about that later.



    Title: Her Secret Weapon/The Secret Weapon
    Hangul: 비밀병기그녀
    Release Date: June 19, 2015 - current
    Runtime: 60 min
    Genre: Reality show
    Language: Korean
    Country: South Korea
    Subtitles: None. If you find subs for these somewhere, PM me the details and I'll see if I can get them.

    Cast:
  • Yerin (G-Friend)
  • Dahye (BESTie)
  • Alice (Hello Venus)
  • Solbin (LABOUM)
  • Sihyun (SPICA)
  • Daye (Berry Good)
  • Jisoo (TAHITI)
  • Minhee (Stellar)
  • Jei (Fiestar)
  • Daeun (2EYES)

    Synopsis: Her Secret Weapon (Hangul: 비밀병기그녀, also called The Secret Weapon) is a 2015 South Korean reality show that focuses on members of lesser-known K-pop girl groups. The show explores what it is that turns people into fans of a certain girl group or individual idol by exposing the charms or "secret weapons" of each contestant. As ten contestants show off their hidden talents and charms through competition, their rankings in various missions are decided by a panel of ten judges. The show premiered on June 19, 2015, on MBC Every 1.








    MediaInfo:
    Spoiler:show

    Code
    General
    ID                                       : 1 (0x1)
    Complete name                            : F:150619.MBC every1.비밀병기 그녀.e1.HDMI.1080i.by.Shaytyen.ts
    Format                                   : MPEG-TS
    File size                                : 10.2 GiB
    Duration                                 : 1h 21mn
    Overall bit rate mode                    : Variable
    Overall bit rate                         : 18.0 Mbps

    Video
    ID                                       : 1001 (0x3E9)
    Menu ID                                  : 1 (0x1)
    Format                                   : MPEG Video
    Format version                           : Version 2
    Format profile                           : Main@High
    Format settings, BVOP                    : Yes
    Format settings, Matrix                  : Default
    Format settings, GOP                     : M=3, N=12
    Format settings, picture structure       : Frame
    Codec ID                                 : 2
    Duration                                 : 1h 21mn
    Bit rate mode                            : Variable
    Bit rate                                 : 16.7 Mbps
    Maximum bit rate                         : 20.0 Mbps
    Width                                    : 1 920 pixels
    Height                                   : 1 080 pixels
    Display aspect ratio                     : 16:9
    Frame rate                               : 29.970 fps
    Color space                              : YUV
    Chroma subsampling                       : 4:2:0
    Bit depth                                : 8 bits
    Scan type                                : Interlaced
    Scan order                               : Top Field First
    Compression mode                         : Lossy
    Bits/(Pixel*Frame)                       : 0.269
    Time code of first frame                 : 00:00:00;00
    Time code source                         : Group of pictures header
    GOP, Open/Closed                         : Open
    GOP, Open/Closed of first frame          : Closed
    Stream size                              : 9.50 GiB (93%)

    Audio
    ID                                       : 1002 (0x3EA)
    Menu ID                                  : 1 (0x1)
    Format                                   : MPEG Audio
    Format version                           : Version 1
    Format profile                           : Layer 2
    Codec ID                                 : 3
    Duration                                 : 1h 21mn
    Bit rate mode                            : Constant
    Bit rate                                 : 384 Kbps
    Channel(s)                               : 2 channels
    Sampling rate                            : 48.0 KHz
    Compression mode                         : Lossy
    Stream size                              : 223 MiB (2%)
    Language                                 : English



  • 0 0

    Original Post: Her Secret Weapon E02 150626 HDTV 1080i shaytyen

    Uploader comments: I can't find a regular source that's making these in a more common file type. I might re-encode these to MP4 for the complete series batch upload after it finishes airing. Maybe try de-interlacing as well... I'll worry about that later.



    Title: Her Secret Weapon/The Secret Weapon
    Hangul: 비밀병기그녀
    Release Date: June 19, 2015 - current
    Runtime: 60 min
    Genre: Reality show
    Language: Korean
    Country: South Korea
    Subtitles: None. If you find subs for these somewhere, PM me the details and I'll see if I can get them.

    Cast:
  • Yerin (G-Friend)
  • Dahye (BESTie)
  • Alice (Hello Venus)
  • Solbin (LABOUM)
  • Sihyun (SPICA)
  • Daye (Berry Good)
  • Jisoo (TAHITI)
  • Minhee (Stellar)
  • Jei (Fiestar)
  • Daeun (2EYES)

    Synopsis: Her Secret Weapon (Hangul: 비밀병기그녀, also called The Secret Weapon) is a 2015 South Korean reality show that focuses on members of lesser-known K-pop girl groups. The show explores what it is that turns people into fans of a certain girl group or individual idol by exposing the charms or "secret weapons" of each contestant. As ten contestants show off their hidden talents and charms through competition, their rankings in various missions are decided by a panel of ten judges. The show premiered on June 19, 2015, on MBC Every 1.








    MediaInfo:
    Spoiler:show

    Code
    General
    ID                                       : 0 (0x0)
    Complete name                            : F:150626.MBC every1.비밀병기 그녀.e2.HDMI.1080i.by.Shaytyen.ts
    Format                                   : MPEG-TS
    File size                                : 7.16 GiB
    Duration                                 : 56mn 4s
    Overall bit rate mode                    : Variable
    Overall bit rate                         : 18.3 Mbps

    Video
    ID                                       : 17 (0x11)
    Menu ID                                  : 1 (0x1)
    Format                                   : MPEG Video
    Format version                           : Version 2
    Format profile                           : Main@High
    Format settings, BVOP                    : Yes
    Format settings, Matrix                  : Default
    Format settings, GOP                     : M=3, N=12
    Format settings, picture structure       : Frame
    Codec ID                                 : 2
    Duration                                 : 56mn 3s
    Bit rate mode                            : Variable
    Bit rate                                 : 17.0 Mbps
    Maximum bit rate                         : 20.0 Mbps
    Width                                    : 1 920 pixels
    Height                                   : 1 080 pixels
    Display aspect ratio                     : 16:9
    Frame rate                               : 29.970 fps
    Color space                              : YUV
    Chroma subsampling                       : 4:2:0
    Bit depth                                : 8 bits
    Scan type                                : Interlaced
    Scan order                               : Top Field First
    Compression mode                         : Lossy
    Bits/(Pixel*Frame)                       : 0.273
    Time code of first frame                 : 00:10:44:22
    Time code source                         : Group of pictures header
    GOP, Open/Closed                         : Open
    Stream size                              : 6.65 GiB (93%)

    Audio
    ID                                       : 20 (0x14)
    Menu ID                                  : 1 (0x1)
    Format                                   : MPEG Audio
    Format version                           : Version 1
    Format profile                           : Layer 2
    Codec ID                                 : 3
    Duration                                 : 56mn 4s
    Bit rate mode                            : Constant
    Bit rate                                 : 384 Kbps
    Channel(s)                               : 2 channels
    Sampling rate                            : 48.0 KHz
    Compression mode                         : Lossy
    Delay relative to video                  : -737ms
    Stream size                              : 154 MiB (2%)



  • 0 0

    Original Post: When I See You Again (2015) E05 Eng Sub (Ongoing) 720p



    Details

    Title: 他看她的第2眼
    English title: When I See You Again
    Genre: Romance, comedy
    Episodes: 20
    Broadcast network: TTV / SETTV
    Broadcast period: 2015-May-31
    Air time: Sunday 22:00
    Opening theme song: xxx by xxx
    Ending theme song: xxx by xxx
    thetvdb: none

    English Srt: Credit DramaFever, thanks to abugemilang

    Synopsis

    Xia You Qian (Jasper Liu) is the total package. He’s good-looking, a highly successful head of a private equity company and well liked by everyone around him. Even competitors like Hu Yan Ze (Jet Chao) can’t help but respect him and wealthy socialites like Hu Yong Qing (Ivy Shao) are in love with him. But You Qian also has the keen ability to make accurate assessments about people at first sight using his strong observational skills. When You Qian and his grandfather are invited to Pu Lang village to judge a competition, he runs into An Xi (Mandy Wei), a woman who was responsible for You Qian nearly losing his life 10 years ago. An Xi is forced to enter the competition to try to earn the prize money to save her hostel, which she inherited from her father but is riddled with debt. After You Qian’s prejudice forces An Xi to lose the competition, will she be forced to marry her creditor to pay back her debts? “When I See You Again” is a 2015 Taiwanese drama series.

    Cast

    Main Cast
    Jasper Liu
    Mandy Wei
    Ivy Shao
    Jet Chao
    Xiu Qin
    Zooey Tseng








    Code
    Video
    ID                                       : 1
    Format                                   : AVC
    Format/Info                              : Advanced Video Codec
    Format profile                           : Main@L3.1
    Format settings, CABAC                   : Yes
    Format settings, ReFrames                : 4 frames
    Codec ID                                 : avc1
    Codec ID/Info                            : Advanced Video Coding
    Duration                                 : 1h 13mn
    Bit rate                                 : 1 504 Kbps
    Width                                    : 1 280 pixels
    Height                                   : 720 pixels
    Display aspect ratio                     : 16:9
    Frame rate mode                          : Constant
    Frame rate                               : 29.970 fps
    Color space                              : YUV
    Chroma subsampling                       : 4:2:0
    Bit depth                                : 8 bits
    Scan type                                : Progressive
    Bits/(Pixel*Frame)                       : 0.054
    Stream size                              : 796 MiB (84%)
    Writing library                          : x264 core 138 r2 9e941d1
    Encoding settings                        : cabac=1 / ref=1 / deblock=1:0:0 / analyse=0x1:0 / me=dia / subme=2 / psy=1 / psy_rd=1.00:0.00 / mixed_ref=0 / me_range=16 / chroma_me=1 / trellis=0 / 8x8dct=0 / cqm=0 / deadzone=21,11 / fast_pskip=1 / chroma_qp_offset=0 / threads=12 / lookahead_threads=4 / sliced_threads=0 / nr=0 / decimate=1 / interlaced=0 / bluray_compat=0 / constrained_intra=0 / bframes=3 / b_pyramid=2 / b_adapt=1 / b_bias=0 / direct=1 / weightb=1 / open_gop=0 / weightp=2 / keyint=300 / keyint_min=29 / scenecut=40 / intra_refresh=0 / rc_lookahead=40 / rc=crf / mbtree=1 / crf=23.0 / qcomp=0.60 / qpmin=0 / qpmax=69 / qpstep=4 / ip_ratio=1.40 / aq=1:1.00
    Tagged date                              : UTC 2015-06-01 11:16:11

    Audio
    ID                                       : 2
    Format                                   : AAC
    Format/Info                              : Advanced Audio Codec
    Format profile                           : LC
    Codec ID                                 : 40
    Duration                                 : 1h 13mn
    Bit rate mode                            : Constant
    Bit rate                                 : 192 Kbps
    Channel(s)                               : 2 channels
    Channel positions                        : Front: L R
    Sampling rate                            : 48.0 KHz
    Compression mode                         : Lossy
    Stream size                              : 102 MiB (11%)
    Tagged date                              : UTC 2015-06-01 11:16:11




    0 0

    Original Post: Happy.Together.S3.E401.150611.HDTV.XviD-LIMO

    http://thetvdb.com/?id=271464&tab=series
    Happy Together 3 which was known as Happy Together: Let's Go To School (해피투게더 학교가자), where the 4 MC's dressed as females (except for Shin Bong-sun, who is a female), and participated in school-themed games, and the corner from Season 1, where the MC's would play against students in a quiz for a scholarship. This began on July 5, 2007. These proved to be unpopular and were all scrapped in 3 weeks. Now, the show is simply known as Happy Together Season 3 which the corners are Challenge! Memorize Song, and That's You! (그건 너!). These 2 corners proved to be popular, and ratings have gone back to the usual norm. That's You! has been replaced by What is that! (이건 뭐!), where guests bring an item they cherish, and Don't Laugh in the Sauna, joined the 2 remaining corners that take place in a sauna. In early 2009, Challenge! Memorize Song was removed to save time.

    Guests Shin Seong-Woo, Gu Hara, Jin Goo, Lee Hyun-Woo, Yoo Minsang, Soo Young Kim








    Code
    Video
    ID                             : 0
    Format                         : MPEG-4 Visual
    Format profile                 : Advanced Simple@L5
    Format settings, BVOP          : No
    Format settings, QPel          : No
    Format settings, GMC           : No warppoints
    Format settings, Matrix        : Default (MPEG)
    Codec ID                       : XVID
    Codec ID/Hint                  : XviD
    Duration                       : 1h 22mn
    Bit rate                       : 1 448 Kbps
    Width                          : 624 pixels
    Height                         : 352 pixels
    Display aspect ratio           : 16:9
    Frame rate                     : 29.970 fps
    Color space                    : YUV
    Chroma subsampling             : 4:2:0
    Bit depth                      : 8 bits
    Scan type                      : Progressive
    Compression mode               : Lossy
    Bits/(Pixel*Frame)             : 0.220
    Stream size                    : 851 MiB (91%)
    Writing library                : XviD 1.2.1 (UTC 2008-12-04)

    Audio
    ID                             : 1
    Format                         : MPEG Audio
    Format version                 : Version 1
    Format profile                 : Layer 3
    Mode                           : Joint stereo
    Codec ID                       : 55
    Codec ID/Hint                  : MP3
    Duration                       : 1h 22mn
    Bit rate mode                  : Constant
    Bit rate                       : 128 Kbps
    Channel(s)                     : 2 channels
    Sampling rate                  : 48.0 KHz
    Compression mode               : Lossy
    Stream size                    : 75.2 MiB (8%)
    Alignment                      : Aligned on interleaves
    Interleave, duration           : 24 ms (0.72 video frame)
    Writing library                : LAME3.98.2
    Language                       : Undefined





    0 0

    Original Post: Happy.Together.S3.E401.150611.HDTV.H264.720p-LIMO

    http://thetvdb.com/?id=271464&tab=series
    Happy Together 3 which was known as Happy Together: Let's Go To School (해피투게더 학교가자), where the 4 MC's dressed as females (except for Shin Bong-sun, who is a female), and participated in school-themed games, and the corner from Season 1, where the MC's would play against students in a quiz for a scholarship. This began on July 5, 2007. These proved to be unpopular and were all scrapped in 3 weeks. Now, the show is simply known as Happy Together Season 3 which the corners are Challenge! Memorize Song, and That's You! (그건 너!). These 2 corners proved to be popular, and ratings have gone back to the usual norm. That's You! has been replaced by What is that! (이건 뭐!), where guests bring an item they cherish, and Don't Laugh in the Sauna, joined the 2 remaining corners that take place in a sauna. In early 2009, Challenge! Memorize Song was removed to save time.

    Guests Shin Seong-Woo, Gu Hara, Jin Goo, Lee Hyun-Woo, Yoo Minsang, Soo Young Kim







    Code
    Video
    ID                             : 0
    Format                         : AVC
    Format/Info                    : Advanced Video Codec
    Format profile                 : High@L5.1
    Format settings, CABAC         : Yes
    Format settings, ReFrames      : 4 frames
    Codec ID                       : H264
    Duration                       : 1h 22mn
    Bit rate                       : 864 Kbps
    Nominal bit rate               : 3 000 Kbps
    Width                          : 1 280 pixels
    Height                         : 720 pixels
    Display aspect ratio           : 16:9
    Frame rate mode                : Variable
    Frame rate                     : 29.970 fps
    Color space                    : YUV
    Chroma subsampling             : 4:2:0
    Bit depth                      : 8 bits
    Scan type                      : Progressive
    Bits/(Pixel*Frame)             : 0.031
    Stream size                    : 507 MiB (78%)
    Writing library                : x264 core 112
    Encoding settings              : cabac=1 / ref=3 / deblock=1:-1:-1 / analyse=0x3:0x113 / me=hex / subme=6 / psy=1 / psy_rd=1.00:1.00 / mixed_ref=1 / me_range=16 / chroma_me=1 / trellis=1 / 8x8dct=1 / cqm=0 / deadzone=21,11 / fast_pskip=0 / chroma_qp_offset=-4 / threads=12 / sliced_threads=0 / nr=0 / decimate=1 / interlaced=0 / constrained_intra=0 / bframes=3 / b_pyramid=2 / b_adapt=1 / b_bias=1 / direct=3 / weightb=1 / open_gop=0 / weightp=2 / keyint=299 / keyint_min=25 / scenecut=1 / intra_refresh=0 / rc_lookahead=40 / rc=cbr / mbtree=1 / bitrate=3000 / ratetol=1.0 / qcomp=0.60 / qpmin=1 / qpmax=51 / qpstep=4 / vbv_maxrate=3000 / vbv_bufsize=1950 / ip_ratio=1.40 / aq=1:1.00 / nal_hrd=none

    Audio
    ID                             : 1
    Format                         : MPEG Audio
    Format version                 : Version 1
    Format profile                 : Layer 3
    Mode                           : Joint stereo
    Codec ID                       : 55
    Codec ID/Hint                  : MP3
    Duration                       : 1h 22mn
    Bit rate mode                  : Constant
    Bit rate                       : 192 Kbps
    Channel(s)                     : 2 channels
    Sampling rate                  : 48.0 KHz
    Compression mode               : Lossy
    Stream size                    : 113 MiB (17%)
    Alignment                      : Split accross interleaves
    Writing library                : LAME3.98.2




    0 0

    Original Post: Heiji, the Detective (1967 Remastered DVDRIP)

    This film introduces one of the most popular characters in Japanese entertainment, Zenigata Heiji, who is best known for the long running television series about the Edo detective famous for his ability to throw coins as weapons when capturing criminals.

    Synopsis: In one of his signature roles, Okawa Hashizo stars as Zenigata Heiji, the son of a police officer who disowned young Heiji due to his gambling addiciton. However, he decides to follow in his late father's footsteps after his employer's body is found as part of an apparent double-suicide. Heiji decides to investigate the case because the evidence shows a double murder.

    Title: Heiji, the Detective
    Japanese title: Zenigata Heiji
    Director: Tetsuya Yamauchi
    Genre: Jidaigeki / Action / Drama
    Release date: 1967
    Runtime: 1hr 28min 58sec
    Language: Japanese
    Country: Japan
    Subtitles: English (optional)
    IMDB URL:http://www.imdb.com/title/tt0202707/

    Starring: Hashizo Okawa, Ryutaro Otomo, Kumi Mizuno, Kazuo Funaki, Kinuko Obata, Asao Koike, Shiro Otsuji











    Technical Information

    Video
    ID: 1
    Format: AVC
    Format/Info: Advanced Video Codec
    Format profile: Main@L4.0
    Format settings, CABAC: Yes
    Format settings, ReFrames: 4 frames
    Codec ID: V_MPEG4/ISO/AVC
    Duration: 1h 28mn
    Bit rate: 695 Kbps
    Width: 656 pixels
    Height: 336 pixels
    Display aspect ratio: 2.35:1
    Original display aspect ratio: 2.35:1
    Frame rate mode: Constant
    Frame rate: 29.970 fps
    Color space: YUV
    Chroma subsampling: 4:2:0
    Bit depth: 8 bits
    Scan type: Progressive
    Bits/(Pixel*Frame): 0.105
    Stream size: 442 MiB (63%)
    Writing library: x264 core 142 r2479 dd79a61
    Encoding settings: cabac=1 / ref=1 / deblock=1:0:0 / analyse=0x1:0x111 / me=hex / subme=2 / psy=1 / psy_rd=1.00:0.00 / mixed_ref=0 / me_range=16 / chroma_me=1 / trellis=0 / 8x8dct=0 / cqm=0 / deadzone=21,11 / fast_pskip=1 / chroma_qp_offset=0 / threads=6 / lookahead_threads=2 / sliced_threads=0 / nr=0 / decimate=1 / interlaced=0 / bluray_compat=0 / constrained_intra=0 / bframes=3 / b_pyramid=2 / b_adapt=1 / b_bias=0 / direct=1 / weightb=1 / open_gop=0 / weightp=1 / keyint=300 / keyint_min=30 / scenecut=40 / intra_refresh=0 / rc_lookahead=10 / rc=crf / mbtree=1 / crf=20.0 / qcomp=0.60 / qpmin=0 / qpmax=69 / qpstep=4 / vbv_maxrate=20000 / vbv_bufsize=25000 / crf_max=0.0 / nal_hrd=none / filler=0 / ip_ratio=1.40 / aq=1:1.00
    Default: Yes
    Forced: No
    Color primaries: BT.601 NTSC
    Transfer characteristics: BT.709
    Matrix coefficients: BT.601
    Color range: Limited

    Audio
    ID: 2
    Format: AC-3
    Format/Info: Audio Coding 3
    Mode extension: CM (complete main)
    Format settings, Endianness: Big
    Codec ID: A_AC3
    Duration: 1h 28mn
    Bit rate mode: Constant
    Bit rate: 384 Kbps
    Channel(s): 2 channels
    Channel positions: Front: L R
    Sampling rate: 48.0 KHz
    Bit depth: 16 bits
    Compression mode: Lossy
    Stream size: 244 MiB (35%)
    Title: Stereo
    Language: Japanese
    Default: Yes
    Forced: No

    Text
    ID: 3
    Format: VobSub
    Codec ID: S_VOBSUB
    Codec ID/Info: The same subtitle format used on DVDs
    Language: English
    Default: Yes
    Forced: No


older | 1 | .... | 1386 | 1387 | (Page 1388) | 1389 | 1390 | .... | 1405 | newer