Are you the publisher? Claim or contact us about this channel


Embed this content in your HTML

Search

Report adult content:

click to rate:

Account: (login)

More Channels


Showcase


Channel Catalog


Channel Description:

Asia Torrents RSS Feed

older | 1 | .... | 1389 | 1390 | (Page 1391) | 1392 | 1393 | .... | 1405 | newer

    0 0

    Original Post: Bluebird's.House.E40.150705.HDTV.XviD-LIMO

    http://thetvdb.com/?tab=series&id=292452&lid=7
    Details
    Title: 파랑새의 집 / Parangsaeui Jib
    Also known as: Bluebird's Nest
    Genre: Family, human, romance, comedy
    Episodes: 50
    Broadcast network: KBS2
    Broadcast period: 2015-Feb-21 to 2015-???-??
    Air time: Saturday & Sunday Night 19:55
    Original Soundtrack: Bluebird's House OST
    Synopsis
    A drama that tells the story of strong bond between the members of a family even though they are not blood-related. This drama also portrays the hope of parents toward their children's success and how difficult for fresh university graduates to get respectable and well-paid jobs.

    Cast
    Main Cast
    Lee Joon Hyuk as Kim Ji Wan (29)
    Chae Soo Bin as Han Eun Soo (24)
    Lee Sang Yeob as Jang Hyun Do (28)
    Kyung Soo Jin as Kang Young Joo (25)
    Kim Ji Wan's family
    Choi Myung Gil as Han Sun Hee (55)
    Jung Jae Soon as Lee Jin Yi (70)
    Jang Hyun Do's family
    Chun Ho Jin as Jang Tae Soo (55)
    Lee Hye Sook as Jung Soo Kyung (52)
    Kang Young Joo's family
    Song Ok Sook as Oh Min Ja (55)
    Jung Won Joong as Kang Jae Chul (53)
    Others
    Uhm Hyun Kyung as Seo Mi Ji (29)
    Nam Kyung Eup as Shin Young Hwan (50)






    Code
    Video
    ID                                       : 0
    Format                                   : MPEG-4 Visual
    Format profile                           : Advanced Simple@L5
    Format settings, BVOP                    : No
    Format settings, QPel                    : No
    Format settings, GMC                     : No warppoints
    Format settings, Matrix                  : Default (MPEG)
    Codec ID                                 : XVID
    Codec ID/Hint                            : XviD
    Duration                                 : 1h 29mn
    Bit rate                                 : 1 388 Kbps
    Width                                    : 624 pixels
    Height                                   : 352 pixels
    Display aspect ratio                     : 16:9
    Frame rate                               : 29.970 fps
    Color space                              : YUV
    Chroma subsampling                       : 4:2:0
    Bit depth                                : 8 bits
    Scan type                                : Progressive
    Compression mode                         : Lossy
    Bits/(Pixel*Frame)                       : 0.211
    Stream size                              : 886 MiB (87%)
    Writing library                          : XviD 1.2.1 (UTC 2008-12-04)

    Audio
    ID                                       : 1
    Format                                   : MPEG Audio
    Format version                           : Version 1
    Format profile                           : Layer 3
    Mode                                     : Joint stereo
    Mode extension                           : MS Stereo
    Codec ID                                 : 55
    Codec ID/Hint                            : MP3
    Duration                                 : 1h 29mn
    Bit rate mode                            : Constant
    Bit rate                                 : 128 Kbps
    Channel(s)                               : 2 channels
    Sampling rate                            : 48.0 KHz
    Compression mode                         : Lossy
    Stream size                              : 81.7 MiB (8%)
    Alignment                                : Aligned on interleaves
    Writing library                          : LAME3.98.2



    0 0

    Original Post: Bluebird's.House.E40.150705.HDTV.H264.720p-LIMO

    http://thetvdb.com/?tab=series&id=292452&lid=7
    Details
    Title: 파랑새의 집 / Parangsaeui Jib
    Also known as: Bluebird's Nest
    Genre: Family, human, romance, comedy
    Episodes: 50
    Broadcast network: KBS2
    Broadcast period: 2015-Feb-21 to 2015-???-??
    Air time: Saturday & Sunday Night 19:55
    Original Soundtrack: Bluebird's House OST
    Synopsis
    A drama that tells the story of strong bond between the members of a family even though they are not blood-related. This drama also portrays the hope of parents toward their children's success and how difficult for fresh university graduates to get respectable and well-paid jobs.

    Cast
    Main Cast
    Lee Joon Hyuk as Kim Ji Wan (29)
    Chae Soo Bin as Han Eun Soo (24)
    Lee Sang Yeob as Jang Hyun Do (28)
    Kyung Soo Jin as Kang Young Joo (25)
    Kim Ji Wan's family
    Choi Myung Gil as Han Sun Hee (55)
    Jung Jae Soon as Lee Jin Yi (70)
    Jang Hyun Do's family
    Chun Ho Jin as Jang Tae Soo (55)
    Lee Hye Sook as Jung Soo Kyung (52)
    Kang Young Joo's family
    Song Ok Sook as Oh Min Ja (55)
    Jung Won Joong as Kang Jae Chul (53)
    Others
    Uhm Hyun Kyung as Seo Mi Ji (29)
    Nam Kyung Eup as Shin Young Hwan (50)






    Code
    Video
    ID                             : 1
    Format                         : AVC
    Format/Info                    : Advanced Video Codec
    Format profile                 : High@L5.1
    Format settings, CABAC         : Yes
    Format settings, ReFrames      : 4 frames
    Codec ID                       : V_MPEG4/ISO/AVC
    Duration                       : 1h 24mn
    Bit rate                       : 887 Kbps
    Nominal bit rate               : 2 496 Kbps
    Width                          : 1 280 pixels
    Height                         : 720 pixels
    Display aspect ratio           : 16:9
    Frame rate mode                : Constant
    Frame rate                     : 29.970 fps
    Color space                    : YUV
    Chroma subsampling             : 4:2:0
    Bit depth                      : 8 bits
    Scan type                      : Progressive
    Bits/(Pixel*Frame)             : 0.032
    Stream size                    : 535 MiB (68%)
    Writing library                : x264 core 130 r2273 b3065e6
    Encoding settings              : cabac=1 / ref=3 / deblock=1:0:0 / analyse=0x3:0x113 / me=hex / subme=7 / psy=1 / psy_rd=1.00:0.00 / mixed_ref=1 / me_range=16 / chroma_me=1 / trellis=1 / 8x8dct=1 / cqm=0 / deadzone=21,11 / fast_pskip=1 / chroma_qp_offset=-2 / threads=1 / lookahead_threads=1 / sliced_threads=0 / nr=0 / decimate=1 / interlaced=0 / bluray_compat=0 / constrained_intra=0 / bframes=3 / b_pyramid=2 / b_adapt=1 / b_bias=0 / direct=1 / weightb=1 / open_gop=0 / weightp=2 / keyint=300 / keyint_min=29 / scenecut=40 / intra_refresh=0 / rc_lookahead=40 / rc=2pass / mbtree=1 / bitrate=2496 / ratetol=1.0 / qcomp=0.60 / qpmin=0 / qpmax=69 / qpstep=4 / cplxblur=20.0 / qblur=0.5 / vbv_maxrate=300000 / vbv_bufsize=300000 / nal_hrd=none / ip_ratio=1.40 / aq=1:1.00
    Default                        : Yes
    Forced                         : No

    Audio
    ID                             : 2
    Format                         : AC-3
    Format/Info                    : Audio Coding 3
    Mode extension                 : CM (complete main)
    Format settings, Endianness    : Big
    Codec ID                       : A_AC3
    Duration                       : 1h 24mn
    Bit rate mode                  : Constant
    Bit rate                       : 384 Kbps
    Channel(s)                     : 2 channels
    Channel positions              : Front: L R
    Sampling rate                  : 44.1 KHz
    Bit depth                      : 16 bits
    Compression mode               : Lossy
    Stream size                    : 232 MiB (30%)
    Language                       : Korean
    Default                        : Yes
    Forced                         : No



    0 0

    Original Post: Make.A.Woman.Cry.E24.150705.HDTV.XviD-LIMO

    http://thetvdb.com/?tab=series&id=294274&lid=7
    Details
    Title: 여자를 울려 / Yeojareul Woolryeo
    Also known as: Let the Woman Cry
    Genre: Family, drama, romance
    Episodes: 50
    Broadcast network: MBC
    Broadcast period: 2015-Apr-18 to 2015-???-??
    Air time: Saturday & Sunday 20:45
    Original Soundtrack: Make a Woman Cry OST

    Synopsis
    Jung Duk In was a former detective who resigned after her son died. She then opens a food stall in front of her son's school to preserves the memory of him and to protects the other students. Along the way she will struggle to forgive people who were responsible for her son's death.

    Cast

    Main Cast
    Kim Jung Eun as Jung Duk In
    Song Chang Ui as Kang Jin Woo
    Lee Soon Jae as Kang Tae Hwan
    Ha Hee Ra as Na Eun Soo
    Oh Dae Gyu as Kang Jin Myung
    Lee Tae Ran as Choi Hong Ran






    Code
    Video
    ID                                       : 0
    Format                                   : MPEG-4 Visual
    Format profile                           : Advanced Simple@L5
    Format settings, BVOP                    : No
    Format settings, QPel                    : No
    Format settings, GMC                     : No warppoints
    Format settings, Matrix                  : Default (MPEG)
    Codec ID                                 : XVID
    Codec ID/Hint                            : XviD
    Duration                                 : 1h 29mn
    Bit rate                                 : 1 388 Kbps
    Width                                    : 624 pixels
    Height                                   : 352 pixels
    Display aspect ratio                     : 16:9
    Frame rate                               : 29.970 fps
    Color space                              : YUV
    Chroma subsampling                       : 4:2:0
    Bit depth                                : 8 bits
    Scan type                                : Progressive
    Compression mode                         : Lossy
    Bits/(Pixel*Frame)                       : 0.211
    Stream size                              : 886 MiB (87%)
    Writing library                          : XviD 1.2.1 (UTC 2008-12-04)

    Audio
    ID                                       : 1
    Format                                   : MPEG Audio
    Format version                           : Version 1
    Format profile                           : Layer 3
    Mode                                     : Joint stereo
    Mode extension                           : MS Stereo
    Codec ID                                 : 55
    Codec ID/Hint                            : MP3
    Duration                                 : 1h 29mn
    Bit rate mode                            : Constant
    Bit rate                                 : 128 Kbps
    Channel(s)                               : 2 channels
    Sampling rate                            : 48.0 KHz
    Compression mode                         : Lossy
    Stream size                              : 81.7 MiB (8%)
    Alignment                                : Aligned on interleaves
    Writing library                          : LAME3.98.2



    0 0

    Original Post: Make.A.Woman.Cry.E24.150705.HDTV.H264.720p-LIMO

    http://thetvdb.com/?tab=series&id=294274&lid=7
    Details
    Title: 여자를 울려 / Yeojareul Woolryeo
    Also known as: Let the Woman Cry
    Genre: Family, drama, romance
    Episodes: 50
    Broadcast network: MBC
    Broadcast period: 2015-Apr-18 to 2015-???-??
    Air time: Saturday & Sunday 20:45
    Original Soundtrack: Make a Woman Cry OST

    Synopsis
    Jung Duk In was a former detective who resigned after her son died. She then opens a food stall in front of her son's school to preserves the memory of him and to protects the other students. Along the way she will struggle to forgive people who were responsible for her son's death.

    Cast

    Main Cast
    Kim Jung Eun as Jung Duk In
    Song Chang Ui as Kang Jin Woo
    Lee Soon Jae as Kang Tae Hwan
    Ha Hee Ra as Na Eun Soo
    Oh Dae Gyu as Kang Jin Myung
    Lee Tae Ran as Choi Hong Ran






    Code
    Video
    ID                             : 1
    Format                         : AVC
    Format/Info                    : Advanced Video Codec
    Format profile                 : High@L5.1
    Format settings, CABAC         : Yes
    Format settings, ReFrames      : 4 frames
    Codec ID                       : V_MPEG4/ISO/AVC
    Duration                       : 1h 24mn
    Bit rate                       : 887 Kbps
    Nominal bit rate               : 2 496 Kbps
    Width                          : 1 280 pixels
    Height                         : 720 pixels
    Display aspect ratio           : 16:9
    Frame rate mode                : Constant
    Frame rate                     : 29.970 fps
    Color space                    : YUV
    Chroma subsampling             : 4:2:0
    Bit depth                      : 8 bits
    Scan type                      : Progressive
    Bits/(Pixel*Frame)             : 0.032
    Stream size                    : 535 MiB (68%)
    Writing library                : x264 core 130 r2273 b3065e6
    Encoding settings              : cabac=1 / ref=3 / deblock=1:0:0 / analyse=0x3:0x113 / me=hex / subme=7 / psy=1 / psy_rd=1.00:0.00 / mixed_ref=1 / me_range=16 / chroma_me=1 / trellis=1 / 8x8dct=1 / cqm=0 / deadzone=21,11 / fast_pskip=1 / chroma_qp_offset=-2 / threads=1 / lookahead_threads=1 / sliced_threads=0 / nr=0 / decimate=1 / interlaced=0 / bluray_compat=0 / constrained_intra=0 / bframes=3 / b_pyramid=2 / b_adapt=1 / b_bias=0 / direct=1 / weightb=1 / open_gop=0 / weightp=2 / keyint=300 / keyint_min=29 / scenecut=40 / intra_refresh=0 / rc_lookahead=40 / rc=2pass / mbtree=1 / bitrate=2496 / ratetol=1.0 / qcomp=0.60 / qpmin=0 / qpmax=69 / qpstep=4 / cplxblur=20.0 / qblur=0.5 / vbv_maxrate=300000 / vbv_bufsize=300000 / nal_hrd=none / ip_ratio=1.40 / aq=1:1.00
    Default                        : Yes
    Forced                         : No

    Audio
    ID                             : 2
    Format                         : AC-3
    Format/Info                    : Audio Coding 3
    Mode extension                 : CM (complete main)
    Format settings, Endianness    : Big
    Codec ID                       : A_AC3
    Duration                       : 1h 24mn
    Bit rate mode                  : Constant
    Bit rate                       : 384 Kbps
    Channel(s)                     : 2 channels
    Channel positions              : Front: L R
    Sampling rate                  : 44.1 KHz
    Bit depth                      : 16 bits
    Compression mode               : Lossy
    Stream size                    : 232 MiB (30%)
    Language                       : Korean
    Default                        : Yes
    Forced                         : No



    0 0
  • 07/05/15--03:43: Bambino! (704x396 DivX6)
  • Original Post: Bambino! (704x396 DivX6)



    Title: Bambino!
    Revised romanization: banbiino!
    Japanese: バンビーノ!
    Director: Masatoshi Kato, Ken Murase, Chizu Asai
    Release Date: 2007
    Runtime: 46mins per episode
    Genre: drama
    Language: Japanese
    Country: Japan
    Subtitles: English (B.O.N.)
    IMDB URL:http://www.imdb.com/title/tt0988812/releaseinfo?ref_=tt_dt_dt

    General
    Format                           : AVI
    Format/Info                      : Audio Video Interleave
    File size                        : 958 MiB
    Duration                         : 1h 2mn
    Overall bit rate                 : 2 157 Kbps
    Writing library                  : This file was made by AviUtl 0.99.

    Cast:
    Matsumoto Jun as Ban Shogo, Karina as Hibino Asuka, Sato Ryuta as Katori Nozomi, Uchida Yuki as Shishido Miyuki, Sasaki Kuranosuke as Kuwabara Atsushi, Kitamura Kazuki as Yonamine Tsukasa, Ichimura Masachika as Shishido Tekkan, Hoshan (ほっしゃん。) as Oda Toshio, Mukai Osamu (向井理) as Senoo Masashi, Komatsu Ayaka as Minakawa Kozue, Yamamoto Kei as Endo Susumu, Fukiishi Kazue as Takahashi Eri, Sasaki Takao (佐々木崇雄) as Nagai Hirokazu, Sato Yusuke as Takanashi Hiroshi, Asou Kousuke (麻生幸佑) as Shibata Kenichiro

    Airing: April 18, 2007 - June 20, 2007, Wed @ 10:00 pm
    Episodes: 11

    Synopsis:
    During his vacation from college, Ban (Matsumoto Jun) travels to Tokyo's upper-class district of Roppongi from his hometown in Fukuoka to work at an extravagant Italian restaurant. Ban dreams of becoming a first-class Italian chef, but in his new environment he encounters the hardships that he must go through to make his dream come true.

    With his hot-blooded co-worker Katori (Sato Ryuta) always breathing down his neck, will the overconfident Ban be able to survive in the intense world of cooking?

    Language: Japanese
    Subtitles: English soft subs by B.O.N.

    Video
    ID                               : 0
    Format                           : MPEG-4 Visual
    Format settings, BVOP            : No
    Format settings, QPel            : No
    Format settings, GMC             : No warppoints
    Format settings, Matrix          : Default (H.263)
    Codec ID                         : DX50
    Codec ID/Hint                    : DivX 5
    Duration                         : 1h 2mn
    Bit rate                         : 2 017 Kbps
    Width                            : 704 pixels
    Height                           : 396 pixels
    Display aspect ratio             : 16:9
    Frame rate                       : 29.970 fps
    Color space                      : YUV
    Chroma subsampling               : 4:2:0
    Bit depth                        : 8 bits
    Scan type                        : Progressive
    Bits/(Pixel*Frame)               : 0.241
    Stream size                      : 896 MiB (94%)
    Writing library                  : DivX 6.5.1 (UTC 2007-03)

    Audio
    ID                               : 1
    Format                           : MPEG Audio
    Format version                   : Version 1
    Format profile                   : Layer 3
    Mode                             : Joint stereo
    Mode extension                   : MS Stereo
    Codec ID                         : 55
    Codec ID/Hint                    : MP3
    Duration                         : 1h 2mn
    Bit rate mode                    : Constant
    Bit rate                         : 128 Kbps
    Channel(s)                       : 2 channels
    Sampling rate                    : 48.0 KHz
    Stream size                      : 56.8 MiB (6%)
    Alignment                        : Split accross interleaves
    Interleave, duration             : 33 ms (1.00 video frame)
    Interleave, preload duration     : 22 ms

    Seeding times (when no other seeders) = 21:00 - 09:00 GMT







    0 0

    Original Post: The.Time.We.Were.Not.In.Love.E04.150705.HDTV.X264-LIMO

    http://thetvdb.com/index.php?tab=series&id=296628
    Title: 너를 사랑한 시간 / Neoreul Saranghan Shigan / The Time I've Loved You (lit.)
    English title: The Time We Were Not In Love
    Previously known as: 너를 사랑한 시간 7000일 / Neoreul Saranghan Shigan, 7000 Il
    Genre: Romance, comedy
    Episodes: 16
    Broadcast network: SBS
    Broadcast period: 2015-June-27 to 2015-Aug-16
    Air time: Saturday & Sunday 22:00
    Original Soundtrack: The Time We Were Not In Love OST
    Related TV Shows: In Time With You (FTV, 2011)

    Synopsis
    Jang Ha Na (Ha Ji Won) and Choi Won (Lee Jin Wook) are incredibly close platonic friends: throughout 20 years, they've braved it all through thick and thin. As Ha Na's 30th birthday approaches, Won extols the virtues of aging as a man—like a wine—while explaining that women are like grapes that shrivel into raisins. Determined to prove him wrong, Ha Na strikes a bet on which of the two will marry before turning 35. Based on Taiwan's hit In Time With You, can these two friends make the ultimate leap?

    Main Cast
    Ha Ji Won as Oh Ha Na
    Lee Jin Wook as Choi Won







    Code
    Video
    ID                             : 1
    Format                         : AVC
    Format/Info                    : Advanced Video Codec
    Format profile                 : Main@L4.0
    Format settings, CABAC         : Yes
    Format settings, ReFrames      : 4 frames
    Codec ID                       : V_MPEG4/ISO/AVC
    Duration                       : 58mn 44s
    Bit rate                       : 450 Kbps
    Width                          : 624 pixels
    Height                         : 350 pixels
    Display aspect ratio           : 16:9
    Frame rate mode                : Constant
    Frame rate                     : 29.970 fps
    Color space                    : YUV
    Chroma subsampling             : 4:2:0
    Bit depth                      : 8 bits
    Scan type                      : Progressive
    Bits/(Pixel*Frame)             : 0.069
    Stream size                    : 190 MiB (76%)
    Writing library                : x264 core 130 r2273 b3065e6
    Encoding settings              : cabac=1 / ref=1 / deblock=1:0:0 / analyse=0x1:0x111 / me=hex / subme=2 / psy=1 / psy_rd=1.00:0.00 / mixed_ref=0 / me_range=16 / chroma_me=1 / trellis=0 / 8x8dct=0 / cqm=0 / deadzone=21,11 / fast_pskip=1 / chroma_qp_offset=0 / threads=1 / lookahead_threads=1 / sliced_threads=0 / nr=0 / decimate=1 / interlaced=0 / bluray_compat=0 / constrained_intra=0 / bframes=3 / b_pyramid=2 / b_adapt=1 / b_bias=0 / direct=1 / weightb=1 / open_gop=0 / weightp=1 / keyint=300 / keyint_min=30 / scenecut=40 / intra_refresh=0 / rc_lookahead=10 / rc=abr / mbtree=1 / bitrate=450 / ratetol=1.0 / qcomp=0.60 / qpmin=0 / qpmax=69 / qpstep=4 / vbv_maxrate=20000 / vbv_bufsize=25000 / nal_hrd=none / ip_ratio=1.40 / aq=1:1.00
    Language                       : English
    Default                        : Yes
    Forced                         : No
    Color primaries                : BT.601 NTSC
    Transfer characteristics       : BT.709
    Matrix coefficients            : BT.601

    Audio
    ID                             : 2
    Format                         : MPEG Audio
    Format version                 : Version 1
    Format profile                 : Layer 3
    Mode                           : Joint stereo
    Mode extension                 : MS Stereo
    Codec ID                       : A_MPEG/L3
    Codec ID/Hint                  : MP3
    Duration                       : 58mn 44s
    Bit rate mode                  : Constant
    Bit rate                       : 128 Kbps
    Channel(s)                     : 2 channels
    Sampling rate                  : 48.0 KHz
    Compression mode               : Lossy
    Stream size                    : 53.8 MiB (22%)
    Default                        : Yes
    Forced                         : No



    0 0

    Original Post: The.Time.We.Were.Not.In.Love.E04.150705.HDTV.H264.450p-LIMO

    http://thetvdb.com/index.php?tab=series&id=296628
    Title: 너를 사랑한 시간 / Neoreul Saranghan Shigan / The Time I've Loved You (lit.)
    English title: The Time We Were Not In Love
    Previously known as: 너를 사랑한 시간 7000일 / Neoreul Saranghan Shigan, 7000 Il
    Genre: Romance, comedy
    Episodes: 16
    Broadcast network: SBS
    Broadcast period: 2015-June-27 to 2015-Aug-16
    Air time: Saturday & Sunday 22:00
    Original Soundtrack: The Time We Were Not In Love OST
    Related TV Shows: In Time With You (FTV, 2011)

    Synopsis
    Jang Ha Na (Ha Ji Won) and Choi Won (Lee Jin Wook) are incredibly close platonic friends: throughout 20 years, they've braved it all through thick and thin. As Ha Na's 30th birthday approaches, Won extols the virtues of aging as a man—like a wine—while explaining that women are like grapes that shrivel into raisins. Determined to prove him wrong, Ha Na strikes a bet on which of the two will marry before turning 35. Based on Taiwan's hit In Time With You, can these two friends make the ultimate leap?

    Main Cast
    Ha Ji Won as Oh Ha Na
    Lee Jin Wook as Choi Won








    Code
    Video
    ID                             : 1
    Format                         : AVC
    Format/Info                    : Advanced Video Codec
    Format profile                 : Main@L4.0
    Format settings, CABAC         : Yes
    Format settings, ReFrames      : 4 frames
    Codec ID                       : V_MPEG4/ISO/AVC
    Duration                       : 58mn 44s
    Bit rate                       : 450 Kbps
    Width                          : 624 pixels
    Height                         : 350 pixels
    Display aspect ratio           : 16:9
    Frame rate mode                : Constant
    Frame rate                     : 29.970 fps
    Color space                    : YUV
    Chroma subsampling             : 4:2:0
    Bit depth                      : 8 bits
    Scan type                      : Progressive
    Bits/(Pixel*Frame)             : 0.069
    Stream size                    : 190 MiB (76%)
    Writing library                : x264 core 130 r2273 b3065e6
    Encoding settings              : cabac=1 / ref=1 / deblock=1:0:0 / analyse=0x1:0x111 / me=hex / subme=2 / psy=1 / psy_rd=1.00:0.00 / mixed_ref=0 / me_range=16 / chroma_me=1 / trellis=0 / 8x8dct=0 / cqm=0 / deadzone=21,11 / fast_pskip=1 / chroma_qp_offset=0 / threads=1 / lookahead_threads=1 / sliced_threads=0 / nr=0 / decimate=1 / interlaced=0 / bluray_compat=0 / constrained_intra=0 / bframes=3 / b_pyramid=2 / b_adapt=1 / b_bias=0 / direct=1 / weightb=1 / open_gop=0 / weightp=1 / keyint=300 / keyint_min=30 / scenecut=40 / intra_refresh=0 / rc_lookahead=10 / rc=abr / mbtree=1 / bitrate=450 / ratetol=1.0 / qcomp=0.60 / qpmin=0 / qpmax=69 / qpstep=4 / vbv_maxrate=20000 / vbv_bufsize=25000 / nal_hrd=none / ip_ratio=1.40 / aq=1:1.00
    Language                       : English
    Default                        : Yes
    Forced                         : No
    Color primaries                : BT.601 NTSC
    Transfer characteristics       : BT.709
    Matrix coefficients            : BT.601

    Audio
    ID                             : 2
    Format                         : MPEG Audio
    Format version                 : Version 1
    Format profile                 : Layer 3
    Mode                           : Joint stereo
    Mode extension                 : MS Stereo
    Codec ID                       : A_MPEG/L3
    Codec ID/Hint                  : MP3
    Duration                       : 58mn 44s
    Bit rate mode                  : Constant
    Bit rate                       : 128 Kbps
    Channel(s)                     : 2 channels
    Sampling rate                  : 48.0 KHz
    Compression mode               : Lossy
    Stream size                    : 53.8 MiB (22%)
    Default                        : Yes
    Forced                         : No



    0 0

    Original Post: The.Time.We.Were.Not.In.Love.E04.150705.HDTV.H264.720p-LIMO

    http://thetvdb.com/index.php?tab=series&id=296628
    Title: 너를 사랑한 시간 / Neoreul Saranghan Shigan / The Time I've Loved You (lit.)
    English title: The Time We Were Not In Love
    Previously known as: 너를 사랑한 시간 7000일 / Neoreul Saranghan Shigan, 7000 Il
    Genre: Romance, comedy
    Episodes: 16
    Broadcast network: SBS
    Broadcast period: 2015-June-27 to 2015-Aug-16
    Air time: Saturday & Sunday 22:00
    Original Soundtrack: The Time We Were Not In Love OST
    Related TV Shows: In Time With You (FTV, 2011)

    Synopsis
    Jang Ha Na (Ha Ji Won) and Choi Won (Lee Jin Wook) are incredibly close platonic friends: throughout 20 years, they've braved it all through thick and thin. As Ha Na's 30th birthday approaches, Won extols the virtues of aging as a man—like a wine—while explaining that women are like grapes that shrivel into raisins. Determined to prove him wrong, Ha Na strikes a bet on which of the two will marry before turning 35. Based on Taiwan's hit In Time With You, can these two friends make the ultimate leap?

    Main Cast
    Ha Ji Won as Oh Ha Na
    Lee Jin Wook as Choi Won










    Code
    Video
    ID                                       : 0
    Format                                   : AVC
    Format/Info                              : Advanced Video Codec
    Format profile                           : High@L5.1
    Format settings, CABAC                   : Yes
    Format settings, ReFrames                : 4 frames
    Codec ID                                 : H264
    Bit rate                                 : 1 500 Kbps
    Width                                    : 800 pixels
    Height                                   : 450 pixels
    Display aspect ratio                     : 16:9
    Frame rate mode                          : Variable
    Frame rate                               : 29.970 fps
    Color space                              : YUV
    Chroma subsampling                       : 4:2:0
    Bit depth                                : 8 bits
    Scan type                                : Progressive
    Bits/(Pixel*Frame)                       : 0.139
    Stream size                              : 686 MiB (88%)
    Writing library                          : x264 core 112

    Audio
    ID                                       : 1
    Format                                   : MPEG Audio
    Format version                           : Version 1
    Format profile                           : Layer 3
    Mode                                     : Joint stereo
    Mode extension                           : MS Stereo
    Codec ID                                 : 55
    Codec ID/Hint                            : MP3
    Bit rate mode                            : Constant
    Bit rate                                 : 192 Kbps
    Channel(s)                               : 2 channels
    Sampling rate                            : 48.0 KHz
    Compression mode                         : Lossy
    Stream size                              : 88.3 MiB (11%)
    Alignment                                : Aligned on interleaves
    Interleave, duration                     : 24 ms (0.72 video frame)
    Writing library                          : LAME3.98.2
    Language                                 : Korean



    0 0

    Original Post: Queen's.Flower.E34.150705.HDTV.XviD-LIMO

    http://thetvdb.com/?tab=series&id=293195
    Details
    Title: 여왕의 꽃 / Yeowangeui Ggot
    Previously known as: 적도의 꽃 (Flower of the Equator)
    Genre: Melodrama
    Episodes: 50
    Broadcast network: MBC
    Broadcast period: 2015-Mar-14 to 2015-???-??
    Air time: Saturday & Sunday 21:55

    Synopsis
    Rena Jung (Kim Sung Ryung) is a beautiful, but ambitious star chef who hosts her own cooking show. Her husband, Park Min-Joon (Lee Jong Hyuk), is the first son of a family that runs a large company. Their relationship is not so good, but they try to show other people they are still in love.

    In the past, Rena Jung abandoned her daughter for a chance at success. Now, her daughter, Kang Yi Sol (Lee Sung Kyung) appears in front of her. Kang Yi Sol resents her mother for abandoning her.

    Park Jae Joon (Yoon Park) is the husband's younger brother. He is popular with women, but he is attracted to Kang Yi-Sol.

    Cast
    Kim Sung Ryung as Rena Jung / Jung Eun Hye
    Lee Sung Kyung as Kang Yi Sol
    Yoon Park as Park Jae Joon
    Lee Jong Hyuk as Park Min Joon








    Code
    Video
    ID                                       : 0
    Format                                   : MPEG-4 Visual
    Format profile                           : Advanced Simple@L5
    Format settings, BVOP                    : No
    Format settings, QPel                    : No
    Format settings, GMC                     : No warppoints
    Format settings, Matrix                  : Default (MPEG)
    Codec ID                                 : XVID
    Codec ID/Hint                            : XviD
    Duration                                 : 1h 29mn
    Bit rate                                 : 1 388 Kbps
    Width                                    : 624 pixels
    Height                                   : 352 pixels
    Display aspect ratio                     : 16:9
    Frame rate                               : 29.970 fps
    Color space                              : YUV
    Chroma subsampling                       : 4:2:0
    Bit depth                                : 8 bits
    Scan type                                : Progressive
    Compression mode                         : Lossy
    Bits/(Pixel*Frame)                       : 0.211
    Stream size                              : 886 MiB (87%)
    Writing library                          : XviD 1.2.1 (UTC 2008-12-04)

    Audio
    ID                                       : 1
    Format                                   : MPEG Audio
    Format version                           : Version 1
    Format profile                           : Layer 3
    Mode                                     : Joint stereo
    Mode extension                           : MS Stereo
    Codec ID                                 : 55
    Codec ID/Hint                            : MP3
    Duration                                 : 1h 29mn
    Bit rate mode                            : Constant
    Bit rate                                 : 128 Kbps
    Channel(s)                               : 2 channels
    Sampling rate                            : 48.0 KHz
    Compression mode                         : Lossy
    Stream size                              : 81.7 MiB (8%)
    Alignment                                : Aligned on interleaves
    Writing library                          : LAME3.98.2



    0 0

    Original Post: Queen's.Flower.E34.150705.HDTV.H264.720p-LIMO

    http://thetvdb.com/?tab=series&id=293195
    Title: 여왕의 꽃 / Yeowangeui Ggot
    Previously known as: 적도의 꽃 (Flower of the Equator)
    Genre: Melodrama
    Episodes: 50
    Broadcast network: MBC
    Broadcast period: 2015-Mar-14 to 2015-???-??
    Air time: Saturday & Sunday 21:55

    Synopsis
    Rena Jung (Kim Sung Ryung) is a beautiful, but ambitious star chef who hosts her own cooking show. Her husband, Park Min-Joon (Lee Jong Hyuk), is the first son of a family that runs a large company. Their relationship is not so good, but they try to show other people they are still in love.

    In the past, Rena Jung abandoned her daughter for a chance at success. Now, her daughter, Kang Yi Sol (Lee Sung Kyung) appears in front of her. Kang Yi Sol resents her mother for abandoning her.

    Park Jae Joon (Yoon Park) is the husband's younger brother. He is popular with women, but he is attracted to Kang Yi-Sol.

    Cast
    Kim Sung Ryung as Rena Jung / Jung Eun Hye
    Lee Sung Kyung as Kang Yi Sol
    Yoon Park as Park Jae Joon
    Lee Jong Hyuk as Park Min Joon






    Code
    Video
    ID                             : 1
    Format                         : AVC
    Format/Info                    : Advanced Video Codec
    Format profile                 : High@L5.1
    Format settings, CABAC         : Yes
    Format settings, ReFrames      : 4 frames
    Codec ID                       : V_MPEG4/ISO/AVC
    Duration                       : 1h 24mn
    Bit rate                       : 887 Kbps
    Nominal bit rate               : 2 496 Kbps
    Width                          : 1 280 pixels
    Height                         : 720 pixels
    Display aspect ratio           : 16:9
    Frame rate mode                : Constant
    Frame rate                     : 29.970 fps
    Color space                    : YUV
    Chroma subsampling             : 4:2:0
    Bit depth                      : 8 bits
    Scan type                      : Progressive
    Bits/(Pixel*Frame)             : 0.032
    Stream size                    : 535 MiB (68%)
    Writing library                : x264 core 130 r2273 b3065e6
    Encoding settings              : cabac=1 / ref=3 / deblock=1:0:0 / analyse=0x3:0x113 / me=hex / subme=7 / psy=1 / psy_rd=1.00:0.00 / mixed_ref=1 / me_range=16 / chroma_me=1 / trellis=1 / 8x8dct=1 / cqm=0 / deadzone=21,11 / fast_pskip=1 / chroma_qp_offset=-2 / threads=1 / lookahead_threads=1 / sliced_threads=0 / nr=0 / decimate=1 / interlaced=0 / bluray_compat=0 / constrained_intra=0 / bframes=3 / b_pyramid=2 / b_adapt=1 / b_bias=0 / direct=1 / weightb=1 / open_gop=0 / weightp=2 / keyint=300 / keyint_min=29 / scenecut=40 / intra_refresh=0 / rc_lookahead=40 / rc=2pass / mbtree=1 / bitrate=2496 / ratetol=1.0 / qcomp=0.60 / qpmin=0 / qpmax=69 / qpstep=4 / cplxblur=20.0 / qblur=0.5 / vbv_maxrate=300000 / vbv_bufsize=300000 / nal_hrd=none / ip_ratio=1.40 / aq=1:1.00
    Default                        : Yes
    Forced                         : No

    Audio
    ID                             : 2
    Format                         : AC-3
    Format/Info                    : Audio Coding 3
    Mode extension                 : CM (complete main)
    Format settings, Endianness    : Big
    Codec ID                       : A_AC3
    Duration                       : 1h 24mn
    Bit rate mode                  : Constant
    Bit rate                       : 384 Kbps
    Channel(s)                     : 2 channels
    Channel positions              : Front: L R
    Sampling rate                  : 44.1 KHz
    Bit depth                      : 16 bits
    Compression mode               : Lossy
    Stream size                    : 232 MiB (30%)
    Language                       : Korean
    Default                        : Yes
    Forced                         : No



    0 0

    Original Post: The.Yakuza.Papers.1.Battles.Without.Honor.and.Humanity.1973.720p.WEB-DL.x264

    Warning: This movie contains some nudity.


    The Yakuza Papers, Vol 1: Battles Without Honor and Humanity (1973)
    Alternate: Battles Without Honor and Humanity
    Romaji: Jingi naki tatakai
    Japanese: 无仁义之战 仁義なき戦い
    Director: Kinji Fukasaku
    Release Date: January 13, 1973
    Genre: Action / Crime / Drama
    Country: Japan
    Language: Japanese
    Subtitles: English
    IMDb link: http://www.imdb.com/title/tt0070246/

    Cast:
    Bunta Sugawara - Shozo Hirono
    Hiroki Matsukata - Tetsuya Sakai
    Kunie Tanaka - Makihara Masakichi
    Eiko Nakamura - Suzue Kunihiro
    Tsunehiko Watase - Toshio Arita
    Gorô Ibuki - Ueda
    Nobuo Kaneko - Yamamori
    Toshie Kimura - Mrs. Yamamori
    Tamio Kawachi - Kanbara Seiichi
    Mayumi Nagisa - Akiko Shinjo
    Asao Uchida - Okubo Kenichi
    Shin'ichirô Mikami - Shinkai Uichi
    Hiroshi Nawa - Doi
    Shinji Takano - Kaneko Shoichi
    Keiji Takamiya - Yamakata Shinichi

    Plot:
    In the teeming black markets of postwar Japan, Shozo Hirono (Bunta Sugawara) and his buddies find themselves in a new war between fractious and ambitious yakuza. After joining boss Yamamori, Shozo is drawn into a feud with his sworn brother¹s family, the Dois. But that¹s where the chivalry of traditional yakuza film ends and the hypocrisy, betrayal, and assassinations begin. A rare and critical perspective on the history of Japan after World War II, BATTLES WITHOUT HONOR AND HUMANITY is a tour-de-force that revolutionized the yakuza genre and launched Kinji Fukasaku and Bunta Sugawara to international stardom.

    Media Info:
    Spoiler:show

    General
    Complete name               : The.Yakuza.Papers.1.Battles.Without.Honor.and.Humanity.1973.720p.WEB-DL.x264.mkv
    Format                      : Matroska
    Format version              : Version 4 / Version 2
    File size                   : 1.86 GiB
    Duration                    : 1h 38mn
    Overall bit rate            : 2 693 Kbps
    Encoded date                : UTC 2015-06-28 20:55:50
    Writing application         : mkvmerge v8.1.0 ('Psychedelic Postcard') 64bit
    Writing library             : libebml v1.3.1 + libmatroska v1.4.2
    DURATION                    : 01:38:05.346000000
    NUMBER_OF_FRAMES            : 1267
    NUMBER_OF_BYTES             : 32107
    _STATISTICS_WRITING_APP     : mkvmerge v8.1.0 ('Psychedelic Postcard') 64bit
    _STATISTICS_WRITING_DATE_UT : 2015-06-28 20:55:50
    _STATISTICS_TAGS            : BPS DURATION NUMBER_OF_FRAMES NUMBER_OF_BYTES

    Video
    ID                          : 1
    Format                      : AVC
    Format/Info                 : Advanced Video Codec
    Format profile              : High@L3.1
    Format settings, CABAC      : Yes
    Format settings, ReFrames   : 5 frames
    Codec ID                    : V_MPEG4/ISO/AVC
    Width                       : 1 280 pixels
    Height                      : 720 pixels
    Display aspect ratio        : 16:9
    Frame rate mode             : Variable
    Color space                 : YUV
    Chroma subsampling          : 4:2:0
    Bit depth                   : 8 bits
    Scan type                   : Progressive
    Default                     : Yes
    Forced                      : No

    Audio
    ID                          : 2
    Format                      : AAC
    Format/Info                 : Advanced Audio Codec
    Format profile              : LC
    Codec ID                    : A_AAC
    Duration                    : 1h 38mn
    Channel(s)                  : 2 channels
    Channel positions           : Front: L R
    Sampling rate               : 48.0 KHz
    Compression mode            : Lossy
    Delay relative to video     : -30ms
    Title                       : Japanese 2.0
    Language                    : English
    Default                     : Yes
    Forced                      : No

    Text
    ID                          : 3
    Format                      : UTF-8
    Codec ID                    : S_TEXT/UTF8
    Codec ID/Info               : UTF-8 Plain Text
    Title                       : English
    Language                    : English
    Default                     : Yes
    Forced                      : No

    Delayed the subs by .606 to sync with this version.










    Warning: The spoilered screenshot contains nudity.
    Spoiler:show




    0 0

    Original Post: The.Yakuza.Papers.2.Deadly.Fight.in.Hiroshima.1973.720p.WEB-DL.x264

    Warning: This movie contains some nudity.


    The Yakuza Papers, Vol 2: Deadly Fight in Hiroshima (1973)
    Alternate: Battles Without Honor and Humanity: Deadly Fight in Hiroshima
    Romaji: Hiroshima shitô hen
    Japanese: 仁義なき戦い 広島死闘篇
    Director: Kinji Fukasaku
    Release Date: April 28, 1973
    Genre: Action / Crime / Drama
    Country: Japan
    Language: Japanese
    Subtitles: English
    IMDb link: http://www.imdb.com/title/tt0070245/

    Cast:
    Bunta Sugawara - Shozo Hirono
    Shin'ichi Chiba - Katsutoshi Otomo (as Sonny Chiba)
    Meiko Kaji - Uehara Yasuko
    Shingo Yamashiro - Shoichi Eda
    Hiroshi Nawa - Muraoka Tsuneo
    Mikio Narita - Matsunaga Hiroshi
    Gin Maeda - Shimada Koichi
    Toshie Kimura - Mrs. Yamamori
    Junko Matsudaira - Bar Hostess
    Yoshi Katô - Choji Otomo
    Eizô Kitamura - Ishida Eisuke
    Akira Shioji - Buddhist Priest
    Hideo Murota - Keisuke Nakahara
    Nobuo Yana - Takuya Asano
    Hôsei Komatsu

    Plot:
    Repeatedly beat to a pulp by gamblers, cops, and gangsters, lone wolf Shoji Yamanaka (Kinya Kitaoji, who went on to star as Rhett Butler in the Tokyo stage version of GONE WITH THE WIND), finally finds a home as a Muraoka family hit man and falls in love with boss Muraoka¹s niece. Meanwhile, the ambitions of mad dog Katsutoshi Otomo (Sonny Chiba, KILL BILL) draws our series¹ hero, Shozo Hirono (Bunta Sugawara), into a new round of bloodshed, culminating with the tragic demise of the young Yamanka.

    Media Info:
    Spoiler:show

    General
    Complete name               : The.Yakuza.Papers.2.Deadly.Fight.in.Hiroshima.1973.720p.WEB-DL.x264.mkv
    Format                      : Matroska
    Format version              : Version 4 / Version 2
    File size                   : 1.76 GiB
    Duration                    : 1h 39mn
    Overall bit rate            : 2 518 Kbps
    Encoded date                : UTC 2015-07-04 20:24:00
    Writing application         : mkvmerge v8.1.0 ('Psychedelic Postcard') 64bit
    Writing library             : libebml v1.3.1 + libmatroska v1.4.2
    DURATION                    : 01:39:35.250000000
    NUMBER_OF_FRAMES            : 928
    NUMBER_OF_BYTES             : 25732
    _STATISTICS_WRITING_APP     : mkvmerge v8.1.0 ('Psychedelic Postcard') 64bit
    _STATISTICS_WRITING_DATE_UT : 2015-07-04 20:24:00
    _STATISTICS_TAGS            : BPS DURATION NUMBER_OF_FRAMES NUMBER_OF_BYTES

    Video
    ID                          : 1
    Format                      : AVC
    Format/Info                 : Advanced Video Codec
    Format profile              : High@L3.1
    Format settings, CABAC      : Yes
    Format settings, ReFrames   : 5 frames
    Codec ID                    : V_MPEG4/ISO/AVC
    Width                       : 1 280 pixels
    Height                      : 720 pixels
    Display aspect ratio        : 16:9
    Frame rate mode             : Variable
    Color space                 : YUV
    Chroma subsampling          : 4:2:0
    Bit depth                   : 8 bits
    Scan type                   : Progressive
    Default                     : Yes
    Forced                      : No

    Audio
    ID                          : 2
    Format                      : AAC
    Format/Info                 : Advanced Audio Codec
    Format profile              : LC
    Codec ID                    : A_AAC
    Duration                    : 1h 39mn
    Channel(s)                  : 2 channels
    Channel positions           : Front: L R
    Sampling rate               : 48.0 KHz
    Compression mode            : Lossy
    Delay relative to video     : -30ms
    Title                       : Japanese 2.0
    Language                    : Japanese
    Default                     : Yes
    Forced                      : No

    Text
    ID                          : 3
    Format                      : UTF-8
    Codec ID                    : S_TEXT/UTF8
    Codec ID/Info               : UTF-8 Plain Text
    Title                       : English
    Language                    : English
    Default                     : Yes
    Forced                      : No

    Delayed the subs by .741 to sync with this version.











    Warning: The spoilered screenshot contains nudity.
    Spoiler:show





    0 0

    Original Post: The.Yakuza.Papers.3.Proxy.War.1973.720p.WEB-DL.x264


    The Yakuza Papers, Vol 3: Proxy War (1973)
    Alternate: Battles Without Honor and Humanity: Proxy War
    Romaji: Jingi naki tatakai: Dairi sensô
    Japanese: 仁義なき戦い 代理戦争
    Director: Kinji Fukasaku
    Release Date: September 25, 1973
    Genre: Action / Crime / Drama
    Country: Japan
    Language: Japanese
    Subtitles: English
    IMDb link: http://www.imdb.com/title/tt0070244/

    Cast:
    Bunta Sugawara - Shozo Hirono
    Akira Kobayashi - Takeda Akira
    Reiko Ike - Tomie
    Tsunehiko Watase - Kuramoto Takeshi
    Shingo Yamashiro - Eda Shoichi
    Mitsue Horikoshi - Hiromi
    Hideko Nakamura - Ena
    Nobuo Kaneko - Yamamori Yoshio
    Toshie Kimura - Mrs. Yamamori
    Mikio Narita - Matsunaga Hiroshi
    Takeshi Katô - Uchimoto Akira
    Rin'ichi Yamamoto - Teruo Miyaji
    Takuzô Kawatani - Saijo Katsuji
    Eizô Kitamura - Hashisume
    Akira Shioji - Aoki Hikojiro

    Plot:
    The successor to Hiroshima¹s most powerful yakuza family, the Muraokas, is whacked in broad daylight on a busy city street. What unfolds is a yakuza succession crisis, as the weaseley Uchimoto (Takeshi Kato) dithers and the slimy, backstabbing boss Yamamori steps in as the Muraoka's new boss. Bunta Sugawara's would-be independent yakuza, Shozo Hirono, is caught in the middle, having to play powerbroker. But the opposing factions seek support from powerful families in Kobe, making all out war inevitable.

    Media Info:
    Spoiler:show

    General
    Complete name               : The.Yakuza.Papers.3.Proxy.War.1973.720p.WEB-DL.x264.mkv
    Format                      : Matroska
    Format version              : Version 4 / Version 2
    File size                   : 1.67 GiB
    Duration                    : 1h 42mn
    Overall bit rate            : 2 335 Kbps
    Encoded date                : UTC 2015-07-04 20:25:38
    Writing application         : mkvmerge v8.1.0 ('Psychedelic Postcard') 64bit
    Writing library             : libebml v1.3.1 + libmatroska v1.4.2
    DURATION                    : 01:42:18.121000000
    NUMBER_OF_FRAMES            : 1328
    NUMBER_OF_BYTES             : 46771
    _STATISTICS_WRITING_APP     : mkvmerge v8.1.0 ('Psychedelic Postcard') 64bit
    _STATISTICS_WRITING_DATE_UT : 2015-07-04 20:25:38
    _STATISTICS_TAGS            : BPS DURATION NUMBER_OF_FRAMES NUMBER_OF_BYTES

    Video
    ID                          : 1
    Format                      : AVC
    Format/Info                 : Advanced Video Codec
    Format profile              : High@L3.1
    Format settings, CABAC      : Yes
    Format settings, ReFrames   : 5 frames
    Codec ID                    : V_MPEG4/ISO/AVC
    Width                       : 1 280 pixels
    Height                      : 720 pixels
    Display aspect ratio        : 16:9
    Frame rate mode             : Variable
    Color space                 : YUV
    Chroma subsampling          : 4:2:0
    Bit depth                   : 8 bits
    Scan type                   : Progressive
    Default                     : Yes
    Forced                      : No

    Audio
    ID                          : 2
    Format                      : AAC
    Format/Info                 : Advanced Audio Codec
    Format profile              : LC
    Codec ID                    : A_AAC
    Duration                    : 1h 42mn
    Channel(s)                  : 2 channels
    Channel positions           : Front: L R
    Sampling rate               : 48.0 KHz
    Compression mode            : Lossy
    Delay relative to video     : -48ms
    Title                       : Japanese 2.0
    Language                    : Japanese
    Default                     : Yes
    Forced                      : No

    Text
    ID                          : 3
    Format                      : UTF-8
    Codec ID                    : S_TEXT/UTF8
    Codec ID/Info               : UTF-8 Plain Text
    Title                       : English
    Language                    : English
    Default                     : Yes
    Forced                      : No

    Delayed the subs by .973 to sync with this version.














    0 0

    Original Post: The.Yakuza.Papers.4.Police.Tactics.1974.720p.WEB-DL.x264


    The Yakuza Papers, Vol 4: Police Tactics (1974)
    Alternate: Battles Without Honor and Humanity: Police Tactics
    Romaji: Jingi naki tatakai: Chojo sakusen
    Japanese: 仁義なき戦い 頂上作戦
    Director: Kinji Fukasaku
    Release Date: January 15, 1974
    Genre: Action / Crime / Drama
    Country: Japan
    Language: Japanese
    Subtitles: English
    IMDb link: http://www.imdb.com/title/tt0071696/

    Cast:
    Bunta Sugawara - Shozo Hirono
    Akira Kobayashi
    Tatsuo Umemiya
    Toshio Kurosawa
    Hiroki Matsukata
    Kunie Tanaka
    Nobuo Kaneko
    Takeshi Katô
    Asao Koike
    Shingo Yamashiro
    Nobuo Yana - Isamu Kasai
    Seizô Fukumoto - Yamazaki
    Ryûji Katagiri
    Shin'ichirô Mikami
    Isao Natsuyagi

    Plot:
    As Japan gears up for the 1964 Olympic games, the cops start to crack down under pressure from the public and the press, adding a new dimension in the war for power among the yakuza families of Hiroshima. Akira Kobayashi's Takeda tries to keep a lid on things, but hotheaded underlings create chaos, with one boss whacked in neutral territory, and the craven boss, Uchimoto, informing on an assassination attempt by his own minions. While the police round up hundreds of yakuza foot soldiers, Bunta Sugawara's Shozo Hirono plots to finally take out longtime nemesis, boss Yamamori.

    Media Info:
    Spoiler:show

    General
    Complete name               : The.Yakuza.Papers.4.Police.Tactics.1974.720p.WEB-DL.x264.mkv
    Format                      : Matroska
    Format version              : Version 4 / Version 2
    File size                   : 1.48 GiB
    Duration                    : 1h 41mn
    Overall bit rate            : 2 093 Kbps
    Encoded date                : UTC 2015-07-04 20:26:36
    Writing application         : mkvmerge v8.1.0 ('Psychedelic Postcard') 64bit
    Writing library             : libebml v1.3.1 + libmatroska v1.4.2
    DURATION                    : 01:40:53.708000000
    NUMBER_OF_FRAMES            : 1278
    NUMBER_OF_BYTES             : 45461
    _STATISTICS_WRITING_APP     : mkvmerge v8.1.0 ('Psychedelic Postcard') 64bit
    _STATISTICS_WRITING_DATE_UT : 2015-07-04 20:26:36
    _STATISTICS_TAGS            : BPS DURATION NUMBER_OF_FRAMES NUMBER_OF_BYTES

    Video
    ID                          : 1
    Format                      : AVC
    Format/Info                 : Advanced Video Codec
    Format profile              : High@L3.1
    Format settings, CABAC      : Yes
    Format settings, ReFrames   : 5 frames
    Codec ID                    : V_MPEG4/ISO/AVC
    Width                       : 1 280 pixels
    Height                      : 720 pixels
    Display aspect ratio        : 16:9
    Frame rate mode             : Variable
    Color space                 : YUV
    Chroma subsampling          : 4:2:0
    Bit depth                   : 8 bits
    Scan type                   : Progressive
    Default                     : Yes
    Forced                      : No

    Audio
    ID                          : 2
    Format                      : AAC
    Format/Info                 : Advanced Audio Codec
    Format profile              : HE-AAC / LC
    Codec ID                    : A_AAC
    Duration                    : 1h 41mn
    Channel(s)                  : 2 channels
    Channel positions           : Front: L R
    Sampling rate               : 48.0 KHz / 24.0 KHz
    Compression mode            : Lossy
    Delay relative to video     : -83ms
    Title                       : Japanese 2.0
    Language                    : Japanese
    Default                     : Yes
    Forced                      : No

    Text
    ID                          : 3
    Format                      : UTF-8
    Codec ID                    : S_TEXT/UTF8
    Codec ID/Info               : UTF-8 Plain Text
    Title                       : English
    Language                    : English
    Default                     : Yes
    Forced                      : No

    Delayed the subs by .717 to sync with this version.












    0 0

    Original Post: The.Yakuza.Papers.5.Final.Episode.1974.720p.WEB-DL.x264


    The Yakuza Papers, Vol 5: Final Episode (1974)
    Alternate: Battles Without Honor and Humanity: Final Episode
    Romaji: Jingi naki tatakai: Kanketsu-hen
    Japanese: 仁義なき戦い 完結篇
    Director: Kinji Fukasaku
    Release Date: June 29, 1974
    Genre: Action / Crime / Drama
    Country: Japan
    Language: Japanese
    Subtitles: English
    IMDb link: http://www.imdb.com/title/tt0226018/

    Cast:
    Bunta Sugawara - Shozo Hirono
    Jô Shishido - Katsutoshi Otomo
    Hiroko Fuji
    Gorô Ibuki
    Nobuo Kaneko
    Ryûji Katagiri
    Takuzô Kawatani
    Kin'ya Kitaôji
    Akira Kobayashi
    Hiroki Matsukata
    Ryô Nishida
    Yumiko Nogawa
    Junkichi Orimoto
    Kenichi Sakuragi
    Kunie Tanaka


    Plot:
    In the wake of a big police crackdown, Akira Kobayashi's icily sun- glassed Takeda attempts to transform the Hiroshima yakuza families into a legitimate political organization: The Tensei Coalition. When the young Matsumura ascends to the chairmanship of the coalition, the older, hardened yakuza led by Jo Shishido (BRANDED TO KILL) seize one last opportunity to stir up chaos and bloodshed. Culminating with the arrests, deaths, or retirement of the first postwar yakuza generation, this milestone series draws to an ambivalent close.

    Media Info:
    Spoiler:show

    General
    Complete name               : The.Yakuza.Papers.5.Final.Episode.1974.720p.WEB-DL.x264.mkv
    Format                      : Matroska
    Format version              : Version 4 / Version 2
    File size                   : 1.96 GiB
    Duration                    : 1h 37mn
    Overall bit rate            : 2 870 Kbps
    Encoded date                : UTC 2015-07-04 20:27:26
    Writing application         : mkvmerge v8.1.0 ('Psychedelic Postcard') 64bit
    Writing library             : libebml v1.3.1 + libmatroska v1.4.2
    DURATION                    : 01:37:23.068000000
    NUMBER_OF_FRAMES            : 1295
    NUMBER_OF_BYTES             : 47191
    _STATISTICS_WRITING_APP     : mkvmerge v8.1.0 ('Psychedelic Postcard') 64bit
    _STATISTICS_WRITING_DATE_UT : 2015-07-04 20:27:26
    _STATISTICS_TAGS            : BPS DURATION NUMBER_OF_FRAMES NUMBER_OF_BYTES

    Video
    ID                          : 1
    Format                      : AVC
    Format/Info                 : Advanced Video Codec
    Format profile              : High@L3.1
    Format settings, CABAC      : Yes
    Format settings, ReFrames   : 5 frames
    Codec ID                    : V_MPEG4/ISO/AVC
    Width                       : 1 280 pixels
    Height                      : 720 pixels
    Display aspect ratio        : 16:9
    Frame rate mode             : Variable
    Color space                 : YUV
    Chroma subsampling          : 4:2:0
    Bit depth                   : 8 bits
    Scan type                   : Progressive
    Default                     : Yes
    Forced                      : No

    Audio
    ID                          : 2
    Format                      : AAC
    Format/Info                 : Advanced Audio Codec
    Format profile              : HE-AAC / LC
    Codec ID                    : A_AAC
    Duration                    : 1h 37mn
    Channel(s)                  : 2 channels
    Channel positions           : Front: L R
    Sampling rate               : 48.0 KHz / 24.0 KHz
    Compression mode            : Lossy
    Delay relative to video     : -83ms
    Title                       : Japanese 2.0
    Language                    : Japanese
    Default                     : Yes
    Forced                      : No

    Text
    ID                          : 3
    Format                      : UTF-8
    Codec ID                    : S_TEXT/UTF8
    Codec ID/Info               : UTF-8 Plain Text
    Title                       : English
    Language                    : English
    Default                     : Yes
    Forced                      : No

    Delayed the subs by .223 to sync with this version.

















    0 0

    Original Post: King of Mask Singer E14 720p WITH



    Hangul: 복면가왕
    Genre: Variety Show
    Language: Korean
    Country: South Korea
    Subtitles: No Subtitles

    Cast:
    11 Celebrity Judges + 1 Main MC:
    - Kim Sung Joo - Main MC (Dad, Where Are We Going?)
    - Kim Gura - Sub MC (JTBC War of Words, MBC Radio Star, Quiz to Change the World)
    - So Yi Hyun - Sub MC (Heartstrings, Cheongdamdong Alice, Three Days)
    - B1A4 Sandeul
    - Kim Hyung Seok (Music Producer - Kim Gunmo, Baby Vox, Jo Sung Mo, etc)
    - Ji Sang Ryeol (X-Man, 1 Night 2 Days)
    - Hwang Seok Jung (Lost in Love, Hello Schoolgirl)
    - Kim Jung Nam (Turbo 1995-97)
    - ZE:A Kwanghee
    - Shin Bong Sun (Heroes, Happy Together)
    - Yoo Sang Moo (Gag Concert, Comedy Big League, I Am a Man)
    - Girl's Day Yura


    When you have to compete with only your voice, who will be the last singer standing? “King of Mask Singer” is a South Korean variety show where the participants compete against each other wearing masks to hide their true identities. The contestants may be famous singers or stars who have always aspired to sing – but they all have one thing in common. They must all compete with their vocals alone because no one will know their true identities until the very end! Enjoy these highlight clips from the popular variety show, featuring MCs Kim Sung Joo and Kim Goo Ra.

    Format of the Show:
    - 11 Celebrity Judges and 88 Audience Voters = 99 Votes
    - All singers initially are masked.
    - Round 1: Duet with 2 members, 99 Voters will choose which of the 2 contestants sang better.
    - Round 2 + 3: Each contestant sings their own song.
    - Loser in each vote gets their identity revealed, and is eliminated.
    - Final Winner stays unknown to the audience and judges, but revealed at the end of the broadcast to the viewers.


    Code

    General
    Format                                   : MPEG-4
    Format profile                           : Base Media
    Codec ID                                 : isom
    File size                                : 1.37 GiB
    Duration                                 : 1h 19mn
    Overall bit rate mode                    : Variable
    Overall bit rate                         : 2 472 Kbps

    Video
    ID                                       : 1
    Format                                   : AVC
    Format/Info                              : Advanced Video Codec
    Format profile                           : Baseline@L1.3
    Format settings, CABAC                   : No
    Format settings, ReFrames                : 1 frame
    Codec ID                                 : avc1
    Codec ID/Info                            : Advanced Video Coding
    Duration                                 : 1h 19mn
    Bit rate                                 : 2 200 Kbps
    Maximum bit rate                         : 10.6 Mbps
    Width                                    : 1 280 pixels
    Height                                   : 720 pixels
    Display aspect ratio                     : 16:9
    Frame rate mode                          : Constant
    Frame rate                               : 29.970 fps
    Color space                              : YUV
    Chroma subsampling                       : 4:2:0
    Bit depth                                : 8 bits
    Scan type                                : Progressive
    Bits/(Pixel*Frame)                       : 0.080
    Stream size                              : 1.22 GiB (90%)
    Writing library                          : x264 core 128 r2216 198a7ea
    Encoding settings                        : cabac=0 / ref=1 / deblock=1:0:0 / analyse=0x1:0x111 / me=hex / subme=7 / psy=1 / psy_rd=1.00:0.00 / mixed_ref=0 / me_range=16 / chroma_me=1 / trellis=1 / 8x8dct=0 / cqm=0 / deadzone=21,11 / fast_pskip=1 / chroma_qp_offset=-2 / threads=12 / lookahead_threads=2 / sliced_threads=0 / nr=0 / decimate=1 / interlaced=0 / bluray_compat=0 / constrained_intra=0 / bframes=0 / weightp=0 / keyint=250 / keyint_min=25 / scenecut=40 / intra_refresh=0 / rc_lookahead=40 / rc=abr / mbtree=1 / bitrate=2200 / ratetol=1.0 / qcomp=0.60 / qpmin=0 / qpmax=69 / qpstep=4 / vbv_maxrate=50000 / vbv_bufsize=50000 / nal_hrd=none / ip_ratio=1.40 / aq=1:1.00

    Audio
    ID                                       : 2
    Format                                   : AAC
    Format/Info                              : Advanced Audio Codec
    Format profile                           : LC
    Codec ID                                 : 40
    Duration                                 : 1h 19mn
    Bit rate mode                            : Variable
    Bit rate                                 : 256 Kbps
    Maximum bit rate                         : 262 Kbps
    Channel(s)                               : 2 channels
    Channel positions                        : Front: L R
    Sampling rate                            : 48.0 KHz
    Compression mode                         : Lossy
    Stream size                              : 145 MiB (10%)







    *Please PM me if there is something wrong, Don't ask for subtitle. smile1.gif

    Don't try to HIT AND RUN. Don't forget to seed minimum at least 1.5.. Please always seed, since I will not re-upload If it already deleted on my seedbox.


    0 0

    Original Post: Law of the Jungle with Friends E168 720p WITH (Ep 6 Yap Island)


    Hangul: 정글의 법칙
    Genre: Variety Show
    Language: Korean
    Country: South Korea
    Subtitles: No Subtitles

    Cast:

    Kim Byung-man
    Ryu Dam
    Park Han-byul
    Kangnam
    Ryu Seung-soo
    Lee Jung-jin
    Bae Soo-bin
    Yoon Sang-hyun
    Lee Yi-kyung
    Eun Ji-won
    Jung Jin Woon
    Dasom

    Synopsis:

    Law of the Jungle

    Law of the Jungle (Korean: 정글의 법칙) is a South Korean reality-documentary show on SBS. It was first aired on October 21, 2011. This show is a hybrid of reality-variety television, natural documentaries, and human drama; a new concept of programming.[1] The cast of celebrities travel to primitive, natural places to survive on their own and experience life with local tribes and people.[2] Originally airing at the Friday 11:05 pm KST time slot, the program was switched into Good Sunday for its second season beginning May 6, 2012, airing before Running Man at the 5:00 pm time slot, replacing K-pop Star Season 1.[3] With the return of K-pop Star Season 2 to Good Sunday, the program returned to Friday nights but airing at 10:00 pm instead beginning November 16, 2012.[4] Originally airing as Kim Byung-man's Law of the Jungle (Korean: 김병만의 정글의 법칙) after the creator and "clan leader" Kim Byung-man, "Kim Byung-man's" was dropped from the title beginning in Season 3.

    Special editions of the program air as well featuring a different cast not in the regular time slot. Law of the Jungle W (W for Women) features an all-female cast and generally airs during the Seollal and Chuseok holidays.[5] Law of the Jungle K (K for Kids) features celebrities with their children, and has aired as a Seollal special in 2013.


    Code
    General
    Format                                   : MPEG-4
    Format profile                           : Base Media
    Codec ID                                 : isom
    File size                                : 1.32 GiB
    Duration                                 : 1h 16mn
    Overall bit rate mode                    : Variable
    Overall bit rate                         : 2 472 Kbps

    Video
    ID                                       : 1
    Format                                   : AVC
    Format/Info                              : Advanced Video Codec
    Format profile                           : Baseline@L1.3
    Format settings, CABAC                   : No
    Format settings, ReFrames                : 1 frame
    Codec ID                                 : avc1
    Codec ID/Info                            : Advanced Video Coding
    Duration                                 : 1h 16mn
    Bit rate                                 : 2 200 Kbps
    Maximum bit rate                         : 12.2 Mbps
    Width                                    : 1 280 pixels
    Height                                   : 720 pixels
    Display aspect ratio                     : 16:9
    Frame rate mode                          : Constant
    Frame rate                               : 29.970 fps
    Color space                              : YUV
    Chroma subsampling                       : 4:2:0
    Bit depth                                : 8 bits
    Scan type                                : Progressive
    Bits/(Pixel*Frame)                       : 0.080
    Stream size                              : 1.18 GiB (90%)
    Writing library                          : x264 core 128 r2216 198a7ea
    Encoding settings                        : cabac=0 / ref=1 / deblock=1:0:0 / analyse=0x1:0x111 / me=hex / subme=7 / psy=1 / psy_rd=1.00:0.00 / mixed_ref=0 / me_range=16 / chroma_me=1 / trellis=1 / 8x8dct=0 / cqm=0 / deadzone=21,11 / fast_pskip=1 / chroma_qp_offset=-2 / threads=12 / lookahead_threads=2 / sliced_threads=0 / nr=0 / decimate=1 / interlaced=0 / bluray_compat=0 / constrained_intra=0 / bframes=0 / weightp=0 / keyint=250 / keyint_min=25 / scenecut=40 / intra_refresh=0 / rc_lookahead=40 / rc=abr / mbtree=1 / bitrate=2200 / ratetol=1.0 / qcomp=0.60 / qpmin=0 / qpmax=69 / qpstep=4 / vbv_maxrate=50000 / vbv_bufsize=50000 / nal_hrd=none / ip_ratio=1.40 / aq=1:1.00

    Audio
    ID                                       : 2
    Format                                   : AAC
    Format/Info                              : Advanced Audio Codec
    Format profile                           : LC
    Codec ID                                 : 40
    Duration                                 : 1h 16mn
    Bit rate mode                            : Variable
    Bit rate                                 : 256 Kbps
    Maximum bit rate                         : 263 Kbps
    Channel(s)                               : 2 channels
    Channel positions                        : Front: L R
    Sampling rate                            : 48.0 KHz
    Compression mode                         : Lossy
    Stream size                              : 139 MiB (10%)








    *Please PM me if there is something wrong. If you have the subtitle, please add it smile1.gif

    Don't try to HIT AND RUN. Don't forget to seed minimum at least 1.5..


    0 0

    Original Post: Ran (1985) 1080p DTS-HD Criterion



    AKA: Ran - Revolt
    Year:1985
    Director: Akira Kurosawa
    Country: Japan
    Language:  Japanese (5.1 DTS-HD), Japenese (2ch AC3), English (2ch DTS-HD), English (2ch AC3)
    Subtitles:  
    Embedded PGS - English, Danish, German, Spanish, French, Italian, Dutch, Norwegian, Finnish, Swedish
    External SRT - English
    Time: 160 minutes
    Format: 1.85:1

    Cast:
    Tatsuya Nakadai
    Akira Terao
    Jinpachi Nezu
    Daisuke Ryu
    Mieko Harada

    Plot
    Partially based on Shakespeare's 'King Lear', Ran is set during feudal Japan, and opens with a key scene depicting the transfer of control over the powerful Ichimonji clan from the aging tyrant Hidetora (Tatsuya Nakadai) to his three sons. The eldest child, Taro (Akira Terao) will inherit the First Castle and step into his father's shoes as leader of the clan. The second-born, Jiro (Jinpachi Nezu) will be given the Second Castle, along with the army designated to the protection of the castle's territory. The rebellious third son, Saburo (Daisuke Ryu) is given the lowliest Third Castle, and instructed to support (along with his brother Jiro) the decisions of Taro, remaining a united front against their enemies. Saburo is unhappy with this arrangement and believes it unwise on the part of his father. He's quickly banished from the Ichimonji clan for his insolence, and takes up refuge with the family of a rival clan. Within a short span of time, Hidetora's logical plan of succession becomes the catalyst for a profound power struggle between himself and his two remaining sons, which threatens to destroy everything he worked so hard to obtain. Armies may bring power to their commander, but seeds of deception and greed prove a more formidable barrier to the longevity of Hidetora's clan.







    Code

    Format                                   : Matroska
    Format version                           : Version 2
    File size                                : 11.0 GiB
    Duration                                 : 2h 42mn
    Overall bit rate mode                    : Variable
    Overall bit rate                         : 9 698 Kbps
    Encoded date                             : UTC
    Writing application                      : HandBrake 0.10.2 2015060900
    Writing library                          : Lavf55.12.0

    Video
    ID                                       : 1
    Format                                   : AVC
    Format/Info                              : Advanced Video Codec
    Format profile                           : High@L4.1
    Format settings, CABAC                   : Yes
    Format settings, ReFrames                : 4 frames
    Codec ID                                 : V_MPEG4/ISO/AVC
    Width                                    : 1 910 pixels
    Height                                   : 1 030 pixels
    Display aspect ratio                     : 1.85:1
    Frame rate mode                          : Variable
    Color space                              : YUV
    Chroma subsampling                       : 4:2:0
    Bit depth                                : 8 bits
    Scan type                                : Progressive
    Writing library                          : x264 core 142 r2479 dd79a61

    Audio #1
    ID                                       : 2
    Format                                   : DTS
    Duration                                 : 2h 42mn
    Bit rate mode                            : Variable
    Bit rate                                 : Unknown / 1 509 Kbps
    Channel(s)                               : 6 channels
    Channel positions                        : Front: L C R, Side: L R, LFE
    Sampling rate                            : 48.0 KHz
    Bit depth                                : 16 bits
    Compression mode                         : Lossless / Lossy
    Title                                    : Surround
    Language                                 : Japanese
    Default                                  : Yes
    Forced                                   : No

    Audio #2
    ID                                       : 3
    Format                                   : AC-3
    Format/Info                              : Audio Coding 3
    Format profile                           : Dolby Digital
    Duration                                 : 2h 42mn
    Bit rate mode                            : Constant
    Bit rate                                 : 192 Kbps
    Channel(s)                               : 2 channels
    Channel positions                        : Front: L R
    Sampling rate                            : 48.0 KHz
    Compression mode                         : Lossy
    Delay relative to video                  : 27ms
    Stream size                              : 223 MiB (2%)
    Title                                    : Stereo
    Language                                 : Japanese
    Default                                  : No
    Forced                                   : No

    Audio #3
    ID                                       : 4
    Format                                   : DTS
    Duration                                 : 2h 42mn
    Bit rate mode                            : Variable
    Bit rate                                 : Unknown / 768 Kbps
    Channel(s)                               : 2 channels
    Channel positions                        : Front: L R
    Sampling rate                            : 48.0 KHz
    Bit depth                                : 16 bits
    Compression mode                         : Lossless / Lossy
    Title                                    : Stereo
    Language                                 : English
    Default                                  : No
    Forced                                   : No

    Audio #4
    ID                                       : 5
    Format                                   : AC-3
    Duration                                 : 2h 42mn
    Bit rate mode                            : Constant
    Bit rate                                 : 192 Kbps
    Channel(s)                               : 2 channels
    Channel positions                        : Front: L R
    Sampling rate                            : 48.0 KHz
    Compression mode                         : Lossy
    Delay relative to video                  : 27ms
    Stream size                              : 223 MiB (2%)
    Title                                    : Stereo
    Language                                 : English
    Default                                  : No
    Forced                                   : No

    Text #1
    ID                                       : 6
    Format                                   : PGS
    Codec ID                                 : S_HDMV/PGS
    Codec ID/Info                            : Picture based subtitle format used on BDs/HD-DVDs
    Language                                 : English
    Default                                  : Yes
    Forced                                   : No



    0 0
  • 07/05/15--23:30: (2014) Samurai Hustle
  • Original Post: (2014) Samurai Hustle

    (超高速!参勤交代 / Cho Kosoku! Sankin Kotai) aka 'Mission Impossible: Samurai'

    Thank you for loving Asian cinematography ...










    File:
    Format: Matroska
    Format version: Version 2
    File size: 1.09 GiB
    Duration: 1h 59mn
    Overall bit rate: 1 306 Kbps

    Video:
    Format: AVC
    Format/Info: Advanced Video Codec
    Format profile: High@L4.1
    Format settings, CABAC: Yes
    Format settings, ReFrames: 5 frames
    Codec ID: V_MPEG4/ISO/AVC
    Width: 720 pixels
    Height: 464 pixels
    Display aspect ratio: 1.85:1
    Frame rate mode: Variable
    Color space: YUV
    Chroma subsampling: 4:2:0
    Bit depth: 8 bits
    Scan type: Progressive
    Writing library: x264 core 112

    Audio
    Format: AAC
    Format/Info: Advanced Audio Codec
    Format profile: LC
    Codec ID: A_AAC
    Duration: 1h 59mn
    Channel(s): 2 channels
    Channel positions: Front: L R
    Sampling rate: 48.0 KHz
    Compression mode: Lossy


    "During the reign of the eighth shogun of the Tokugawa shogunate, the Yunagaya Domain in the Tohoku region is a small han. But at the han, there is a gold mine. Suddenly, Masaatsu Naito of Yunagaya Domain receives an order to perform Sankin-kotai within 5 days.

    Sankin-kotai is a custom that requires the daimyo to visit the shogun in Edo. Unfortunately, the time needed to visit the shogun in Edo for Masaatsu Naito is 8 days. Masaatsu Naito also learns he received the order because a high ranking government official wants the gold mine. Also, the expense for Sankin-kotai is high and the Yunagaya Domain is such a small han that it seems impossible to complete. Nevertheless, Masaatsu Naito begins an unexpected operation to complete Sankin-kotai in 5 days."

    Type: Jidaigeki, Comedy
    Country: Japan
    Director: Akihiro Dobashi
    Language: Japanese
    Cast: Kuranosuke Sasaki, Kyoko Fukada, Tsuyoshi Ihara
    Subtitles: English, Japanese

    Uploader's comment:
    I've been wanting to watch this since it came out but due to the lack of/bad subtitles previously available, ... I was deterred.
    Today is the day, woo yay!



    Credit goes to Avallach (ADC) as well as Don Brown& baragon63


    0 0

    Original Post: [Album] Girl's Day – LOVE [2nd Album]



    https://en.wikipedia.org/wiki/Girl%27s_Day

    걸스데이 (Girl’s Day) 2집 – LOVE [2nd Album]
    Release Date: 2015.07.06
    Genre: Dance
    Language: Korean
    Bit Rate: MP3-320kbps
    credit to k2nblog

    Girl’s Day celebrates their fifth debut anniversary this summer with the release of their second full album Love! The album comes with 14 tracks including the title song “Ring My Bell,” a fun and funky dance song for the hot summer. The album has generated much buzz for its stunning concept photos featuring each member in different looks inspired by Olivia Hussey, Madonna, Audrey Hepburn and Sharon Stone.

    Track List:

    01. With Me
    02. 링마벨 (Ring My Bell)
    03. 마카롱
    04. Come Slowly
    05. Top Girl
    06. Darling
    07. 휘파람
    08. Look At Me
    09. Something
    10. Timing
    11. 보고싶어
    12. Show You
    13. Hello Bubble
    14. 링마벨 (Ring My Bell) (Inst.)



older | 1 | .... | 1389 | 1390 | (Page 1391) | 1392 | 1393 | .... | 1405 | newer