Are you the publisher? Claim or contact us about this channel


Embed this content in your HTML

Search

Report adult content:

click to rate:

Account: (login)

More Channels


Showcase


Channel Catalog


Channel Description:

Asia Torrents RSS Feed

older | 1 | .... | 1390 | 1391 | (Page 1392) | 1393 | 1394 | .... | 1405 | newer

    0 0

    Original Post: Hwajung.E25.150706.HDTV.XviD-LIMO

    Details
    Title: 화정 / Hwajung
    Also known as: Splendid Politics
    Previously known as: Princess Jungmyung
    Genre: Historical, political, romance
    Episodes: 50
    Broadcast network: MBC
    Broadcast period: 2015-Apr-13 to 2015-Oct-??
    Air time: Monday & Tuesday 22:00
    Subtitles by Dramafever will be added later
    http://thetvdb.com/?tab=series&id=293910

    Synopsis
    Fair Princess Jungmyung (Lee Yeon Hee) lives a life of the highest privilege, until her half-brother Prince Gwanghae (Cha Seung Won) executes the rightful crown prince and usurps the throne. Exiled from court, Jungmyung goes under disguise as a man and learns to adapt to life as a commoner — never forgetting Gwanghae's wrongdoing. But amidst rampant corruption throughout the kingdom, can Jyungmyung exact her vengeance, restore order and take back her rightful place in the palace?

    Cast

    Main Cast
    Cha Seung Won as Prince Gwanghae
    Lee Tae Hwan as teen Gwanghae
    Lee Yun Hee as Princess Jungmyung
    Jung Chan Bi as teen Jungmyung
    Seo Jung Eun as child Jungmyung
    Kim Jae Won as King Injo
    Seo Kang Joon as Hong Ju Won
    Yoon Chan Young as teen Ju Won
    Choi Kwon Ju as child Ju Won
    Han Joo Wan as Kang In Woo
    Ahn Do Gyu as teen In Woo






    Code
    Video
    ID                                       : 0
    Format                                   : MPEG-4 Visual
    Format profile                           : Advanced Simple@L5
    Format settings, BVOP                    : No
    Format settings, QPel                    : No
    Format settings, GMC                     : No warppoints
    Format settings, Matrix                  : Default (MPEG)
    Codec ID                                 : XVID
    Codec ID/Hint                            : XviD
    Duration                                 : 1h 6mn
    Bit rate                                 : 1 391 Kbps
    Width                                    : 624 pixels
    Height                                   : 352 pixels
    Display aspect ratio                     : 16:9
    Frame rate                               : 29.970 fps
    Color space                              : YUV
    Chroma subsampling                       : 4:2:0
    Bit depth                                : 8 bits
    Scan type                                : Progressive
    Compression mode                         : Lossy
    Bits/(Pixel*Frame)                       : 0.211
    Stream size                              : 660 MiB (87%)
    Writing library                          : XviD 1.2.1 (UTC 2008-12-04)

    Audio
    ID                                       : 1
    Format                                   : MPEG Audio
    Format version                           : Version 1
    Format profile                           : Layer 3
    Mode                                     : Joint stereo
    Mode extension                           : MS Stereo
    Codec ID                                 : 55
    Codec ID/Hint                            : MP3
    Duration                                 : 1h 6mn
    Bit rate mode                            : Constant
    Bit rate                                 : 128 Kbps
    Channel(s)                               : 2 channels
    Sampling rate                            : 48.0 KHz
    Compression mode                         : Lossy
    Stream size                              : 60.8 MiB (8%)
    Alignment                                : Aligned on interleaves
    Writing library                          : LAME3.98.2



    0 0

    Original Post: Hwajung.E25.150706.HDTV.H264.720p-LIMO

    Details
    Title: 화정 / Hwajung
    Also known as: Splendid Politics
    Previously known as: Princess Jungmyung
    Genre: Historical, political, romance
    Episodes: 50
    Broadcast network: MBC
    Broadcast period: 2015-Apr-13 to 2015-Oct-??
    Air time: Monday & Tuesday 22:00
    Subtitles by Dramafever will be added later
    http://thetvdb.com/?tab=series&id=293910

    Synopsis
    Fair Princess Jungmyung (Lee Yeon Hee) lives a life of the highest privilege, until her half-brother Prince Gwanghae (Cha Seung Won) executes the rightful crown prince and usurps the throne. Exiled from court, Jungmyung goes under disguise as a man and learns to adapt to life as a commoner — never forgetting Gwanghae's wrongdoing. But amidst rampant corruption throughout the kingdom, can Jyungmyung exact her vengeance, restore order and take back her rightful place in the palace?

    Cast

    Main Cast
    Cha Seung Won as Prince Gwanghae
    Lee Tae Hwan as teen Gwanghae
    Lee Yun Hee as Princess Jungmyung
    Jung Chan Bi as teen Jungmyung
    Seo Jung Eun as child Jungmyung
    Kim Jae Won as King Injo
    Seo Kang Joon as Hong Ju Won
    Yoon Chan Young as teen Ju Won
    Choi Kwon Ju as child Ju Won
    Han Joo Wan as Kang In Woo
    Ahn Do Gyu as teen In Woo







    Code
    Video
    ID                             : 0
    Format                         : AVC
    Format/Info                    : Advanced Video Codec
    Format profile                 : High@L5.1
    Format settings, CABAC         : Yes
    Format settings, ReFrames      : 4 frames
    Codec ID                       : H264
    Duration                       : 1h 14mn
    Bit rate                       : 3 000 Kbps
    Width                          : 1 280 pixels
    Height                         : 720 pixels
    Display aspect ratio           : 16:9
    Frame rate mode                : Variable
    Frame rate                     : 29.970 fps
    Color space                    : YUV
    Chroma subsampling             : 4:2:0
    Bit depth                      : 8 bits
    Scan type                      : Progressive
    Bits/(Pixel*Frame)             : 0.109
    Stream size                    : 1.57 GiB (94%)
    Writing library                : x264 core 112
    Encoding settings              : cabac=1 / ref=3 / deblock=1:-1:-1 / analyse=0x3:0x113 / me=hex / subme=6 / psy=1 / psy_rd=1.00:1.00 / mixed_ref=1 / me_range=16 / chroma_me=1 / trellis=1 / 8x8dct=1 / cqm=0 / deadzone=21,11 / fast_pskip=0 / chroma_qp_offset=-4 / threads=12 / sliced_threads=0 / nr=0 / decimate=1 / interlaced=0 / constrained_intra=0 / bframes=3 / b_pyramid=2 / b_adapt=1 / b_bias=1 / direct=3 / weightb=1 / open_gop=0 / weightp=2 / keyint=299 / keyint_min=25 / scenecut=1 / intra_refresh=0 / rc_lookahead=40 / rc=abr / mbtree=1 / bitrate=3000 / ratetol=1.0 / qcomp=0.60 / qpmin=10 / qpmax=51 / qpstep=4 / ip_ratio=1.40 / aq=1:1.00

    Audio
    ID                             : 1
    Format                         : MPEG Audio
    Format version                 : Version 1
    Format profile                 : Layer 3
    Mode                           : Joint stereo
    Mode extension                 : MS Stereo
    Codec ID                       : 55
    Codec ID/Hint                  : MP3
    Duration                       : 1h 14mn
    Bit rate mode                  : Constant
    Bit rate                       : 192 Kbps
    Channel(s)                     : 2 channels
    Sampling rate                  : 48.0 KHz
    Compression mode               : Lossy
    Stream size                    : 102 MiB (6%)
    Alignment                      : Split accross interleaves
    Interleave, duration           : 33 ms (1.00 video frame)
    Interleave, preload duration   : 500 ms
    Writing library                : LAME3.98



    0 0

    Original Post: High.Society.E09.150706.HDTV.X264-LIMO

    http://thetvdb.com/?tab=series&id=296433

    Synopsis
    A love story between a woman, who is looking for a man who can love her although she is not wealthy, and an indigent man, who thinks love is simply a tool that the ruling class uses in order to control the people under them.

    Cast
    Main Cast
    UEE as Jang Yoon Ha (27)
    Sung Joon as Choi Joon Ki (29)
    Park Hyung Shik as Yoo Chang Soo (29)
    Im Ji Yeon as Lee Ji Yi (27)









    Code
    Video
    ID                             : 1
    Format                         : AVC
    Format/Info                    : Advanced Video Codec
    Format profile                 : Main@L4.0
    Format settings, CABAC         : Yes
    Format settings, ReFrames      : 4 frames
    Codec ID                       : V_MPEG4/ISO/AVC
    Duration                       : 58mn 44s
    Bit rate                       : 450 Kbps
    Width                          : 624 pixels
    Height                         : 350 pixels
    Display aspect ratio           : 16:9
    Frame rate mode                : Constant
    Frame rate                     : 29.970 fps
    Color space                    : YUV
    Chroma subsampling             : 4:2:0
    Bit depth                      : 8 bits
    Scan type                      : Progressive
    Bits/(Pixel*Frame)             : 0.069
    Stream size                    : 190 MiB (76%)
    Writing library                : x264 core 130 r2273 b3065e6
    Encoding settings              : cabac=1 / ref=1 / deblock=1:0:0 / analyse=0x1:0x111 / me=hex / subme=2 / psy=1 / psy_rd=1.00:0.00 / mixed_ref=0 / me_range=16 / chroma_me=1 / trellis=0 / 8x8dct=0 / cqm=0 / deadzone=21,11 / fast_pskip=1 / chroma_qp_offset=0 / threads=1 / lookahead_threads=1 / sliced_threads=0 / nr=0 / decimate=1 / interlaced=0 / bluray_compat=0 / constrained_intra=0 / bframes=3 / b_pyramid=2 / b_adapt=1 / b_bias=0 / direct=1 / weightb=1 / open_gop=0 / weightp=1 / keyint=300 / keyint_min=30 / scenecut=40 / intra_refresh=0 / rc_lookahead=10 / rc=abr / mbtree=1 / bitrate=450 / ratetol=1.0 / qcomp=0.60 / qpmin=0 / qpmax=69 / qpstep=4 / vbv_maxrate=20000 / vbv_bufsize=25000 / nal_hrd=none / ip_ratio=1.40 / aq=1:1.00
    Language                       : English
    Default                        : Yes
    Forced                         : No
    Color primaries                : BT.601 NTSC
    Transfer characteristics       : BT.709
    Matrix coefficients            : BT.601

    Audio
    ID                             : 2
    Format                         : MPEG Audio
    Format version                 : Version 1
    Format profile                 : Layer 3
    Mode                           : Joint stereo
    Mode extension                 : MS Stereo
    Codec ID                       : A_MPEG/L3
    Codec ID/Hint                  : MP3
    Duration                       : 58mn 44s
    Bit rate mode                  : Constant
    Bit rate                       : 128 Kbps
    Channel(s)                     : 2 channels
    Sampling rate                  : 48.0 KHz
    Compression mode               : Lossy
    Stream size                    : 53.8 MiB (22%)
    Default                        : Yes
    Forced                         : No



    0 0

    Original Post: High.Society.E09.150706.HDTV.H264.450p-LIMO

    http://thetvdb.com/?tab=series&id=296433

    Synopsis
    A love story between a woman, who is looking for a man who can love her although she is not wealthy, and an indigent man, who thinks love is simply a tool that the ruling class uses in order to control the people under them.

    Cast
    Main Cast
    UEE as Jang Yoon Ha (27)
    Sung Joon as Choi Joon Ki (29)
    Park Hyung Shik as Yoo Chang Soo (29)
    Im Ji Yeon as Lee Ji Yi (27)









    Code
    Video
    ID                                       : 0
    Format                                   : AVC
    Format/Info                              : Advanced Video Codec
    Format profile                           : High@L5.1
    Format settings, CABAC                   : Yes
    Format settings, ReFrames                : 4 frames
    Codec ID                                 : H264
    Bit rate                                 : 1 500 Kbps
    Width                                    : 800 pixels
    Height                                   : 450 pixels
    Display aspect ratio                     : 16:9
    Frame rate mode                          : Variable
    Frame rate                               : 29.970 fps
    Color space                              : YUV
    Chroma subsampling                       : 4:2:0
    Bit depth                                : 8 bits
    Scan type                                : Progressive
    Bits/(Pixel*Frame)                       : 0.139
    Stream size                              : 686 MiB (88%)
    Writing library                          : x264 core 112

    Audio
    ID                                       : 1
    Format                                   : MPEG Audio
    Format version                           : Version 1
    Format profile                           : Layer 3
    Mode                                     : Joint stereo
    Mode extension                           : MS Stereo
    Codec ID                                 : 55
    Codec ID/Hint                            : MP3
    Bit rate mode                            : Constant
    Bit rate                                 : 192 Kbps
    Channel(s)                               : 2 channels
    Sampling rate                            : 48.0 KHz
    Compression mode                         : Lossy
    Stream size                              : 88.3 MiB (11%)
    Alignment                                : Aligned on interleaves
    Interleave, duration                     : 24 ms (0.72 video frame)
    Writing library                          : LAME3.98.2
    Language                                 : Korean



    0 0

    Original Post: High.Society.E09.150706.HDTV.H264.720p-LIMO

    http://thetvdb.com/?tab=series&id=296433

    Synopsis
    A love story between a woman, who is looking for a man who can love her although she is not wealthy, and an indigent man, who thinks love is simply a tool that the ruling class uses in order to control the people under them.

    Cast
    Main Cast
    UEE as Jang Yoon Ha (27)
    Sung Joon as Choi Joon Ki (29)
    Park Hyung Shik as Yoo Chang Soo (29)
    Im Ji Yeon as Lee Ji Yi (27)









    Code
    Video
    ID                               : 0
    Format                           : AVC
    Format/Info                      : Advanced Video Codec
    Format profile                   : High@L5.1
    Format settings, CABAC           : Yes
    Format settings, ReFrames        : 4 frames
    Codec ID                         : H264
    Duration                         : 1h 4mn
    Bit rate                         : 3 000 Kbps
    Width                            : 1 280 pixels
    Height                           : 720 pixels
    Display aspect ratio             : 16:9
    Frame rate mode                  : Variable
    Frame rate                       : 29.970 fps
    Color space                      : YUV
    Chroma subsampling               : 4:2:0
    Bit depth                        : 8 bits
    Scan type                        : Progressive
    Bits/(Pixel*Frame)               : 0.109
    Stream size                      : 1.35 GiB (94%)
    Writing library                  : x264 core 112
    Encoding settings                : cabac=1 / ref=3 / deblock=1:-1:-1 / analyse=0x3:0x113 / me=hex / subme=6 / psy=1 / psy_rd=1.00:1.00 / mixed_ref=1 / me_range=16 / chroma_me=1 / trellis=1 / 8x8dct=1 / cqm=0 / deadzone=21,11 / fast_pskip=0 / chroma_qp_offset=-4 / threads=12 / sliced_threads=0 / nr=0 / decimate=1 / interlaced=0 / constrained_intra=0 / bframes=3 / b_pyramid=2 / b_adapt=1 / b_bias=1 / direct=3 / weightb=1 / open_gop=0 / weightp=2 / keyint=299 / keyint_min=25 / scenecut=1 / intra_refresh=0 / rc_lookahead=40 / rc=abr / mbtree=1 / bitrate=3000 / ratetol=1.0 / qcomp=0.60 / qpmin=10 / qpmax=51 / qpstep=4 / ip_ratio=1.40 / aq=1:1.00

    Audio
    ID                               : 1
    Format                           : MPEG Audio
    Format version                   : Version 1
    Format profile                   : Layer 3
    Mode                             : Joint stereo
    Mode extension                   : MS Stereo
    Codec ID                         : 55
    Codec ID/Hint                    : MP3
    Duration                         : 1h 4mn
    Bit rate mode                    : Constant
    Bit rate                         : 192 Kbps
    Channel(s)                       : 2 channels
    Sampling rate                    : 48.0 KHz
    Stream size                      : 88.0 MiB (6%)
    Alignment                        : Split accross interleaves
    Interleave, duration             : 33 ms (1.00 video frame)
    Interleave, preload duration     : 500 ms
    Writing library                  : LAME3.98.2



    0 0

    Original Post: I.Remember.You.E05.150706.HDTV.X264-LIMO

    http://thetvdb.com/?tab=series&id=296265
    Details

    Title: 너를 기억해 / Neoreul Gieokhae
    Previously known as: Hello Monster (헬로 몬스터)
    Genre: Romance, thriller, mystery
    Episodes: 16
    Broadcast network: KBS2
    Broadcast period: 2015-Jun-22 to 2015-???-??
    Air time: Monday & Tuesday 22:00

    Synopsis
    A passionate detective with a strong track record has been investigating a mysterious former FBI profiler for a long while. They both somehow end up in the same investigation crime team which sparks their romance.

    Cast
    Seo In Gook
    Jang Na Ra
    Kim Jae Young
    Lee Chun Hee
    Choi Won Young
    Park Bo Gum
    Son Seung Won
    Min Sung Wook







    Code
    Video
    ID                             : 1
    Format                         : AVC
    Format/Info                    : Advanced Video Codec
    Format profile                 : Main@L4.0
    Format settings, CABAC         : Yes
    Format settings, ReFrames      : 4 frames
    Codec ID                       : V_MPEG4/ISO/AVC
    Duration                       : 58mn 44s
    Bit rate                       : 450 Kbps
    Width                          : 624 pixels
    Height                         : 350 pixels
    Display aspect ratio           : 16:9
    Frame rate mode                : Constant
    Frame rate                     : 29.970 fps
    Color space                    : YUV
    Chroma subsampling             : 4:2:0
    Bit depth                      : 8 bits
    Scan type                      : Progressive
    Bits/(Pixel*Frame)             : 0.069
    Stream size                    : 190 MiB (76%)
    Writing library                : x264 core 130 r2273 b3065e6
    Encoding settings              : cabac=1 / ref=1 / deblock=1:0:0 / analyse=0x1:0x111 / me=hex / subme=2 / psy=1 / psy_rd=1.00:0.00 / mixed_ref=0 / me_range=16 / chroma_me=1 / trellis=0 / 8x8dct=0 / cqm=0 / deadzone=21,11 / fast_pskip=1 / chroma_qp_offset=0 / threads=1 / lookahead_threads=1 / sliced_threads=0 / nr=0 / decimate=1 / interlaced=0 / bluray_compat=0 / constrained_intra=0 / bframes=3 / b_pyramid=2 / b_adapt=1 / b_bias=0 / direct=1 / weightb=1 / open_gop=0 / weightp=1 / keyint=300 / keyint_min=30 / scenecut=40 / intra_refresh=0 / rc_lookahead=10 / rc=abr / mbtree=1 / bitrate=450 / ratetol=1.0 / qcomp=0.60 / qpmin=0 / qpmax=69 / qpstep=4 / vbv_maxrate=20000 / vbv_bufsize=25000 / nal_hrd=none / ip_ratio=1.40 / aq=1:1.00
    Language                       : English
    Default                        : Yes
    Forced                         : No
    Color primaries                : BT.601 NTSC
    Transfer characteristics       : BT.709
    Matrix coefficients            : BT.601

    Audio
    ID                             : 2
    Format                         : MPEG Audio
    Format version                 : Version 1
    Format profile                 : Layer 3
    Mode                           : Joint stereo
    Mode extension                 : MS Stereo
    Codec ID                       : A_MPEG/L3
    Codec ID/Hint                  : MP3
    Duration                       : 58mn 44s
    Bit rate mode                  : Constant
    Bit rate                       : 128 Kbps
    Channel(s)                     : 2 channels
    Sampling rate                  : 48.0 KHz
    Compression mode               : Lossy
    Stream size                    : 53.8 MiB (22%)
    Default                        : Yes
    Forced                         : No



    0 0

    Original Post: I.Remember.You.E05.150706.HDTV.H264.450p-LIMO

    http://thetvdb.com/?tab=series&id=296265
    Details

    Title: 너를 기억해 / Neoreul Gieokhae
    Previously known as: Hello Monster (헬로 몬스터)
    Genre: Romance, thriller, mystery
    Episodes: 16
    Broadcast network: KBS2
    Broadcast period: 2015-Jun-22 to 2015-???-??
    Air time: Monday & Tuesday 22:00

    Synopsis
    A passionate detective with a strong track record has been investigating a mysterious former FBI profiler for a long while. They both somehow end up in the same investigation crime team which sparks their romance.

    Cast
    Seo In Gook
    Jang Na Ra
    Kim Jae Young
    Lee Chun Hee
    Choi Won Young
    Park Bo Gum
    Son Seung Won
    Min Sung Wook






    Code
    Video
    ID                                       : 0
    Format                                   : AVC
    Format/Info                              : Advanced Video Codec
    Format profile                           : High@L5.1
    Format settings, CABAC                   : Yes
    Format settings, ReFrames                : 4 frames
    Codec ID                                 : H264
    Bit rate                                 : 1 500 Kbps
    Width                                    : 800 pixels
    Height                                   : 450 pixels
    Display aspect ratio                     : 16:9
    Frame rate mode                          : Variable
    Frame rate                               : 29.970 fps
    Color space                              : YUV
    Chroma subsampling                       : 4:2:0
    Bit depth                                : 8 bits
    Scan type                                : Progressive
    Bits/(Pixel*Frame)                       : 0.139
    Stream size                              : 686 MiB (88%)
    Writing library                          : x264 core 112

    Audio
    ID                                       : 1
    Format                                   : MPEG Audio
    Format version                           : Version 1
    Format profile                           : Layer 3
    Mode                                     : Joint stereo
    Mode extension                           : MS Stereo
    Codec ID                                 : 55
    Codec ID/Hint                            : MP3
    Bit rate mode                            : Constant
    Bit rate                                 : 192 Kbps
    Channel(s)                               : 2 channels
    Sampling rate                            : 48.0 KHz
    Compression mode                         : Lossy
    Stream size                              : 88.3 MiB (11%)
    Alignment                                : Aligned on interleaves
    Interleave, duration                     : 24 ms (0.72 video frame)
    Writing library                          : LAME3.98.2
    Language                                 : Korean



    0 0

    Original Post: I.Remember.You.E05.150706.HDTV.H264.720p-LIMO

    http://thetvdb.com/?tab=series&id=296265
    Details

    Title: 너를 기억해 / Neoreul Gieokhae
    Previously known as: Hello Monster (헬로 몬스터)
    Genre: Romance, thriller, mystery
    Episodes: 16
    Broadcast network: KBS2
    Broadcast period: 2015-Jun-22 to 2015-???-??
    Air time: Monday & Tuesday 22:00

    Synopsis
    A passionate detective with a strong track record has been investigating a mysterious former FBI profiler for a long while. They both somehow end up in the same investigation crime team which sparks their romance.

    Cast
    Seo In Gook
    Jang Na Ra
    Kim Jae Young
    Lee Chun Hee
    Choi Won Young
    Park Bo Gum
    Son Seung Won
    Min Sung Wook






    Code
    Video
    ID                               : 0
    Format                           : AVC
    Format/Info                      : Advanced Video Codec
    Format profile                   : High@L5.1
    Format settings, CABAC           : Yes
    Format settings, ReFrames        : 4 frames
    Codec ID                         : H264
    Duration                         : 1h 4mn
    Bit rate                         : 3 000 Kbps
    Width                            : 1 280 pixels
    Height                           : 720 pixels
    Display aspect ratio             : 16:9
    Frame rate mode                  : Variable
    Frame rate                       : 29.970 fps
    Color space                      : YUV
    Chroma subsampling               : 4:2:0
    Bit depth                        : 8 bits
    Scan type                        : Progressive
    Bits/(Pixel*Frame)               : 0.109
    Stream size                      : 1.35 GiB (94%)
    Writing library                  : x264 core 112
    Encoding settings                : cabac=1 / ref=3 / deblock=1:-1:-1 / analyse=0x3:0x113 / me=hex / subme=6 / psy=1 / psy_rd=1.00:1.00 / mixed_ref=1 / me_range=16 / chroma_me=1 / trellis=1 / 8x8dct=1 / cqm=0 / deadzone=21,11 / fast_pskip=0 / chroma_qp_offset=-4 / threads=12 / sliced_threads=0 / nr=0 / decimate=1 / interlaced=0 / constrained_intra=0 / bframes=3 / b_pyramid=2 / b_adapt=1 / b_bias=1 / direct=3 / weightb=1 / open_gop=0 / weightp=2 / keyint=299 / keyint_min=25 / scenecut=1 / intra_refresh=0 / rc_lookahead=40 / rc=abr / mbtree=1 / bitrate=3000 / ratetol=1.0 / qcomp=0.60 / qpmin=10 / qpmax=51 / qpstep=4 / ip_ratio=1.40 / aq=1:1.00

    Audio
    ID                               : 1
    Format                           : MPEG Audio
    Format version                   : Version 1
    Format profile                   : Layer 3
    Mode                             : Joint stereo
    Mode extension                   : MS Stereo
    Codec ID                         : 55
    Codec ID/Hint                    : MP3
    Duration                         : 1h 4mn
    Bit rate mode                    : Constant
    Bit rate                         : 192 Kbps
    Channel(s)                       : 2 channels
    Sampling rate                    : 48.0 KHz
    Stream size                      : 88.0 MiB (6%)
    Alignment                        : Split accross interleaves
    Interleave, duration             : 33 ms (1.00 video frame)
    Interleave, preload duration     : 500 ms
    Writing library                  : LAME3.98.2



    0 0

    Original Post: Tennou no Ryouriban ep11 480p



    http://asianwiki.com/Tenno_no_Ryoriban
    http://thetvdb.com/?tab=series&id=296291&lid=7

    Title: The Emperor's Cook
    Romaji: Tenno no Ryoriban
    Japanese: 天皇の料理番
    Genre: Historical, Human Drama
    Director: Yuichiro Hirakawa, Shingo Okamoto
    Writer: Hisahide Sugimori (novel), Yoshiko Morishita
    Network: TBS
    Episodes: 12
    Release Date: 2015-Apr-26 to 2015-Jul-12
    Runtime: Sundays 21:00
    Theme song: Yume Miru Hito (Dreamer) by Sada Masashi
    Language: Japanese
    Country: Japan
    Subtitles: English here: subie06
    RAW credit to furransu

    Cast
       Takeru Satoh - Tokuzo Akiyama
       Haru Kuroki - Toshiko Takahama
       Kenta Kiritani - Shintaro Matsui
       Tasuku Emoto - Tatsuyoshi Yamagami
       Saki Takaoka - Ume Morita
       Gajiro Sato - Sennosuke Morita
       Sei Ashina - Kayano
       Ryu Morioka - Kurasaburo Akiyama
       Anna Ishibashi - Koshi Takahama
       Yoshiyuki Tsubokura - Okumura
       Jinta Nishizawa - Masashi Sasaki
       Daisuke Kuroda - Araki
       Takeshi Onishi - Sekiguchi
       Mamoru Watanabe - Sugiyama
       Hirotaka Ookuma - Fujita
       Yuji Kido - Suzuki
       Ryohei Suzuki - Shutaro Akiyama
       Tetsuya Takeda - Shogo
       Hideaki Ito - Yukichi Tanabe
       Yumi Asou - Okichi (restaurant owner)
       Masaya Kato - Takeshiro Ioki
       Yojin Hino - Kinnosuke Takahama
       Satoko Oshima - Harugo Takahama
       Jun Miho - Fuki Akiyama
       Tetta Sugimoto - Shuzo Akiyama
       Kaoru Kobayashi - Usami
       Satoko Oshima
       Hiromi Go - Shin'ichirō Awano

    Synopsis
    Tokuzo Akiyama (Takeru Satoh) is a young man living in a rural area. One day, he eats cutlet. That experience leads him to become a cook for western style food. He first goes to Tokyo and then Paris, France to learn about the culinary arts. Fighting against discrimination and prejudice, he becomes a chef at the Hotel Ritz in Paris, France. At the age of 26, he becomes the chef for the Emperor of Japan.

    In 1904, at New Year's, the Akiyama family in Fukui prefecture were full of hope except for one thing. Shuzo (Tetta Sugimoto) worries that his second son, Tokuzo (Takeru Satoh) just quits things too easily unlike the first son, Shutaro (Ryohei Suzuki). The worried father arranges his son to marry Toshiko (Haru Kuroki) of the Takahama family who runs a seaweed merchant. One day, newly-married Tokuzo encounters Sergeant Tanabe (Hideaki Ito) of the Sabae Regiment while delivering seaweed. Tokuzo has a piece of freshly-fried cutlet offered by Tanabe and is struck by the overwhelming taste. ~ TBS

    General
    Complete name                  : Tennou no Ryouriban ep11 (848x480 x264).mp4
    Format                         : MPEG-4
    Format profile                 : Base Media
    Codec ID                       : isom
    File size                      : 410 MiB
    Duration                       : 55mn 17s
    Overall bit rate mode          : Variable
    Overall bit rate               : 1 037 Kbps

    Video
    ID                             : 1
    Format                         : AVC
    Format/Info                    : Advanced Video Codec
    Format profile                 : High@L4.1
    Format settings, CABAC         : Yes
    Format settings, ReFrames      : 4 frames
    Codec ID                       : avc1
    Codec ID/Info                  : Advanced Video Coding
    Duration                       : 55mn 17s
    Bit rate                       : 904 Kbps
    Maximum bit rate               : 6 091 Kbps
    Width                          : 848 pixels
    Height                         : 480 pixels
    Display aspect ratio           : 16:9
    Frame rate mode                : Constant
    Frame rate                     : 29.970 fps
    Color space                    : YUV
    Chroma subsampling             : 4:2:0
    Bit depth                      : 8 bits
    Scan type                      : Progressive
    Bits/(Pixel*Frame)             : 0.074
    Stream size                    : 358 MiB (87%)

    Audio
    ID                             : 2
    Format                         : AAC
    Format/Info                    : Advanced Audio Codec
    Format profile                 : LC
    Codec ID                       : 40
    Duration                       : 55mn 17s
    Bit rate mode                  : Variable
    Bit rate                       : 128 Kbps
    Maximum bit rate               : 137 Kbps
    Channel count                  : 2 channels
    Channel positions              : Front: L R
    Sampling rate                  : 48.0 KHz
    Compression mode               : Lossy







    0 0

    Original Post: Hello Counselor.E229.150615.HDTV.XviD-LIMO

    http://thetvdb.com/?tab=series&id=273388
    "Hello Counselor" is a talk show with an emphasis on people and their stories. From stories about the daily lives of regular people regardless of their age or gender to concerns that are too embarrassing to reveal! Our program will bring laughter and move your heart. The purpose of this program is to help take down communication barriers by sharing stories about life. Comedians Shin Dongyeop, Jeong Chanwu, Kim Taegyun, and Lee Yeongja are the hosts of this program with various special guests appearing on the show weekly

    Guests Gu Hara, Han Seungyeon, Seo Inyoung & Eun Jiwon






    Code
    Video
    ID                             : 0
    Format                         : MPEG-4 Visual
    Format profile                 : Advanced Simple@L5
    Format settings, BVOP          : No
    Format settings, QPel          : No
    Format settings, GMC           : No warppoints
    Format settings, Matrix        : Default (MPEG)
    Codec ID                       : XVID
    Codec ID/Hint                  : XviD
    Duration                       : 1h 27mn
    Bit rate                       : 1 448 Kbps
    Width                          : 624 pixels
    Height                         : 352 pixels
    Display aspect ratio           : 16:9
    Frame rate                     : 29.970 fps
    Color space                    : YUV
    Chroma subsampling             : 4:2:0
    Bit depth                      : 8 bits
    Scan type                      : Progressive
    Compression mode               : Lossy
    Bits/(Pixel*Frame)             : 0.220
    Stream size                    : 908 MiB (91%)
    Writing library                : XviD 1.2.1 (UTC 2008-12-04)

    Audio
    ID                             : 1
    Format                         : MPEG Audio
    Format version                 : Version 1
    Format profile                 : Layer 3
    Mode                           : Joint stereo
    Mode extension                 : MS Stereo
    Codec ID                       : 55
    Codec ID/Hint                  : MP3
    Duration                       : 1h 27mn
    Bit rate mode                  : Constant
    Bit rate                       : 128 Kbps
    Channel(s)                     : 2 channels
    Sampling rate                  : 48.0 KHz
    Compression mode               : Lossy
    Stream size                    : 80.3 MiB (8%)
    Alignment                      : Aligned on interleaves
    Interleave, duration           : 24 ms (0.72 video frame)
    Writing library                : LAME3.98.2
    Language                       : Undefined



    0 0

    Original Post: Hello Counselor.E229.150615.HDTV.H264.720p-LIMO

    http://thetvdb.com/?tab=series&id=273388
    "Hello Counselor" is a talk show with an emphasis on people and their stories. From stories about the daily lives of regular people regardless of their age or gender to concerns that are too embarrassing to reveal! Our program will bring laughter and move your heart. The purpose of this program is to help take down communication barriers by sharing stories about life. Comedians Shin Dongyeop, Jeong Chanwu, Kim Taegyun, and Lee Yeongja are the hosts of this program with various special guests appearing on the show weekly

    Guests Gu Hara, Han Seungyeon, Seo Inyoung & Eun Jiwon






    Code
    Video
    ID                             : 0
    Format                         : AVC
    Format/Info                    : Advanced Video Codec
    Format profile                 : High@L5.1
    Format settings, CABAC         : Yes
    Format settings, ReFrames      : 4 frames
    Codec ID                       : H264
    Duration                       : 1h 15mn
    Bit rate                       : 2 715 Kbps
    Nominal bit rate               : 3 000 Kbps
    Width                          : 1 280 pixels
    Height                         : 720 pixels
    Display aspect ratio           : 16:9
    Frame rate mode                : Variable
    Frame rate                     : 29.970 fps
    Color space                    : YUV
    Chroma subsampling             : 4:2:0
    Bit depth                      : 8 bits
    Scan type                      : Progressive
    Bits/(Pixel*Frame)             : 0.098
    Stream size                    : 1.43 GiB (93%)
    Writing library                : x264 core 112
    Encoding settings              : cabac=1 / ref=3 / deblock=1:-1:-1 / analyse=0x3:0x113 / me=hex / subme=6 / psy=1 / psy_rd=1.00:1.00 / mixed_ref=1 / me_range=16 / chroma_me=1 / trellis=1 / 8x8dct=1 / cqm=0 / deadzone=21,11 / fast_pskip=0 / chroma_qp_offset=-4 / threads=12 / sliced_threads=0 / nr=0 / decimate=1 / interlaced=0 / constrained_intra=0 / bframes=3 / b_pyramid=2 / b_adapt=1 / b_bias=1 / direct=3 / weightb=1 / open_gop=0 / weightp=2 / keyint=299 / keyint_min=25 / scenecut=1 / intra_refresh=0 / rc_lookahead=40 / rc=cbr / mbtree=1 / bitrate=3000 / ratetol=1.0 / qcomp=0.60 / qpmin=1 / qpmax=51 / qpstep=4 / vbv_maxrate=3000 / vbv_bufsize=1950 / ip_ratio=1.40 / aq=1:1.00 / nal_hrd=none

    Audio
    ID                             : 1
    Format                         : MPEG Audio
    Format version                 : Version 1
    Format profile                 : Layer 3
    Mode                           : Joint stereo
    Codec ID                       : 55
    Codec ID/Hint                  : MP3
    Duration                       : 1h 15mn
    Bit rate mode                  : Constant
    Bit rate                       : 192 Kbps
    Channel(s)                     : 2 channels
    Sampling rate                  : 48.0 KHz
    Compression mode               : Lossy
    Stream size                    : 104 MiB (7%)
    Alignment                      : Split accross interleaves
    Interleave, duration           : 33 ms (1.00 video frame)
    Interleave, preload duration   : 500 ms
    Writing library                : LAME3.98



    0 0

    Original Post: Death Note - E01 (2015 Drama Series) 720p



    http://asianwiki.com/Death_Note_%28Japanese_Drama%29
    http://mydramalist.com/14075-death-note

    Title: Death Note
    Romaji: Desu Noto
    Hangul:  デスノート
    Release Date: 05-Julio-2015
    Network: NTV
    Runtime: Please note that the first episode is around 1 hour 11 minutes long, the other episodes will likely be shorter than this at around 45-50 minutes.
    Genre: Detective, Manga, Mystery, Psychological, Supernatural, Thriller
    Language:Japanese
    Country: Japan
    Subtitles: not at the moment

    Cast:
       Kubota Masataka - Light Yagami
       Yamazaki Kento - L
       Yuki Mio - Near
       Hinako Sano - Misa Amane
       Yutaka Matsushige - Soichiro Yagami
       Reiko Fujiwara - Sayu Yagami
       Megumi Seki - Shoko Himura
       Goki Maeda - detective Tota Matsuda
       Tomohisa Yuge -  detective Shuichi Aizawa
       Kazuaki Hankai - Watari
       Jiro Sato - detective Kanzo Mogi



    Synopsis:

    Light Yagami is an ordinary university student. One day, he receives a death note which changes his life. The death note awakens his warped sense of justice and genius. He becomes murderer Kira and punishes criminals.
    L is a well known private detective. L appears in front of Light Yagami. L defines Kira as evil and decides to catch Kira. Then N, who has a beautiful appearance but dangerous existence, appears.









    Mediainfo
    General
    Complete name : Death Note - 01 (2015 Drama Series) [720p].mp4
    Format : MPEG-4
    Format profile: Base Media
    Codec ID: isom
    File size : 736 MiB
    Duration: 1h 11mn
    Overall bit rate : 1 448 Kbps
    Writing application : Lavf54.59.106

    Video
    ID: 1
    Format : AVC
    Format/Info: Advanced Video Codec
    Format profile: High@L3.1
    Format settings, CABAC : Yes
    Format settings, ReFrames : 5 frames
    Codec ID: avc1
    Codec ID/Info : Advanced Video Coding
    Duration: 1h 11mn
    Bit rate: 1 377 Kbps
    Width: 1 280 pixels
    Height : 720 pixels
    Display aspect ratio: 16:9
    Frame rate mode : Variable
    Frame rate : 29.970 fps
    Minimum frame rate : 3.096 fps
    Maximum frame rate : 1 000.000 fps
    Color space: YUV
    Chroma subsampling : 4:2:0
    Bit depth : 8 bits
    Scan type : Progressive
    Bits/(Pixel*Frame) : 0.050
    Stream size: 699 MiB (95%)

    Audio
    ID: 2
    Format : AAC
    Format/Info: Advanced Audio Codec
    Format profile: HE-AAC / LC
    Codec ID: 40
    Duration: 1h 11mn
    Bit rate mode : Constant
    Bit rate: 64.0 Kbps
    Channel(s) : 2 channels
    Channel positions: Front: L R
    Sampling rate : 48.0 KHz / 24.0 KHz
    Compression mode : Lossy
    Stream size: 32.5 MiB (4%)


    0 0

    Original Post: My.Beautiful.Bride.E05.150704.HDTV.XviD-WITH

    http://thetvdb.com/?tab=series&id=295917
    Details
    Title: 아름다운 나의 신부 / Areumdawoon Naeui Shinboo
    Genre: Melodrama, romance
    Episodes: 16
    Broadcast network: OCN
    Broadcast period: 2015-Jun-20 to 2015-???-??
    Air time: Saturday & Sunday 23:00
    Original Soundtrack: My Beautiful Bride OST
    Synopsis
    “My soon-to-be bride all of sudden disappeared. And I turned into a monster to find her”. The drama depicts the heartbreaking, pure hearted love by a man, who drives himself to the extreme situation in order to find his only love, his bride.







    Code
    Video
    ID                                       : 0
    Format                                   : MPEG-4 Visual
    Format profile                           : Advanced Simple@L5
    Format settings, BVOP                    : 2
    Format settings, QPel                    : No
    Format settings, GMC                     : No warppoints
    Format settings, Matrix                  : Default (H.263)
    Muxing mode                              : Packed bitstream
    Codec ID                                 : XVID
    Codec ID/Hint                            : XviD
    Duration                                 : 1h 3mn
    Bit rate                                 : 1 238 Kbps
    Width                                    : 640 pixels
    Height                                   : 352 pixels
    Display aspect ratio                     : 16:9
    Frame rate                               : 29.970 fps
    Color space                              : YUV
    Chroma subsampling                       : 4:2:0
    Bit depth                                : 8 bits
    Scan type                                : Progressive
    Compression mode                         : Lossy
    Bits/(Pixel*Frame)                       : 0.183
    Stream size                              : 566 MiB (90%)
    Writing library                          : XviD 58

    Audio
    ID                                       : 1
    Format                                   : MPEG Audio
    Format version                           : Version 1
    Format profile                           : Layer 3
    Mode                                     : Joint stereo
    Mode extension                           : MS Stereo
    Codec ID                                 : 55
    Codec ID/Hint                            : MP3
    Duration                                 : 1h 3mn
    Bit rate mode                            : Constant
    Bit rate                                 : 128 Kbps
    Channel(s)                               : 2 channels
    Sampling rate                            : 48.0 KHz
    Compression mode                         : Lossy
    Stream size                              : 58.5 MiB (9%)
    Alignment                                : Aligned on interleaves
    Interleave, duration                     : 33 ms (1.00 video frame)
    Interleave, preload duration             : 504 ms



    0 0

    Original Post: My.Beautiful.Bride.E05.150704.HDTV.H264.450p-WITH

    http://thetvdb.com/?tab=series&id=295917
    Details
    Title: 아름다운 나의 신부 / Areumdawoon Naeui Shinboo
    Genre: Melodrama, romance
    Episodes: 16
    Broadcast network: OCN
    Broadcast period: 2015-Jun-20 to 2015-???-??
    Air time: Saturday & Sunday 23:00
    Original Soundtrack: My Beautiful Bride OST
    Synopsis
    “My soon-to-be bride all of sudden disappeared. And I turned into a monster to find her”. The drama depicts the heartbreaking, pure hearted love by a man, who drives himself to the extreme situation in order to find his only love, his bride.







    Code
    Video
    ID                             : 1
    Format                         : AVC
    Format/Info                    : Advanced Video Codec
    Format profile                 : High@L4.1
    Format settings, CABAC         : Yes
    Format settings, ReFrames      : 4 frames
    Codec ID                       : avc1
    Codec ID/Info                  : Advanced Video Coding
    Duration                       : 1h 3mn
    Source duration                : 1h 3mn
    Bit rate                       : 1 400 Kbps
    Maximum bit rate               : 3 753 Kbps
    Width                          : 800 pixels
    Height                         : 450 pixels
    Display aspect ratio           : 16:9
    Frame rate mode                : Constant
    Frame rate                     : 29.970 fps
    Color space                    : YUV
    Chroma subsampling             : 4:2:0
    Bit depth                      : 8 bits
    Scan type                      : Progressive
    Bits/(Pixel*Frame)             : 0.130
    Stream size                    : 650 MiB
    Source stream size             : 650 MiB
    Writing library                : x264 core 128 r2216 198a7ea

    Audio
    ID                             : 2
    Format                         : AAC
    Format/Info                    : Advanced Audio Codec
    Format profile                 : LC
    Codec ID                       : 40
    Duration                       : 1h 3mn
    Bit rate mode                  : Variable
    Bit rate                       : 256 Kbps
    Maximum bit rate               : 262 Kbps
    Channel(s)                     : 2 channels
    Channel positions              : Front: L R
    Sampling rate                  : 48.0 KHz
    Compression mode               : Lossy
    Stream size                    : 117 MiB (42%)



    0 0

    Original Post: My.Beautiful.Bride.E05.150704.HDTV.H264.720p-WITH

    http://thetvdb.com/?tab=series&id=295917
    Details
    Title: 아름다운 나의 신부 / Areumdawoon Naeui Shinboo
    Genre: Melodrama, romance
    Episodes: 16
    Broadcast network: OCN
    Broadcast period: 2015-Jun-20 to 2015-???-??
    Air time: Saturday & Sunday 23:00
    Original Soundtrack: My Beautiful Bride OST
    Synopsis
    “My soon-to-be bride all of sudden disappeared. And I turned into a monster to find her”. The drama depicts the heartbreaking, pure hearted love by a man, who drives himself to the extreme situation in order to find his only love, his bride.






    Code
    Video
    ID                                       : 1
    Format                                   : AVC
    Format/Info                              : Advanced Video Codec
    Format profile                           : Baseline@L1.3
    Format settings, CABAC                   : No
    Format settings, ReFrames                : 1 frame
    Codec ID                                 : avc1
    Codec ID/Info                            : Advanced Video Coding
    Duration                                 : 1h 3mn
    Bit rate                                 : 2 200 Kbps
    Maximum bit rate                         : 6 012 Kbps
    Width                                    : 1 280 pixels
    Height                                   : 720 pixels
    Display aspect ratio                     : 16:9
    Frame rate mode                          : Constant
    Frame rate                               : 29.970 fps
    Color space                              : YUV
    Chroma subsampling                       : 4:2:0
    Bit depth                                : 8 bits
    Scan type                                : Progressive
    Bits/(Pixel*Frame)                       : 0.080
    Stream size                              : 1 018 MiB (90%)
    Writing library                          : x264 core 128 r2216 198a7ea
    Encoding settings                        : cabac=0 / ref=1 / deblock=1:0:0 / analyse=0x1:0x111 / me=hex / subme=7 / psy=1 / psy_rd=1.00:0.00 / mixed_ref=0 / me_range=16 / chroma_me=1 / trellis=1 / 8x8dct=0 / cqm=0 / deadzone=21,11 / fast_pskip=1 / chroma_qp_offset=-2 / threads=12 / lookahead_threads=2 / sliced_threads=0 / nr=0 / decimate=1 / interlaced=0 / bluray_compat=0 / constrained_intra=0 / bframes=0 / weightp=0 / keyint=250 / keyint_min=25 / scenecut=40 / intra_refresh=0 / rc_lookahead=40 / rc=abr / mbtree=1 / bitrate=2200 / ratetol=1.0 / qcomp=0.60 / qpmin=0 / qpmax=69 / qpstep=4 / vbv_maxrate=50000 / vbv_bufsize=50000 / nal_hrd=none / ip_ratio=1.40 / aq=1:1.00
    Encoded date                             : UTC 2015-03-28 15:15:31
    Tagged date                              : UTC 2015-03-28 15:20:35

    Audio
    ID                                       : 2
    Format                                   : AAC
    Format/Info                              : Advanced Audio Codec
    Format profile                           : LC
    Codec ID                                 : 40
    Duration                                 : 1h 3mn
    Bit rate mode                            : Variable
    Bit rate                                 : 256 Kbps
    Maximum bit rate                         : 262 Kbps
    Channel(s)                               : 2 channels
    Channel positions                        : Front: L R
    Sampling rate                            : 48.0 KHz
    Compression mode                         : Lossy
    Stream size                              : 117 MiB (10%)






    Code
    Video
    ID                                       : 0
    Format                                   : MPEG-4 Visual
    Format profile                           : Advanced Simple@L5
    Format settings, BVOP                    : 2
    Format settings, QPel                    : No
    Format settings, GMC                     : No warppoints
    Format settings, Matrix                  : Default (H.263)
    Muxing mode                              : Packed bitstream
    Codec ID                                 : XVID
    Codec ID/Hint                            : XviD
    Duration                                 : 1h 3mn
    Bit rate                                 : 1 238 Kbps
    Width                                    : 640 pixels
    Height                                   : 352 pixels
    Display aspect ratio                     : 16:9
    Frame rate                               : 29.970 fps
    Color space                              : YUV
    Chroma subsampling                       : 4:2:0
    Bit depth                                : 8 bits
    Scan type                                : Progressive
    Compression mode                         : Lossy
    Bits/(Pixel*Frame)                       : 0.183
    Stream size                              : 566 MiB (90%)
    Writing library                          : XviD 58

    Audio
    ID                                       : 1
    Format                                   : MPEG Audio
    Format version                           : Version 1
    Format profile                           : Layer 3
    Mode                                     : Joint stereo
    Mode extension                           : MS Stereo
    Codec ID                                 : 55
    Codec ID/Hint                            : MP3
    Duration                                 : 1h 3mn
    Bit rate mode                            : Constant
    Bit rate                                 : 128 Kbps
    Channel(s)                               : 2 channels
    Sampling rate                            : 48.0 KHz
    Compression mode                         : Lossy
    Stream size                              : 58.5 MiB (9%)
    Alignment                                : Aligned on interleaves
    Interleave, duration                     : 33 ms (1.00 video frame)
    Interleave, preload duration             : 504 ms



    0 0

    Original Post: Killer Clans 720p BDRip x264 DTS Mandarin

    Killer Clans 720p BDRip x264 DTS Mandarin


    Title: Killer Clans
    Revised romanization: Liu Xing Hu Die Jian
    Chinese: 流星·蝴蝶·剑

    Year: 1976
    Theatrical release date: 20 March 1976 (Hong Kong)
    Blu-Ray release date: 20 February 2015
    Runtime: 01:36:48
    Genre: Action, Adventure, Martial Arts
    Languages: Mandarin Chinese
    Country: Hong Kong
    Subtitles: English
    Source: Region B/2 German Blu-Ray
    IMDB URL: http://www.imdb.com/title/tt0074745/
    HongKong CineMagic URL: http://www.hkcinemagic.com/en/movie.asp?id=1689

    Director:  Chu Yuan
    Screenplay: Ni Kuang, based on the novel 'Meteor, Butterfly, Sword' by Gu Long

    Action Director:
    Yuen Cheung-yan, Tong Gaai

    Cast: Chung Wa, Chen Ping, Ku Feng, Yueh Hua, Lo Lieh, Wong Chung, Cheng Li, Fan Mei Sheng, Yeung Chi Hing, Ling Yun

    Synopsis: Based on a popular swordplay novel, this colorful and complex saga (whose Chinese title literally translates into the poetic Meteor, Butterfly, Sword) has enough conspiracies, stratagems, and sword fights to fascinate even novice kung-fu cinema viewers. The cast of Shaw Brothers' leading swordsmen and swordswomen are masterfully staged by Yuen Cheung-yan, the brother of Matrix and Crouching Tiger Hidden Dragon martial arts choreographer Yuen Woo-ping. The result is both a great action movie and an exceptional dramatic film.

    [screens]  







    Media Information:

    Code
    Duration                                 : 1h 36mn
    Overall bit rate mode                    : Variable
    Overall bit rate                         : 3 617 Kbps

    Video
    ID                                       : 1
    Format                                   : AVC
    Format/Info                              : Advanced Video Codec
    Format profile                           : High@L4.1
    Format settings, CABAC                   : Yes
    Format settings, ReFrames                : 5 frames
    Codec ID                                 : V_MPEG4/ISO/AVC
    Duration                                 : 1h 36mn
    Nominal bit rate                         : 2 400 Kbps
    Width                                    : 1 280 pixels
    Height                                   : 544 pixels
    Display aspect ratio                     : 2.35:1
    Frame rate mode                          : Constant
    Frame rate                               : 25.000 fps
    Color space                              : YUV
    Chroma subsampling                       : 4:2:0
    Bit depth                                : 8 bits
    Scan type                                : Progressive
    Bits/(Pixel*Frame)                       : 0.138
    Writing library                          : x264 core 146 r2538 121396c
    Encoding settings                        : cabac=1 / ref=5 / deblock=1:0:0 / analyse=0x3:0x113 / me=umh / subme=8 / psy=1 / psy_rd=1.00:0.00 / mixed_ref=1 / me_range=16 / chroma_me=1 / trellis=1 / 8x8dct=1 / cqm=0 / deadzone=21,11 / fast_pskip=1 / chroma_qp_offset=-2 / threads=12 / lookahead_threads=2 / sliced_threads=0 / nr=100 / decimate=1 / interlaced=0 / bluray_compat=0 / constrained_intra=0 / bframes=3 / b_pyramid=2 / b_adapt=2 / b_bias=0 / direct=3 / weightb=1 / open_gop=0 / weightp=2 / keyint=250 / keyint_min=25 / scenecut=40 / intra_refresh=0 / rc_lookahead=50 / rc=2pass / mbtree=1 / bitrate=2400 / ratetol=1.0 / qcomp=0.60 / qpmin=0 / qpmax=69 / qpstep=4 / cplxblur=20.0 / qblur=0.5 / ip_ratio=1.40 / aq=1:1.00
    Default                                  : Yes
    Forced                                   : No

    Audio
    ID                                       : 2
    Format                                   : DTS
    Format/Info                              : Digital Theater Systems
    Format profile                           : MA / Core
    Mode                                     : 16
    Format settings, Endianness              : Big
    Codec ID                                 : A_DTS
    Duration                                 : 1h 36mn
    Bit rate mode                            : Variable
    Bit rate                                 : Unknown / 1 152 Kbps
    Channel(s)                               : 2 channels
    Channel positions                        : Front: L R
    Sampling rate                            : 48.0 KHz
    Bit depth                                : 16 bits
    Compression mode                         : Lossless / Lossy
    Language                                 : Chinese
    Default                                  : Yes
    Forced                                   : No

    Menu
    00:00:00.000                             : en:Chapter 01
    00:10:50.120                             : en:Chapter 02
    00:25:29.400                             : en:Chapter 03
    00:35:55.480                             : en:Chapter 04
    00:52:14.080                             : en:Chapter 05
    01:08:18.000                             : en:Chapter 06
    01:15:28.720                             : en:Chapter 07
    01:24:15.040                             : en:Chapter 08




    0 0

    Original Post: Invincible Shaolin 720p BDRip x264 DTS Mandarin

    Invincible Shaolin 720p BDRip x264 DTS Mandarin


    Title: Invincible Shaolin
    Revised romanization: Nan Shao Lin yu bei Shao Lin
    Chinese: 南少林與北少林

    Year: 1978
    Theatrical release date: 19 November 1978 (Hong Kong)
    Blu-Ray release date: 25 January 2015
    Runtime: 01:38:40 (h:m:s) (compare to Celestial DVD 1:42:58, pre-Celestial DVD 1:38:15)
    Genre: Action, Adventure, Martial Arts
    Languages: Mandarin Chinese
    Country: Hong Kong
    Subtitles: English (attached, separate SRT file)
    Source: Region B/2 German Blu-Ray |  release info: http://www.blu-ray.com/movies/Der-Hollentor-der-Shaolin-Blu-ray/117993/
    IMDB URL: http://www.imdb.com/title/tt0077973/
    HKMDB URL: http://hkmdb.com/db/movies/view.mhtml?id=5935&display_set=eng

    Director: Chang Cheh
    Screenplay: Chang Cheh, Ni Kuang

    Action Directors:
    Lu Feng, Robert Tai Chi-Hsien, Leung Ting

    Cast: Lu Feng, Sheng Chiang, Chien Sun, Kuo Chue, Philip Kwok

    Synopsis: Three North Shaolin teachers (Lu Feng, Chang Sheng, and Sun Chien) are called on by the Manchus to teach their soldiers and are urged to challenge the current South Shaolin teachers. They defeat the South Shaolin teachers and, that night, the head general (Wang Lung Wei) kills the South Shaolin teachers and blames their death on the North Shaolin teachers. The South Shaolin master sends more of his pupils, who are killed accidentally by the North Shaolin teachers. He finally sends two more (Wei Pai and Lo Meng) of his students to train with old masters and trains one student (Kuo Chui) himself with the goal of finally defeating the North Shaolin experts.

    [screens]  








    Media Information:

    Code
    Overall bit rate mode                    : Variable
    Overall bit rate                         : 3 417 Kbps

    Video
    ID                                       : 1
    Format                                   : AVC
    Format/Info                              : Advanced Video Codec
    Format profile                           : High@L4.1
    Format settings, CABAC                   : Yes
    Format settings, ReFrames                : 5 frames
    Codec ID                                 : V_MPEG4/ISO/AVC
    Duration                                 : 1h 38mn
    Nominal bit rate                         : 2 400 Kbps
    Width                                    : 1 280 pixels
    Height                                   : 544 pixels
    Display aspect ratio                     : 2.35:1
    Frame rate mode                          : Constant
    Frame rate                               : 25.000 fps
    Color space                              : YUV
    Chroma subsampling                       : 4:2:0
    Bit depth                                : 8 bits
    Scan type                                : Progressive
    Bits/(Pixel*Frame)                       : 0.138
    Writing library                          : x264 core 146 r2538 121396c
    Encoding settings                        : cabac=1 / ref=5 / deblock=1:0:0 / analyse=0x3:0x113 / me=umh / subme=8 / psy=1 / psy_rd=1.00:0.00 / mixed_ref=1 / me_range=16 / chroma_me=1 / trellis=1 / 8x8dct=1 / cqm=0 / deadzone=21,11 / fast_pskip=1 / chroma_qp_offset=-2 / threads=12 / lookahead_threads=2 / sliced_threads=0 / nr=100 / decimate=1 / interlaced=0 / bluray_compat=0 / constrained_intra=0 / bframes=3 / b_pyramid=2 / b_adapt=2 / b_bias=0 / direct=3 / weightb=1 / open_gop=0 / weightp=2 / keyint=250 / keyint_min=25 / scenecut=40 / intra_refresh=0 / rc_lookahead=50 / rc=2pass / mbtree=1 / bitrate=2400 / ratetol=1.0 / qcomp=0.60 / qpmin=0 / qpmax=69 / qpstep=4 / cplxblur=20.0 / qblur=0.5 / ip_ratio=1.40 / aq=1:1.00
    Default                                  : Yes
    Forced                                   : No

    Audio
    ID                                       : 2
    Format                                   : DTS
    Format/Info                              : Digital Theater Systems
    Format profile                           : MA / Core
    Mode                                     : 16
    Format settings, Endianness              : Big
    Codec ID                                 : A_DTS
    Duration                                 : 1h 38mn
    Bit rate mode                            : Variable
    Bit rate                                 : Unknown / 960 Kbps
    Channel(s)                               : 2 channels
    Channel positions                        : Front: L R
    Sampling rate                            : 48.0 KHz
    Bit depth                                : 16 bits
    Compression mode                         : Lossless / Lossy
    Language                                 : Chinese
    Default                                  : Yes
    Forced                                   : No

    Menu
    00:00:00.000                             : en:Chapter 01
    00:13:27.560                             : en:Chapter 02
    00:25:26.520                             : en:Chapter 03
    00:36:11.520                             : en:Chapter 04
    00:50:18.560                             : en:Chapter 05
    01:06:35.760                             : en:Chapter 06
    01:17:01.680                             : en:Chapter 07
    01:24:54.720                             : en:Chapter 08




    0 0

    Original Post: Shaolin Wooden Man 少林木人巷 (1976) NTSC DVD5 - Thai subs only




     IMDb Link........: http://www.imdb.com/title/tt0075201/?ref_=fn_al_tt_1

     Genre............: Action
     Distributor......: Triple x
     Year.............: 1976
     Country..........: Hong Kong
     Director.........: Chi-Hwa Chen

     Source...........: DVD5 Retail
     DVD Format.......: NTSC
     DVD Size.........: DVD5
     Programs Used....: Not my rip
     Video Bitrate....:
     Screen Format....: Widescreen
     Audio Language...: Thai , Cantonese
     Audio Format.....: DD 5.1
     Subtitles........: Thai

     Menu.............: [x] Untouched
                        [ ] Stripped

     Video............: [x] Untouched
                        [ ] Re-encoded

     DVD Extras.......: [x] Untouched
                        [ ] Re-encoded
                        [ ] Stripped
                        [ ] None on source

    Uploader's Comments:












    0 0

    Original Post: [Single] Girls' Generation – Party



    Release Date: 2015.07.07
    Genre: Dance, R&B / Soul
    Bit Rate: 320kbps
    Source: Melon

    Description: Girls' Generation will be coming back with two songs, "PARTY" and "Check". "Party" is a refreshing summer pop song, while "Check" is a sexy and groovy R&B track.

    Tracklist:
    01. PARTY
    02. Check
    03. PARTY (.inst)



    Code
    Apologies if the tags are messed up, they appear fine with the Korean Language Pack installed.


    http://en.wikipedia.org/wiki/Girls%27_Generation


    0 0

    Original Post: When I See You Again (2015) E06 Eng Sub (Ongoing) 720p



    Details

    Title: 他看她的第2眼
    English title: When I See You Again
    Genre: Romance, comedy
    Episodes: 20
    Broadcast network: TTV / SETTV
    Broadcast period: 2015-May-31
    Air time: Sunday 22:00
    Opening theme song: xxx by xxx
    Ending theme song: xxx by xxx
    thetvdb: none

    English Srt: Credit DramaFever, thanks to abugemilang

    Synopsis

    Xia You Qian (Jasper Liu) is the total package. He’s good-looking, a highly successful head of a private equity company and well liked by everyone around him. Even competitors like Hu Yan Ze (Jet Chao) can’t help but respect him and wealthy socialites like Hu Yong Qing (Ivy Shao) are in love with him. But You Qian also has the keen ability to make accurate assessments about people at first sight using his strong observational skills. When You Qian and his grandfather are invited to Pu Lang village to judge a competition, he runs into An Xi (Mandy Wei), a woman who was responsible for You Qian nearly losing his life 10 years ago. An Xi is forced to enter the competition to try to earn the prize money to save her hostel, which she inherited from her father but is riddled with debt. After You Qian’s prejudice forces An Xi to lose the competition, will she be forced to marry her creditor to pay back her debts? “When I See You Again” is a 2015 Taiwanese drama series.

    Cast

    Main Cast
    Jasper Liu
    Mandy Wei
    Ivy Shao
    Jet Chao
    Xiu Qin
    Zooey Tseng








    Code
    Video
    ID                                       : 1
    Format                                   : AVC
    Format/Info                              : Advanced Video Codec
    Format profile                           : Main@L3.1
    Format settings, CABAC                   : Yes
    Format settings, ReFrames                : 4 frames
    Codec ID                                 : avc1
    Codec ID/Info                            : Advanced Video Coding
    Duration                                 : 1h 13mn
    Bit rate                                 : 1 504 Kbps
    Width                                    : 1 280 pixels
    Height                                   : 720 pixels
    Display aspect ratio                     : 16:9
    Frame rate mode                          : Constant
    Frame rate                               : 29.970 fps
    Color space                              : YUV
    Chroma subsampling                       : 4:2:0
    Bit depth                                : 8 bits
    Scan type                                : Progressive
    Bits/(Pixel*Frame)                       : 0.054
    Stream size                              : 796 MiB (84%)
    Writing library                          : x264 core 138 r2 9e941d1
    Encoding settings                        : cabac=1 / ref=1 / deblock=1:0:0 / analyse=0x1:0 / me=dia / subme=2 / psy=1 / psy_rd=1.00:0.00 / mixed_ref=0 / me_range=16 / chroma_me=1 / trellis=0 / 8x8dct=0 / cqm=0 / deadzone=21,11 / fast_pskip=1 / chroma_qp_offset=0 / threads=12 / lookahead_threads=4 / sliced_threads=0 / nr=0 / decimate=1 / interlaced=0 / bluray_compat=0 / constrained_intra=0 / bframes=3 / b_pyramid=2 / b_adapt=1 / b_bias=0 / direct=1 / weightb=1 / open_gop=0 / weightp=2 / keyint=300 / keyint_min=29 / scenecut=40 / intra_refresh=0 / rc_lookahead=40 / rc=crf / mbtree=1 / crf=23.0 / qcomp=0.60 / qpmin=0 / qpmax=69 / qpstep=4 / ip_ratio=1.40 / aq=1:1.00
    Tagged date                              : UTC 2015-06-01 11:16:11

    Audio
    ID                                       : 2
    Format                                   : AAC
    Format/Info                              : Advanced Audio Codec
    Format profile                           : LC
    Codec ID                                 : 40
    Duration                                 : 1h 13mn
    Bit rate mode                            : Constant
    Bit rate                                 : 192 Kbps
    Channel(s)                               : 2 channels
    Channel positions                        : Front: L R
    Sampling rate                            : 48.0 KHz
    Compression mode                         : Lossy
    Stream size                              : 102 MiB (11%)
    Tagged date                              : UTC 2015-06-01 11:16:11




older | 1 | .... | 1390 | 1391 | (Page 1392) | 1393 | 1394 | .... | 1405 | newer