Are you the publisher? Claim or contact us about this channel


Embed this content in your HTML

Search

Report adult content:

click to rate:

Account: (login)

More Channels


Showcase


Channel Catalog


Channel Description:

Asia Torrents RSS Feed

older | 1 | .... | 1394 | 1395 | (Page 1396) | 1397 | 1398 | .... | 1405 | newer

    0 0

    Original Post: Kuroneko (1968) 1080 FLAC Criterion

    AKA: Yabu no naka no kuroneko
    Year:1968
    Director: Kaneto Shindô
    Country: Japan
    Language: Japanese (1ch FLAC), Japenese (1ch AC3)
    Subtitles: PGS - English

    Time: 99 minutes
    Format: 2.35:1

    Cast:
    Kichiemon Nakamura ... Gintoki
    Nobuko Otowa ... Yone (Mother)
    Kei Satô ... Raiko
    Rokkô Toura ... A Samurai
    Kiwako Taichi ... Shige (Daughter-in-Law)
    Taiji Tonoyama ... A Farmer
    Hideo Kanze ... Mikado

    Plot
    Kuroneko is set during the Sengoku Jidai (the Warring States) period and tells the story of two women, a mother (Nobuko Otowa, The Naked Island, Onibaba) and her daughter-in-law (Kiwako Taichi, Strange Affinity, Live Today, Die Tomorrow!), who are raped by a gang of samurai. The women and their farmhouse are burned down, but their souls return as evil ghosts and swear to kill every single samurai in the land.

    Note: I limited the encode to grayscale and cleaned up the grain hence the size difference from the existing 720p encode






    Code

    Format                                   : Matroska
    Format version                           : Version 2
    File size                                : 4.56 GiB
    Duration                                 : 1h 39mn
    Overall bit rate mode                    : Variable
    Overall bit rate                         : 6 548 Kbps
    Encoded date                             : UTC
    Writing application                      : HandBrake 0.10.2 2015060900
    Writing library                          : Lavf55.12.0

    Video
    ID                                       : 1
    Format                                   : AVC
    Format/Info                              : Advanced Video Codec
    Format profile                           : High@L4.1
    Format settings, CABAC                   : Yes
    Format settings, ReFrames                : 4 frames
    Codec ID                                 : V_MPEG4/ISO/AVC
    Width                                    : 1 920 pixels
    Height                                   : 818 pixels
    Display aspect ratio                     : 2.35:1
    Frame rate mode                          : Variable
    Color space                              : YUV
    Chroma subsampling                       : 4:2:0
    Bit depth                                : 8 bits
    Scan type                                : Progressive
    Writing library                          : x264 core 142 r2479 dd79a61

    Audio #1
    ID                                       : 2
    Format                                   : FLAC
    Format/Info                              : Free Lossless Audio Codec
    Duration                                 : 1h 39mn
    Bit rate mode                            : Variable
    Channel(s)                               : 1 channel
    Sampling rate                            : 48.0 KHz
    Bit depth                                : 24 bits
    Title                                    : Mono
    Language                                 : Japanese
    Default                                  : Yes
    Forced                                   : No

    Audio #2
    ID                                       : 3
    Format                                   : AC-3
    Duration                                 : 1h 39mn
    Bit rate mode                            : Constant
    Bit rate                                 : 192 Kbps
    Channel(s)                               : 1 channel
    Channel positions                        : Front: C
    Sampling rate                            : 48.0 KHz
    Compression mode                         : Lossy
    Delay relative to video                  : 27ms
    Stream size                              : 137 MiB (3%)
    Title                                    : Mono
    Language                                 : Japanese
    Default                                  : No
    Forced                                   : No

    Text
    ID                                       : 4
    Format                                   : PGS
    Codec ID                                 : S_HDMV/PGS
    Codec ID/Info                            : Picture based subtitle format used on BDs/HD-DVDs
    Language                                 : English
    Default                                  : Yes
    Forced                                   : No



    0 0

    Original Post: TVB The.Empress.of.China.E66.HDTV.H264.2Audio.720p-CensoredCleavages

    Detail:
    Title: Empress Of China
    AKA:武媚娘傳奇
    Genre: Historical fiction
    Release Date: April 26, 2015 - July 10, 2015
    Episodes: 72
    Director: Go Yik Chun
    Country: China
    Language: Track 1: Mandarin/ Track 2: Cantonese dub
    Subtitles: English (srt embedded)
    http://thetvdb.com/?tab=series&id=289782

    Fan Bingbing as Wu Meiniang
    Zhang Fengyi as Li Shimin
    Aarif Rahman as Li Zhi
    Janine Chang as Xu Hui
    Li Chen as Li Mu
    Chang Ting as Consort Wei
    Wu Xiubo as Zhang Jianzhi
    Viann Zhang as Consort Xiao
    Kathy Chow as Consort Yang
    Wang Huichun as Zhangsun Wuji
    Lee Lee-jen as Li Chengqian
    Li Jie as Li Ke
    Yu Haoming as Li Chunfeng

    Before she was the most famous female ruler in Chinese history, Wu Mei Liang was a woman vying for her husbands’ love. While her first husband kept her at arm’s length by a prophecy foretelling a woman of Wu stealing the Tang Dynasty, her second husband welcomed her with open arms. During her time as a minor consort to Li Shi Min, she learned how an effective Emperor rule his court. Using that knowledge, she helped Li Zhi take back power from his Regent, and herself into the position of Empress. She co-ruled with Li Zhi until his death, after which she ruled the country in her own right.






    Code
    Video
    ID                             : 1
    Format                         : AVC
    Format/Info                    : Advanced Video Codec
    Format profile                 : Main@L4.0
    Format settings, CABAC         : Yes
    Format settings, ReFrames      : 4 frames
    Codec ID                       : V_MPEG4/ISO/AVC
    Bit rate                       : 4 500 Kbps
    Width                          : 1 280 pixels
    Height                         : 720 pixels
    Display aspect ratio           : 16:9
    Frame rate mode                : Variable
    Color space                    : YUV
    Chroma subsampling             : 4:2:0
    Bit depth                      : 8 bits
    Scan type                      : Progressive
    Writing library                : x264 core 130 r2273 b3065e6
    Language                       : Chinese
    Default                        : Yes
    Forced                         : No
    Color primaries                : BT.709
    Transfer characteristics       : BT.709
    Matrix coefficients            : BT.709

    Audio #1
    ID                             : 2
    Format                         : AC-3
    Format/Info                    : Audio Coding 3
    Mode extension                 : CM (complete main)
    Format settings, Endianness    : Big
    Codec ID                       : A_AC3
    Duration                       : 44mn 27s
    Bit rate mode                  : Constant
    Bit rate                       : 384 Kbps
    Channel(s)                     : 6 channels
    Channel positions              : Front: L C R, Side: L R, LFE
    Sampling rate                  : 48.0 KHz
    Bit depth                      : 16 bits
    Compression mode               : Lossy
    Stream size                    : 122 MiB (8%)
    Title                          : Mandarin
    Language                       : Chinese
    Default                        : Yes
    Forced                         : No

    Audio #2
    ID                             : 3
    Format                         : AC-3
    Format/Info                    : Audio Coding 3
    Mode extension                 : CM (complete main)
    Format settings, Endianness    : Big
    Codec ID                       : A_AC3
    Duration                       : 44mn 27s
    Bit rate mode                  : Constant
    Bit rate                       : 192 Kbps
    Channel(s)                     : 2 channels
    Channel positions              : Front: L R
    Sampling rate                  : 48.0 KHz
    Bit depth                      : 16 bits
    Compression mode               : Lossy
    Stream size                    : 61.1 MiB (4%)
    Title                          : Cantonese
    Language                       : Chinese
    Default                        : No
    Forced                         : No

    Text
    ID                             : 4
    Format                         : UTF-8
    Codec ID                       : S_TEXT/UTF8
    Codec ID/Info                  : UTF-8 Plain Text
    Default                        : Yes
    Forced                         : No



    0 0

    Original Post: TVB The.Empress.of.China.E67.HDTV.H264.2Audio.720p-CensoredCleavages

    Detail:
    Title: Empress Of China
    AKA:武媚娘傳奇
    Genre: Historical fiction
    Release Date: April 26, 2015 - July 10, 2015
    Episodes: 72
    Director: Go Yik Chun
    Country: China
    Language: Track 1: Mandarin/ Track 2: Cantonese dub
    Subtitles: English (srt embedded)
    http://thetvdb.com/?tab=series&id=289782

    Fan Bingbing as Wu Meiniang
    Zhang Fengyi as Li Shimin
    Aarif Rahman as Li Zhi
    Janine Chang as Xu Hui
    Li Chen as Li Mu
    Chang Ting as Consort Wei
    Wu Xiubo as Zhang Jianzhi
    Viann Zhang as Consort Xiao
    Kathy Chow as Consort Yang
    Wang Huichun as Zhangsun Wuji
    Lee Lee-jen as Li Chengqian
    Li Jie as Li Ke
    Yu Haoming as Li Chunfeng

    Before she was the most famous female ruler in Chinese history, Wu Mei Liang was a woman vying for her husbands’ love. While her first husband kept her at arm’s length by a prophecy foretelling a woman of Wu stealing the Tang Dynasty, her second husband welcomed her with open arms. During her time as a minor consort to Li Shi Min, she learned how an effective Emperor rule his court. Using that knowledge, she helped Li Zhi take back power from his Regent, and herself into the position of Empress. She co-ruled with Li Zhi until his death, after which she ruled the country in her own right.






    Code
    Video
    ID                             : 1
    Format                         : AVC
    Format/Info                    : Advanced Video Codec
    Format profile                 : Main@L4.0
    Format settings, CABAC         : Yes
    Format settings, ReFrames      : 4 frames
    Codec ID                       : V_MPEG4/ISO/AVC
    Bit rate                       : 4 500 Kbps
    Width                          : 1 280 pixels
    Height                         : 720 pixels
    Display aspect ratio           : 16:9
    Frame rate mode                : Variable
    Color space                    : YUV
    Chroma subsampling             : 4:2:0
    Bit depth                      : 8 bits
    Scan type                      : Progressive
    Writing library                : x264 core 130 r2273 b3065e6
    Language                       : Chinese
    Default                        : Yes
    Forced                         : No
    Color primaries                : BT.709
    Transfer characteristics       : BT.709
    Matrix coefficients            : BT.709

    Audio #1
    ID                             : 2
    Format                         : AC-3
    Format/Info                    : Audio Coding 3
    Mode extension                 : CM (complete main)
    Format settings, Endianness    : Big
    Codec ID                       : A_AC3
    Duration                       : 44mn 27s
    Bit rate mode                  : Constant
    Bit rate                       : 384 Kbps
    Channel(s)                     : 6 channels
    Channel positions              : Front: L C R, Side: L R, LFE
    Sampling rate                  : 48.0 KHz
    Bit depth                      : 16 bits
    Compression mode               : Lossy
    Stream size                    : 122 MiB (8%)
    Title                          : Mandarin
    Language                       : Chinese
    Default                        : Yes
    Forced                         : No

    Audio #2
    ID                             : 3
    Format                         : AC-3
    Format/Info                    : Audio Coding 3
    Mode extension                 : CM (complete main)
    Format settings, Endianness    : Big
    Codec ID                       : A_AC3
    Duration                       : 44mn 27s
    Bit rate mode                  : Constant
    Bit rate                       : 192 Kbps
    Channel(s)                     : 2 channels
    Channel positions              : Front: L R
    Sampling rate                  : 48.0 KHz
    Bit depth                      : 16 bits
    Compression mode               : Lossy
    Stream size                    : 61.1 MiB (4%)
    Title                          : Cantonese
    Language                       : Chinese
    Default                        : No
    Forced                         : No

    Text
    ID                             : 4
    Format                         : UTF-8
    Codec ID                       : S_TEXT/UTF8
    Codec ID/Info                  : UTF-8 Plain Text
    Default                        : Yes
    Forced                         : No



    0 0

    Original Post: TVB The.Empress.of.China.E68.HDTV.H264.2Audio.720p-CensoredCleavages

    Detail:
    Title: Empress Of China
    AKA:武媚娘傳奇
    Genre: Historical fiction
    Release Date: April 26, 2015 - July 10, 2015
    Episodes: 72
    Director: Go Yik Chun
    Country: China
    Language: Track 1: Mandarin/ Track 2: Cantonese dub
    Subtitles: English (srt embedded)
    http://thetvdb.com/?tab=series&id=289782

    Fan Bingbing as Wu Meiniang
    Zhang Fengyi as Li Shimin
    Aarif Rahman as Li Zhi
    Janine Chang as Xu Hui
    Li Chen as Li Mu
    Chang Ting as Consort Wei
    Wu Xiubo as Zhang Jianzhi
    Viann Zhang as Consort Xiao
    Kathy Chow as Consort Yang
    Wang Huichun as Zhangsun Wuji
    Lee Lee-jen as Li Chengqian
    Li Jie as Li Ke
    Yu Haoming as Li Chunfeng

    Before she was the most famous female ruler in Chinese history, Wu Mei Liang was a woman vying for her husbands’ love. While her first husband kept her at arm’s length by a prophecy foretelling a woman of Wu stealing the Tang Dynasty, her second husband welcomed her with open arms. During her time as a minor consort to Li Shi Min, she learned how an effective Emperor rule his court. Using that knowledge, she helped Li Zhi take back power from his Regent, and herself into the position of Empress. She co-ruled with Li Zhi until his death, after which she ruled the country in her own right.






    Code
    Video
    ID                             : 1
    Format                         : AVC
    Format/Info                    : Advanced Video Codec
    Format profile                 : Main@L4.0
    Format settings, CABAC         : Yes
    Format settings, ReFrames      : 4 frames
    Codec ID                       : V_MPEG4/ISO/AVC
    Bit rate                       : 4 500 Kbps
    Width                          : 1 280 pixels
    Height                         : 720 pixels
    Display aspect ratio           : 16:9
    Frame rate mode                : Variable
    Color space                    : YUV
    Chroma subsampling             : 4:2:0
    Bit depth                      : 8 bits
    Scan type                      : Progressive
    Writing library                : x264 core 130 r2273 b3065e6
    Language                       : Chinese
    Default                        : Yes
    Forced                         : No
    Color primaries                : BT.709
    Transfer characteristics       : BT.709
    Matrix coefficients            : BT.709

    Audio #1
    ID                             : 2
    Format                         : AC-3
    Format/Info                    : Audio Coding 3
    Mode extension                 : CM (complete main)
    Format settings, Endianness    : Big
    Codec ID                       : A_AC3
    Duration                       : 44mn 27s
    Bit rate mode                  : Constant
    Bit rate                       : 384 Kbps
    Channel(s)                     : 6 channels
    Channel positions              : Front: L C R, Side: L R, LFE
    Sampling rate                  : 48.0 KHz
    Bit depth                      : 16 bits
    Compression mode               : Lossy
    Stream size                    : 122 MiB (8%)
    Title                          : Mandarin
    Language                       : Chinese
    Default                        : Yes
    Forced                         : No

    Audio #2
    ID                             : 3
    Format                         : AC-3
    Format/Info                    : Audio Coding 3
    Mode extension                 : CM (complete main)
    Format settings, Endianness    : Big
    Codec ID                       : A_AC3
    Duration                       : 44mn 27s
    Bit rate mode                  : Constant
    Bit rate                       : 192 Kbps
    Channel(s)                     : 2 channels
    Channel positions              : Front: L R
    Sampling rate                  : 48.0 KHz
    Bit depth                      : 16 bits
    Compression mode               : Lossy
    Stream size                    : 61.1 MiB (4%)
    Title                          : Cantonese
    Language                       : Chinese
    Default                        : No
    Forced                         : No

    Text
    ID                             : 4
    Format                         : UTF-8
    Codec ID                       : S_TEXT/UTF8
    Codec ID/Info                  : UTF-8 Plain Text
    Default                        : Yes
    Forced                         : No



    0 0

    Original Post: TVB The.Empress.of.China.E69.HDTV.H264.2Audio.720p-CensoredCleavages

    Detail:
    Title: Empress Of China
    AKA:武媚娘傳奇
    Genre: Historical fiction
    Release Date: April 26, 2015 - July 10, 2015
    Episodes: 72
    Director: Go Yik Chun
    Country: China
    Language: Track 1: Mandarin/ Track 2: Cantonese dub
    Subtitles: English (srt embedded)
    http://thetvdb.com/?tab=series&id=289782

    Fan Bingbing as Wu Meiniang
    Zhang Fengyi as Li Shimin
    Aarif Rahman as Li Zhi
    Janine Chang as Xu Hui
    Li Chen as Li Mu
    Chang Ting as Consort Wei
    Wu Xiubo as Zhang Jianzhi
    Viann Zhang as Consort Xiao
    Kathy Chow as Consort Yang
    Wang Huichun as Zhangsun Wuji
    Lee Lee-jen as Li Chengqian
    Li Jie as Li Ke
    Yu Haoming as Li Chunfeng

    Before she was the most famous female ruler in Chinese history, Wu Mei Liang was a woman vying for her husbands’ love. While her first husband kept her at arm’s length by a prophecy foretelling a woman of Wu stealing the Tang Dynasty, her second husband welcomed her with open arms. During her time as a minor consort to Li Shi Min, she learned how an effective Emperor rule his court. Using that knowledge, she helped Li Zhi take back power from his Regent, and herself into the position of Empress. She co-ruled with Li Zhi until his death, after which she ruled the country in her own right.






    Code
    Video
    ID                             : 1
    Format                         : AVC
    Format/Info                    : Advanced Video Codec
    Format profile                 : Main@L4.0
    Format settings, CABAC         : Yes
    Format settings, ReFrames      : 4 frames
    Codec ID                       : V_MPEG4/ISO/AVC
    Bit rate                       : 4 500 Kbps
    Width                          : 1 280 pixels
    Height                         : 720 pixels
    Display aspect ratio           : 16:9
    Frame rate mode                : Variable
    Color space                    : YUV
    Chroma subsampling             : 4:2:0
    Bit depth                      : 8 bits
    Scan type                      : Progressive
    Writing library                : x264 core 130 r2273 b3065e6
    Language                       : Chinese
    Default                        : Yes
    Forced                         : No
    Color primaries                : BT.709
    Transfer characteristics       : BT.709
    Matrix coefficients            : BT.709

    Audio #1
    ID                             : 2
    Format                         : AC-3
    Format/Info                    : Audio Coding 3
    Mode extension                 : CM (complete main)
    Format settings, Endianness    : Big
    Codec ID                       : A_AC3
    Duration                       : 44mn 27s
    Bit rate mode                  : Constant
    Bit rate                       : 384 Kbps
    Channel(s)                     : 6 channels
    Channel positions              : Front: L C R, Side: L R, LFE
    Sampling rate                  : 48.0 KHz
    Bit depth                      : 16 bits
    Compression mode               : Lossy
    Stream size                    : 122 MiB (8%)
    Title                          : Mandarin
    Language                       : Chinese
    Default                        : Yes
    Forced                         : No

    Audio #2
    ID                             : 3
    Format                         : AC-3
    Format/Info                    : Audio Coding 3
    Mode extension                 : CM (complete main)
    Format settings, Endianness    : Big
    Codec ID                       : A_AC3
    Duration                       : 44mn 27s
    Bit rate mode                  : Constant
    Bit rate                       : 192 Kbps
    Channel(s)                     : 2 channels
    Channel positions              : Front: L R
    Sampling rate                  : 48.0 KHz
    Bit depth                      : 16 bits
    Compression mode               : Lossy
    Stream size                    : 61.1 MiB (4%)
    Title                          : Cantonese
    Language                       : Chinese
    Default                        : No
    Forced                         : No

    Text
    ID                             : 4
    Format                         : UTF-8
    Codec ID                       : S_TEXT/UTF8
    Codec ID/Info                  : UTF-8 Plain Text
    Default                        : Yes
    Forced                         : No



    0 0

    Original Post: TVB The.Empress.of.China.E70.HDTV.H264.2Audio.720p-CensoredCleavages

    Detail:
    Title: Empress Of China
    AKA:武媚娘傳奇
    Genre: Historical fiction
    Release Date: April 26, 2015 - July 10, 2015
    Episodes: 72
    Director: Go Yik Chun
    Country: China
    Language: Track 1: Mandarin/ Track 2: Cantonese dub
    Subtitles: English (srt embedded)
    http://thetvdb.com/?tab=series&id=289782

    Fan Bingbing as Wu Meiniang
    Zhang Fengyi as Li Shimin
    Aarif Rahman as Li Zhi
    Janine Chang as Xu Hui
    Li Chen as Li Mu
    Chang Ting as Consort Wei
    Wu Xiubo as Zhang Jianzhi
    Viann Zhang as Consort Xiao
    Kathy Chow as Consort Yang
    Wang Huichun as Zhangsun Wuji
    Lee Lee-jen as Li Chengqian
    Li Jie as Li Ke
    Yu Haoming as Li Chunfeng

    Before she was the most famous female ruler in Chinese history, Wu Mei Liang was a woman vying for her husbands’ love. While her first husband kept her at arm’s length by a prophecy foretelling a woman of Wu stealing the Tang Dynasty, her second husband welcomed her with open arms. During her time as a minor consort to Li Shi Min, she learned how an effective Emperor rule his court. Using that knowledge, she helped Li Zhi take back power from his Regent, and herself into the position of Empress. She co-ruled with Li Zhi until his death, after which she ruled the country in her own right.






    Code
    Video
    ID                             : 1
    Format                         : AVC
    Format/Info                    : Advanced Video Codec
    Format profile                 : Main@L4.0
    Format settings, CABAC         : Yes
    Format settings, ReFrames      : 4 frames
    Codec ID                       : V_MPEG4/ISO/AVC
    Bit rate                       : 4 500 Kbps
    Width                          : 1 280 pixels
    Height                         : 720 pixels
    Display aspect ratio           : 16:9
    Frame rate mode                : Variable
    Color space                    : YUV
    Chroma subsampling             : 4:2:0
    Bit depth                      : 8 bits
    Scan type                      : Progressive
    Writing library                : x264 core 130 r2273 b3065e6
    Language                       : Chinese
    Default                        : Yes
    Forced                         : No
    Color primaries                : BT.709
    Transfer characteristics       : BT.709
    Matrix coefficients            : BT.709

    Audio #1
    ID                             : 2
    Format                         : AC-3
    Format/Info                    : Audio Coding 3
    Mode extension                 : CM (complete main)
    Format settings, Endianness    : Big
    Codec ID                       : A_AC3
    Duration                       : 44mn 27s
    Bit rate mode                  : Constant
    Bit rate                       : 384 Kbps
    Channel(s)                     : 6 channels
    Channel positions              : Front: L C R, Side: L R, LFE
    Sampling rate                  : 48.0 KHz
    Bit depth                      : 16 bits
    Compression mode               : Lossy
    Stream size                    : 122 MiB (8%)
    Title                          : Mandarin
    Language                       : Chinese
    Default                        : Yes
    Forced                         : No

    Audio #2
    ID                             : 3
    Format                         : AC-3
    Format/Info                    : Audio Coding 3
    Mode extension                 : CM (complete main)
    Format settings, Endianness    : Big
    Codec ID                       : A_AC3
    Duration                       : 44mn 27s
    Bit rate mode                  : Constant
    Bit rate                       : 192 Kbps
    Channel(s)                     : 2 channels
    Channel positions              : Front: L R
    Sampling rate                  : 48.0 KHz
    Bit depth                      : 16 bits
    Compression mode               : Lossy
    Stream size                    : 61.1 MiB (4%)
    Title                          : Cantonese
    Language                       : Chinese
    Default                        : No
    Forced                         : No

    Text
    ID                             : 4
    Format                         : UTF-8
    Codec ID                       : S_TEXT/UTF8
    Codec ID/Info                  : UTF-8 Plain Text
    Default                        : Yes
    Forced                         : No



    0 0

    Original Post: Dai-bosatsu tôge (The Sword of Doom) - 1966 - Kihachi Okamoto, 720p



    Sword of Doom
    Dai-bosatsu tôge
    Director: Kihachi Okamoto
    Runtime: 119 min
    Genre: Action, Drama
    Language: Japanese
    Country: Japan
    Subtitles: English
    IMDB URL: http://www.imdb.com/title/tt0060277/
    Cast: Tatsuya Nakadai, Michiyo Aratama, Yuzô Kayama


    Japanese audio, english subtitles


    From citerion.com




    Kihachi Okamoto's The Sword of Doom is likely to strike the unalerted viewer as an exercise in absurdist violence, tracking the career of a nihilistic swordsman from his gratuitous murder of a defenseless old man to his final descent into what looks like a rehearsal for global annihilation, as, in a kind of ecstasy, he slaughters a seemingly endless army of attackers both real and phantasmal. The extreme but stylized violence of Okamoto's 1966 film epitomizes a mode of Japanese filmmaking that profoundly influenced such directors as Sam Peckinpah and Sergio Leone, and it would be easy—and not entirely inaccurate—to read the film in the light of the cynical antiheroic trends that surfaced in genre films all over the world in the 1960s and surmise that it represented the same kind of break with heroic tradition as, say, spaghetti westerns. It should be kept in mind, however, that The Sword of Doom was only the most recent episode derived from a long line of stage and film versions of an immensely long, structurally meandering novel that has remained popular ever since the appearance of its first installments a year after the death of the emperor Meiji (the ruler who oversaw Japan's transition from hermetically sealed feudal state to modern industrialized nation), and whose ostensible theme is religious.





    The novel, Daibosatsu toge (The Great Bodhisattva Pass, The Sword of Doom's Japanese title), originated as a newspaper serial in 1913 and continued to appear for three more decades; forty-one volumes were published before it was left uncompleted at the death of its author, Kaizan Nakazato (1885–1944). Nakazato, a sometime telephone operator and assistant teacher, avowed himself a literary disciple of Fyodor Dostoyevsky and Victor Hugo and was deeply influenced by Christianity and socialism; he was a pacifist during the Russo-Japanese War (1904–05) and kept himself aloof from cultural entities associated with the military government in the 1930s and '40s. His novel was intended as an expression of Mahayana Buddhism, with the earthly actions of its characters, and most especially of the demonic swordsman Ryunosuke Tsukue, nothing more than the working out of karmic law. The political background—the struggle of various shadowy groups either to uphold the power of the shogunate or to bring about the restoration of direct imperial rule—is itself only one layer in Nakazato's cosmic vision, in which the hero's seemingly evil path is dictated by forces beyond his control. However, Ryunosuke is one of those characters who seem to have escaped from their author's control, taking on a life of their own––he is an icon of popular culture as an embodiment (in the words of the scholar C´cile Sakai) of “the fascination of evil . . . which gives him his seemingly paradoxical charisma." Ryunosuke is the archetypal fallen angel of early modern Japan, a figure who elicits sympathetic identification by the uncompromising intensity with which he follows his path, even if that path seems to lead into darkness. While the novel was still appearing in installments, stage adaptations were already being produced of its early episodes, and these were followed by a two-part 1935 film version (now presumed lost) whose directors included Hiroshi Inagaki, known for his later Samurai Trilogy and his 1962 version of Chushingura. After the war, it was remade repeatedly, in three parts by Kunio Watanabe in 1953, in three parts by Tomu Uchida in 1957–59, and in three parts by Kenji Misumi and Kazuo (a.k.a. Issei) Mori in 1960– 61. The freeze-frame that concludes Okamoto's film should be seen not as an ending but as a pause while awaiting later installments that were never made (covering episodes in which, among other things, the hero goes blind and changes sides to support the imperial faction). The gaps and unresolved story lines that are apt to bewilder a viewer coming to the film cold would not have posed a problem for an audience thoroughly familiar with the source material; Okamoto's film, a series of set pieces content to skip over much connecting matter, might almost be called Famous Scenes from “Daibosatsu toge."





    This is not to say that the film's enigmatic qualities are due solely to the uniniti- ated state of Western audiences. A sense of the mysteriousness of violence is essential to Nakazato's novel and Okamoto's film alike. Ryunosuke is at once hero and villain, demon and potential bodhisattva, and Tatsuya Nakadai's stunning performance incarnates perfectly the paradox at the heart of the character: Does he act or is he acted upon? In what sense does he choose his destiny? He seems at times the spectator of his own destructive course, alternately anguished or blackly amused but essentially powerless to change what happens. His unique style of swordsmanship—mumyo otonashi no kamae (form without sound or light)—as enacted by Nakadai has a weirdly passive quality. He seems to go limp, to withdraw into himself, as if his invariably lethal blow is directed not by the exercise but by the abandonment of will. In terms of the body language of sixties cinema, his posture suggests as well a kind of sullen hipsterism, a serpentine deviousness, in the face of the forthright heroic stance of Toshiro Mifune, who plays the noble instructor Shimada. It's fitting that a film whose characters are so intensely preoccupied with form—who pay such unremitting attention to angles of thrust, movements of feet, pauses, and sight lines—should itself be so stunning on a formal level. In an era of Japanese filmmaking marked by such masterpieces as Akira Kurosawa's Throne of Blood and Masaki Kobayashi's Harakiri, and when even the most routine samurai pictures tended to look very stylish indeed, The Sword of Doom stands out for the rigor and calligraphic pictorialism of its widescreen compositions. It's as if the formal qualities of the swordsmanship so amply displayed in the film's major set pieces—the duel with Bunnojo at the temple and its aftermath, Ryunosuke's visit to Shimada's kendo school, the confrontation in the snow in which Shimada decimates Ryunosuke's associates, and the apocalyptic finale—are being mirrored by the slashing precision and constantly shifting perspectives of the staging and camera work.





    Okamoto, who trained as an assistant to the great Mikio Naruse, was only one of many highly competent genre directors of the time. Known as much for his war films (Japan's Longest Day, 1967; The Human Bullet, 1968; The Battle of Okinawa, 1971) as for such period pieces as Samurai Assassin (1965), Kill! (1968), and Red Lion (1969), he often cultivated a satirically humorous tone. In fact, The Sword of Doom was a project imposed on him by Toho after the studio's dissatisfaction with his more personal The Age of Assassins, which he'd completed in 1966 but was held by the studio until 1967. Neither as intimate a filmmaker as Kurosawa nor as subversive an experimentalist as Seijun Suzuki, Okamoto nevertheless demonstrates in The Sword of Doom—with the help of Hiroshi Murai's magnificent cinematography—a mastery of surface that makes the film endlessly pleasurable to watch. (Thanks to Masaru Sato's slashing score, it is also intensely enjoyable to listen to.) The film's surface, one might say, is its depth: if indeed an evil soul is an evil sword, then form and gesture are a graph of profound undercurrents. The unrelenting visual inventiveness of The Sword of Doom, culminating in the final massacre, with its thousand and one variations on the theme of killing with a sword, is not a matter of flashy illustration but the essence of what the film is about. Gesture here takes on a life of its own; the human killing machine, blinded and stumbling in his own blood, has become something of a force of nature, a destructive essence. The unmistakable visual beauty of the scene is inseparable from its horror. The perversity of the central character takes over the film itself, and perhaps we did not need the sequels that Okamoto never made. What, really, could surpass that freeze-frame of the swordsman caught in mid-rampage, bent on continuing to kill as if it were a way for him finally to extinguish himself?






    Not my rip, many thanks to reeltime at SC



    Code
    General
    Complete name                            : U:Dai-bosatsu to^ge (The Sword of Doom) - 1966 - Kihachi OkamotoDai-bosatsu tôge (The Sword of Doom) - 1966 - Kihachi Okamoto.mp4
    Format                                   : MPEG-4
    Format profile                           : Base Media / Version 2
    Codec ID                                 : mp42
    File size                                : 3.92 GiB
    Duration                                 : 2h 0mn
    Overall bit rate                         : 4 653 Kbps
    Encoded date                             : UTC 2015-07-08 15:28:37
    Tagged date                              : UTC 2015-07-08 15:28:37
    Writing application                      : HandBrake 0.10.2 2015061100

    Video
    ID                                       : 1
    Format                                   : AVC
    Format/Info                              : Advanced Video Codec
    Format profile                           : Main@L4.1
    Format settings, CABAC                   : Yes
    Format settings, ReFrames                : 4 frames
    Codec ID                                 : avc1
    Codec ID/Info                            : Advanced Video Coding
    Duration                                 : 2h 0mn
    Bit rate                                 : 4 200 Kbps
    Width                                    : 1 280 pixels
    Height                                   : 544 pixels
    Display aspect ratio                     : 2.35:1
    Frame rate mode                          : Variable
    Frame rate                               : 23.976 fps
    Minimum frame rate                       : 23.974 fps
    Maximum frame rate                       : 23.981 fps
    Color space                              : YUV
    Chroma subsampling                       : 4:2:0
    Bit depth                                : 8 bits
    Scan type                                : Progressive
    Bits/(Pixel*Frame)                       : 0.252
    Stream size                              : 3.54 GiB (90%)
    Writing library                          : x264 core 142 r2479 dd79a61
    Encoding settings                        : cabac=1 / ref=3 / deblock=1:-1:-1 / analyse=0x1:0x111 / me=hex / subme=7 / psy=1 / psy_rd=1.00:0.15 / mixed_ref=1 / me_range=16 / chroma_me=1 / trellis=1 / 8x8dct=0 / cqm=0 / deadzone=21,11 / fast_pskip=1 / chroma_qp_offset=-3 / threads=3 / lookahead_threads=1 / sliced_threads=0 / nr=0 / decimate=1 / interlaced=0 / bluray_compat=0 / constrained_intra=0 / bframes=3 / b_pyramid=2 / b_adapt=1 / b_bias=0 / direct=1 / weightb=1 / open_gop=0 / weightp=2 / keyint=240 / keyint_min=24 / scenecut=40 / intra_refresh=0 / rc_lookahead=40 / rc=2pass / mbtree=1 / bitrate=4200 / ratetol=1.0 / qcomp=0.60 / qpmin=0 / qpmax=69 / qpstep=4 / cplxblur=20.0 / qblur=0.5 / vbv_maxrate=50000 / vbv_bufsize=62500 / nal_hrd=none / filler=0 / ip_ratio=1.40 / aq=1:1.00
    Encoded date                             : UTC 2015-07-08 15:28:37
    Tagged date                              : UTC 2015-07-08 15:28:37
    Color range                              : Limited
    Color primaries                          : BT.709
    Transfer characteristics                 : BT.709
    Matrix coefficients                      : BT.709

    Audio
    ID                                       : 2
    Format                                   : AC-3
    Format/Info                              : Audio Coding 3
    Mode extension                           : CM (complete main)
    Format settings, Endianness              : Big
    Codec ID                                 : ac-3
    Duration                                 : 2h 0mn
    Bit rate mode                            : Constant
    Bit rate                                 : 448 Kbps
    Channel(s)                               : 1 channel
    Channel positions                        : Front: C
    Sampling rate                            : 48.0 KHz
    Bit depth                                : 16 bits
    Compression mode                         : Lossy
    Stream size                              : 386 MiB (10%)
    Title                                    : Mono / Mono
    Encoded date                             : UTC 2015-07-08 15:28:37
    Tagged date                              : UTC 2015-07-08 15:28:37




    0 0

    Original Post: Feed Me 2015 1080p WEBRip x264 AC3-SeeHD





    Detail:
    Title: Feed Me
    Genre: Drama
    Release Date: 22 May 2015
    Runtime: 1h 30mn
    Director: Yang Yazhou
    Country: China
    Language: Mandarin
    Subtitles:Chinese, English Hardcoded

    Synopsis:
    Feed Me (Chinese: 哺乳期的女人) is a 2013 Chinese drama film directed by Yang Yazhou and Yang Bo. It was shown at the Montreal World Film Festival on August 29, 2013 and was released in China on May 22, 2015.







    Cast:
    Yu Nan
    Tao Zeru
    Lin Hao
    Vivian Wu


    Code

    Video
    ID                                       : 1
    Format                                   : AVC
    Format/Info                              : Advanced Video Codec
    Format profile                           : High@L4.0
    Format settings, CABAC                   : Yes
    Format settings, ReFrames                : 3 frames
    Codec ID                                 : V_MPEG4/ISO/AVC
    Duration                                 : 1h 30mn
    Bit rate                                 : 2 019 Kbps
    Width                                    : 1 920 pixels
    Height                                   : 820 pixels
    Display aspect ratio                     : 2.35:1
    Frame rate                               : 24.000 fps
    Color space                              : YUV
    Chroma subsampling                       : 4:2:0
    Bit depth                                : 8 bits
    Scan type                                : Progressive
    Bits/(Pixel*Frame)                       : 0.053
    Stream size                              : 1.28 GiB (80%)
    Default                                  : Yes
    Forced                                   : No

    Audio
    ID                                       : 2
    Format                                   : AC-3
    Format/Info                              : Audio Coding 3
    Mode extension                           : CM (complete main)
    Format settings, Endianness              : Big
    Codec ID                                 : A_AC3
    Duration                                 : 1h 30mn
    Bit rate mode                            : Constant
    Bit rate                                 : 448 Kbps
    Channel(s)                               : 2 channels
    Channel positions                        : Front: L R
    Sampling rate                            : 44.1 KHz
    Bit depth                                : 16 bits
    Compression mode                         : Lossy
    Stream size                              : 290 MiB (18%)
    Default                                  : Yes
    Forced                                   : No



    0 0

    Original Post: A Distant Cry from Spring 1980 720p BluRay x264-WiKi





    Detail:
    Title: A Distant Cry from Spring
    Genre: Drama
    Release Date: 17 October 1980
    Runtime: 95 min
    Director: Yôji Yamada
    Rating: 7.9/10 from 207 users
    Country: Japan
    Language: Japanese, Chinese
    Subtitles:Chinese

    Synopsis:
    In ''A Distant Cry From Spring,'' a Japanese film at the Film Forum, a mysterious stranger appears at the door of a farmhouse on a stormy night and asks for shelter. The young widow who owns the farm puts him up in the barn. At dawn, he helps to deliver a calf and, just as mysteriously and distantly, disappears down the road. In the spring, he returns to stay as a farmhand, gains the respect of the widow and the devotion of her young son, and begins to end their feelings of loneliness.

    When an intruder, in the person of a rich merchant, shows up and presses his attentions on the widow, the farmhand saves her from his attentions. But there is a mystery about where the stranger came from; and why, after winning the hearts of the widow and her son, he has to go away again.

    Cast:
    Ken Takakura, Chieko Baishô, Hidetaka Yoshioka, Tetsuya Takeda








    Code

    Video
    ID                                       : 1
    Format                                   : AVC
    Format/Info                              : Advanced Video Codec
    Format profile                           : High@L4.1
    Format settings, CABAC                   : Yes
    Format settings, ReFrames                : 12 frames
    Codec ID                                 : V_MPEG4/ISO/AVC
    Duration                                 : 2h 3mn
    Bit rate                                 : 5 146 Kbps
    Width                                    : 1 280 pixels
    Height                                   : 536 pixels
    Display aspect ratio                     : 2.40:1
    Frame rate                               : 23.976 fps
    Color space                              : YUV
    Chroma subsampling                       : 4:2:0
    Bit depth                                : 8 bits
    Scan type                                : Progressive
    Bits/(Pixel*Frame)                       : 0.313
    Stream size                              : 4.44 GiB (84%)
    Writing library                          : x264 core 124 r2197+666+28 3970b70 tMod+MixAQ [8-bit@4:2:0 X86]
    Encoding settings                        : cabac=1 / ref=12 / deblock=1:-2:-2 / analyse=0x3:0x133 / me=tesa / subme=10 / psy=1 / fade_compensate=0.00 / psy_rd=1.00:0.10 / mixed_ref=1 / me_range=32 / chroma_me=1 / trellis=2 / 8x8dct=1 / cqm=0 / deadzone=21,11 / fast_pskip=0 / chroma_qp_offset=-3 / threads=12 / sliced_threads=0 / nr=0 / decimate=0 / interlaced=0 / bluray_compat=0 / constrained_intra=0 / fgo=0 / bframes=12 / b_pyramid=2 / b_adapt=2 / b_bias=0 / direct=3 / weightb=1 / open_gop=0 / weightp=2 / keyint=250 / keyint_min=23 / scenecut=40 / intra_refresh=0 / rc=crf / mbtree=0 / crf=17.0000 / qcomp=0.75 / qpmin=0 / qpmax=69 / qpstep=4 / ip_ratio=1.20 / pb_ratio=1.10 / aq=1 / aq-strength=0.75 / aq-sensitivity=10.00 / aq-ifactor=1.00 / aq-pfactor=1.00 / aq-bfactor=1.00 / aq2=0
    Language                                 : Japanese
    Default                                  : Yes
    Forced                                   : No

    Audio #1
    ID                                       : 2
    Format                                   : AC-3
    Format/Info                              : Audio Coding 3
    Mode extension                           : CM (complete main)
    Format settings, Endianness              : Big
    Codec ID                                 : A_AC3
    Duration                                 : 2h 3mn
    Bit rate mode                            : Constant
    Bit rate                                 : 640 Kbps
    Channel(s)                               : 2 channels
    Channel positions                        : Front: L R
    Sampling rate                            : 48.0 KHz
    Bit depth                                : 16 bits
    Compression mode                         : Lossy
    Stream size                              : 565 MiB (10%)
    Language                                 : Japanese
    Default                                  : Yes
    Forced                                   : No

    Audio #2
    ID                                       : 3
    Format                                   : AC-3
    Format/Info                              : Audio Coding 3
    Mode extension                           : CM (complete main)
    Format settings, Endianness              : Big
    Codec ID                                 : A_AC3
    Duration                                 : 2h 3mn
    Bit rate mode                            : Constant
    Bit rate                                 : 224 Kbps
    Channel(s)                               : 2 channels
    Channel positions                        : Front: L R
    Sampling rate                            : 48.0 KHz
    Bit depth                                : 16 bits
    Compression mode                         : Lossy
    Stream size                              : 198 MiB (4%)
    Language                                 : Chinese
    Default                                  : No
    Forced                                   : No



    0 0

    Original Post: Maestro 2015 720p BluRay x264-WiKi





    Detail:
    Title: Maestro
    Genre: Drama
    Release Date: 31 January 2015 (Japan)
    Runtime: 2h 9mn
    Director: Shôtarô Kobayashi
    Rating: 8.2/10 from 12 users
    Country: Japan
    Language: Japanese
    Subtitles:Chinese

    Synopsis:
    Kosaka is a genius violinist and concertmaster who rejoins an orchestra which was originally disbanded in the wake of the recession. However, the new prospective members sound terrible together when they gather in a practice room for the first time.

    Cast:
    Tôri Matsuzaka, Miwa, Toshiyuki Nishida








    Code

    Video
    ID                                       : 1
    Format                                   : AVC
    Format/Info                              : Advanced Video Codec
    Format profile                           : High@L4.1
    Format settings, CABAC                   : Yes
    Format settings, ReFrames                : 9 frames
    Codec ID                                 : V_MPEG4/ISO/AVC
    Duration                                 : 2h 9mn
    Bit rate                                 : 9 000 Kbps
    Width                                    : 1 280 pixels
    Height                                   : 692 pixels
    Display aspect ratio                     : 1.85:1
    Frame rate                               : 23.976 fps
    Color space                              : YUV
    Chroma subsampling                       : 4:2:0
    Bit depth                                : 8 bits
    Scan type                                : Progressive
    Bits/(Pixel*Frame)                       : 0.424
    Stream size                              : 7.95 GiB (91%)
    Writing library                          : x264 core 124 r2197+666+28 3970b70 tMod+MixAQ [8-bit@4:2:0 X86]
    Encoding settings                        : cabac=1 / ref=9 / deblock=1:-3:-3 / analyse=0x3:0x133 / me=umh / subme=11 / psy=1 / fade_compensate=0.00 / psy_rd=1.05:0.10 / mixed_ref=1 / me_range=32 / chroma_me=1 / trellis=2 / 8x8dct=1 / cqm=0 / deadzone=21,11 / fast_pskip=0 / chroma_qp_offset=-3 / threads=12 / sliced_threads=0 / nr=0 / decimate=0 / interlaced=0 / bluray_compat=0 / constrained_intra=0 / fgo=0 / bframes=10 / b_pyramid=2 / b_adapt=2 / b_bias=0 / direct=3 / weightb=1 / open_gop=0 / weightp=2 / keyint=250 / keyint_min=23 / scenecut=40 / intra_refresh=0 / rc=2pass / mbtree=0 / bitrate=9000 / ratetol=1.0 / qcomp=0.80 / qpmin=0 / qpmax=69 / qpstep=4 / cplxblur=20.0 / qblur=0.5 / ip_ratio=1.20 / pb_ratio=1.10 / aq=1 / aq-strength=0.80 / aq-sensitivity=10.00 / aq-ifactor=1.00 / aq-pfactor=1.00 / aq-bfactor=1.00 / aq2=0
    Language                                 : Japanese
    Default                                  : Yes
    Forced                                   : No
    _STATISTICS_WRITING_APP                  : mkvmerge v7.9.0 ('Birds') 64bit
    _STATISTICS_WRITING_DATE_UTC             : 2015-07-07 16:00:51
    _STATISTICS_TAGS                         : BPS DURATION NUMBER_OF_FRAMES NUMBER_OF_BYTES
    DURATION                                 : 02:09:07.824000000
    NUMBER_OF_FRAMES                         : 185762
    NUMBER_OF_BYTES                          : 8706883529

    Audio
    ID                                       : 2
    Format                                   : AC-3
    Format/Info                              : Audio Coding 3
    Mode extension                           : CM (complete main)
    Format settings, Endianness              : Big
    Codec ID                                 : A_AC3
    Duration                                 : 2h 9mn
    Bit rate mode                            : Constant
    Bit rate                                 : 640 Kbps
    Channel(s)                               : 6 channels
    Channel positions                        : Front: L C R, Side: L R, LFE
    Sampling rate                            : 48.0 KHz
    Bit depth                                : 16 bits
    Compression mode                         : Lossy
    Stream size                              : 591 MiB (7%)
    Language                                 : Japanese
    Default                                  : Yes
    Forced                                   : No

    Text
    ID                                       : 3
    Format                                   : ASS
    Codec ID                                 : S_TEXT/ASS
    Codec ID/Info                            : Advanced Sub Station Alpha
    Compression mode                         : Lossless
    Language                                 : Chinese
    Default                                  : Yes
    Forced                                   : No



    0 0

    Original Post: Intimate Enemies 2015.720p.HDRip.X264.AAC-KTH





    Detail:
    Title: Intimate Enemies
    Genre: Drama
    Release Date: June 25, 2015
    Runtime: 110 min
    Director: Im Sang-Soo
    Country: South Korea
    Language: Korean
    Subtitles:No Subtitles

    Synopsis:
    At a car accident site, Ji-Noo (Ryoo Seung-Bum), Na-Mi (Koh Joon-Hee), Jung-Sook (Ryoo Hyoun-Kyoung) and Yakuboo (Samuel Okyere) find a bag filled with money. They become involved in a dangerous case.

    Cast:
    Ryoo Seung-Bum, Koh Joon-Hee, Ryoo Hyoun-Kyoung, Samuel Okyere, Yang Ik-June







    Code

    Video
    ID                                       : 201
    Format                                   : AVC
    Format/Info                              : Advanced Video Codec
    Format profile                           : High@L4.1
    Format settings, CABAC                   : Yes
    Format settings, ReFrames                : 2 frames
    Format settings, GOP                     : M=3, N=15
    Codec ID                                 : avc1
    Codec ID/Info                            : Advanced Video Coding
    Duration                                 : 1h 49mn
    Bit rate                                 : 3 000 Kbps
    Width                                    : 1 280 pixels
    Height                                   : 720 pixels
    Display aspect ratio                     : 16:9
    Frame rate mode                          : Constant
    Frame rate                               : 29.970 fps
    Color space                              : YUV
    Chroma subsampling                       : 4:2:0
    Bit depth                                : 8 bits
    Scan type                                : Progressive
    Bits/(Pixel*Frame)                       : 0.109
    Stream size                              : 2.39 GiB (90%)
    Writing library                          : x264 core 120
    Encoding settings                        : cabac=1 / ref=2 / deblock=1:0:0 / analyse=0x3:0x113 / me=hex / subme=6 / psy=1 / psy_rd=1.0:0.0 / mixed_ref=1 / me_range=16 / chroma_me=1 / trellis=0 / 8x8dct=1 / cqm=0 / deadzone=21,11 / fast_pskip=0 / chroma_qp_offset=-2 / threads=8 / sliced_threads=0 / nr=0 / decimate=1 / mbaff=0 / constrained_intra=0 / bframes=2 / b_pyramid=0 / b_adapt=0 / b_bias=0 / direct=3 / wpredb=0 / wpredp=2 / keyint=15 / keyint_min=8 / scenecut=0 / intra_refresh=0 / rc_lookahead=15 / rc=abr / mbtree=1 / bitrate=3000 / ratetol=1.0 / qcomp=0.60 / qpmin=0 / qpmax=10 / qpstep=4 / ip_ratio=1.41 / aq=1:1.00
    Tagged date                              : UTC 2015-07-03 07:51:14

    Audio
    ID                                       : 101
    Format                                   : AAC
    Format/Info                              : Advanced Audio Codec
    Format profile                           : LC
    Codec ID                                 : 40
    Duration                                 : 1h 49mn
    Bit rate mode                            : Variable
    Bit rate                                 : 192 Kbps
    Channel(s)                               : 2 channels
    Channel positions                        : Front: L R
    Sampling rate                            : 48.0 KHz
    Compression mode                         : Lossy
    Stream size                              : 151 MiB (6%)
    Tagged date                              : UTC 2015-07-03 07:51:14



    0 0

    Original Post: Fantastic Girls 2015 720p BluRay x264-WiKi





    Detail:
    Title: Fantastic Girls
    Genre: Comedy
    Release Date: February 2015 (Japan)
    Runtime: 118 min
    Director: Akiko Ohku
    Rating: 5.7/10 (6 votes)
    Country: Japan
    Language: Japanese
    Subtitles:Chinese

    Synopsis:
    In 1980, Ayuko is a new transfer student in Okayama from Tokyo. She doesn‘t have any friends and relies on her boyfriend Hideo who is a college student. Ayuko likes to draw a romance manga of herself and her boyfriend. Ayuko‘s classmate, Takemi, becomes a huge fan of Ayuko‘s manga and they become close friends. Due to an incident though, they drift apart. 30 years later, Ayuko is a professional manga artist and returns to Okayama to give a speech at her alma mater. While there, she’s reunited with Takemi who has become a teacher. Suddenly the friendship they both believed to have been long lost is rekindled in adulthood.

    Cast:
    Mio Yûki, Rika Adachi, Kei Aran







    Code

    Video
    ID                                       : 1
    Format                                   : AVC
    Format/Info                              : Advanced Video Codec
    Format profile                           : High@L4.1
    Format settings, CABAC                   : Yes
    Format settings, ReFrames                : 9 frames
    Codec ID                                 : V_MPEG4/ISO/AVC
    Duration                                 : 1h 58mn
    Width                                    : 1 280 pixels
    Height                                   : 690 pixels
    Display aspect ratio                     : 1.85:1
    Frame rate                               : 23.976 fps
    Color space                              : YUV
    Chroma subsampling                       : 4:2:0
    Bit depth                                : 8 bits
    Scan type                                : Progressive
    Language                                 : Japanese
    Default                                  : Yes
    Forced                                   : No
    Matrix coefficients                      : BT.709-5, BT.1361, IEC 61966-2-4 709, SMPTE RP177

    Audio
    ID                                       : 2
    Format                                   : AC-3
    Format/Info                              : Audio Coding 3
    Codec ID                                 : A_AC3
    Duration                                 : 1h 58mn
    Channel(s)                               : 6 channels
    Sampling rate                            : 48.0 KHz
    Compression mode                         : Lossy
    Language                                 : Japanese
    Default                                  : Yes
    Forced                                   : No

    Text #1
    ID                                       : 3
    Format                                   : ASS
    Codec ID                                 : S_TEXT/ASS
    Codec ID/Info                            : Advanced Sub Station Alpha
    Compression mode                         : Lossless
    Title                                    : CHS
    Language                                 : Chinese
    Default                                  : No
    Forced                                   : No

    Text #2
    ID                                       : 4
    Format                                   : ASS
    Codec ID                                 : S_TEXT/ASS
    Codec ID/Info                            : Advanced Sub Station Alpha
    Compression mode                         : Lossless
    Title                                    : CHT
    Language                                 : Chinese
    Default                                  : No
    Forced                                   : No



    0 0

    Original Post: Princess Jellyfish 2014 720p BluRay x264-WiKi





    Detail:
    Title: Princess Jellyfish
    Genre: Comedy
    Release Date: 27 December 2014 (Japan)
    Runtime: 126 min
    Director: Taisuke Kawamura
    Rating: 6.7/10 from 23 users
    Country: Japan
    Language: Japanese
    Subtitles:Chinese

    Synopsis:
    A cross-dressing jellyfish otaku that comes to turn the lives of several roommates inside out.

    Cast:
    Rena Nônen, Masaki Suda, Hiromi Hasegawa









    0 0

    Original Post: Jing Bi Rok 징비록 E16 HDTV H264 720p WITH

    Title: Jing Bi Rok 징비록 / The Jingbirok: A Memoir of Imjin War 징비록 (懲毖錄): 임진왜란 피로 쓴 교훈
    Revised romanization: Jingbirok: Imjinwaeran Piro Sseun Gyohoon
    Runtime: around 55 min/ep
    Broadcast period: 2015-Feb-14 to 2015-???-??
    Genre: Daeha drama, historical, political, action
    Language: Korean
    Country: South Korea
    Episodes: 50
    Broadcast network: KBS1
    Subtitles: English  softsub by DarkSmurfSub

    Synopsis
    Based on the memoir "Jibirok," written in 1604 by scholar Ryu Seong-Ryong. The memoir covers Ryu Seong-Ryong's experiences from 1592-1598 during the Japanese invasion of Joseon era South Korea, the story of what happened at Jojeong between the Japanese Invasion and the Battle of Noryang where General Lee Soon-sin was killed

    Cast   
    Kim Sang Joong as Seo Ae Ryu Sung Ryong
    Kim Tae Woo as King Seon Jo
    Im Dong Jin as Oh Eum Yoon Doo Soo
    Sun Dong Hyuk (선동혁) as Song Kang Jung Chul
    Choi Chul Ho as Baek Sa Lee Hang Bok
    Park Ji Il as Goo Bong Song Ik Pil
    Kim Hyo Won (김효원) as Woo Gye Sung Hon
    Kim Jong Soo (김종수) as Woo Song Dang Hwang Yoon Gil
    Kang In Ki (강인기) as Joong Bong Jo Hun



    Code

    General
    Complete name                  : Jing Bi Rok 징비록.E16.150405.HDTV.H264.720p-WITH.mp4
    Format                         : MPEG-4
    Format profile                 : Base Media
    Codec ID                       : isom
    File size                      : 954 MiB
    Duration                       : 53mn 57s
    Overall bit rate mode          : Variable
    Overall bit rate               : 2 472 Kbps
    Encoded date                   : UTC 2015-04-05 13:41:29
    Tagged date                    : UTC 2015-04-05 13:41:29

    Video
    ID                             : 1
    Format                         : AVC
    Format/Info                    : Advanced Video Codec
    Format profile                 : Baseline@L1.3
    Format settings, CABAC         : No
    Format settings, ReFrames      : 1 frame
    Codec ID                       : avc1
    Codec ID/Info                  : Advanced Video Coding
    Duration                       : 53mn 57s
    Bit rate                       : 2 200 Kbps
    Maximum bit rate               : 7 752 Kbps
    Width                          : 1 280 pixels
    Height                         : 720 pixels
    Display aspect ratio           : 16:9
    Frame rate mode                : Constant
    Frame rate                     : 29.970 fps
    Color space                    : YUV
    Chroma subsampling             : 4:2:0
    Bit depth                      : 8 bits
    Scan type                      : Progressive
    Bits/(Pixel*Frame)             : 0.080
    Stream size                    : 854 MiB (90%)
    Writing library                : x264 core 128 r2216 198a7ea
    Encoding settings              : cabac=0 / ref=1 / deblock=1:0:0 / analyse=0x1:0x111 / me=hex / subme=7 / psy=1 / psy_rd=1.00:0.00 / mixed_ref=0 / me_range=16 / chroma_me=1 / trellis=1 / 8x8dct=0 / cqm=0 / deadzone=21,11 / fast_pskip=1 / chroma_qp_offset=-2 / threads=12 / lookahead_threads=2 / sliced_threads=0 / nr=0 / decimate=1 / interlaced=0 / bluray_compat=0 / constrained_intra=0 / bframes=0 / weightp=0 / keyint=250 / keyint_min=25 / scenecut=40 / intra_refresh=0 / rc_lookahead=40 / rc=abr / mbtree=1 / bitrate=2200 / ratetol=1.0 / qcomp=0.60 / qpmin=0 / qpmax=69 / qpstep=4 / vbv_maxrate=50000 / vbv_bufsize=50000 / nal_hrd=none / ip_ratio=1.40 / aq=1:1.00
    Encoded date                   : UTC 2015-04-05 13:13:00
    Tagged date                    : UTC 2015-04-05 13:41:31

    Audio
    ID                             : 2
    Format                         : AAC
    Format/Info                    : Advanced Audio Codec
    Format profile                 : LC
    Codec ID                       : 40
    Duration                       : 53mn 57s
    Bit rate mode                  : Variable
    Bit rate                       : 256 Kbps
    Maximum bit rate               : 262 Kbps
    Channel(s)                     : 2 channels
    Channel positions              : Front: L R
    Sampling rate                  : 48.0 KHz
    Compression mode               : Lossy
    Stream size                    : 98.8 MiB (10%)
    Encoded date                   : UTC 2015-04-05 13:41:30
    Tagged date                    : UTC 2015-04-05 13:41:31








    0 0

    Original Post: Jing Bi Rok 징비록 E16 HDTV XviD WITH

    Title: Jing Bi Rok 징비록 / The Jingbirok: A Memoir of Imjin War 징비록 (懲毖錄): 임진왜란 피로 쓴 교훈
    Revised romanization: Jingbirok: Imjinwaeran Piro Sseun Gyohoon
    Runtime: around 55 min/ep
    Broadcast period: 2015-Feb-14 to 2015-???-??
    Genre: Daeha drama, historical, political, action
    Language: Korean
    Country: South Korea
    Episodes: 50
    Broadcast network: KBS1
    Subtitles: English  softsub by DarkSmurfSub

    Synopsis
    Based on the memoir "Jibirok," written in 1604 by scholar Ryu Seong-Ryong. The memoir covers Ryu Seong-Ryong's experiences from 1592-1598 during the Japanese invasion of Joseon era South Korea, the story of what happened at Jojeong between the Japanese Invasion and the Battle of Noryang where General Lee Soon-sin was killed

    Cast   
    Kim Sang Joong as Seo Ae Ryu Sung Ryong
    Kim Tae Woo as King Seon Jo
    Im Dong Jin as Oh Eum Yoon Doo Soo
    Sun Dong Hyuk (선동혁) as Song Kang Jung Chul
    Choi Chul Ho as Baek Sa Lee Hang Bok
    Park Ji Il as Goo Bong Song Ik Pil
    Kim Hyo Won (김효원) as Woo Gye Sung Hon
    Kim Jong Soo (김종수) as Woo Song Dang Hwang Yoon Gil
    Kang In Ki (강인기) as Joong Bong Jo Hun


    Code
    General
    Complete name                  : Jing Bi Rok 징비록.E16.150405.HDTV.XviD-WITH.avi
    Format                         : AVI
    Format/Info                    : Audio Video Interleave
    File size                      : 533 MiB
    Duration                       : 53mn 57s
    Overall bit rate               : 1 381 Kbps
    Writing application            : VirtualDubMod 1.5.10.2 (build 2540/release)
    Writing library                : VirtualDubMod build 2540/release

    Video
    ID                             : 0
    Format                         : MPEG-4 Visual
    Format profile                 : Advanced Simple@L5
    Format settings, BVOP          : 2
    Format settings, QPel          : No
    Format settings, GMC           : No warppoints
    Format settings, Matrix        : Default (H.263)
    Muxing mode                    : Packed bitstream
    Codec ID                       : XVID
    Codec ID/Hint                  : XviD
    Duration                       : 53mn 57s
    Bit rate                       : 1 241 Kbps
    Width                          : 640 pixels
    Height                         : 352 pixels
    Display aspect ratio           : 16:9
    Frame rate                     : 29.970 fps
    Color space                    : YUV
    Chroma subsampling             : 4:2:0
    Bit depth                      : 8 bits
    Scan type                      : Progressive
    Compression mode               : Lossy
    Bits/(Pixel*Frame)             : 0.184
    Stream size                    : 479 MiB (90%)
    Writing library                : XviD 58

    Audio
    ID                             : 1
    Format                         : MPEG Audio
    Format version                 : Version 1
    Format profile                 : Layer 3
    Mode                           : Joint stereo
    Mode extension                 : MS Stereo
    Codec ID                       : 55
    Codec ID/Hint                  : MP3
    Duration                       : 53mn 57s
    Bit rate mode                  : Constant
    Bit rate                       : 128 Kbps
    Channel(s)                     : 2 channels
    Sampling rate                  : 48.0 KHz
    Compression mode               : Lossy
    Stream size                    : 49.4 MiB (9%)
    Alignment                      : Aligned on interleaves
    Interleave, duration           : 33 ms (1.00 video frame)
    Interleave, preload duration   : 504 ms
    Writing library                : LAME3.98.4







    0 0

    Original Post: The Myth - 2010 (720p) Eng.sub complete

    The Myth










    Details:
    Title : 神话 / Shen Hua
    English title: The Myth
    Episodes: 50
    Year: 2010
    Genre: Adventure,fantasy, martial arts, romance, historical
    Running time: above 40 minutes per episode
    Country: China
    Director: Jeffrey Chiang
    Producer: Jackie Chan

    Language: Mandarin
    Subtitles: Chinese hardcoded - English SRT
    IMDB:----
    WIKI:http://wiki.d-addicts.com/The_Myth

    Synopsis:
    The television series of the 2005 film which revolves around the adventure of Yi Xiaochuan (Hu Ge),
    the son of an archaeologist.
    During an excavation, his older brother, Yi Dachuan (Ren Quan), discovers a 2000 year old box at the
    site.
    Coincidentally, Xiaochuan also finds a tiger pendant which he later uses to open the box.
    But unexpectedly,he and his girlfriend's older brother, Gao Yao (Chang Shih), gets transported
    in time to the Qin Dynasty.
    There, the two would run into historical figures such as Xiang Yu (Tan Kai) and Liu Bang (Li Yi Xiang).
    But because Xiaochuan and Gao Yao got separated, they each encounter different opportunities and
    outcomes,and Xiaochuan later realizes that he and Gao Yao had became a part of Chinese history;
    Xiaochuan becomes the historical General Meng Yi, and Gao Yao is forced to be castrated and becomes an
    eunuch,later renamed to Zhao Gao.

    Xiaochuan then meets Princess Yushu (Bai Bing) of Tu'an. They soon fall in love,but Yushu becomes
    the Qin Emperor's new concubine,so the two are forced to meet in secret.
    Due to Xiaochuan's worry that Gao Yao would find out and try to sabotage him, the couple would pass their
    messages through Xiaochuan's mobile phone by video recording.
    Back in 2010, Dachuan, his parents and Xiaochuan's girlfriend, Gao Lan  (Zhang Meng), tries to open the
    treasure box without any knowledge about the two's disappearance.
    Along the way, they would receive clues, but would also get attacked by the henchmen of a mysterious masked
    man,while Xiaochuan would also start to experience the wrath of Gao Yao.


    Cast:
    Hu Ge as Yi Xiao Chuan and General Meng Yi
    Ren Quan as Yi Da Chuan
    Bai Bing as Princess Yu Shu
    Chang Shih as Gao Yao and Zhao Gao
    Zhang Meng as Gao Lan / Xiao Yue (Yu Ji)
    Tan Kai as Xiang Yu
    Jin Sha as Lu Su
    Zhang Wei as Gao Jian Li
    Chen Zi Han as Lu Zhi
    Yi Zhen as General Jin
    Allen Ting as Meng Tian
    Li Yi Xiang (李易祥) as Liu Bang
    Shi Tian Shuo as Li You
    Chen Qi Guo (陈启国) as Lu Gong
    Ma Wen Long as Fu Su
    Liu Xiao Xi (刘小溪) as Li Si
    Zang Jin Sheng as Emperor Qin Shi Huang
    Yang Shu You (杨树由) as Cui Wen Zi
    Liu Dong (刘冬) as Pang Fu Jiang
    Wang Zhi Xia (王之夏) as Empress Tu An
    Wei Lai as Neng Jiang Nu
    Xu Di as Mrs. Yi
    Shi Yun Peng as Liu Ying (Liu Bang's son)
    Ma Wen Long as Fu Su
    Zhou Ye Mang as Fan Zeng

    Technical INFO:

    Code

    Video
    ID                                       : 1
    Format                                   : AVC
    Format/Info                              : Advanced Video Codec
    Format profile                           : High@L4.1
    Format settings, CABAC                   : Yes
    Format settings, ReFrames                : 5 frames
    Codec ID                                 : V_MPEG4/ISO/AVC
    Duration                                 : 41mn 31s
    Nominal bit rate                         : 3 200 Kbps
    Width                                    : 1 280 pixels
    Height                                   : 720 pixels
    Display aspect ratio                     : 16:9
    Frame rate mode                          : Constant
    Frame rate                               : 25.000 fps
    Color space                              : YUV
    Chroma subsampling                       : 4:2:0
    Bit depth                                : 8 bits
    Scan type                                : Progressive
    Bits/(Pixel*Frame)                       : 0.139
    Writing library                          : x264 core 142 r2479 dd79a61
    Encoding settings                        : cabac=1 / ref=5 / deblock=1:-1:-1

    Audio
    ID                                       : 2
    Format                                   : AAC
    Format/Info                              : Advanced Audio Codec
    Format profile                           : LC
    Codec ID                                 : A_AAC
    Duration                                 : 41mn 31s
    Channel(s)                               : 2 channels
    Channel positions                        : Front: L R
    Sampling rate                            : 48.0 KHz
    Compression mode                         : Lossy
    Default                                  : Yes
    Forced                                   : No



    Screenshots:

    Enjoy LEECHING hump.gif , keep SEEDING  fish.gif


    0 0

    Original Post: Law of the Jungle with Friends E169 720p WITH (Ep 7 Yap Island)


    Hangul: 정글의 법칙
    Genre: Variety Show
    Language: Korean
    Country: South Korea
    Subtitles: No Subtitles

    Cast:

    Kim Byung-man
    Ryu Dam
    Park Han-byul
    Kangnam
    Ryu Seung-soo
    Lee Jung-jin
    Bae Soo-bin
    Yoon Sang-hyun
    Lee Yi-kyung
    Eun Ji-won
    Jung Jin Woon
    Dasom

    Synopsis:

    Law of the Jungle

    Law of the Jungle (Korean: 정글의 법칙) is a South Korean reality-documentary show on SBS. It was first aired on October 21, 2011. This show is a hybrid of reality-variety television, natural documentaries, and human drama; a new concept of programming.[1] The cast of celebrities travel to primitive, natural places to survive on their own and experience life with local tribes and people.[2] Originally airing at the Friday 11:05 pm KST time slot, the program was switched into Good Sunday for its second season beginning May 6, 2012, airing before Running Man at the 5:00 pm time slot, replacing K-pop Star Season 1.[3] With the return of K-pop Star Season 2 to Good Sunday, the program returned to Friday nights but airing at 10:00 pm instead beginning November 16, 2012.[4] Originally airing as Kim Byung-man's Law of the Jungle (Korean: 김병만의 정글의 법칙) after the creator and "clan leader" Kim Byung-man, "Kim Byung-man's" was dropped from the title beginning in Season 3.

    Special editions of the program air as well featuring a different cast not in the regular time slot. Law of the Jungle W (W for Women) features an all-female cast and generally airs during the Seollal and Chuseok holidays.[5] Law of the Jungle K (K for Kids) features celebrities with their children, and has aired as a Seollal special in 2013.


    Code
    General
    Format                                   : MPEG-4
    Format profile                           : Base Media
    Codec ID                                 : isom
    File size                                : 1.32 GiB
    Duration                                 : 1h 16mn
    Overall bit rate mode                    : Variable
    Overall bit rate                         : 2 472 Kbps

    Video
    ID                                       : 1
    Format                                   : AVC
    Format/Info                              : Advanced Video Codec
    Format profile                           : Baseline@L1.3
    Format settings, CABAC                   : No
    Format settings, ReFrames                : 1 frame
    Codec ID                                 : avc1
    Codec ID/Info                            : Advanced Video Coding
    Duration                                 : 1h 16mn
    Bit rate                                 : 2 200 Kbps
    Maximum bit rate                         : 12.2 Mbps
    Width                                    : 1 280 pixels
    Height                                   : 720 pixels
    Display aspect ratio                     : 16:9
    Frame rate mode                          : Constant
    Frame rate                               : 29.970 fps
    Color space                              : YUV
    Chroma subsampling                       : 4:2:0
    Bit depth                                : 8 bits
    Scan type                                : Progressive
    Bits/(Pixel*Frame)                       : 0.080
    Stream size                              : 1.18 GiB (90%)
    Writing library                          : x264 core 128 r2216 198a7ea
    Encoding settings                        : cabac=0 / ref=1 / deblock=1:0:0 / analyse=0x1:0x111 / me=hex / subme=7 / psy=1 / psy_rd=1.00:0.00 / mixed_ref=0 / me_range=16 / chroma_me=1 / trellis=1 / 8x8dct=0 / cqm=0 / deadzone=21,11 / fast_pskip=1 / chroma_qp_offset=-2 / threads=12 / lookahead_threads=2 / sliced_threads=0 / nr=0 / decimate=1 / interlaced=0 / bluray_compat=0 / constrained_intra=0 / bframes=0 / weightp=0 / keyint=250 / keyint_min=25 / scenecut=40 / intra_refresh=0 / rc_lookahead=40 / rc=abr / mbtree=1 / bitrate=2200 / ratetol=1.0 / qcomp=0.60 / qpmin=0 / qpmax=69 / qpstep=4 / vbv_maxrate=50000 / vbv_bufsize=50000 / nal_hrd=none / ip_ratio=1.40 / aq=1:1.00

    Audio
    ID                                       : 2
    Format                                   : AAC
    Format/Info                              : Advanced Audio Codec
    Format profile                           : LC
    Codec ID                                 : 40
    Duration                                 : 1h 16mn
    Bit rate mode                            : Variable
    Bit rate                                 : 256 Kbps
    Maximum bit rate                         : 263 Kbps
    Channel(s)                               : 2 channels
    Channel positions                        : Front: L R
    Sampling rate                            : 48.0 KHz
    Compression mode                         : Lossy
    Stream size                              : 139 MiB (10%)








    *Please PM me if there is something wrong. If you have the subtitle, please add it smile1.gif

    Don't try to HIT AND RUN. Don't forget to seed minimum at least 1.5..


    0 0

    Original Post: Mad Monkey Kung Fu 1080p BDRip x264 DTS

    Mad Monkey Kung Fu 1080p BDRip x264 DTS


    Title: Mad Monkey Kung Fu
    Revised romanization: Feng Hou
    Chinese: 瘋猴

    Year: 1979
    Theatrical release date: 5 October 1979 (Hong Kong)
    Blu-Ray release date: 20 Feb 2015
    Runtime: 01:49:34
    Genre: Action, Adventure, Martial Arts
    Languages: Mandarin Chinese
    Country: Hong Kong
    Subtitles: None
    Source: Region B/2 German Blu-Ray Remux uploaded by wudang
    IMDB URL: http://www.imdb.com/title/tt0079147/
    HKMDB URL: http://hkmdb.com/db/movies/view.mhtml?id=6036&display_set=eng

    Director: Liu Chia-Liang

    Cast: Liu Chia-Liang, Hsiao Hou, Kara Hui, Lo Lieh, Wei Ying-Hung

    Synopsis: A disgraced former Kung Fu expert makes a living as a merchant with the help of a hot headed friend. When the men are harassed by gangsters, the merchant decided to teach his friend monkey boxing so they can defend their business.

    [screens]  









    Media Information:

    Code

    Format                                   : Matroska
    Format version                           : Version 4 / Version 2
    File size                                : 7.77 GiB
    Duration                                 : 1h 49mn
    Overall bit rate                         : 10.2 Mbps
    Writing application                      : mkvmerge v7.8.0 ('River Man') 32bit built on Mar 27 2015 16:18:02
    Writing library                          : libebml v1.3.1 + libmatroska v1.4.2
    DURATION                                 : 01:49:34.070000000

    Video
    ID                                       : 1
    Format                                   : AVC
    Format/Info                              : Advanced Video Codec
    Format profile                           : High@L4.1
    Format settings, CABAC                   : Yes
    Format settings, ReFrames                : 5 frames
    Codec ID                                 : V_MPEG4/ISO/AVC
    Duration                                 : 1h 49mn
    Bit rate                                 : 9 000 Kbps
    Width                                    : 1 920 pixels
    Height                                   : 800 pixels
    Display aspect ratio                     : 2.40:1
    Frame rate mode                          : Constant
    Frame rate                               : 25.000 fps
    Color space                              : YUV
    Chroma subsampling                       : 4:2:0
    Bit depth                                : 8 bits
    Scan type                                : Progressive
    Bits/(Pixel*Frame)                       : 0.234
    Stream size                              : 6.73 GiB (87%)
    Writing library                          : x264 core 146 r2538 121396c
    Encoding settings                        : cabac=1 / ref=5 / deblock=1:1:-1 / analyse=0x3:0 / me=umh / subme=10 / psy=1 / psy_rd=1.00:0.00 / mixed_ref=1 / me_range=32 / chroma_me=1 / trellis=2 / 8x8dct=1 / cqm=0 / deadzone=21,11 / fast_pskip=0 / chroma_qp_offset=-2 / threads=12 / lookahead_threads=2 / sliced_threads=0 / nr=0 / decimate=1 / interlaced=0 / bluray_compat=0 / constrained_intra=0 / bframes=8 / b_pyramid=2 / b_adapt=2 / b_bias=0 / direct=3 / weightb=1 / open_gop=0 / weightp=2 / keyint=240 / keyint_min=24 / scenecut=40 / intra_refresh=0 / rc_lookahead=60 / rc=2pass / mbtree=1 / bitrate=9000 / ratetol=1.0 / qcomp=0.60 / qpmin=0 / qpmax=69 / qpstep=4 / cplxblur=20.0 / qblur=0.5 / ip_ratio=1.40 / aq=1:1.00
    Default                                  : Yes
    Forced                                   : No

    Audio
    ID                                       : 2
    Format                                   : DTS
    Format/Info                              : Digital Theater Systems
    Mode                                     : 16
    Format settings, Endianness              : Big
    Codec ID                                 : A_DTS
    Duration                                 : 1h 49mn
    Bit rate mode                            : Constant
    Bit rate                                 : 1 152 Kbps
    Channel(s)                               : 2 channels
    Channel positions                        : Front: L R
    Sampling rate                            : 48.0 KHz
    Bit depth                                : 16 bits
    Compression mode                         : Lossy
    Stream size                              : 903 MiB (11%)
    Language                                 : Chinese
    Default                                  : Yes
    Forced                                   : No

    Menu
    00:00:00.000                             : en:Chapter 01
    00:16:00.320                             : en:Chapter 02
    00:27:44.880                             : en:Chapter 03
    00:41:01.880                             : en:Chapter 04
    00:47:00.720                             : en:Chapter 05
    00:59:50.520                             : en:Chapter 06
    01:20:15.640                             : en:Chapter 07
    01:31:04.000                             : en:Chapter 08




    0 0

    Original Post: The.Sword.of.Doom.1966.Criterion.BluRay.Remux.1080p.AVC.FLAC.1.0-HiFi

    The.Sword.of.Doom.1966.Criterion.BluRay.Remux.1080p.AVC.FLAC.1.0-HiFi


    Title: The Sword of Doom
    Revised romanization: Dai-bosatsu tôge
    Japanese: 大菩薩峠

    Year: 1966
    Theatrical release date: 25 February 1966 (Japan)
    Runtime: 119 min
    Language: Japanese
    Country: Japan
    Subtitles: English (PGS)
    IMDB URL: http://www.imdb.com/title/tt0079147/

    Director: Kihachi Okamoto

    Cast: Tatsuya Nakadai, Yūzō Kayama, Michiyo Aratama, Toshiro Mifune

    Synopsis: Through his unconscionable actions against others, a sociopath samurai builds a trail of vendettas that follow him closely.

    [screens]  








    Media Information:

    Code

    General
    Unique ID                                : 189474803797803033486397087554161352631 (0x8E8B8513D91F729B88864CB157FC1FB7)
    Complete name                            : The.Sword.of.Doom.1966.Criterion.BluRay.Remux.1080p.AVC.FLAC.1.0-HiFi.mkv
    Format                                   : Matroska
    Format version                           : Version 4 / Version 2
    File size                                : 29.7 GiB
    Duration                                 : 2h 0mn
    Overall bit rate mode                    : Variable
    Overall bit rate                         : 35.2 Mbps
    Movie name                               : The.Sword.of.Doom.1966.Criterion.BluRay.Remux.1080p.AVC.FLAC.1.0-HiFi
    Encoded date                             : UTC 2015-01-16 18:26:51
    Writing application                      : mkvmerge v7.5.0 ('Glass Culture') 64bit built on Jan  4 2015 17:21:29
    Writing library                          : libebml v1.3.1 + libmatroska v1.4.2
    DURATION                                 : 02:00:00.777000000
    NUMBER_OF_FRAMES                         : 2234
    NUMBER_OF_BYTES                          : 4932343
    _STATISTICS_WRITING_APP                  : mkvmerge v7.5.0 ('Glass Culture') 64bit built on Jan  4 2015 17:21:29
    _STATISTICS_WRITING_DATE_UTC             : 2015-01-16 18:26:51
    _STATISTICS_TAGS                         : BPS DURATION NUMBER_OF_FRAMES NUMBER_OF_BYTES

    Video
    ID                                       : 1
    Format                                   : AVC
    Format/Info                              : Advanced Video Codec
    Format profile                           : High@L4.1
    Format settings, CABAC                   : Yes
    Format settings, ReFrames                : 4 frames
    Codec ID                                 : V_MPEG4/ISO/AVC
    Duration                                 : 2h 0mn
    Bit rate mode                            : Variable
    Maximum bit rate                         : 37.0 Mbps
    Width                                    : 1 920 pixels
    Height                                   : 1 080 pixels
    Display aspect ratio                     : 16:9
    Frame rate mode                          : Constant
    Frame rate                               : 23.976 fps
    Color space                              : YUV
    Chroma subsampling                       : 4:2:0
    Bit depth                                : 8 bits
    Scan type                                : Progressive
    Title                                    : MPEG-4 AVC Video / 34467 kbps / 1080p / 23.976 fps / 16:9 / High Profile 4.1
    Default                                  : Yes
    Forced                                   : No

    Audio #1
    ID                                       : 2
    Format                                   : FLAC
    Format/Info                              : Free Lossless Audio Codec
    Codec ID                                 : A_FLAC
    Duration                                 : 2h 0mn
    Bit rate mode                            : Variable
    Channel(s)                               : 1 channel
    Sampling rate                            : 48.0 KHz
    Bit depth                                : 24 bits
    Title                                    : FLAC Audio / 1.0 / 48 kHz / 583 kbps / 24-bit
    Writing library                          : libFLAC 1.2.1 (UTC 2007-09-17)
    Language                                 : Japanese
    Default                                  : Yes
    Forced                                   : No

    Audio #2
    ID                                       : 3
    Format                                   : AC-3
    Format/Info                              : Audio Coding 3
    Mode extension                           : CM (complete main)
    Format settings, Endianness              : Big
    Codec ID                                 : A_AC3
    Duration                                 : 2h 0mn
    Bit rate mode                            : Constant
    Bit rate                                 : 192 Kbps
    Channel(s)                               : 1 channel
    Channel positions                        : Front: C
    Sampling rate                            : 48.0 KHz
    Bit depth                                : 16 bits
    Compression mode                         : Lossy
    Stream size                              : 165 MiB (1%)
    Title                                    : Commentary by film historian Stephen Prince / Dolby Digital Audio / 1.0 / 48 kHz / 192 kbps
    Language                                 : English
    Default                                  : No
    Forced                                   : No

    Text
    ID                                       : 4
    Format                                   : PGS
    Muxing mode                              : zlib
    Codec ID                                 : S_HDMV/PGS
    Codec ID/Info                            : Picture based subtitle format used on BDs/HD-DVDs
    Language                                 : English
    Default                                  : Yes
    Forced                                   : No

    Menu
    00:00:00.000                             : en:Opening Titles
    00:01:48.400                             : en:Answered Prayer
    00:06:42.319                             : en:Request to Relinquish
    00:09:31.070                             : en:"Would You Surrender Your Chastity?"
    00:18:00.329                             : en:Miscalculation
    00:21:07.516                             : en:Mount Mitake Match
    00:27:03.163                             : en:Forest Slaughter
    00:30:16.898                             : en:Hama's Regrets
    00:36:18.635                             : en:Silent Form
    00:42:59.744                             : en:Omatsu and Shichibei
    00:49:03.482                             : en:Bamboo Flute
    00:53:35.212                             : en:Omatsu Serves Lord Kamio
    00:58:07.943                             : en:"There Is No Way to Save Him"
    01:02:01.676                             : en:The Bamboo Game
    01:05:27.590                             : en:Seaching for Omatsu
    01:12:16.958                             : en:Mistaken Ambush
    01:19:24.343                             : en:Hyoma's Challenge
    01:25:56.860                             : en:Failure and Success
    01:30:54.532                             : en:Hyoma Discovers Omatsu
    01:36:00.880                             : en:Three Plots, One Night
    01:43:42.007                             : en:Triggering Ryunosuke's Demons
    01:50:16.235                             : en:Rampage
    01:54:18.477                             : en:Samurai Climax




    0 0

    Original Post: Murphy's Law of Love [Ongoing] E17 720p



    Details:

    Also known as Perhaps, This is Called Love
    Genre Romance, Comedy
    Created by Sanlih E-Television
    Written by Wang Ruo-ting 王若婷
    Fang Yi-de 方懿德
    Wu Xiang-ying 吳香穎
    Chen Xin-ying 陳妡盈
    Directed by Ye Tian-lun 葉天倫
    Li Qing-rong 李青蓉
    Opening theme Fly With Me by Landy Wen 溫嵐
    Ending theme Want To Say 想說 by GJ 蔣卓嘉
    Country of origin Republic of China (Taiwan)
    Original language(s) Mandarin
    No. of episodes 20
    http://thetvdb.com/?tab=series&id=293952

    Video Raws: thanks to abugemilang
    Subtitles: English SRT, credit Drama Fever and/or Viki, thanks to abugemilang

    Synopsis

    What happens when true love meets Murphy’s Law? Murphy’s Law states “anything that can go wrong, will go wrong.” Guan Xiao Tong (Ivelyn Lee) is known as the “love guru” of the Meet and Match Online Dating Company, able to solve anybody’s relationship issues. After He Zhi Yu (Wang Si Ping), a beautiful model, leaves Ji Jia Wei (Danson Tang), he is heartbroken but his father tries to convince him to move on. To help his own divorced father get close to Wu Mei Zhen (Lin Mei Zhen), the boss of the dating company, Jia Wei proposes a joint-company matchmaking event. There, Jia Wei meets Xiao Tong, and the two get off on the wrong foot and they soon delight in tormenting each other. Meanwhile, Mei Zhen’s son, Xiang Zi Yan (Jolin Chien), gets to know Xiao Tong and begins to develop feelings for her. Can dating experts who hold the fate of other people’s happiness in their own hands be able to navigate the tides of their own hearts? “Murphy’s Law of Love” is a 2015 Taiwanese drama series.

    Main cast

       Danson Tang 唐禹哲 as Ji Jia-wei 紀家尉
       Ivelyn Lee 李佳穎 as Guan Xiao-tong 關曉彤
       Jolin Chien 簡宏霖 as Xiang Zi-yan 向子諺
       Jenna Wang 王思平 as He Zhi-yu 何芝羽







    Video Codec

    Code
    Video
    ID                                       : 1
    Format                                   : AVC
    Format/Info                              : Advanced Video Codec
    Format profile                           : Main@L3.1
    Format settings, CABAC                   : Yes
    Format settings, ReFrames                : 4 frames
    Codec ID                                 : avc1
    Codec ID/Info                            : Advanced Video Coding
    Duration                                 : 1h 13mn
    Bit rate                                 : 1 169 Kbps
    Width                                    : 1 280 pixels
    Height                                   : 720 pixels
    Display aspect ratio                     : 16:9
    Frame rate mode                          : Constant
    Frame rate                               : 29.970 fps
    Color space                              : YUV
    Chroma subsampling                       : 4:2:0
    Bit depth                                : 8 bits
    Scan type                                : Progressive
    Bits/(Pixel*Frame)                       : 0.042
    Stream size                              : 611 MiB (82%)
    Writing library                          : x264 core 138 r2 9e941d1
    Encoding settings                        : cabac=1 / ref=1 / deblock=1:0:0 / analyse=0x1:0 / me=dia / subme=2 / psy=1 / psy_rd=1.00:0.00 / mixed_ref=0 / me_range=16 / chroma_me=1 / trellis=0 / 8x8dct=0 / cqm=0 / deadzone=21,11 / fast_pskip=1 / chroma_qp_offset=0 / threads=12 / lookahead_threads=4 / sliced_threads=0 / nr=0 / decimate=1 / interlaced=0 / bluray_compat=0 / constrained_intra=0 / bframes=3 / b_pyramid=2 / b_adapt=1 / b_bias=0 / direct=1 / weightb=1 / open_gop=0 / weightp=2 / keyint=300 / keyint_min=29 / scenecut=40 / intra_refresh=0 / rc_lookahead=40 / rc=crf / mbtree=1 / crf=23.0 / qcomp=0.60 / qpmin=0 / qpmax=69 / qpstep=4 / ip_ratio=1.40 / aq=1:1.00
    Tagged date                              : UTC 2015-03-23 09:32:32

    Audio
    ID                                       : 2
    Format                                   : AAC
    Format/Info                              : Advanced Audio Codec
    Format profile                           : LC
    Codec ID                                 : 40
    Duration                                 : 1h 13mn
    Bit rate mode                            : Constant
    Bit rate                                 : 192 Kbps
    Channel(s)                               : 2 channels
    Channel positions                        : Front: L R
    Sampling rate                            : 48.0 KHz
    Compression mode                         : Lossy
    Stream size                              : 100 MiB (13%)
    Tagged date                              : UTC 2015-03-23 09:32:32




older | 1 | .... | 1394 | 1395 | (Page 1396) | 1397 | 1398 | .... | 1405 | newer