Are you the publisher? Claim or contact us about this channel


Embed this content in your HTML

Search

Report adult content:

click to rate:

Account: (login)

More Channels


Showcase


Channel Catalog


Channel Description:

Asia Torrents RSS Feed

older | 1 | .... | 1397 | 1398 | (Page 1399) | 1400 | 1401 | .... | 1405 | newer

    0 0

    Original Post: High.Society.E11.150713.HDTV.H264.720p-LIMO

    http://thetvdb.com/?tab=series&id=296433

    Synopsis
    A love story between a woman, who is looking for a man who can love her although she is not wealthy, and an indigent man, who thinks love is simply a tool that the ruling class uses in order to control the people under them.

    Cast
    Main Cast
    UEE as Jang Yoon Ha (27)
    Sung Joon as Choi Joon Ki (29)
    Park Hyung Shik as Yoo Chang Soo (29)
    Im Ji Yeon as Lee Ji Yi (27)









    Code
    Video
    ID                               : 0
    Format                           : AVC
    Format/Info                      : Advanced Video Codec
    Format profile                   : High@L5.1
    Format settings, CABAC           : Yes
    Format settings, ReFrames        : 4 frames
    Codec ID                         : H264
    Duration                         : 1h 4mn
    Bit rate                         : 3 000 Kbps
    Width                            : 1 280 pixels
    Height                           : 720 pixels
    Display aspect ratio             : 16:9
    Frame rate mode                  : Variable
    Frame rate                       : 29.970 fps
    Color space                      : YUV
    Chroma subsampling               : 4:2:0
    Bit depth                        : 8 bits
    Scan type                        : Progressive
    Bits/(Pixel*Frame)               : 0.109
    Stream size                      : 1.35 GiB (94%)
    Writing library                  : x264 core 112
    Encoding settings                : cabac=1 / ref=3 / deblock=1:-1:-1 / analyse=0x3:0x113 / me=hex / subme=6 / psy=1 / psy_rd=1.00:1.00 / mixed_ref=1 / me_range=16 / chroma_me=1 / trellis=1 / 8x8dct=1 / cqm=0 / deadzone=21,11 / fast_pskip=0 / chroma_qp_offset=-4 / threads=12 / sliced_threads=0 / nr=0 / decimate=1 / interlaced=0 / constrained_intra=0 / bframes=3 / b_pyramid=2 / b_adapt=1 / b_bias=1 / direct=3 / weightb=1 / open_gop=0 / weightp=2 / keyint=299 / keyint_min=25 / scenecut=1 / intra_refresh=0 / rc_lookahead=40 / rc=abr / mbtree=1 / bitrate=3000 / ratetol=1.0 / qcomp=0.60 / qpmin=10 / qpmax=51 / qpstep=4 / ip_ratio=1.40 / aq=1:1.00

    Audio
    ID                               : 1
    Format                           : MPEG Audio
    Format version                   : Version 1
    Format profile                   : Layer 3
    Mode                             : Joint stereo
    Mode extension                   : MS Stereo
    Codec ID                         : 55
    Codec ID/Hint                    : MP3
    Duration                         : 1h 4mn
    Bit rate mode                    : Constant
    Bit rate                         : 192 Kbps
    Channel(s)                       : 2 channels
    Sampling rate                    : 48.0 KHz
    Stream size                      : 88.0 MiB (6%)
    Alignment                        : Split accross interleaves
    Interleave, duration             : 33 ms (1.00 video frame)
    Interleave, preload duration     : 500 ms
    Writing library                  : LAME3.98.2



    0 0

    Original Post: I.Remember.You.E07.150713.HDTV.X264-LIMO

    http://thetvdb.com/?tab=series&id=296265
    Details

    Title: 너를 기억해 / Neoreul Gieokhae
    Previously known as: Hello Monster (헬로 몬스터)
    Genre: Romance, thriller, mystery
    Episodes: 16
    Broadcast network: KBS2
    Broadcast period: 2015-Jun-22 to 2015-???-??
    Air time: Monday & Tuesday 22:00

    Synopsis
    A passionate detective with a strong track record has been investigating a mysterious former FBI profiler for a long while. They both somehow end up in the same investigation crime team which sparks their romance.

    Cast
    Seo In Gook
    Jang Na Ra
    Kim Jae Young
    Lee Chun Hee
    Choi Won Young
    Park Bo Gum
    Son Seung Won
    Min Sung Wook







    Code
    Video
    ID                             : 1
    Format                         : AVC
    Format/Info                    : Advanced Video Codec
    Format profile                 : Main@L4.0
    Format settings, CABAC         : Yes
    Format settings, ReFrames      : 4 frames
    Codec ID                       : V_MPEG4/ISO/AVC
    Duration                       : 58mn 44s
    Bit rate                       : 450 Kbps
    Width                          : 624 pixels
    Height                         : 350 pixels
    Display aspect ratio           : 16:9
    Frame rate mode                : Constant
    Frame rate                     : 29.970 fps
    Color space                    : YUV
    Chroma subsampling             : 4:2:0
    Bit depth                      : 8 bits
    Scan type                      : Progressive
    Bits/(Pixel*Frame)             : 0.069
    Stream size                    : 190 MiB (76%)
    Writing library                : x264 core 130 r2273 b3065e6
    Encoding settings              : cabac=1 / ref=1 / deblock=1:0:0 / analyse=0x1:0x111 / me=hex / subme=2 / psy=1 / psy_rd=1.00:0.00 / mixed_ref=0 / me_range=16 / chroma_me=1 / trellis=0 / 8x8dct=0 / cqm=0 / deadzone=21,11 / fast_pskip=1 / chroma_qp_offset=0 / threads=1 / lookahead_threads=1 / sliced_threads=0 / nr=0 / decimate=1 / interlaced=0 / bluray_compat=0 / constrained_intra=0 / bframes=3 / b_pyramid=2 / b_adapt=1 / b_bias=0 / direct=1 / weightb=1 / open_gop=0 / weightp=1 / keyint=300 / keyint_min=30 / scenecut=40 / intra_refresh=0 / rc_lookahead=10 / rc=abr / mbtree=1 / bitrate=450 / ratetol=1.0 / qcomp=0.60 / qpmin=0 / qpmax=69 / qpstep=4 / vbv_maxrate=20000 / vbv_bufsize=25000 / nal_hrd=none / ip_ratio=1.40 / aq=1:1.00
    Language                       : English
    Default                        : Yes
    Forced                         : No
    Color primaries                : BT.601 NTSC
    Transfer characteristics       : BT.709
    Matrix coefficients            : BT.601

    Audio
    ID                             : 2
    Format                         : MPEG Audio
    Format version                 : Version 1
    Format profile                 : Layer 3
    Mode                           : Joint stereo
    Mode extension                 : MS Stereo
    Codec ID                       : A_MPEG/L3
    Codec ID/Hint                  : MP3
    Duration                       : 58mn 44s
    Bit rate mode                  : Constant
    Bit rate                       : 128 Kbps
    Channel(s)                     : 2 channels
    Sampling rate                  : 48.0 KHz
    Compression mode               : Lossy
    Stream size                    : 53.8 MiB (22%)
    Default                        : Yes
    Forced                         : No



    0 0

    Original Post: I.Remember.You.E07.150713.HDTV.H264.450p-LIMO

    http://thetvdb.com/?tab=series&id=296265
    Details

    Title: 너를 기억해 / Neoreul Gieokhae
    Previously known as: Hello Monster (헬로 몬스터)
    Genre: Romance, thriller, mystery
    Episodes: 16
    Broadcast network: KBS2
    Broadcast period: 2015-Jun-22 to 2015-???-??
    Air time: Monday & Tuesday 22:00

    Synopsis
    A passionate detective with a strong track record has been investigating a mysterious former FBI profiler for a long while. They both somehow end up in the same investigation crime team which sparks their romance.

    Cast
    Seo In Gook
    Jang Na Ra
    Kim Jae Young
    Lee Chun Hee
    Choi Won Young
    Park Bo Gum
    Son Seung Won
    Min Sung Wook






    Code
    Video
    ID                                       : 0
    Format                                   : AVC
    Format/Info                              : Advanced Video Codec
    Format profile                           : High@L5.1
    Format settings, CABAC                   : Yes
    Format settings, ReFrames                : 4 frames
    Codec ID                                 : H264
    Bit rate                                 : 1 500 Kbps
    Width                                    : 800 pixels
    Height                                   : 450 pixels
    Display aspect ratio                     : 16:9
    Frame rate mode                          : Variable
    Frame rate                               : 29.970 fps
    Color space                              : YUV
    Chroma subsampling                       : 4:2:0
    Bit depth                                : 8 bits
    Scan type                                : Progressive
    Bits/(Pixel*Frame)                       : 0.139
    Stream size                              : 686 MiB (88%)
    Writing library                          : x264 core 112

    Audio
    ID                                       : 1
    Format                                   : MPEG Audio
    Format version                           : Version 1
    Format profile                           : Layer 3
    Mode                                     : Joint stereo
    Mode extension                           : MS Stereo
    Codec ID                                 : 55
    Codec ID/Hint                            : MP3
    Bit rate mode                            : Constant
    Bit rate                                 : 192 Kbps
    Channel(s)                               : 2 channels
    Sampling rate                            : 48.0 KHz
    Compression mode                         : Lossy
    Stream size                              : 88.3 MiB (11%)
    Alignment                                : Aligned on interleaves
    Interleave, duration                     : 24 ms (0.72 video frame)
    Writing library                          : LAME3.98.2
    Language                                 : Korean



    0 0

    Original Post: I.Remember.You.E07.150713.HDTV.H264.720p-LIMO

    http://thetvdb.com/?tab=series&id=296265
    Details

    Title: 너를 기억해 / Neoreul Gieokhae
    Previously known as: Hello Monster (헬로 몬스터)
    Genre: Romance, thriller, mystery
    Episodes: 16
    Broadcast network: KBS2
    Broadcast period: 2015-Jun-22 to 2015-???-??
    Air time: Monday & Tuesday 22:00

    Synopsis
    A passionate detective with a strong track record has been investigating a mysterious former FBI profiler for a long while. They both somehow end up in the same investigation crime team which sparks their romance.

    Cast
    Seo In Gook
    Jang Na Ra
    Kim Jae Young
    Lee Chun Hee
    Choi Won Young
    Park Bo Gum
    Son Seung Won
    Min Sung Wook






    Code
    Video
    ID                               : 0
    Format                           : AVC
    Format/Info                      : Advanced Video Codec
    Format profile                   : High@L5.1
    Format settings, CABAC           : Yes
    Format settings, ReFrames        : 4 frames
    Codec ID                         : H264
    Duration                         : 1h 4mn
    Bit rate                         : 3 000 Kbps
    Width                            : 1 280 pixels
    Height                           : 720 pixels
    Display aspect ratio             : 16:9
    Frame rate mode                  : Variable
    Frame rate                       : 29.970 fps
    Color space                      : YUV
    Chroma subsampling               : 4:2:0
    Bit depth                        : 8 bits
    Scan type                        : Progressive
    Bits/(Pixel*Frame)               : 0.109
    Stream size                      : 1.35 GiB (94%)
    Writing library                  : x264 core 112
    Encoding settings                : cabac=1 / ref=3 / deblock=1:-1:-1 / analyse=0x3:0x113 / me=hex / subme=6 / psy=1 / psy_rd=1.00:1.00 / mixed_ref=1 / me_range=16 / chroma_me=1 / trellis=1 / 8x8dct=1 / cqm=0 / deadzone=21,11 / fast_pskip=0 / chroma_qp_offset=-4 / threads=12 / sliced_threads=0 / nr=0 / decimate=1 / interlaced=0 / constrained_intra=0 / bframes=3 / b_pyramid=2 / b_adapt=1 / b_bias=1 / direct=3 / weightb=1 / open_gop=0 / weightp=2 / keyint=299 / keyint_min=25 / scenecut=1 / intra_refresh=0 / rc_lookahead=40 / rc=abr / mbtree=1 / bitrate=3000 / ratetol=1.0 / qcomp=0.60 / qpmin=10 / qpmax=51 / qpstep=4 / ip_ratio=1.40 / aq=1:1.00

    Audio
    ID                               : 1
    Format                           : MPEG Audio
    Format version                   : Version 1
    Format profile                   : Layer 3
    Mode                             : Joint stereo
    Mode extension                   : MS Stereo
    Codec ID                         : 55
    Codec ID/Hint                    : MP3
    Duration                         : 1h 4mn
    Bit rate mode                    : Constant
    Bit rate                         : 192 Kbps
    Channel(s)                       : 2 channels
    Sampling rate                    : 48.0 KHz
    Stream size                      : 88.0 MiB (6%)
    Alignment                        : Split accross interleaves
    Interleave, duration             : 33 ms (1.00 video frame)
    Interleave, preload duration     : 500 ms
    Writing library                  : LAME3.98.2



    0 0

    Original Post: Hwajung.E27.150713.HDTV.XviD-LIMO

    Details
    Title: 화정 / Hwajung
    Also known as: Splendid Politics
    Previously known as: Princess Jungmyung
    Genre: Historical, political, romance
    Episodes: 50
    Broadcast network: MBC
    Broadcast period: 2015-Apr-13 to 2015-Oct-??
    Air time: Monday & Tuesday 22:00
    Subtitles by Dramafever will be added later
    http://thetvdb.com/?tab=series&id=293910

    Synopsis
    Fair Princess Jungmyung (Lee Yeon Hee) lives a life of the highest privilege, until her half-brother Prince Gwanghae (Cha Seung Won) executes the rightful crown prince and usurps the throne. Exiled from court, Jungmyung goes under disguise as a man and learns to adapt to life as a commoner — never forgetting Gwanghae's wrongdoing. But amidst rampant corruption throughout the kingdom, can Jyungmyung exact her vengeance, restore order and take back her rightful place in the palace?

    Cast

    Main Cast
    Cha Seung Won as Prince Gwanghae
    Lee Tae Hwan as teen Gwanghae
    Lee Yun Hee as Princess Jungmyung
    Jung Chan Bi as teen Jungmyung
    Seo Jung Eun as child Jungmyung
    Kim Jae Won as King Injo
    Seo Kang Joon as Hong Ju Won
    Yoon Chan Young as teen Ju Won
    Choi Kwon Ju as child Ju Won
    Han Joo Wan as Kang In Woo
    Ahn Do Gyu as teen In Woo






    Code
    Video
    ID                                       : 0
    Format                                   : MPEG-4 Visual
    Format profile                           : Advanced Simple@L5
    Format settings, BVOP                    : No
    Format settings, QPel                    : No
    Format settings, GMC                     : No warppoints
    Format settings, Matrix                  : Default (MPEG)
    Codec ID                                 : XVID
    Codec ID/Hint                            : XviD
    Duration                                 : 1h 6mn
    Bit rate                                 : 1 391 Kbps
    Width                                    : 624 pixels
    Height                                   : 352 pixels
    Display aspect ratio                     : 16:9
    Frame rate                               : 29.970 fps
    Color space                              : YUV
    Chroma subsampling                       : 4:2:0
    Bit depth                                : 8 bits
    Scan type                                : Progressive
    Compression mode                         : Lossy
    Bits/(Pixel*Frame)                       : 0.211
    Stream size                              : 660 MiB (87%)
    Writing library                          : XviD 1.2.1 (UTC 2008-12-04)

    Audio
    ID                                       : 1
    Format                                   : MPEG Audio
    Format version                           : Version 1
    Format profile                           : Layer 3
    Mode                                     : Joint stereo
    Mode extension                           : MS Stereo
    Codec ID                                 : 55
    Codec ID/Hint                            : MP3
    Duration                                 : 1h 6mn
    Bit rate mode                            : Constant
    Bit rate                                 : 128 Kbps
    Channel(s)                               : 2 channels
    Sampling rate                            : 48.0 KHz
    Compression mode                         : Lossy
    Stream size                              : 60.8 MiB (8%)
    Alignment                                : Aligned on interleaves
    Writing library                          : LAME3.98.2



    0 0

    Original Post: Hwajung.E27.150713.HDTV.H264.720p-LIMO

    Details
    Title: 화정 / Hwajung
    Also known as: Splendid Politics
    Previously known as: Princess Jungmyung
    Genre: Historical, political, romance
    Episodes: 50
    Broadcast network: MBC
    Broadcast period: 2015-Apr-13 to 2015-Oct-??
    Air time: Monday & Tuesday 22:00
    Subtitles by Dramafever will be added later
    http://thetvdb.com/?tab=series&id=293910

    Synopsis
    Fair Princess Jungmyung (Lee Yeon Hee) lives a life of the highest privilege, until her half-brother Prince Gwanghae (Cha Seung Won) executes the rightful crown prince and usurps the throne. Exiled from court, Jungmyung goes under disguise as a man and learns to adapt to life as a commoner — never forgetting Gwanghae's wrongdoing. But amidst rampant corruption throughout the kingdom, can Jyungmyung exact her vengeance, restore order and take back her rightful place in the palace?

    Cast

    Main Cast
    Cha Seung Won as Prince Gwanghae
    Lee Tae Hwan as teen Gwanghae
    Lee Yun Hee as Princess Jungmyung
    Jung Chan Bi as teen Jungmyung
    Seo Jung Eun as child Jungmyung
    Kim Jae Won as King Injo
    Seo Kang Joon as Hong Ju Won
    Yoon Chan Young as teen Ju Won
    Choi Kwon Ju as child Ju Won
    Han Joo Wan as Kang In Woo
    Ahn Do Gyu as teen In Woo







    Code
    Video
    ID                             : 0
    Format                         : AVC
    Format/Info                    : Advanced Video Codec
    Format profile                 : High@L5.1
    Format settings, CABAC         : Yes
    Format settings, ReFrames      : 4 frames
    Codec ID                       : H264
    Duration                       : 1h 14mn
    Bit rate                       : 3 000 Kbps
    Width                          : 1 280 pixels
    Height                         : 720 pixels
    Display aspect ratio           : 16:9
    Frame rate mode                : Variable
    Frame rate                     : 29.970 fps
    Color space                    : YUV
    Chroma subsampling             : 4:2:0
    Bit depth                      : 8 bits
    Scan type                      : Progressive
    Bits/(Pixel*Frame)             : 0.109
    Stream size                    : 1.57 GiB (94%)
    Writing library                : x264 core 112
    Encoding settings              : cabac=1 / ref=3 / deblock=1:-1:-1 / analyse=0x3:0x113 / me=hex / subme=6 / psy=1 / psy_rd=1.00:1.00 / mixed_ref=1 / me_range=16 / chroma_me=1 / trellis=1 / 8x8dct=1 / cqm=0 / deadzone=21,11 / fast_pskip=0 / chroma_qp_offset=-4 / threads=12 / sliced_threads=0 / nr=0 / decimate=1 / interlaced=0 / constrained_intra=0 / bframes=3 / b_pyramid=2 / b_adapt=1 / b_bias=1 / direct=3 / weightb=1 / open_gop=0 / weightp=2 / keyint=299 / keyint_min=25 / scenecut=1 / intra_refresh=0 / rc_lookahead=40 / rc=abr / mbtree=1 / bitrate=3000 / ratetol=1.0 / qcomp=0.60 / qpmin=10 / qpmax=51 / qpstep=4 / ip_ratio=1.40 / aq=1:1.00

    Audio
    ID                             : 1
    Format                         : MPEG Audio
    Format version                 : Version 1
    Format profile                 : Layer 3
    Mode                           : Joint stereo
    Mode extension                 : MS Stereo
    Codec ID                       : 55
    Codec ID/Hint                  : MP3
    Duration                       : 1h 14mn
    Bit rate mode                  : Constant
    Bit rate                       : 192 Kbps
    Channel(s)                     : 2 channels
    Sampling rate                  : 48.0 KHz
    Compression mode               : Lossy
    Stream size                    : 102 MiB (6%)
    Alignment                      : Split accross interleaves
    Interleave, duration           : 33 ms (1.00 video frame)
    Interleave, preload duration   : 500 ms
    Writing library                : LAME3.98



    0 0

    Original Post: Tennou no Ryouriban ep12 finale 480p



    http://asianwiki.com/Tenno_no_Ryoriban
    http://thetvdb.com/?tab=series&id=296291&lid=7

    Title: The Emperor's Cook
    Romaji: Tenno no Ryoriban
    Japanese: 天皇の料理番
    Genre: Historical, Human Drama
    Director: Yuichiro Hirakawa, Shingo Okamoto
    Writer: Hisahide Sugimori (novel), Yoshiko Morishita
    Network: TBS
    Episodes: 12
    Release Date: 2015-Apr-26 to 2015-Jul-12
    Runtime: Sundays 21:00
    Theme song: Yume Miru Hito (Dreamer) by Sada Masashi
    Language: Japanese
    Country: Japan
    Subtitles: English here: subie06
    RAW credit to furransu

    Cast
       Takeru Satoh - Tokuzo Akiyama
       Haru Kuroki - Toshiko Takahama
       Kenta Kiritani - Shintaro Matsui
       Tasuku Emoto - Tatsuyoshi Yamagami
       Saki Takaoka - Ume Morita
       Gajiro Sato - Sennosuke Morita
       Sei Ashina - Kayano
       Ryu Morioka - Kurasaburo Akiyama
       Anna Ishibashi - Koshi Takahama
       Yoshiyuki Tsubokura - Okumura
       Jinta Nishizawa - Masashi Sasaki
       Daisuke Kuroda - Araki
       Takeshi Onishi - Sekiguchi
       Mamoru Watanabe - Sugiyama
       Hirotaka Ookuma - Fujita
       Yuji Kido - Suzuki
       Ryohei Suzuki - Shutaro Akiyama
       Tetsuya Takeda - Shogo
       Hideaki Ito - Yukichi Tanabe
       Yumi Asou - Okichi (restaurant owner)
       Masaya Kato - Takeshiro Ioki
       Yojin Hino - Kinnosuke Takahama
       Satoko Oshima - Harugo Takahama
       Jun Miho - Fuki Akiyama
       Tetta Sugimoto - Shuzo Akiyama
       Kaoru Kobayashi - Usami
       Satoko Oshima
       Hiromi Go - Shin'ichirō Awano

    Synopsis
    Tokuzo Akiyama (Takeru Satoh) is a young man living in a rural area. One day, he eats cutlet. That experience leads him to become a cook for western style food. He first goes to Tokyo and then Paris, France to learn about the culinary arts. Fighting against discrimination and prejudice, he becomes a chef at the Hotel Ritz in Paris, France. At the age of 26, he becomes the chef for the Emperor of Japan.

    In 1904, at New Year's, the Akiyama family in Fukui prefecture were full of hope except for one thing. Shuzo (Tetta Sugimoto) worries that his second son, Tokuzo (Takeru Satoh) just quits things too easily unlike the first son, Shutaro (Ryohei Suzuki). The worried father arranges his son to marry Toshiko (Haru Kuroki) of the Takahama family who runs a seaweed merchant. One day, newly-married Tokuzo encounters Sergeant Tanabe (Hideaki Ito) of the Sabae Regiment while delivering seaweed. Tokuzo has a piece of freshly-fried cutlet offered by Tanabe and is struck by the overwhelming taste. ~ TBS

    General
    Complete name                  : Tennou no Ryouriban ep12 finale (848x480 x264).mp4
    Format                         : MPEG-4
    Format profile                 : Base Media
    Codec ID                       : isom
    File size                      : 576 MiB
    Duration                       : 1h 13mn
    Overall bit rate mode          : Variable
    Overall bit rate               : 1 103 Kbps

    Video
    ID                             : 1
    Format                         : AVC
    Format/Info                    : Advanced Video Codec
    Format profile                 : High@L4.1
    Format settings, CABAC         : Yes
    Format settings, ReFrames      : 4 frames
    Codec ID                       : avc1
    Codec ID/Info                  : Advanced Video Coding
    Duration                       : 1h 13mn
    Bit rate                       : 971 Kbps
    Maximum bit rate               : 9 477 Kbps
    Width                          : 848 pixels
    Height                         : 480 pixels
    Display aspect ratio           : 16:9
    Frame rate mode                : Constant
    Frame rate                     : 29.970 fps
    Color space                    : YUV
    Chroma subsampling             : 4:2:0
    Bit depth                      : 8 bits
    Scan type                      : Progressive
    Bits/(Pixel*Frame)             : 0.080
    Stream size                    : 507 MiB (88%)

    Audio
    ID                             : 2
    Format                         : AAC
    Format/Info                    : Advanced Audio Codec
    Format profile                 : LC
    Codec ID                       : 40
    Duration                       : 1h 13mn
    Bit rate mode                  : Variable
    Bit rate                       : 128 Kbps
    Maximum bit rate               : 138 Kbps
    Channel count                  : 2 channels
    Channel positions              : Front: L R
    Sampling rate                  : 48.0 KHz
    Compression mode               : Lossy







    0 0

    Original Post: Tennou no Ryouriban (2015) 480p Complete Series



    http://asianwiki.com/Tenno_no_Ryoriban
    http://thetvdb.com/?tab=series&id=296291&lid=7

    Title: The Emperor's Cook
    Romaji: Tenno no Ryoriban
    Japanese: 天皇の料理番
    Genre: Historical, Human Drama
    Director: Yuichiro Hirakawa, Shingo Okamoto
    Writer: Hisahide Sugimori (novel), Yoshiko Morishita
    Network: TBS
    Episodes: 12
    Release Date: 2015-Apr-26 to 2015-Jul-12
    Runtime: Sundays 21:00
    Theme song: Yume Miru Hito (Dreamer) by Sada Masashi
    Language: Japanese
    Country: Japan
    Subtitles: English here: subie06
    RAWs credit to furransu

    Cast
       Takeru Satoh - Tokuzo Akiyama
       Haru Kuroki - Toshiko Takahama
       Kenta Kiritani - Shintaro Matsui
       Tasuku Emoto - Tatsuyoshi Yamagami
       Saki Takaoka - Ume Morita
       Gajiro Sato - Sennosuke Morita
       Sei Ashina - Kayano
       Ryu Morioka - Kurasaburo Akiyama
       Anna Ishibashi - Koshi Takahama
       Yoshiyuki Tsubokura - Okumura
       Jinta Nishizawa - Masashi Sasaki
       Daisuke Kuroda - Araki
       Takeshi Onishi - Sekiguchi
       Mamoru Watanabe - Sugiyama
       Hirotaka Ookuma - Fujita
       Yuji Kido - Suzuki
       Ryohei Suzuki - Shutaro Akiyama
       Tetsuya Takeda - Shogo
       Hideaki Ito - Yukichi Tanabe
       Yumi Asou - Okichi (restaurant owner)
       Masaya Kato - Takeshiro Ioki
       Yojin Hino - Kinnosuke Takahama
       Satoko Oshima - Harugo Takahama
       Jun Miho - Fuki Akiyama
       Tetta Sugimoto - Shuzo Akiyama
       Kaoru Kobayashi - Usami
       Satoko Oshima
       Hiromi Go - Shin'ichirō Awano

    Synopsis
    Tokuzo Akiyama (Takeru Satoh) is a young man living in a rural area. One day, he eats cutlet. That experience leads him to become a cook for western style food. He first goes to Tokyo and then Paris, France to learn about the culinary arts. Fighting against discrimination and prejudice, he becomes a chef at the Hotel Ritz in Paris, France. At the age of 26, he becomes the chef for the Emperor of Japan.

    In 1904, at New Year's, the Akiyama family in Fukui prefecture were full of hope except for one thing. Shuzo (Tetta Sugimoto) worries that his second son, Tokuzo (Takeru Satoh) just quits things too easily unlike the first son, Shutaro (Ryohei Suzuki). The worried father arranges his son to marry Toshiko (Haru Kuroki) of the Takahama family who runs a seaweed merchant. One day, newly-married Tokuzo encounters Sergeant Tanabe (Hideaki Ito) of the Sabae Regiment while delivering seaweed. Tokuzo has a piece of freshly-fried cutlet offered by Tanabe and is struck by the overwhelming taste. ~ TBS

    General
    Complete name                  : Tennou no Ryouriban ep12 finale (848x480 x264).mp4
    Format                         : MPEG-4
    Format profile                 : Base Media
    Codec ID                       : isom
    File size                      : 576 MiB
    Duration                       : 1h 13mn
    Overall bit rate mode          : Variable
    Overall bit rate               : 1 103 Kbps

    Video
    ID                             : 1
    Format                         : AVC
    Format/Info                    : Advanced Video Codec
    Format profile                 : High@L4.1
    Format settings, CABAC         : Yes
    Format settings, ReFrames      : 4 frames
    Codec ID                       : avc1
    Codec ID/Info                  : Advanced Video Coding
    Duration                       : 1h 13mn
    Bit rate                       : 971 Kbps
    Maximum bit rate               : 9 477 Kbps
    Width                          : 848 pixels
    Height                         : 480 pixels
    Display aspect ratio           : 16:9
    Frame rate mode                : Constant
    Frame rate                     : 29.970 fps
    Color space                    : YUV
    Chroma subsampling             : 4:2:0
    Bit depth                      : 8 bits
    Scan type                      : Progressive
    Bits/(Pixel*Frame)             : 0.080
    Stream size                    : 507 MiB (88%)

    Audio
    ID                             : 2
    Format                         : AAC
    Format/Info                    : Advanced Audio Codec
    Format profile                 : LC
    Codec ID                       : 40
    Duration                       : 1h 13mn
    Bit rate mode                  : Variable
    Bit rate                       : 128 Kbps
    Maximum bit rate               : 138 Kbps
    Channel count                  : 2 channels
    Channel positions              : Front: L R
    Sampling rate                  : 48.0 KHz
    Compression mode               : Lossy













    0 0

    Original Post: My.Love.Eun.Dong.E14.150711.HDTV.XviD-WITH

    http://thetvdb.com/index.php?tab=series&id=296108
    Subtitles will be added later

    The story of Eun-Ho, a man who has it all, but the love of Eun-Dong, the woman whom he has been loving for the past 20 years,, unable to forget her.






    Code
    Video
    ID                                       : 0
    Format                                   : MPEG-4 Visual
    Format profile                           : Advanced Simple@L5
    Format settings, BVOP                    : 2
    Format settings, QPel                    : No
    Format settings, GMC                     : No warppoints
    Format settings, Matrix                  : Default (H.263)
    Muxing mode                              : Packed bitstream
    Codec ID                                 : XVID
    Codec ID/Hint                            : XviD
    Duration                                 : 1h 2mn
    Bit rate                                 : 1 237 Kbps
    Width                                    : 640 pixels
    Height                                   : 352 pixels
    Display aspect ratio                     : 16:9
    Frame rate                               : 29.970 fps
    Color space                              : YUV
    Chroma subsampling                       : 4:2:0
    Bit depth                                : 8 bits
    Scan type                                : Progressive
    Compression mode                         : Lossy
    Bits/(Pixel*Frame)                       : 0.183
    Stream size                              : 550 MiB (90%)
    Writing library                          : XviD 58

    Audio
    ID                                       : 1
    Format                                   : MPEG Audio
    Format version                           : Version 1
    Format profile                           : Layer 3
    Mode                                     : Joint stereo
    Mode extension                           : MS Stereo
    Codec ID                                 : 55
    Codec ID/Hint                            : MP3
    Duration                                 : 1h 2mn
    Bit rate mode                            : Constant
    Bit rate                                 : 128 Kbps
    Channel(s)                               : 2 channels
    Sampling rate                            : 48.0 KHz
    Compression mode                         : Lossy
    Stream size                              : 56.9 MiB (9%)
    Alignment                                : Aligned on interleaves
    Interleave, duration                     : 33 ms (1.00 video frame)
    Interleave, preload duration             : 504 ms



    0 0

    Original Post: My.Love.Eun.Dong.E14.150711.HDTV.H264.720p-WITH

    http://thetvdb.com/index.php?tab=series&id=296108
    Subtitles will be added later

    The story of Eun-Ho, a man who has it all, but the love of Eun-Dong, the woman whom he has been loving for the past 20 years,, unable to forget her.






    Code
    Video
    ID                                       : 1
    Format                                   : AVC
    Format/Info                              : Advanced Video Codec
    Format profile                           : Baseline@L1.3
    Format settings, CABAC                   : No
    Format settings, ReFrames                : 1 frame
    Codec ID                                 : avc1
    Codec ID/Info                            : Advanced Video Coding
    Duration                                 : 1h 3mn
    Bit rate                                 : 2 200 Kbps
    Maximum bit rate                         : 6 012 Kbps
    Width                                    : 1 280 pixels
    Height                                   : 720 pixels
    Display aspect ratio                     : 16:9
    Frame rate mode                          : Constant
    Frame rate                               : 29.970 fps
    Color space                              : YUV
    Chroma subsampling                       : 4:2:0
    Bit depth                                : 8 bits
    Scan type                                : Progressive
    Bits/(Pixel*Frame)                       : 0.080
    Stream size                              : 1 018 MiB (90%)
    Writing library                          : x264 core 128 r2216 198a7ea
    Encoding settings                        : cabac=0 / ref=1 / deblock=1:0:0 / analyse=0x1:0x111 / me=hex / subme=7 / psy=1 / psy_rd=1.00:0.00 / mixed_ref=0 / me_range=16 / chroma_me=1 / trellis=1 / 8x8dct=0 / cqm=0 / deadzone=21,11 / fast_pskip=1 / chroma_qp_offset=-2 / threads=12 / lookahead_threads=2 / sliced_threads=0 / nr=0 / decimate=1 / interlaced=0 / bluray_compat=0 / constrained_intra=0 / bframes=0 / weightp=0 / keyint=250 / keyint_min=25 / scenecut=40 / intra_refresh=0 / rc_lookahead=40 / rc=abr / mbtree=1 / bitrate=2200 / ratetol=1.0 / qcomp=0.60 / qpmin=0 / qpmax=69 / qpstep=4 / vbv_maxrate=50000 / vbv_bufsize=50000 / nal_hrd=none / ip_ratio=1.40 / aq=1:1.00


    Audio
    ID                                       : 2
    Format                                   : AAC
    Format/Info                              : Advanced Audio Codec
    Format profile                           : LC
    Codec ID                                 : 40
    Duration                                 : 1h 3mn
    Bit rate mode                            : Variable
    Bit rate                                 : 256 Kbps
    Maximum bit rate                         : 262 Kbps
    Channel(s)                               : 2 channels
    Channel positions                        : Front: L R
    Sampling rate                            : 48.0 KHz
    Compression mode                         : Lossy
    Stream size                              : 117 MiB (10%)



    0 0

    Original Post: My.Beautiful.Bride.E07.150711.HDTV.XviD-WITH

    http://thetvdb.com/?tab=series&id=295917
    Details
    Title: 아름다운 나의 신부 / Areumdawoon Naeui Shinboo
    Genre: Melodrama, romance
    Episodes: 16
    Broadcast network: OCN
    Broadcast period: 2015-Jun-20 to 2015-???-??
    Air time: Saturday & Sunday 23:00
    Original Soundtrack: My Beautiful Bride OST
    Synopsis
    “My soon-to-be bride all of sudden disappeared. And I turned into a monster to find her”. The drama depicts the heartbreaking, pure hearted love by a man, who drives himself to the extreme situation in order to find his only love, his bride.







    Code
    Video
    ID                                       : 0
    Format                                   : MPEG-4 Visual
    Format profile                           : Advanced Simple@L5
    Format settings, BVOP                    : 2
    Format settings, QPel                    : No
    Format settings, GMC                     : No warppoints
    Format settings, Matrix                  : Default (H.263)
    Muxing mode                              : Packed bitstream
    Codec ID                                 : XVID
    Codec ID/Hint                            : XviD
    Duration                                 : 1h 3mn
    Bit rate                                 : 1 238 Kbps
    Width                                    : 640 pixels
    Height                                   : 352 pixels
    Display aspect ratio                     : 16:9
    Frame rate                               : 29.970 fps
    Color space                              : YUV
    Chroma subsampling                       : 4:2:0
    Bit depth                                : 8 bits
    Scan type                                : Progressive
    Compression mode                         : Lossy
    Bits/(Pixel*Frame)                       : 0.183
    Stream size                              : 566 MiB (90%)
    Writing library                          : XviD 58

    Audio
    ID                                       : 1
    Format                                   : MPEG Audio
    Format version                           : Version 1
    Format profile                           : Layer 3
    Mode                                     : Joint stereo
    Mode extension                           : MS Stereo
    Codec ID                                 : 55
    Codec ID/Hint                            : MP3
    Duration                                 : 1h 3mn
    Bit rate mode                            : Constant
    Bit rate                                 : 128 Kbps
    Channel(s)                               : 2 channels
    Sampling rate                            : 48.0 KHz
    Compression mode                         : Lossy
    Stream size                              : 58.5 MiB (9%)
    Alignment                                : Aligned on interleaves
    Interleave, duration                     : 33 ms (1.00 video frame)
    Interleave, preload duration             : 504 ms



    0 0

    Original Post: My.Beautiful.Bride.E07.150711.HDTV.H264.450p-WITH

    http://thetvdb.com/?tab=series&id=295917
    Details
    Title: 아름다운 나의 신부 / Areumdawoon Naeui Shinboo
    Genre: Melodrama, romance
    Episodes: 16
    Broadcast network: OCN
    Broadcast period: 2015-Jun-20 to 2015-???-??
    Air time: Saturday & Sunday 23:00
    Original Soundtrack: My Beautiful Bride OST
    Synopsis
    “My soon-to-be bride all of sudden disappeared. And I turned into a monster to find her”. The drama depicts the heartbreaking, pure hearted love by a man, who drives himself to the extreme situation in order to find his only love, his bride.







    Code
    Video
    ID                             : 1
    Format                         : AVC
    Format/Info                    : Advanced Video Codec
    Format profile                 : High@L4.1
    Format settings, CABAC         : Yes
    Format settings, ReFrames      : 4 frames
    Codec ID                       : avc1
    Codec ID/Info                  : Advanced Video Coding
    Duration                       : 1h 3mn
    Source duration                : 1h 3mn
    Bit rate                       : 1 400 Kbps
    Maximum bit rate               : 3 753 Kbps
    Width                          : 800 pixels
    Height                         : 450 pixels
    Display aspect ratio           : 16:9
    Frame rate mode                : Constant
    Frame rate                     : 29.970 fps
    Color space                    : YUV
    Chroma subsampling             : 4:2:0
    Bit depth                      : 8 bits
    Scan type                      : Progressive
    Bits/(Pixel*Frame)             : 0.130
    Stream size                    : 650 MiB
    Source stream size             : 650 MiB
    Writing library                : x264 core 128 r2216 198a7ea

    Audio
    ID                             : 2
    Format                         : AAC
    Format/Info                    : Advanced Audio Codec
    Format profile                 : LC
    Codec ID                       : 40
    Duration                       : 1h 3mn
    Bit rate mode                  : Variable
    Bit rate                       : 256 Kbps
    Maximum bit rate               : 262 Kbps
    Channel(s)                     : 2 channels
    Channel positions              : Front: L R
    Sampling rate                  : 48.0 KHz
    Compression mode               : Lossy
    Stream size                    : 117 MiB (42%)



    0 0

    Original Post: My.Beautiful.Bride.E07.150711.HDTV.H264.720p-WITH

    http://thetvdb.com/?tab=series&id=295917
    Details
    Title: 아름다운 나의 신부 / Areumdawoon Naeui Shinboo
    Genre: Melodrama, romance
    Episodes: 16
    Broadcast network: OCN
    Broadcast period: 2015-Jun-20 to 2015-???-??
    Air time: Saturday & Sunday 23:00
    Original Soundtrack: My Beautiful Bride OST
    Synopsis
    “My soon-to-be bride all of sudden disappeared. And I turned into a monster to find her”. The drama depicts the heartbreaking, pure hearted love by a man, who drives himself to the extreme situation in order to find his only love, his bride.






    Code
    Video
    ID                                       : 1
    Format                                   : AVC
    Format/Info                              : Advanced Video Codec
    Format profile                           : Baseline@L1.3
    Format settings, CABAC                   : No
    Format settings, ReFrames                : 1 frame
    Codec ID                                 : avc1
    Codec ID/Info                            : Advanced Video Coding
    Duration                                 : 1h 3mn
    Bit rate                                 : 2 200 Kbps
    Maximum bit rate                         : 6 012 Kbps
    Width                                    : 1 280 pixels
    Height                                   : 720 pixels
    Display aspect ratio                     : 16:9
    Frame rate mode                          : Constant
    Frame rate                               : 29.970 fps
    Color space                              : YUV
    Chroma subsampling                       : 4:2:0
    Bit depth                                : 8 bits
    Scan type                                : Progressive
    Bits/(Pixel*Frame)                       : 0.080
    Stream size                              : 1 018 MiB (90%)
    Writing library                          : x264 core 128 r2216 198a7ea
    Encoding settings                        : cabac=0 / ref=1 / deblock=1:0:0 / analyse=0x1:0x111 / me=hex / subme=7 / psy=1 / psy_rd=1.00:0.00 / mixed_ref=0 / me_range=16 / chroma_me=1 / trellis=1 / 8x8dct=0 / cqm=0 / deadzone=21,11 / fast_pskip=1 / chroma_qp_offset=-2 / threads=12 / lookahead_threads=2 / sliced_threads=0 / nr=0 / decimate=1 / interlaced=0 / bluray_compat=0 / constrained_intra=0 / bframes=0 / weightp=0 / keyint=250 / keyint_min=25 / scenecut=40 / intra_refresh=0 / rc_lookahead=40 / rc=abr / mbtree=1 / bitrate=2200 / ratetol=1.0 / qcomp=0.60 / qpmin=0 / qpmax=69 / qpstep=4 / vbv_maxrate=50000 / vbv_bufsize=50000 / nal_hrd=none / ip_ratio=1.40 / aq=1:1.00
    Encoded date                             : UTC 2015-03-28 15:15:31
    Tagged date                              : UTC 2015-03-28 15:20:35

    Audio
    ID                                       : 2
    Format                                   : AAC
    Format/Info                              : Advanced Audio Codec
    Format profile                           : LC
    Codec ID                                 : 40
    Duration                                 : 1h 3mn
    Bit rate mode                            : Variable
    Bit rate                                 : 256 Kbps
    Maximum bit rate                         : 262 Kbps
    Channel(s)                               : 2 channels
    Channel positions                        : Front: L R
    Sampling rate                            : 48.0 KHz
    Compression mode                         : Lossy
    Stream size                              : 117 MiB (10%)





    0 0

    Original Post: TVB Ghost.Of.Relativity.E01.HDTV.H264.720p-Hallo



    Synopsis
    Architects Limited's office manager Keung Yung (Nancy Wu) has had a crush on her co-worker Michael Mai Hoi-long (Moses Chan) for over ten years, but she is too afraid to confess her feelings. While calling May Shun Suk-Mui (Kristal Tin), who is a clumsy employee that just cost the architect firm to lost a huge account, on the phone to fire her, Yung is electrocuted to death because of her bootlegged cellular phone. Regretful of not being able to fulfill her romantic wishes in life, she uses May, who is the only person that can see and hear her due to their final phone conversation, to pursue Michael.

    Main cast
    Moses Chan as Michael Mai Hoi-long (米開朗)
    Kristal Tin as May Suen Suk-Mui (孫淑梅)
    Nancy Wu as Keung Yung (姜蓉; similar pronunciation to "minced ginger&quotwink.gif






    Code
    Video
    ID                                       : 2
    Format                                   : AVC
    Format/Info                              : Advanced Video Codec
    Format profile                           : Main@L4.0
    Format settings, CABAC                   : Yes
    Format settings, ReFrames                : 4 frames
    Codec ID                                 : V_MPEG4/ISO/AVC
    Duration                                 : 44mn 14s
    Bit rate                                 : 4 500 Kbps
    Width                                    : 1 280 pixels
    Height                                   : 720 pixels
    Display aspect ratio                     : 16:9
    Frame rate mode                          : Variable
    Frame rate                               : 25.000 fps
    Color space                              : YUV
    Chroma subsampling                       : 4:2:0
    Bit depth                                : 8 bits
    Scan type                                : Progressive
    Bits/(Pixel*Frame)                       : 0.195
    Stream size                              : 1.36 GiB (94%)
    Writing library                          : x264 core 130 r2273 b3065e6
    Default                                  : Yes
    Forced                                   : No
    Color primaries                          : BT.709-5, BT.1361, IEC 61966-2-4, SMPTE RP177
    Transfer characteristics                 : BT.709-5, BT.1361
    Matrix coefficients                      : BT.709-5, BT.1361, IEC 61966-2-4 709, SMPTE RP177

    Audio
    ID                                       : 3
    Format                                   : AC-3
    Format/Info                              : Audio Coding 3
    Mode extension                           : CM (complete main)
    Codec ID                                 : A_AC3
    Duration                                 : 44mn 14s
    Bit rate mode                            : Constant
    Bit rate                                 : 192 Kbps
    Channel(s)                               : 2 channels
    Channel positions                        : Front: L R
    Sampling rate                            : 48.0 KHz
    Bit depth                                : 16 bits
    Compression mode                         : Lossy
    Stream size                              : 60.8 MiB (4%)
    Language                                 : English
    Default                                  : Yes
    Forced                                   : No

    Text
    ID                                       : 1
    Format                                   : UTF-8
    Codec ID                                 : S_TEXT/UTF8
    Codec ID/Info                            : UTF-8 Plain Text
    Default                                  : Yes
    Forced                                   : No



    0 0

    Original Post: Sakamoto Ryoma (Yoshiro Edamasa,1928) VHSRip [No English Subs]



    Ryôma Sakamoto unites the Choshu and Satsuma clans and paves the way for the Meiji Restoration.

    Screenshots:









    IMDB LINK: http://www.imdb.com/title/tt0860525/
    Cast: Tsumasaburô Bandô
    Directed: Yoshiro Edamasa
    Genre: Short
    Runtime: 32 min (surviving)
    Country: Japan
    Language: Japanese narration (Benshi)
    Subtitles: Russian (srt)

    ----------------------------------------------------
    General
    Complete name                            : Sakamoto Ryoma_(1928)Sakamoto Ryoma_(1928).avi
    Format                                   : AVI
    Format/Info                              : Audio Video Interleave
    File size                                : 361 MiB
    Duration                                 : 31mn 27s
    Overall bit rate                         : 1 602 Kbps
    Writing application                      : VirtualDubMod 1.5.10.2 (build 2540/release)
    Writing library                          : VirtualDubMod build 2540/release

    Video
    ID                                       : 0
    Format                                   : MPEG-4 Visual
    Format profile                           : Advanced Simple@L5
    Format settings, BVOP                    : 1
    Format settings, QPel                    : No
    Format settings, GMC                     : No warppoints
    Format settings, Matrix                  : Default (H.263)
    Codec ID                                 : XVID
    Codec ID/Hint                            : XviD
    Duration                                 : 31mn 27s
    Bit rate                                 : 1 465 Kbps
    Width                                    : 720 pixels
    Height                                   : 480 pixels
    Display aspect ratio                     : 3:2
    Frame rate                               : 23.976 fps
    Standard                                 : NTSC
    Color space                              : YUV
    Chroma subsampling                       : 4:2:0
    Bit depth                                : 8 bits
    Scan type                                : Progressive
    Compression mode                         : Lossy
    Bits/(Pixel*Frame)                       : 0.177
    Stream size                              : 330 MiB (91%)
    Writing library                          : XviD 1.2.0.dev47 (UTC 2006-11-01)

    Audio
    ID                                       : 1
    Format                                   : MPEG Audio
    Format version                           : Version 1
    Format profile                           : Layer 3
    Codec ID                                 : 55
    Codec ID/Hint                            : MP3
    Duration                                 : 31mn 27s
    Bit rate mode                            : Constant
    Bit rate                                 : 128 Kbps
    Channel(s)                               : 2 channels
    Sampling rate                            : 44.1 KHz
    Compression mode                         : Lossy
    Stream size                              : 28.8 MiB (8%)
    Alignment                                : Split accross interleaves
    Interleave, duration                     : 42 ms (1.00 video frame)
    Interleave, preload duration             : 500 ms
    Writing library                          : LAME3.97
    Encoding settings                        : -m s -V 4 -q 2 -lowpass 17 -b 128


    0 0

    Original Post: TVB Master.of.Destiny.E16.HDTV.H264.2Audio.720p-Hallo

    http://thetvdb.com/index.php?tab=series&id=297278

    Synopsis

    Kwan Yeuk-nam (Liza Wang) is a legendary woman. After her husband committed suicide due to a business failure, she single-handedly raised her three sons to adulthood, also establishing her own business empire, Sun Hon Lik, in the process. Now ready to retire, she is prepared to pass down her empire to her three sons.

    Starring
    Liza Wang
    Angie Chiu
    Hawick Lau
    Tiffany Tang
    Monica Mok
    Wayne Lai
    Selena Li
    Kenny Wong
    Edwin Siu
    Kimmy Tong






    Code
    Video
    ID                             : 1
    Format                         : AVC
    Format/Info                    : Advanced Video Codec
    Format profile                 : Main@L4.0
    Format settings, CABAC         : Yes
    Format settings, ReFrames      : 4 frames
    Codec ID                       : V_MPEG4/ISO/AVC
    Nominal bit rate               : 4 500 Kbps
    Width                          : 1 280 pixels
    Height                         : 720 pixels
    Display aspect ratio           : 16:9
    Frame rate mode                : Variable
    Color space                    : YUV
    Chroma subsampling             : 4:2:0
    Bit depth                      : 8 bits
    Scan type                      : Progressive
    Writing library                : x264 core 130 r2273 b3065e6
    Encoding settings              : cabac=1 / ref=1 / deblock=1:0:0 / analyse=0x1:0x111 / me=hex / subme=2 / psy=1 / psy_rd=1.00:0.00 / mixed_ref=0 / me_range=16 / chroma_me=1 / trellis=0 / 8x8dct=0 / cqm=0 / deadzone=21,11 / fast_pskip=1 / chroma_qp_offset=0 / threads=1 / lookahead_threads=1 / sliced_threads=0 / nr=0 / decimate=1 / interlaced=0 / bluray_compat=0 / constrained_intra=0 / bframes=3 / b_pyramid=2 / b_adapt=1 / b_bias=0 / direct=1 / weightb=1 / open_gop=0 / weightp=1 / keyint=250 / keyint_min=25 / scenecut=40 / intra_refresh=0 / rc_lookahead=10 / rc=abr / mbtree=1 / bitrate=4500 / ratetol=1.0 / qcomp=0.60 / qpmin=0 / qpmax=69 / qpstep=4 / vbv_maxrate=20000 / vbv_bufsize=25000 / nal_hrd=none / ip_ratio=1.40 / aq=1:1.00
    Language                       : Chinese
    Default                        : Yes
    Forced                         : No
    Color primaries                : BT.709
    Transfer characteristics       : BT.709
    Matrix coefficients            : BT.709

    Audio #1
    ID                             : 2
    Format                         : AC-3
    Format/Info                    : Audio Coding 3
    Mode extension                 : CM (complete main)
    Format settings, Endianness    : Big
    Codec ID                       : A_AC3
    Duration                       : 44mn 13s
    Bit rate mode                  : Constant
    Bit rate                       : 192 Kbps
    Channel(s)                     : 2 channels
    Channel positions              : Front: L R
    Sampling rate                  : 48.0 KHz
    Bit depth                      : 16 bits
    Compression mode               : Lossy
    Stream size                    : 60.7 MiB (81%)
    Title                          : Cantonese
    Language                       : Chinese
    Default                        : Yes
    Forced                         : No

    Audio #2
    ID                             : 3
    Format                         : AC-3
    Format/Info                    : Audio Coding 3
    Mode extension                 : CM (complete main)
    Format settings, Endianness    : Big
    Codec ID                       : A_AC3
    Duration                       : 44mn 13s
    Bit rate mode                  : Constant
    Bit rate                       : 384 Kbps
    Channel(s)                     : 6 channels
    Channel positions              : Front: L C R, Side: L R, LFE
    Sampling rate                  : 48.0 KHz
    Bit depth                      : 16 bits
    Compression mode               : Lossy
    Stream size                    : 121 MiB
    Title                          : Mandarin
    Language                       : Chinese
    Default                        : No
    Forced                         : No

    Text
    ID                             : 4
    Format                         : UTF-8
    Codec ID                       : S_TEXT/UTF8
    Codec ID/Info                  : UTF-8 Plain Text
    Default                        : Yes
    Forced                         : No



    0 0

    Original Post: Lunch no Akko-chan 720p DoA Complete




    Title: Lunch no Akko-chan
    Japanese: ランチのアッコちゃん
    Release Date: May 12, 2015
    Genre: Food / Office / Comedy
    Language: Japanese
    Country: Japan
    Subtitles: NONE


    Episodes: 8
    TV Network: NHK
    Airtime: Tuesday's 23:15
    Official Site: http://www.nhk.or.jp/pyd/akkochan/


    Cast:
    Renbutsu Misako as Sawada Michiko
    Toda Naho as Kurokawa Atsuko
    Noro Kayo as Harada Chihiro
    Narita Ryo as Sasayama Ryuichiro
    Horiuchi Keiko as Shimizu Kimiko
    Suruga Taro
    Hamano Kenta
    Nonaka Takamitsu
    Mano Erina
    Tsurumi Shingo as Yamakawa
    Tayama Ryosei as Ikawa Yoshio


    Synopsis:
    Sawada Michiko, a temporary staff who works for a trading company, has just had her heart broken. On one of the boring days Michiko has been leading, her boss, Kurokawa Atsuko, makes an unexpected suggestion to her. “Exchange lunch with me.” Unable to go against Atsuko, Michiko reluctantly complies. In doing so, she soon realises the profundity of food and starts to change. Atsuko, whom people call Akko-chan, is feared by the people around her and has extensive contacts. What is her true character?


















    Code
    General
    Complete name                            : Lunch no Akko-chan EP01 720p HDTV x264 AAC-DoA.mkv
    Format                                   : Matroska
    Format version                           : Version 2
    File size                                : 507 MiB
    Duration                                 : 29mn 0s
    Overall bit rate                         : 2442 Kbps


    Video
    ID                                       : 1
    Format                                   : AVC
    Format/Info                              : Advanced Video Codec
    Format profile                           : High@L4.1
    Format settings, CABAC                   : Yes
    Format settings, ReFrames                : 8 frames
    Codec ID                                 : V_MPEG4/ISO/AVC
    Duration                                 : 29mn 0s
    Width                                    : 1280 pixels
    Height                                   : 720 pixels
    Display aspect ratio                     : 16:9
    Frame rate                               : 29.970 fps
    Color space                              : YUV
    Chroma subsampling                       : 4:2:0
    Bit depth                                : 8 bits
    Scan type                                : Progressive


    Audio
    ID                                       : 2
    Format                                   : AAC
    Format/Info                              : Advanced Audio Codec
    Format profile                           : LC
    Codec ID                                 : A_AAC
    Duration                                 : 29mn 0s
    Channel(s)                               : 2 channels
    Channel positions                        : Front: L R
    Sampling rate                            : 48.0 KHz
    Compression mode                         : Lossy
    Default                                  : Yes
    Forced                                   : No



    0 0

    Original Post: High.Society.E12.150714.HDTV.X264-LIMO

    http://thetvdb.com/?tab=series&id=296433

    Synopsis
    A love story between a woman, who is looking for a man who can love her although she is not wealthy, and an indigent man, who thinks love is simply a tool that the ruling class uses in order to control the people under them.

    Cast
    Main Cast
    UEE as Jang Yoon Ha (27)
    Sung Joon as Choi Joon Ki (29)
    Park Hyung Shik as Yoo Chang Soo (29)
    Im Ji Yeon as Lee Ji Yi (27)









    Code
    Video
    ID                             : 1
    Format                         : AVC
    Format/Info                    : Advanced Video Codec
    Format profile                 : Main@L4.0
    Format settings, CABAC         : Yes
    Format settings, ReFrames      : 4 frames
    Codec ID                       : V_MPEG4/ISO/AVC
    Duration                       : 58mn 44s
    Bit rate                       : 450 Kbps
    Width                          : 624 pixels
    Height                         : 350 pixels
    Display aspect ratio           : 16:9
    Frame rate mode                : Constant
    Frame rate                     : 29.970 fps
    Color space                    : YUV
    Chroma subsampling             : 4:2:0
    Bit depth                      : 8 bits
    Scan type                      : Progressive
    Bits/(Pixel*Frame)             : 0.069
    Stream size                    : 190 MiB (76%)
    Writing library                : x264 core 130 r2273 b3065e6
    Encoding settings              : cabac=1 / ref=1 / deblock=1:0:0 / analyse=0x1:0x111 / me=hex / subme=2 / psy=1 / psy_rd=1.00:0.00 / mixed_ref=0 / me_range=16 / chroma_me=1 / trellis=0 / 8x8dct=0 / cqm=0 / deadzone=21,11 / fast_pskip=1 / chroma_qp_offset=0 / threads=1 / lookahead_threads=1 / sliced_threads=0 / nr=0 / decimate=1 / interlaced=0 / bluray_compat=0 / constrained_intra=0 / bframes=3 / b_pyramid=2 / b_adapt=1 / b_bias=0 / direct=1 / weightb=1 / open_gop=0 / weightp=1 / keyint=300 / keyint_min=30 / scenecut=40 / intra_refresh=0 / rc_lookahead=10 / rc=abr / mbtree=1 / bitrate=450 / ratetol=1.0 / qcomp=0.60 / qpmin=0 / qpmax=69 / qpstep=4 / vbv_maxrate=20000 / vbv_bufsize=25000 / nal_hrd=none / ip_ratio=1.40 / aq=1:1.00
    Language                       : English
    Default                        : Yes
    Forced                         : No
    Color primaries                : BT.601 NTSC
    Transfer characteristics       : BT.709
    Matrix coefficients            : BT.601

    Audio
    ID                             : 2
    Format                         : MPEG Audio
    Format version                 : Version 1
    Format profile                 : Layer 3
    Mode                           : Joint stereo
    Mode extension                 : MS Stereo
    Codec ID                       : A_MPEG/L3
    Codec ID/Hint                  : MP3
    Duration                       : 58mn 44s
    Bit rate mode                  : Constant
    Bit rate                       : 128 Kbps
    Channel(s)                     : 2 channels
    Sampling rate                  : 48.0 KHz
    Compression mode               : Lossy
    Stream size                    : 53.8 MiB (22%)
    Default                        : Yes
    Forced                         : No



    0 0

    Original Post: High.Society.E12.150714.HDTV.H264.450p-LIMO

    http://thetvdb.com/?tab=series&id=296433

    Synopsis
    A love story between a woman, who is looking for a man who can love her although she is not wealthy, and an indigent man, who thinks love is simply a tool that the ruling class uses in order to control the people under them.

    Cast
    Main Cast
    UEE as Jang Yoon Ha (27)
    Sung Joon as Choi Joon Ki (29)
    Park Hyung Shik as Yoo Chang Soo (29)
    Im Ji Yeon as Lee Ji Yi (27)









    Code
    Video
    ID                                       : 0
    Format                                   : AVC
    Format/Info                              : Advanced Video Codec
    Format profile                           : High@L5.1
    Format settings, CABAC                   : Yes
    Format settings, ReFrames                : 4 frames
    Codec ID                                 : H264
    Bit rate                                 : 1 500 Kbps
    Width                                    : 800 pixels
    Height                                   : 450 pixels
    Display aspect ratio                     : 16:9
    Frame rate mode                          : Variable
    Frame rate                               : 29.970 fps
    Color space                              : YUV
    Chroma subsampling                       : 4:2:0
    Bit depth                                : 8 bits
    Scan type                                : Progressive
    Bits/(Pixel*Frame)                       : 0.139
    Stream size                              : 686 MiB (88%)
    Writing library                          : x264 core 112

    Audio
    ID                                       : 1
    Format                                   : MPEG Audio
    Format version                           : Version 1
    Format profile                           : Layer 3
    Mode                                     : Joint stereo
    Mode extension                           : MS Stereo
    Codec ID                                 : 55
    Codec ID/Hint                            : MP3
    Bit rate mode                            : Constant
    Bit rate                                 : 192 Kbps
    Channel(s)                               : 2 channels
    Sampling rate                            : 48.0 KHz
    Compression mode                         : Lossy
    Stream size                              : 88.3 MiB (11%)
    Alignment                                : Aligned on interleaves
    Interleave, duration                     : 24 ms (0.72 video frame)
    Writing library                          : LAME3.98.2
    Language                                 : Korean



    0 0

    Original Post: High.Society.E12.150714.HDTV.H264.720p-LIMO

    http://thetvdb.com/?tab=series&id=296433

    Synopsis
    A love story between a woman, who is looking for a man who can love her although she is not wealthy, and an indigent man, who thinks love is simply a tool that the ruling class uses in order to control the people under them.

    Cast
    Main Cast
    UEE as Jang Yoon Ha (27)
    Sung Joon as Choi Joon Ki (29)
    Park Hyung Shik as Yoo Chang Soo (29)
    Im Ji Yeon as Lee Ji Yi (27)









    Code
    Video
    ID                               : 0
    Format                           : AVC
    Format/Info                      : Advanced Video Codec
    Format profile                   : High@L5.1
    Format settings, CABAC           : Yes
    Format settings, ReFrames        : 4 frames
    Codec ID                         : H264
    Duration                         : 1h 4mn
    Bit rate                         : 3 000 Kbps
    Width                            : 1 280 pixels
    Height                           : 720 pixels
    Display aspect ratio             : 16:9
    Frame rate mode                  : Variable
    Frame rate                       : 29.970 fps
    Color space                      : YUV
    Chroma subsampling               : 4:2:0
    Bit depth                        : 8 bits
    Scan type                        : Progressive
    Bits/(Pixel*Frame)               : 0.109
    Stream size                      : 1.35 GiB (94%)
    Writing library                  : x264 core 112
    Encoding settings                : cabac=1 / ref=3 / deblock=1:-1:-1 / analyse=0x3:0x113 / me=hex / subme=6 / psy=1 / psy_rd=1.00:1.00 / mixed_ref=1 / me_range=16 / chroma_me=1 / trellis=1 / 8x8dct=1 / cqm=0 / deadzone=21,11 / fast_pskip=0 / chroma_qp_offset=-4 / threads=12 / sliced_threads=0 / nr=0 / decimate=1 / interlaced=0 / constrained_intra=0 / bframes=3 / b_pyramid=2 / b_adapt=1 / b_bias=1 / direct=3 / weightb=1 / open_gop=0 / weightp=2 / keyint=299 / keyint_min=25 / scenecut=1 / intra_refresh=0 / rc_lookahead=40 / rc=abr / mbtree=1 / bitrate=3000 / ratetol=1.0 / qcomp=0.60 / qpmin=10 / qpmax=51 / qpstep=4 / ip_ratio=1.40 / aq=1:1.00

    Audio
    ID                               : 1
    Format                           : MPEG Audio
    Format version                   : Version 1
    Format profile                   : Layer 3
    Mode                             : Joint stereo
    Mode extension                   : MS Stereo
    Codec ID                         : 55
    Codec ID/Hint                    : MP3
    Duration                         : 1h 4mn
    Bit rate mode                    : Constant
    Bit rate                         : 192 Kbps
    Channel(s)                       : 2 channels
    Sampling rate                    : 48.0 KHz
    Stream size                      : 88.0 MiB (6%)
    Alignment                        : Split accross interleaves
    Interleave, duration             : 33 ms (1.00 video frame)
    Interleave, preload duration     : 500 ms
    Writing library                  : LAME3.98.2



older | 1 | .... | 1397 | 1398 | (Page 1399) | 1400 | 1401 | .... | 1405 | newer