Are you the publisher? Claim or contact us about this channel


Embed this content in your HTML

Search

Report adult content:

click to rate:

Account: (login)

More Channels


Showcase


Channel Catalog


Channel Description:

Asia Torrents RSS Feed

older | 1 | .... | 1398 | 1399 | (Page 1400) | 1401 | 1402 | .... | 1405 | newer

    0 0

    Original Post: I.Remember.You.E08.150714.HDTV.X264-LIMO

    http://thetvdb.com/?tab=series&id=296265
    Details

    Title: 너를 기억해 / Neoreul Gieokhae
    Previously known as: Hello Monster (헬로 몬스터)
    Genre: Romance, thriller, mystery
    Episodes: 16
    Broadcast network: KBS2
    Broadcast period: 2015-Jun-22 to 2015-???-??
    Air time: Monday & Tuesday 22:00

    Synopsis
    A passionate detective with a strong track record has been investigating a mysterious former FBI profiler for a long while. They both somehow end up in the same investigation crime team which sparks their romance.

    Cast
    Seo In Gook
    Jang Na Ra
    Kim Jae Young
    Lee Chun Hee
    Choi Won Young
    Park Bo Gum
    Son Seung Won
    Min Sung Wook







    Code
    Video
    ID                             : 1
    Format                         : AVC
    Format/Info                    : Advanced Video Codec
    Format profile                 : Main@L4.0
    Format settings, CABAC         : Yes
    Format settings, ReFrames      : 4 frames
    Codec ID                       : V_MPEG4/ISO/AVC
    Duration                       : 58mn 44s
    Bit rate                       : 450 Kbps
    Width                          : 624 pixels
    Height                         : 350 pixels
    Display aspect ratio           : 16:9
    Frame rate mode                : Constant
    Frame rate                     : 29.970 fps
    Color space                    : YUV
    Chroma subsampling             : 4:2:0
    Bit depth                      : 8 bits
    Scan type                      : Progressive
    Bits/(Pixel*Frame)             : 0.069
    Stream size                    : 190 MiB (76%)
    Writing library                : x264 core 130 r2273 b3065e6
    Encoding settings              : cabac=1 / ref=1 / deblock=1:0:0 / analyse=0x1:0x111 / me=hex / subme=2 / psy=1 / psy_rd=1.00:0.00 / mixed_ref=0 / me_range=16 / chroma_me=1 / trellis=0 / 8x8dct=0 / cqm=0 / deadzone=21,11 / fast_pskip=1 / chroma_qp_offset=0 / threads=1 / lookahead_threads=1 / sliced_threads=0 / nr=0 / decimate=1 / interlaced=0 / bluray_compat=0 / constrained_intra=0 / bframes=3 / b_pyramid=2 / b_adapt=1 / b_bias=0 / direct=1 / weightb=1 / open_gop=0 / weightp=1 / keyint=300 / keyint_min=30 / scenecut=40 / intra_refresh=0 / rc_lookahead=10 / rc=abr / mbtree=1 / bitrate=450 / ratetol=1.0 / qcomp=0.60 / qpmin=0 / qpmax=69 / qpstep=4 / vbv_maxrate=20000 / vbv_bufsize=25000 / nal_hrd=none / ip_ratio=1.40 / aq=1:1.00
    Language                       : English
    Default                        : Yes
    Forced                         : No
    Color primaries                : BT.601 NTSC
    Transfer characteristics       : BT.709
    Matrix coefficients            : BT.601

    Audio
    ID                             : 2
    Format                         : MPEG Audio
    Format version                 : Version 1
    Format profile                 : Layer 3
    Mode                           : Joint stereo
    Mode extension                 : MS Stereo
    Codec ID                       : A_MPEG/L3
    Codec ID/Hint                  : MP3
    Duration                       : 58mn 44s
    Bit rate mode                  : Constant
    Bit rate                       : 128 Kbps
    Channel(s)                     : 2 channels
    Sampling rate                  : 48.0 KHz
    Compression mode               : Lossy
    Stream size                    : 53.8 MiB (22%)
    Default                        : Yes
    Forced                         : No



    0 0

    Original Post: I.Remember.You.E08.150714.HDTV.H264.450p-LIMO

    http://thetvdb.com/?tab=series&id=296265
    Details

    Title: 너를 기억해 / Neoreul Gieokhae
    Previously known as: Hello Monster (헬로 몬스터)
    Genre: Romance, thriller, mystery
    Episodes: 16
    Broadcast network: KBS2
    Broadcast period: 2015-Jun-22 to 2015-???-??
    Air time: Monday & Tuesday 22:00

    Synopsis
    A passionate detective with a strong track record has been investigating a mysterious former FBI profiler for a long while. They both somehow end up in the same investigation crime team which sparks their romance.

    Cast
    Seo In Gook
    Jang Na Ra
    Kim Jae Young
    Lee Chun Hee
    Choi Won Young
    Park Bo Gum
    Son Seung Won
    Min Sung Wook






    Code
    Video
    ID                                       : 0
    Format                                   : AVC
    Format/Info                              : Advanced Video Codec
    Format profile                           : High@L5.1
    Format settings, CABAC                   : Yes
    Format settings, ReFrames                : 4 frames
    Codec ID                                 : H264
    Bit rate                                 : 1 500 Kbps
    Width                                    : 800 pixels
    Height                                   : 450 pixels
    Display aspect ratio                     : 16:9
    Frame rate mode                          : Variable
    Frame rate                               : 29.970 fps
    Color space                              : YUV
    Chroma subsampling                       : 4:2:0
    Bit depth                                : 8 bits
    Scan type                                : Progressive
    Bits/(Pixel*Frame)                       : 0.139
    Stream size                              : 686 MiB (88%)
    Writing library                          : x264 core 112

    Audio
    ID                                       : 1
    Format                                   : MPEG Audio
    Format version                           : Version 1
    Format profile                           : Layer 3
    Mode                                     : Joint stereo
    Mode extension                           : MS Stereo
    Codec ID                                 : 55
    Codec ID/Hint                            : MP3
    Bit rate mode                            : Constant
    Bit rate                                 : 192 Kbps
    Channel(s)                               : 2 channels
    Sampling rate                            : 48.0 KHz
    Compression mode                         : Lossy
    Stream size                              : 88.3 MiB (11%)
    Alignment                                : Aligned on interleaves
    Interleave, duration                     : 24 ms (0.72 video frame)
    Writing library                          : LAME3.98.2
    Language                                 : Korean



    0 0

    Original Post: I.Remember.You.E08.150714.HDTV.H264.720p-LIMO

    http://thetvdb.com/?tab=series&id=296265
    Details

    Title: 너를 기억해 / Neoreul Gieokhae
    Previously known as: Hello Monster (헬로 몬스터)
    Genre: Romance, thriller, mystery
    Episodes: 16
    Broadcast network: KBS2
    Broadcast period: 2015-Jun-22 to 2015-???-??
    Air time: Monday & Tuesday 22:00

    Synopsis
    A passionate detective with a strong track record has been investigating a mysterious former FBI profiler for a long while. They both somehow end up in the same investigation crime team which sparks their romance.

    Cast
    Seo In Gook
    Jang Na Ra
    Kim Jae Young
    Lee Chun Hee
    Choi Won Young
    Park Bo Gum
    Son Seung Won
    Min Sung Wook






    Code
    Video
    ID                               : 0
    Format                           : AVC
    Format/Info                      : Advanced Video Codec
    Format profile                   : High@L5.1
    Format settings, CABAC           : Yes
    Format settings, ReFrames        : 4 frames
    Codec ID                         : H264
    Duration                         : 1h 4mn
    Bit rate                         : 3 000 Kbps
    Width                            : 1 280 pixels
    Height                           : 720 pixels
    Display aspect ratio             : 16:9
    Frame rate mode                  : Variable
    Frame rate                       : 29.970 fps
    Color space                      : YUV
    Chroma subsampling               : 4:2:0
    Bit depth                        : 8 bits
    Scan type                        : Progressive
    Bits/(Pixel*Frame)               : 0.109
    Stream size                      : 1.35 GiB (94%)
    Writing library                  : x264 core 112
    Encoding settings                : cabac=1 / ref=3 / deblock=1:-1:-1 / analyse=0x3:0x113 / me=hex / subme=6 / psy=1 / psy_rd=1.00:1.00 / mixed_ref=1 / me_range=16 / chroma_me=1 / trellis=1 / 8x8dct=1 / cqm=0 / deadzone=21,11 / fast_pskip=0 / chroma_qp_offset=-4 / threads=12 / sliced_threads=0 / nr=0 / decimate=1 / interlaced=0 / constrained_intra=0 / bframes=3 / b_pyramid=2 / b_adapt=1 / b_bias=1 / direct=3 / weightb=1 / open_gop=0 / weightp=2 / keyint=299 / keyint_min=25 / scenecut=1 / intra_refresh=0 / rc_lookahead=40 / rc=abr / mbtree=1 / bitrate=3000 / ratetol=1.0 / qcomp=0.60 / qpmin=10 / qpmax=51 / qpstep=4 / ip_ratio=1.40 / aq=1:1.00

    Audio
    ID                               : 1
    Format                           : MPEG Audio
    Format version                   : Version 1
    Format profile                   : Layer 3
    Mode                             : Joint stereo
    Mode extension                   : MS Stereo
    Codec ID                         : 55
    Codec ID/Hint                    : MP3
    Duration                         : 1h 4mn
    Bit rate mode                    : Constant
    Bit rate                         : 192 Kbps
    Channel(s)                       : 2 channels
    Sampling rate                    : 48.0 KHz
    Stream size                      : 88.0 MiB (6%)
    Alignment                        : Split accross interleaves
    Interleave, duration             : 33 ms (1.00 video frame)
    Interleave, preload duration     : 500 ms
    Writing library                  : LAME3.98.2



    0 0

    Original Post: Hwajung.E28.150714.HDTV.XviD-LIMO

    Details
    Title: 화정 / Hwajung
    Also known as: Splendid Politics
    Previously known as: Princess Jungmyung
    Genre: Historical, political, romance
    Episodes: 50
    Broadcast network: MBC
    Broadcast period: 2015-Apr-13 to 2015-Oct-??
    Air time: Monday & Tuesday 22:00
    Subtitles by Dramafever will be added later
    http://thetvdb.com/?tab=series&id=293910

    Synopsis
    Fair Princess Jungmyung (Lee Yeon Hee) lives a life of the highest privilege, until her half-brother Prince Gwanghae (Cha Seung Won) executes the rightful crown prince and usurps the throne. Exiled from court, Jungmyung goes under disguise as a man and learns to adapt to life as a commoner — never forgetting Gwanghae's wrongdoing. But amidst rampant corruption throughout the kingdom, can Jyungmyung exact her vengeance, restore order and take back her rightful place in the palace?

    Cast

    Main Cast
    Cha Seung Won as Prince Gwanghae
    Lee Tae Hwan as teen Gwanghae
    Lee Yun Hee as Princess Jungmyung
    Jung Chan Bi as teen Jungmyung
    Seo Jung Eun as child Jungmyung
    Kim Jae Won as King Injo
    Seo Kang Joon as Hong Ju Won
    Yoon Chan Young as teen Ju Won
    Choi Kwon Ju as child Ju Won
    Han Joo Wan as Kang In Woo
    Ahn Do Gyu as teen In Woo






    Code
    Video
    ID                                       : 0
    Format                                   : MPEG-4 Visual
    Format profile                           : Advanced Simple@L5
    Format settings, BVOP                    : No
    Format settings, QPel                    : No
    Format settings, GMC                     : No warppoints
    Format settings, Matrix                  : Default (MPEG)
    Codec ID                                 : XVID
    Codec ID/Hint                            : XviD
    Duration                                 : 1h 6mn
    Bit rate                                 : 1 391 Kbps
    Width                                    : 624 pixels
    Height                                   : 352 pixels
    Display aspect ratio                     : 16:9
    Frame rate                               : 29.970 fps
    Color space                              : YUV
    Chroma subsampling                       : 4:2:0
    Bit depth                                : 8 bits
    Scan type                                : Progressive
    Compression mode                         : Lossy
    Bits/(Pixel*Frame)                       : 0.211
    Stream size                              : 660 MiB (87%)
    Writing library                          : XviD 1.2.1 (UTC 2008-12-04)

    Audio
    ID                                       : 1
    Format                                   : MPEG Audio
    Format version                           : Version 1
    Format profile                           : Layer 3
    Mode                                     : Joint stereo
    Mode extension                           : MS Stereo
    Codec ID                                 : 55
    Codec ID/Hint                            : MP3
    Duration                                 : 1h 6mn
    Bit rate mode                            : Constant
    Bit rate                                 : 128 Kbps
    Channel(s)                               : 2 channels
    Sampling rate                            : 48.0 KHz
    Compression mode                         : Lossy
    Stream size                              : 60.8 MiB (8%)
    Alignment                                : Aligned on interleaves
    Writing library                          : LAME3.98.2



    0 0

    Original Post: Hwajung.E28.150714.HDTV.H264.720p-LIMO

    Details
    Title: 화정 / Hwajung
    Also known as: Splendid Politics
    Previously known as: Princess Jungmyung
    Genre: Historical, political, romance
    Episodes: 50
    Broadcast network: MBC
    Broadcast period: 2015-Apr-13 to 2015-Oct-??
    Air time: Monday & Tuesday 22:00
    Subtitles by Dramafever will be added later
    http://thetvdb.com/?tab=series&id=293910

    Synopsis
    Fair Princess Jungmyung (Lee Yeon Hee) lives a life of the highest privilege, until her half-brother Prince Gwanghae (Cha Seung Won) executes the rightful crown prince and usurps the throne. Exiled from court, Jungmyung goes under disguise as a man and learns to adapt to life as a commoner — never forgetting Gwanghae's wrongdoing. But amidst rampant corruption throughout the kingdom, can Jyungmyung exact her vengeance, restore order and take back her rightful place in the palace?

    Cast

    Main Cast
    Cha Seung Won as Prince Gwanghae
    Lee Tae Hwan as teen Gwanghae
    Lee Yun Hee as Princess Jungmyung
    Jung Chan Bi as teen Jungmyung
    Seo Jung Eun as child Jungmyung
    Kim Jae Won as King Injo
    Seo Kang Joon as Hong Ju Won
    Yoon Chan Young as teen Ju Won
    Choi Kwon Ju as child Ju Won
    Han Joo Wan as Kang In Woo
    Ahn Do Gyu as teen In Woo







    Code
    Video
    ID                             : 0
    Format                         : AVC
    Format/Info                    : Advanced Video Codec
    Format profile                 : High@L5.1
    Format settings, CABAC         : Yes
    Format settings, ReFrames      : 4 frames
    Codec ID                       : H264
    Duration                       : 1h 14mn
    Bit rate                       : 3 000 Kbps
    Width                          : 1 280 pixels
    Height                         : 720 pixels
    Display aspect ratio           : 16:9
    Frame rate mode                : Variable
    Frame rate                     : 29.970 fps
    Color space                    : YUV
    Chroma subsampling             : 4:2:0
    Bit depth                      : 8 bits
    Scan type                      : Progressive
    Bits/(Pixel*Frame)             : 0.109
    Stream size                    : 1.57 GiB (94%)
    Writing library                : x264 core 112
    Encoding settings              : cabac=1 / ref=3 / deblock=1:-1:-1 / analyse=0x3:0x113 / me=hex / subme=6 / psy=1 / psy_rd=1.00:1.00 / mixed_ref=1 / me_range=16 / chroma_me=1 / trellis=1 / 8x8dct=1 / cqm=0 / deadzone=21,11 / fast_pskip=0 / chroma_qp_offset=-4 / threads=12 / sliced_threads=0 / nr=0 / decimate=1 / interlaced=0 / constrained_intra=0 / bframes=3 / b_pyramid=2 / b_adapt=1 / b_bias=1 / direct=3 / weightb=1 / open_gop=0 / weightp=2 / keyint=299 / keyint_min=25 / scenecut=1 / intra_refresh=0 / rc_lookahead=40 / rc=abr / mbtree=1 / bitrate=3000 / ratetol=1.0 / qcomp=0.60 / qpmin=10 / qpmax=51 / qpstep=4 / ip_ratio=1.40 / aq=1:1.00

    Audio
    ID                             : 1
    Format                         : MPEG Audio
    Format version                 : Version 1
    Format profile                 : Layer 3
    Mode                           : Joint stereo
    Mode extension                 : MS Stereo
    Codec ID                       : 55
    Codec ID/Hint                  : MP3
    Duration                       : 1h 14mn
    Bit rate mode                  : Constant
    Bit rate                       : 192 Kbps
    Channel(s)                     : 2 channels
    Sampling rate                  : 48.0 KHz
    Compression mode               : Lossy
    Stream size                    : 102 MiB (6%)
    Alignment                      : Split accross interleaves
    Interleave, duration           : 33 ms (1.00 video frame)
    Interleave, preload duration   : 500 ms
    Writing library                : LAME3.98



    0 0
  • 07/14/15--05:14: We Are In Love E11 720p
  • Original Post: We Are In Love E11 720p



    English Title: We Are In Love
    Original: 我们相爱吧 (Wo Men Xiang Ai Ba)
    Broadcast: JSTV, 19 April - 19 July 2015 (Season 1, 12 Ep)
    Country: China
    Language: Mandarin, Korean
    Subtitles: Chinese

    NO ENGLISH SUBS

    This is the Chinese version of the South Korean variety show "We Got Married."
    Cast: Kimi Qiao & Xu Lu, Ruby Lin & Ren Zhong, Choi Siwon & Liu Wen






    Code
    General
    Format                                   : MPEG-4
    Format profile                           : Base Media / Version 2
    Codec ID                                 : mp42
    File size                                : 1.53 GiB
    Duration                                 : 1h 38mn
    Overall bit rate mode                    : Variable
    Overall bit rate                         : 2 218 Kbps

    Video
    ID                                       : 1
    Format                                   : AVC
    Format/Info                              : Advanced Video Codec
    Format profile                           : High@L3.1
    Format settings, CABAC                   : Yes
    Format settings, ReFrames                : 1 frame
    Codec ID                                 : avc1
    Codec ID/Info                            : Advanced Video Coding
    Duration                                 : 1h 38mn
    Bit rate                                 : 2 024 Kbps
    Maximum bit rate                         : 8 129 Kbps
    Width                                    : 1 280 pixels
    Height                                   : 720 pixels
    Display aspect ratio                     : 16:9
    Frame rate mode                          : Constant
    Frame rate                               : 25.000 fps
    Color space                              : YUV
    Chroma subsampling                       : 4:2:0
    Bit depth                                : 8 bits
    Scan type                                : Progressive
    Bits/(Pixel*Frame)                       : 0.088
    Stream size                              : 1.39 GiB (91%)

    Audio
    ID                                       : 2
    Format                                   : AAC
    Format/Info                              : Advanced Audio Codec
    Format profile                           : LC
    Codec ID                                 : 40
    Duration                                 : 1h 38mn
    Bit rate mode                            : Variable
    Bit rate                                 : 192 Kbps
    Maximum bit rate                         : 201 Kbps
    Channel count                            : 2 channels
    Channel positions                        : Front: L R
    Sampling rate                            : 44.1 KHz
    Compression mode                         : Lossy
    Stream size                              : 135 MiB (9%)


    Last episode for this season is next week!
    I can't believe they're going to axe all the couples at once, and this soon cry.gif


    0 0

    Original Post: The Boxer From Shantung (1972) 1080p Bluray REMUX DTS AVC



    Title: The Boxer From Shantung
    Revised romanization: Ma Yong Zhen
    Hangul: 馬永貞
    Director: Chang Cheh & Pao Hsueh-Li
    Release Date: 1972
    Runtime: 124 min.
    Genre: Martial Arts, Shaw Brothers
    Language: German, Chinese
    Country: Hong Kong
    Subtitles: German
    IMDB URL: http://www.imdb.com/title/tt0068310/?ref_=fn_al_tt_1

    Cast: Chen Kuan-Tai, Ching Li, Cheng Kang-Yeh, David Chiang, Chiang Nan, Fung Ngai, Ku Feng, Tin Ching, Wong Ching, Mario Milano, Chan Ho, Lee Man-Tai, Liu Wai, Shum Lo

    Synopsis: Ma Yong Zhen (Chen Kuan-Tai) has recently moved to Shanghai from the country with his best friend, and he’s sure that the good days will come. A chance meeting with local crime boss Master Tan Si (David Chiang in a fantastic small role) introduces Ma to a different way of life, one that he’d like to live for himself. Yes, The Boxer from Shantung is a Shaw Brothers version of the Scarface story (11 years prior to Brian De Palma’s famous remake), but honestly, the crime story — while skillfully told and engaging — is also one of the film’s weaknesses for modern viewers. We’ve just seen this kind of film far too many times to truly lose ourselves in all the characters’ struggles, although with all the fun martial arts battles, you could definitely do a lot worse than The Boxer from Shantung.











    Media Info:

    General
    Unique ID                                : 26941976568386209562963116360580974760 (0x1444D600630B05F964F8000FE1F3C8A8)
    Complete name                            : The Boxer From Shantung (1972) 1080p Bluray REMUX DTS AVC.mkv
    Format                                   : Matroska
    Format version                           : Version 2
    File size                                : 32.3 GiB
    Duration                                 : 2h 4mn
    Overall bit rate                         : 37.2 Mbps
    Movie name                               : Pirat von Shantung
    Encoded date                             : UTC 2015-07-14 11:14:46
    Writing application                      : MakeMKV v1.9.2 win(x64-release)
    Writing library                          : libmakemkv v1.9.2 (1.3.0/1.4.1) win(x64-release)

    Video
    ID                                       : 1
    Format                                   : AVC
    Format/Info                              : Advanced Video Codec
    Format profile                           : High@L4.1
    Format settings, CABAC                   : Yes
    Format settings, ReFrames                : 4 frames
    Codec ID                                 : V_MPEG4/ISO/AVC
    Duration                                 : 2h 4mn
    Bit rate mode                            : Constant
    Bit rate                                 : 36.0 Mbps
    Width                                    : 1 920 pixels
    Height                                   : 1 080 pixels
    Display aspect ratio                     : 16:9
    Frame rate mode                          : Constant
    Frame rate                               : 25.000 fps
    Color space                              : YUV
    Chroma subsampling                       : 4:2:0
    Bit depth                                : 8 bits
    Scan type                                : MBAFF
    Bits/(Pixel*Frame)                       : 0.694
    Stream size                              : 30.0 GiB (93%)
    Language                                 : English
    Default                                  : No
    Forced                                   : No

    Audio #1
    ID                                       : 2
    Format                                   : DTS
    Format/Info                              : Digital Theater Systems
    Mode                                     : 16
    Format settings, Endianness              : Big
    Codec ID                                 : A_DTS
    Duration                                 : 2h 4mn
    Bit rate mode                            : Constant
    Bit rate                                 : 1 152 Kbps
    Channel(s)                               : 6 channels
    Channel positions                        : Front: L C R, Side: L R, LFE
    Sampling rate                            : 48.0 KHz
    Bit depth                                : 16 bits
    Compression mode                         : Lossy
    Stream size                              : 1.00 GiB (3%)
    Title                                    : Surround 5.1
    Language                                 : German
    Default                                  : Yes
    Forced                                   : No

    Audio #2
    ID                                       : 3
    Format                                   : DTS
    Format/Info                              : Digital Theater Systems
    Mode                                     : 16
    Format settings, Endianness              : Big
    Codec ID                                 : A_DTS
    Duration                                 : 2h 4mn
    Bit rate mode                            : Constant
    Bit rate                                 : 768 Kbps
    Channel(s)                               : 2 channels
    Channel positions                        : Front: L R
    Sampling rate                            : 48.0 KHz
    Bit depth                                : 16 bits
    Compression mode                         : Lossy
    Stream size                              : 685 MiB (2%)
    Title                                    : Stereo
    Language                                 : Chinese
    Default                                  : No
    Forced                                   : No

    Text
    ID                                       : 4
    Format                                   : PGS
    Codec ID                                 : S_HDMV/PGS
    Codec ID/Info                            : The same subtitle format used on BDs/HD-DVDs
    Language                                 : German
    Default                                  : No
    Forced                                   : No

    Menu
    00:00:00.000                             : en:Chapter 01
    00:14:17.680                             : en:Chapter 02
    00:28:06.920                             : en:Chapter 03
    00:49:03.040                             : en:Chapter 04
    01:00:01.120                             : en:Chapter 05
    01:18:24.040                             : en:Chapter 06
    01:32:56.840                             : en:Chapter 07
    01:43:27.560                             : en:Chapter 08




    0 0

    Original Post: When I See You Again (2015) E07 Eng Sub (Ongoing) 720p

    Details

    Title: 他看她的第2眼
    English title: When I See You Again
    Genre: Romance, comedy
    Episodes: 20
    Broadcast network: TTV / SETTV
    Broadcast period: 2015-May-31
    Air time: Sunday 22:00
    Opening theme song: xxx by xxx
    Ending theme song: xxx by xxx
    thetvdb: none

    English Srt: Credit DramaFever, thanks to abugemilang

    Synopsis

    Xia You Qian (Jasper Liu) is the total package. He’s good-looking, a highly successful head of a private equity company and well liked by everyone around him. Even competitors like Hu Yan Ze (Jet Chao) can’t help but respect him and wealthy socialites like Hu Yong Qing (Ivy Shao) are in love with him. But You Qian also has the keen ability to make accurate assessments about people at first sight using his strong observational skills. When You Qian and his grandfather are invited to Pu Lang village to judge a competition, he runs into An Xi (Mandy Wei), a woman who was responsible for You Qian nearly losing his life 10 years ago. An Xi is forced to enter the competition to try to earn the prize money to save her hostel, which she inherited from her father but is riddled with debt. After You Qian’s prejudice forces An Xi to lose the competition, will she be forced to marry her creditor to pay back her debts? “When I See You Again” is a 2015 Taiwanese drama series.

    Cast

    Main Cast
    Jasper Liu
    Mandy Wei
    Ivy Shao
    Jet Chao
    Xiu Qin
    Zooey Tseng








    Code
    Video
    ID                                       : 1
    Format                                   : AVC
    Format/Info                              : Advanced Video Codec
    Format profile                           : Main@L3.1
    Format settings, CABAC                   : Yes
    Format settings, ReFrames                : 4 frames
    Codec ID                                 : avc1
    Codec ID/Info                            : Advanced Video Coding
    Duration                                 : 1h 13mn
    Bit rate                                 : 1 504 Kbps
    Width                                    : 1 280 pixels
    Height                                   : 720 pixels
    Display aspect ratio                     : 16:9
    Frame rate mode                          : Constant
    Frame rate                               : 29.970 fps
    Color space                              : YUV
    Chroma subsampling                       : 4:2:0
    Bit depth                                : 8 bits
    Scan type                                : Progressive
    Bits/(Pixel*Frame)                       : 0.054
    Stream size                              : 796 MiB (84%)
    Writing library                          : x264 core 138 r2 9e941d1
    Encoding settings                        : cabac=1 / ref=1 / deblock=1:0:0 / analyse=0x1:0 / me=dia / subme=2 / psy=1 / psy_rd=1.00:0.00 / mixed_ref=0 / me_range=16 / chroma_me=1 / trellis=0 / 8x8dct=0 / cqm=0 / deadzone=21,11 / fast_pskip=1 / chroma_qp_offset=0 / threads=12 / lookahead_threads=4 / sliced_threads=0 / nr=0 / decimate=1 / interlaced=0 / bluray_compat=0 / constrained_intra=0 / bframes=3 / b_pyramid=2 / b_adapt=1 / b_bias=0 / direct=1 / weightb=1 / open_gop=0 / weightp=2 / keyint=300 / keyint_min=29 / scenecut=40 / intra_refresh=0 / rc_lookahead=40 / rc=crf / mbtree=1 / crf=23.0 / qcomp=0.60 / qpmin=0 / qpmax=69 / qpstep=4 / ip_ratio=1.40 / aq=1:1.00
    Tagged date                              : UTC 2015-06-01 11:16:11

    Audio
    ID                                       : 2
    Format                                   : AAC
    Format/Info                              : Advanced Audio Codec
    Format profile                           : LC
    Codec ID                                 : 40
    Duration                                 : 1h 13mn
    Bit rate mode                            : Constant
    Bit rate                                 : 192 Kbps
    Channel(s)                               : 2 channels
    Channel positions                        : Front: L R
    Sampling rate                            : 48.0 KHz
    Compression mode                         : Lossy
    Stream size                              : 102 MiB (11%)
    Tagged date                              : UTC 2015-06-01 11:16:11




    0 0

    Original Post: My.Beautiful.Bride.E08.150712.HDTV.XviD-WITH

    http://thetvdb.com/?tab=series&id=295917
    Details
    Title: 아름다운 나의 신부 / Areumdawoon Naeui Shinboo
    Genre: Melodrama, romance
    Episodes: 16
    Broadcast network: OCN
    Broadcast period: 2015-Jun-20 to 2015-???-??
    Air time: Saturday & Sunday 23:00
    Original Soundtrack: My Beautiful Bride OST
    Synopsis
    “My soon-to-be bride all of sudden disappeared. And I turned into a monster to find her”. The drama depicts the heartbreaking, pure hearted love by a man, who drives himself to the extreme situation in order to find his only love, his bride.







    Code
    Video
    ID                                       : 0
    Format                                   : MPEG-4 Visual
    Format profile                           : Advanced Simple@L5
    Format settings, BVOP                    : 2
    Format settings, QPel                    : No
    Format settings, GMC                     : No warppoints
    Format settings, Matrix                  : Default (H.263)
    Muxing mode                              : Packed bitstream
    Codec ID                                 : XVID
    Codec ID/Hint                            : XviD
    Duration                                 : 1h 3mn
    Bit rate                                 : 1 238 Kbps
    Width                                    : 640 pixels
    Height                                   : 352 pixels
    Display aspect ratio                     : 16:9
    Frame rate                               : 29.970 fps
    Color space                              : YUV
    Chroma subsampling                       : 4:2:0
    Bit depth                                : 8 bits
    Scan type                                : Progressive
    Compression mode                         : Lossy
    Bits/(Pixel*Frame)                       : 0.183
    Stream size                              : 566 MiB (90%)
    Writing library                          : XviD 58

    Audio
    ID                                       : 1
    Format                                   : MPEG Audio
    Format version                           : Version 1
    Format profile                           : Layer 3
    Mode                                     : Joint stereo
    Mode extension                           : MS Stereo
    Codec ID                                 : 55
    Codec ID/Hint                            : MP3
    Duration                                 : 1h 3mn
    Bit rate mode                            : Constant
    Bit rate                                 : 128 Kbps
    Channel(s)                               : 2 channels
    Sampling rate                            : 48.0 KHz
    Compression mode                         : Lossy
    Stream size                              : 58.5 MiB (9%)
    Alignment                                : Aligned on interleaves
    Interleave, duration                     : 33 ms (1.00 video frame)
    Interleave, preload duration             : 504 ms



    0 0

    Original Post: My.Beautiful.Bride.E08.150712.HDTV.H264.450p-WITH

    http://thetvdb.com/?tab=series&id=295917
    Details
    Title: 아름다운 나의 신부 / Areumdawoon Naeui Shinboo
    Genre: Melodrama, romance
    Episodes: 16
    Broadcast network: OCN
    Broadcast period: 2015-Jun-20 to 2015-???-??
    Air time: Saturday & Sunday 23:00
    Original Soundtrack: My Beautiful Bride OST
    Synopsis
    “My soon-to-be bride all of sudden disappeared. And I turned into a monster to find her”. The drama depicts the heartbreaking, pure hearted love by a man, who drives himself to the extreme situation in order to find his only love, his bride.







    Code
    Video
    ID                             : 1
    Format                         : AVC
    Format/Info                    : Advanced Video Codec
    Format profile                 : High@L4.1
    Format settings, CABAC         : Yes
    Format settings, ReFrames      : 4 frames
    Codec ID                       : avc1
    Codec ID/Info                  : Advanced Video Coding
    Duration                       : 1h 3mn
    Source duration                : 1h 3mn
    Bit rate                       : 1 400 Kbps
    Maximum bit rate               : 3 753 Kbps
    Width                          : 800 pixels
    Height                         : 450 pixels
    Display aspect ratio           : 16:9
    Frame rate mode                : Constant
    Frame rate                     : 29.970 fps
    Color space                    : YUV
    Chroma subsampling             : 4:2:0
    Bit depth                      : 8 bits
    Scan type                      : Progressive
    Bits/(Pixel*Frame)             : 0.130
    Stream size                    : 650 MiB
    Source stream size             : 650 MiB
    Writing library                : x264 core 128 r2216 198a7ea

    Audio
    ID                             : 2
    Format                         : AAC
    Format/Info                    : Advanced Audio Codec
    Format profile                 : LC
    Codec ID                       : 40
    Duration                       : 1h 3mn
    Bit rate mode                  : Variable
    Bit rate                       : 256 Kbps
    Maximum bit rate               : 262 Kbps
    Channel(s)                     : 2 channels
    Channel positions              : Front: L R
    Sampling rate                  : 48.0 KHz
    Compression mode               : Lossy
    Stream size                    : 117 MiB (42%)



    0 0

    Original Post: My.Beautiful.Bride.E08.150712.HDTV.H264.720p-WITH

    http://thetvdb.com/?tab=series&id=295917
    Details
    Title: 아름다운 나의 신부 / Areumdawoon Naeui Shinboo
    Genre: Melodrama, romance
    Episodes: 16
    Broadcast network: OCN
    Broadcast period: 2015-Jun-20 to 2015-???-??
    Air time: Saturday & Sunday 23:00
    Original Soundtrack: My Beautiful Bride OST
    Synopsis
    “My soon-to-be bride all of sudden disappeared. And I turned into a monster to find her”. The drama depicts the heartbreaking, pure hearted love by a man, who drives himself to the extreme situation in order to find his only love, his bride.






    Code
    Video
    ID                                       : 1
    Format                                   : AVC
    Format/Info                              : Advanced Video Codec
    Format profile                           : Baseline@L1.3
    Format settings, CABAC                   : No
    Format settings, ReFrames                : 1 frame
    Codec ID                                 : avc1
    Codec ID/Info                            : Advanced Video Coding
    Duration                                 : 1h 3mn
    Bit rate                                 : 2 200 Kbps
    Maximum bit rate                         : 6 012 Kbps
    Width                                    : 1 280 pixels
    Height                                   : 720 pixels
    Display aspect ratio                     : 16:9
    Frame rate mode                          : Constant
    Frame rate                               : 29.970 fps
    Color space                              : YUV
    Chroma subsampling                       : 4:2:0
    Bit depth                                : 8 bits
    Scan type                                : Progressive
    Bits/(Pixel*Frame)                       : 0.080
    Stream size                              : 1 018 MiB (90%)
    Writing library                          : x264 core 128 r2216 198a7ea
    Encoding settings                        : cabac=0 / ref=1 / deblock=1:0:0 / analyse=0x1:0x111 / me=hex / subme=7 / psy=1 / psy_rd=1.00:0.00 / mixed_ref=0 / me_range=16 / chroma_me=1 / trellis=1 / 8x8dct=0 / cqm=0 / deadzone=21,11 / fast_pskip=1 / chroma_qp_offset=-2 / threads=12 / lookahead_threads=2 / sliced_threads=0 / nr=0 / decimate=1 / interlaced=0 / bluray_compat=0 / constrained_intra=0 / bframes=0 / weightp=0 / keyint=250 / keyint_min=25 / scenecut=40 / intra_refresh=0 / rc_lookahead=40 / rc=abr / mbtree=1 / bitrate=2200 / ratetol=1.0 / qcomp=0.60 / qpmin=0 / qpmax=69 / qpstep=4 / vbv_maxrate=50000 / vbv_bufsize=50000 / nal_hrd=none / ip_ratio=1.40 / aq=1:1.00
    Encoded date                             : UTC 2015-03-28 15:15:31
    Tagged date                              : UTC 2015-03-28 15:20:35

    Audio
    ID                                       : 2
    Format                                   : AAC
    Format/Info                              : Advanced Audio Codec
    Format profile                           : LC
    Codec ID                                 : 40
    Duration                                 : 1h 3mn
    Bit rate mode                            : Variable
    Bit rate                                 : 256 Kbps
    Maximum bit rate                         : 262 Kbps
    Channel(s)                               : 2 channels
    Channel positions                        : Front: L R
    Sampling rate                            : 48.0 KHz
    Compression mode                         : Lossy
    Stream size                              : 117 MiB (10%)





    0 0

    Original Post: Hidden.Identity.E09.150713.HDTV.XviD-WITH

    http://thetvdb.com/index.php?tab=series&id=296439&lid=7
    The heat is on in Investigation 5, an undercover police unit specializing in thwarting violent crimes. Led by Superintendent Jang Moon Won (Park Sung Woong), this team of young and elite officers, including Cha Gun Woo (Kim Bum), Jang Min Joo (Yoon So Yi), and Choi Tae Pyung (Lee Won Jong), assume new identities and infiltrate dangerous crime syndicates. With only their wits and poker faces at their disposal, can the team complete their missions without blowing their covers in hostile territory?

    Subtitles by Dramafever will be added later

    Cast
    Kim Bum as Cha Gun Woo
    Yoon So Yi as Jang Min Joo
    Park Sung Woong as Jang Moo Won
    Lee Won Jong as Choi Tae Pyung
    Kim Tae Hoon as Min Tae In










    Code
    Video
    ID                                       : 0
    Format                                   : MPEG-4 Visual
    Format profile                           : Advanced Simple@L5
    Format settings, BVOP                    : 2
    Format settings, QPel                    : No
    Format settings, GMC                     : No warppoints
    Format settings, Matrix                  : Default (H.263)
    Muxing mode                              : Packed bitstream
    Codec ID                                 : XVID
    Codec ID/Hint                            : XviD
    Duration                                 : 1h 2mn
    Bit rate                                 : 1 237 Kbps
    Width                                    : 640 pixels
    Height                                   : 352 pixels
    Display aspect ratio                     : 16:9
    Frame rate                               : 29.970 fps
    Color space                              : YUV
    Chroma subsampling                       : 4:2:0
    Bit depth                                : 8 bits
    Scan type                                : Progressive
    Compression mode                         : Lossy
    Bits/(Pixel*Frame)                       : 0.183
    Stream size                              : 550 MiB (90%)
    Writing library                          : XviD 58

    Audio
    ID                                       : 1
    Format                                   : MPEG Audio
    Format version                           : Version 1
    Format profile                           : Layer 3
    Mode                                     : Joint stereo
    Mode extension                           : MS Stereo
    Codec ID                                 : 55
    Codec ID/Hint                            : MP3
    Duration                                 : 1h 2mn
    Bit rate mode                            : Constant
    Bit rate                                 : 128 Kbps
    Channel(s)                               : 2 channels
    Sampling rate                            : 48.0 KHz
    Compression mode                         : Lossy
    Stream size                              : 56.9 MiB (9%)
    Alignment                                : Aligned on interleaves
    Interleave, duration                     : 33 ms (1.00 video frame)
    Interleave, preload duration             : 504 ms



    0 0

    Original Post: Hidden.Identity.E09.150713.HDTV.H264.720p-WITH

    http://thetvdb.com/index.php?tab=series&id=296439&lid=7
    The heat is on in Investigation 5, an undercover police unit specializing in thwarting violent crimes. Led by Superintendent Jang Moon Won (Park Sung Woong), this team of young and elite officers, including Cha Gun Woo (Kim Bum), Jang Min Joo (Yoon So Yi), and Choi Tae Pyung (Lee Won Jong), assume new identities and infiltrate dangerous crime syndicates. With only their wits and poker faces at their disposal, can the team complete their missions without blowing their covers in hostile territory?

    Subtitles by Dramafever will be added later

    Cast
    Kim Bum as Cha Gun Woo
    Yoon So Yi as Jang Min Joo
    Park Sung Woong as Jang Moo Won
    Lee Won Jong as Choi Tae Pyung
    Kim Tae Hoon as Min Tae In









    Code
    Video
    ID                                       : 1
    Format                                   : AVC
    Format/Info                              : Advanced Video Codec
    Format profile                           : Baseline@L1.3
    Format settings, CABAC                   : No
    Format settings, ReFrames                : 1 frame
    Codec ID                                 : avc1
    Codec ID/Info                            : Advanced Video Coding
    Duration                                 : 1h 3mn
    Bit rate                                 : 2 200 Kbps
    Maximum bit rate                         : 6 012 Kbps
    Width                                    : 1 280 pixels
    Height                                   : 720 pixels
    Display aspect ratio                     : 16:9
    Frame rate mode                          : Constant
    Frame rate                               : 29.970 fps
    Color space                              : YUV
    Chroma subsampling                       : 4:2:0
    Bit depth                                : 8 bits
    Scan type                                : Progressive
    Bits/(Pixel*Frame)                       : 0.080
    Stream size                              : 1 018 MiB (90%)
    Writing library                          : x264 core 128 r2216 198a7ea
    Encoding settings                        : cabac=0 / ref=1 / deblock=1:0:0 / analyse=0x1:0x111 / me=hex / subme=7 / psy=1 / psy_rd=1.00:0.00 / mixed_ref=0 / me_range=16 / chroma_me=1 / trellis=1 / 8x8dct=0 / cqm=0 / deadzone=21,11 / fast_pskip=1 / chroma_qp_offset=-2 / threads=12 / lookahead_threads=2 / sliced_threads=0 / nr=0 / decimate=1 / interlaced=0 / bluray_compat=0 / constrained_intra=0 / bframes=0 / weightp=0 / keyint=250 / keyint_min=25 / scenecut=40 / intra_refresh=0 / rc_lookahead=40 / rc=abr / mbtree=1 / bitrate=2200 / ratetol=1.0 / qcomp=0.60 / qpmin=0 / qpmax=69 / qpstep=4 / vbv_maxrate=50000 / vbv_bufsize=50000 / nal_hrd=none / ip_ratio=1.40 / aq=1:1.00


    Audio
    ID                                       : 2
    Format                                   : AAC
    Format/Info                              : Advanced Audio Codec
    Format profile                           : LC
    Codec ID                                 : 40
    Duration                                 : 1h 3mn
    Bit rate mode                            : Variable
    Bit rate                                 : 256 Kbps
    Maximum bit rate                         : 262 Kbps
    Channel(s)                               : 2 channels
    Channel positions                        : Front: L R
    Sampling rate                            : 48.0 KHz
    Compression mode                         : Lossy



    0 0

    Original Post: TVB Master.of.Destiny.E17.HDTV.H264.2Audio.720p-Hallo

    http://thetvdb.com/index.php?tab=series&id=297278

    Synopsis

    Kwan Yeuk-nam (Liza Wang) is a legendary woman. After her husband committed suicide due to a business failure, she single-handedly raised her three sons to adulthood, also establishing her own business empire, Sun Hon Lik, in the process. Now ready to retire, she is prepared to pass down her empire to her three sons.

    Starring
    Liza Wang
    Angie Chiu
    Hawick Lau
    Tiffany Tang
    Monica Mok
    Wayne Lai
    Selena Li
    Kenny Wong
    Edwin Siu
    Kimmy Tong






    Code
    Video
    ID                             : 1
    Format                         : AVC
    Format/Info                    : Advanced Video Codec
    Format profile                 : Main@L4.0
    Format settings, CABAC         : Yes
    Format settings, ReFrames      : 4 frames
    Codec ID                       : V_MPEG4/ISO/AVC
    Nominal bit rate               : 4 500 Kbps
    Width                          : 1 280 pixels
    Height                         : 720 pixels
    Display aspect ratio           : 16:9
    Frame rate mode                : Variable
    Color space                    : YUV
    Chroma subsampling             : 4:2:0
    Bit depth                      : 8 bits
    Scan type                      : Progressive
    Writing library                : x264 core 130 r2273 b3065e6
    Encoding settings              : cabac=1 / ref=1 / deblock=1:0:0 / analyse=0x1:0x111 / me=hex / subme=2 / psy=1 / psy_rd=1.00:0.00 / mixed_ref=0 / me_range=16 / chroma_me=1 / trellis=0 / 8x8dct=0 / cqm=0 / deadzone=21,11 / fast_pskip=1 / chroma_qp_offset=0 / threads=1 / lookahead_threads=1 / sliced_threads=0 / nr=0 / decimate=1 / interlaced=0 / bluray_compat=0 / constrained_intra=0 / bframes=3 / b_pyramid=2 / b_adapt=1 / b_bias=0 / direct=1 / weightb=1 / open_gop=0 / weightp=1 / keyint=250 / keyint_min=25 / scenecut=40 / intra_refresh=0 / rc_lookahead=10 / rc=abr / mbtree=1 / bitrate=4500 / ratetol=1.0 / qcomp=0.60 / qpmin=0 / qpmax=69 / qpstep=4 / vbv_maxrate=20000 / vbv_bufsize=25000 / nal_hrd=none / ip_ratio=1.40 / aq=1:1.00
    Language                       : Chinese
    Default                        : Yes
    Forced                         : No
    Color primaries                : BT.709
    Transfer characteristics       : BT.709
    Matrix coefficients            : BT.709

    Audio #1
    ID                             : 2
    Format                         : AC-3
    Format/Info                    : Audio Coding 3
    Mode extension                 : CM (complete main)
    Format settings, Endianness    : Big
    Codec ID                       : A_AC3
    Duration                       : 44mn 13s
    Bit rate mode                  : Constant
    Bit rate                       : 192 Kbps
    Channel(s)                     : 2 channels
    Channel positions              : Front: L R
    Sampling rate                  : 48.0 KHz
    Bit depth                      : 16 bits
    Compression mode               : Lossy
    Stream size                    : 60.7 MiB (81%)
    Title                          : Cantonese
    Language                       : Chinese
    Default                        : Yes
    Forced                         : No

    Audio #2
    ID                             : 3
    Format                         : AC-3
    Format/Info                    : Audio Coding 3
    Mode extension                 : CM (complete main)
    Format settings, Endianness    : Big
    Codec ID                       : A_AC3
    Duration                       : 44mn 13s
    Bit rate mode                  : Constant
    Bit rate                       : 384 Kbps
    Channel(s)                     : 6 channels
    Channel positions              : Front: L C R, Side: L R, LFE
    Sampling rate                  : 48.0 KHz
    Bit depth                      : 16 bits
    Compression mode               : Lossy
    Stream size                    : 121 MiB
    Title                          : Mandarin
    Language                       : Chinese
    Default                        : No
    Forced                         : No

    Text
    ID                             : 4
    Format                         : UTF-8
    Codec ID                       : S_TEXT/UTF8
    Codec ID/Info                  : UTF-8 Plain Text
    Default                        : Yes
    Forced                         : No



    0 0

    Original Post: [Singapore Drama] Mind Games EP13 720p HDTV x264 AAC-DoA

    Title: Mind Game(心迷)
    Genre: Drama
    Episodes: TBD
    Broadcast network: MediaCorp
    Country: Singapore
    Language: Mandarin
    Broadcast period: 7 May - 17 Jun
    Air time: Weekday 21:00
    Subtitles: English
    RAW credit to DoA

     
    Cast

       Joanne Peh as Zhao Anni
       Tay Ping Hui as Liang Wenjie
       Zhang Yao Dong as Guo Yongyan
       Paige Chua as Feng Xuezhi/Liang Huixin
       Yuan Shuai
       Terence Cao
       Ye Shipin
       Akit Tay
       Tiffany Leong


    Synopsis

    Mind Games is thriller-romance drama with many unexpected twists and suspense. Liang Wen Jie (Tay Ping Hui) is a paralegal at a law firm; he is in-charge of many mysterious cases that requires thorough investigations. In each case, suspects are extremely careful as they plot elaborate lies to escape from detection. However, none of them can escape from Wen Jie who has a sharp analytical mind and is attentive to even the smallest details.


    Mediainfo
    Spoiler:show

    Code
    Format                                   : Matroska
    Format version                           : Version 4 / Version 2
    File size                                : 1.14 GiB
    Duration                                 : 45mn 44s
    Overall bit rate                         : 3 571 Kbps
    Encoded date                             : UTC 2015-07-12 08:38:22
    Writing application                      : mkvmerge v6.1.0 ('Old Devil') built on Mar  2 2013 14:32:37
    Writing library                          : libebml v1.3.0 + libmatroska v1.4.0

    Video
    ID                                       : 1
    Format                                   : AVC
    Format/Info                              : Advanced Video Codec
    Format profile                           : High@L4.1
    Format settings, CABAC                   : Yes
    Format settings, ReFrames                : 5 frames
    Codec ID                                 : V_MPEG4/ISO/AVC
    Duration                                 : 45mn 44s
    Bit rate                                 : 3 372 Kbps
    Width                                    : 1 280 pixels
    Height                                   : 720 pixels
    Display aspect ratio                     : 16:9
    Frame rate mode                          : Constant
    Frame rate                               : 25.000 fps
    Color space                              : YUV
    Chroma subsampling                       : 4:2:0
    Bit depth                                : 8 bits
    Scan type                                : Progressive
    Bits/(Pixel*Frame)                       : 0.146
    Stream size                              : 1.08 GiB (94%)
    Writing library                          : x264 core 120 r2164 da19765
    Encoding settings                        : cabac=1 / ref=5 / deblock=1:-3:-3 / analyse=0x3:0x133 / me=umh / subme=9 / psy=1 / psy_rd=1.00:0.15 / mixed_ref=1 / me_range=16 / chroma_me=1 / trellis=2 / 8x8dct=1 / cqm=0 / deadzone=21,11 / fast_pskip=1 / chroma_qp_offset=-3 / threads=6 / sliced_threads=0 / nr=0 / decimate=1 / interlaced=0 / bluray_compat=0 / constrained_intra=0 / bframes=8 / b_pyramid=2 / b_adapt=2 / b_bias=0 / direct=3 / weightb=1 / open_gop=0 / weightp=2 / keyint=250 / keyint_min=25 / scenecut=40 / intra_refresh=0 / rc_lookahead=60 / rc=crf / mbtree=1 / crf=18.0 / qcomp=0.60 / qpmin=0 / qpmax=69 / qpstep=4 / ip_ratio=1.40 / aq=1:1.00
    Default                                  : Yes
    Forced                                   : No

    Audio
    ID                                       : 2
    Format                                   : AC-3
    Format/Info                              : Audio Coding 3
    Mode extension                           : CM (complete main)
    Format settings, Endianness              : Big
    Codec ID                                 : A_AC3
    Duration                                 : 45mn 44s
    Bit rate mode                            : Constant
    Bit rate                                 : 128 Kbps
    Channel(s)                               : 2 channels
    Channel positions                        : Front: L R
    Sampling rate                            : 48.0 KHz
    Compression mode                         : Lossy
    Stream size                              : 41.9 MiB (4%)
    Language                                 : Chinese
    Default                                  : Yes
    Forced                                   : No








    episodes will still be uploaded, but the speed at which it is released all depends on the encoder


    0 0

    Original Post: [Singapore Drama] Mind Games EP14 720p HDTV x264 AAC-DoA

    Title: Mind Game(心迷)
    Genre: Drama
    Episodes: TBD
    Broadcast network: MediaCorp
    Country: Singapore
    Language: Mandarin
    Broadcast period: 7 May - 17 Jun
    Air time: Weekday 21:00
    Subtitles: English
    RAW credit to DoA

     
    Cast

       Joanne Peh as Zhao Anni
       Tay Ping Hui as Liang Wenjie
       Zhang Yao Dong as Guo Yongyan
       Paige Chua as Feng Xuezhi/Liang Huixin
       Yuan Shuai
       Terence Cao
       Ye Shipin
       Akit Tay
       Tiffany Leong


    Synopsis

    Mind Games is thriller-romance drama with many unexpected twists and suspense. Liang Wen Jie (Tay Ping Hui) is a paralegal at a law firm; he is in-charge of many mysterious cases that requires thorough investigations. In each case, suspects are extremely careful as they plot elaborate lies to escape from detection. However, none of them can escape from Wen Jie who has a sharp analytical mind and is attentive to even the smallest details.


    Mediainfo
    Spoiler:show

    Code
    Format                                   : Matroska
    Format version                           : Version 4 / Version 2
    File size                                : 1.25 GiB
    Duration                                 : 45mn 25s
    Overall bit rate                         : 3 928 Kbps
    Encoded date                             : UTC 2015-06-09 17:29:54
    Writing application                      : mkvmerge v6.1.0 ('Old Devil') built on Mar  2 2013 14:32:37
    Writing library                          : libebml v1.3.0 + libmatroska v1.4.0

    Video
    ID                                       : 1
    Format                                   : AVC
    Format/Info                              : Advanced Video Codec
    Format profile                           : High@L4.1
    Format settings, CABAC                   : Yes
    Format settings, ReFrames                : 5 frames
    Codec ID                                 : V_MPEG4/ISO/AVC
    Duration                                 : 45mn 25s
    Bit rate                                 : 3 722 Kbps
    Width                                    : 1 280 pixels
    Height                                   : 720 pixels
    Display aspect ratio                     : 16:9
    Frame rate mode                          : Constant
    Frame rate                               : 25.000 fps
    Color space                              : YUV
    Chroma subsampling                       : 4:2:0
    Bit depth                                : 8 bits
    Scan type                                : Progressive
    Bits/(Pixel*Frame)                       : 0.162
    Stream size                              : 1.18 GiB (95%)
    Writing library                          : x264 core 120 r2164 da19765
    Encoding settings                        : cabac=1 / ref=5 / deblock=1:-3:-3 / analyse=0x3:0x133 / me=umh / subme=9 / psy=1 / psy_rd=1.00:0.15 / mixed_ref=1 / me_range=16 / chroma_me=1 / trellis=2 / 8x8dct=1 / cqm=0 / deadzone=21,11 / fast_pskip=1 / chroma_qp_offset=-3 / threads=6 / sliced_threads=0 / nr=0 / decimate=1 / interlaced=0 / bluray_compat=0 / constrained_intra=0 / bframes=8 / b_pyramid=2 / b_adapt=2 / b_bias=0 / direct=3 / weightb=1 / open_gop=0 / weightp=2 / keyint=250 / keyint_min=25 / scenecut=40 / intra_refresh=0 / rc_lookahead=60 / rc=crf / mbtree=1 / crf=18.0 / qcomp=0.60 / qpmin=0 / qpmax=69 / qpstep=4 / ip_ratio=1.40 / aq=1:1.00
    Default                                  : Yes
    Forced                                   : No

    Audio
    ID                                       : 2
    Format                                   : AC-3
    Format/Info                              : Audio Coding 3
    Mode extension                           : CM (complete main)
    Format settings, Endianness              : Big
    Codec ID                                 : A_AC3
    Duration                                 : 45mn 25s
    Bit rate mode                            : Constant
    Bit rate                                 : 128 Kbps
    Channel(s)                               : 2 channels
    Channel positions                        : Front: L R
    Sampling rate                            : 48.0 KHz
    Compression mode                         : Lossy
    Stream size                              : 41.6 MiB (3%)
    Language                                 : Chinese
    Default                                  : Yes
    Forced                                   : No








    so far, the encoder has uploaded to ep14. the wait begins laugh.gif


    0 0

    Original Post: [Singapore Drama] Mind Games EP12 720p HDTV x264 AAC-DoA

    Title: Mind Game(心迷)
    Genre: Drama
    Episodes: TBD
    Broadcast network: MediaCorp
    Country: Singapore
    Language: Mandarin
    Broadcast period: 7 May - 17 Jun
    Air time: Weekday 21:00
    Subtitles: English
    RAW credit to DoA

     
    Cast

       Joanne Peh as Zhao Anni
       Tay Ping Hui as Liang Wenjie
       Zhang Yao Dong as Guo Yongyan
       Paige Chua as Feng Xuezhi/Liang Huixin
       Yuan Shuai
       Terence Cao
       Ye Shipin
       Akit Tay
       Tiffany Leong


    Synopsis

    Mind Games is thriller-romance drama with many unexpected twists and suspense. Liang Wen Jie (Tay Ping Hui) is a paralegal at a law firm; he is in-charge of many mysterious cases that requires thorough investigations. In each case, suspects are extremely careful as they plot elaborate lies to escape from detection. However, none of them can escape from Wen Jie who has a sharp analytical mind and is attentive to even the smallest details.


    Mediainfo
    Spoiler:show

    Code
    Format                                   : Matroska
    Format version                           : Version 4 / Version 2
    File size                                : 1.12 GiB
    Duration                                 : 45mn 25s
    Overall bit rate                         : 3 542 Kbps
    Encoded date                             : UTC 2015-06-01 18:04:27
    Writing application                      : mkvmerge v6.1.0 ('Old Devil') built on Mar  2 2013 14:32:37
    Writing library                          : libebml v1.3.0 + libmatroska v1.4.0

    Video
    ID                                       : 1
    Format                                   : AVC
    Format/Info                              : Advanced Video Codec
    Format profile                           : High@L4.1
    Format settings, CABAC                   : Yes
    Format settings, ReFrames                : 5 frames
    Codec ID                                 : V_MPEG4/ISO/AVC
    Duration                                 : 45mn 25s
    Bit rate                                 : 3 344 Kbps
    Width                                    : 1 280 pixels
    Height                                   : 720 pixels
    Display aspect ratio                     : 16:9
    Frame rate mode                          : Constant
    Frame rate                               : 25.000 fps
    Color space                              : YUV
    Chroma subsampling                       : 4:2:0
    Bit depth                                : 8 bits
    Scan type                                : Progressive
    Bits/(Pixel*Frame)                       : 0.145
    Stream size                              : 1.06 GiB (94%)
    Writing library                          : x264 core 120 r2164 da19765
    Encoding settings                        : cabac=1 / ref=5 / deblock=1:-3:-3 / analyse=0x3:0x133 / me=umh / subme=9 / psy=1 / psy_rd=1.00:0.15 / mixed_ref=1 / me_range=16 / chroma_me=1 / trellis=2 / 8x8dct=1 / cqm=0 / deadzone=21,11 / fast_pskip=1 / chroma_qp_offset=-3 / threads=6 / sliced_threads=0 / nr=0 / decimate=1 / interlaced=0 / bluray_compat=0 / constrained_intra=0 / bframes=8 / b_pyramid=2 / b_adapt=2 / b_bias=0 / direct=3 / weightb=1 / open_gop=0 / weightp=2 / keyint=250 / keyint_min=25 / scenecut=40 / intra_refresh=0 / rc_lookahead=60 / rc=crf / mbtree=1 / crf=18.0 / qcomp=0.60 / qpmin=0 / qpmax=69 / qpstep=4 / ip_ratio=1.40 / aq=1:1.00
    Default                                  : Yes
    Forced                                   : No

    Audio
    ID                                       : 2
    Format                                   : AC-3
    Format/Info                              : Audio Coding 3
    Mode extension                           : CM (complete main)
    Format settings, Endianness              : Big
    Codec ID                                 : A_AC3
    Duration                                 : 45mn 25s
    Bit rate mode                            : Constant
    Bit rate                                 : 128 Kbps
    Channel(s)                               : 2 channels
    Channel positions                        : Front: L R
    Sampling rate                            : 48.0 KHz
    Compression mode                         : Lossy
    Stream size                              : 41.6 MiB (4%)
    Language                                 : Chinese
    Default                                  : Yes
    Forced                                   : No








    0 0

    Original Post: Zenigata Heiji: Samurai Detective vol. 1 to 3 (1966/1984 VHSRIP)

    Seven selected episodes of the popular Japanese television series "Zenigata Heiji" starring Okawa Hashizo who made a total of 888 episodes, from 1966 until his death in 1984. The novelist Nomura Kodo brought forth this detective who lives in a cheap tenement in Kandamyoujin-shita with his wife. He loves smoking, and playing shogi on the veranda in his free time. His special trick is "Coin Tossing", catching criminals by throwing coins!! When he spies a villain, the four-mon coins he throws always hit their target, without fail!

    Synopsis: Zenigata Heiji - Protecting the peace of the Edo Period is the fictitious but cool plainclothes detective they call Boss Heiji, Zenigata Heiji. A friend of the people, he hates corruption and will not take any kind of bribe, which means he lives in total poverty and sometimes it takes two months just to come up with the rent. The ones there to help Heiji are his old, but comical friend, Hachigoro (Chimpei Hayashiya) and his beloved wife, O-Shizu (Yoshiko Kayama). O-Shizu, who always sends Heiji off after a "kiribi" (good-luck purification), is the one supporting Heiji and his heart... it is for O-Shizu's sake that he's tried to hold back on his "coin tossing" and be thrifty.

    Title: Zenigata Heiji: Samurai Detective
    Japanese title: Zenigata Heiji
    Director: Shizuo Okamoto
    Genre: Jidaigeki / Action / Comedy / Drama
    Release date: 1966/1984
    Runtime: 328min approx
    Language: Japanese
    Country: Japan
    Subtitles: English (hardcoded)
    IMDB URL: No IMDB

    Starring: Hashizo Okawa, Yoshiko Kayama, Chimpei Hayashiya









    Technical Information

    Video
    ID: 1
    Format: AVC
    Format/Info: Advanced Video Codec
    Format profile: Main@L4.0
    Format settings, CABAC: Yes
    Format settings, ReFrames: 4 frames
    Codec ID: V_MPEG4/ISO/AVC
    Bit rate: 2 185 Kbps
    Width: 680 pixels
    Height : 480 pixels
    Display aspect ratio: 4:3
    Original display aspect ratio: 4:3
    Frame rate mode: Constant
    Frame rate: 29.970 fps
    Color space: YUV
    Chroma subsampling: 4:2:0
    Bit depth: 8 bits
    Scan type: Progressive
    Bits/(Pixel*Frame): 0.223
    Stream size: 716 MiB (90%)
    Writing library: x264 core 142 r2479 dd79a61
    Encoding settings: cabac=1 / ref=1 / deblock=1:0:0 / analyse=0x1:0x111 / me=hex / subme=2 / psy=1 / psy_rd=1.00:0.00 / mixed_ref=0 / me_range=16 / chroma_me=1 / trellis=0 / 8x8dct=0 / cqm=0 / deadzone=21,11 / fast_pskip=1 / chroma_qp_offset=0 / threads=6 / lookahead_threads=2 / sliced_threads=0 / nr=0 / decimate=1 / interlaced=0 / bluray_compat=0 / constrained_intra=0 / bframes=3 / b_pyramid=2 / b_adapt=1 / b_bias=0 / direct=1 / weightb=1 / open_gop=0 / weightp=1 / keyint=300 / keyint_min=30 / scenecut=40 / intra_refresh=0 / rc_lookahead=10 / rc=crf / mbtree=1 / crf=20.0 / qcomp=0.60 / qpmin=0 / qpmax=69 / qpstep=4 / vbv_maxrate=20000 / vbv_bufsize=25000 / crf_max=0.0 / nal_hrd=none / filler=0 / ip_ratio=1.40 / aq=1:1.00
    Default: Yes
    Forced: No
    Color primaries: BT.601 NTSC
    Transfer characteristics: BT.709
    Matrix coefficients: BT.601
    Color range: Limited

    Audio
    ID: 2
    Format: AC-3
    Format/Info: Audio Coding 3
    Mode extension: CM (complete main)
    Format settings, Endianness: Big
    Codec ID: A_AC3
    Bit rate mode: Constant
    Bit rate: 192 Kbps
    Channel(s): 2 channels
    Channel positions: Front: L R
    Sampling rate: 48.0 KHz
    Bit depth: 16 bits
    Compression mode: Lossy
    Stream size: 62.9 MiB (8%)
    Title: Stereo
    Default: Yes
    Forced: No


    0 0

    Original Post: Assembly.E01.150715.HDTV.X264-LIMO

    http://thetvdb.com/index.php?tab=series&id=298061
    Details
    Title: 어셈블리 / Eosembeulli
    Genre: Political
    Episodes: 20
    Broadcast network: KBS2
    Broadcast period: 2015-Jul-15 to 2015-Sep-17
    Air time: Wednesday & Thursday 22:00
    Original Soundtrack: Assembly OST
    Synopsis
    A human political drama based in the National Assembly which is the base of politics and the hall of the people. --Hancinema

    Cast
    Main
    Jung Jae Young (정재영) as Jin Sang Pil
    Song Yoon Ah as Choi In Kyung
    Ok Taecyeon as Kim Kyu Hwan
    Jang Hyun Sung as Baek Do Hyun
    Park Young Kyu as Park Choon Sub
    Kim Seo Hyung as Hong Chan Mi







    Code
    Video
    ID                             : 1
    Format                         : AVC
    Format/Info                    : Advanced Video Codec
    Format profile                 : Main@L4.0
    Format settings, CABAC         : Yes
    Format settings, ReFrames      : 4 frames
    Codec ID                       : V_MPEG4/ISO/AVC
    Duration                       : 58mn 44s
    Bit rate                       : 450 Kbps
    Width                          : 624 pixels
    Height                         : 350 pixels
    Display aspect ratio           : 16:9
    Frame rate mode                : Constant
    Frame rate                     : 29.970 fps
    Color space                    : YUV
    Chroma subsampling             : 4:2:0
    Bit depth                      : 8 bits
    Scan type                      : Progressive
    Bits/(Pixel*Frame)             : 0.069
    Stream size                    : 190 MiB (76%)
    Writing library                : x264 core 130 r2273 b3065e6
    Encoding settings              : cabac=1 / ref=1 / deblock=1:0:0 / analyse=0x1:0x111 / me=hex / subme=2 / psy=1 / psy_rd=1.00:0.00 / mixed_ref=0 / me_range=16 / chroma_me=1 / trellis=0 / 8x8dct=0 / cqm=0 / deadzone=21,11 / fast_pskip=1 / chroma_qp_offset=0 / threads=1 / lookahead_threads=1 / sliced_threads=0 / nr=0 / decimate=1 / interlaced=0 / bluray_compat=0 / constrained_intra=0 / bframes=3 / b_pyramid=2 / b_adapt=1 / b_bias=0 / direct=1 / weightb=1 / open_gop=0 / weightp=1 / keyint=300 / keyint_min=30 / scenecut=40 / intra_refresh=0 / rc_lookahead=10 / rc=abr / mbtree=1 / bitrate=450 / ratetol=1.0 / qcomp=0.60 / qpmin=0 / qpmax=69 / qpstep=4 / vbv_maxrate=20000 / vbv_bufsize=25000 / nal_hrd=none / ip_ratio=1.40 / aq=1:1.00
    Language                       : English
    Default                        : Yes
    Forced                         : No
    Color primaries                : BT.601 NTSC
    Transfer characteristics       : BT.709
    Matrix coefficients            : BT.601

    Audio
    ID                             : 2
    Format                         : MPEG Audio
    Format version                 : Version 1
    Format profile                 : Layer 3
    Mode                           : Joint stereo
    Mode extension                 : MS Stereo
    Codec ID                       : A_MPEG/L3
    Codec ID/Hint                  : MP3
    Duration                       : 58mn 44s
    Bit rate mode                  : Constant
    Bit rate                       : 128 Kbps
    Channel(s)                     : 2 channels
    Sampling rate                  : 48.0 KHz
    Compression mode               : Lossy
    Stream size                    : 53.8 MiB (22%)
    Default                        : Yes
    Forced                         : No



    0 0

    Original Post: Assembly.E01.150715.HDTV.H264.450p-LIMO

    http://thetvdb.com/index.php?tab=series&id=298061
    Details
    Title: 어셈블리 / Eosembeulli
    Genre: Political
    Episodes: 20
    Broadcast network: KBS2
    Broadcast period: 2015-Jul-15 to 2015-Sep-17
    Air time: Wednesday & Thursday 22:00
    Original Soundtrack: Assembly OST
    Synopsis
    A human political drama based in the National Assembly which is the base of politics and the hall of the people. --Hancinema

    Cast
    Main
    Jung Jae Young (정재영) as Jin Sang Pil
    Song Yoon Ah as Choi In Kyung
    Ok Taecyeon as Kim Kyu Hwan
    Jang Hyun Sung as Baek Do Hyun
    Park Young Kyu as Park Choon Sub
    Kim Seo Hyung as Hong Chan Mi








    Code
    Video
    ID                                       : 0
    Format                                   : AVC
    Format/Info                              : Advanced Video Codec
    Format profile                           : High@L5.1
    Format settings, CABAC                   : Yes
    Format settings, ReFrames                : 4 frames
    Codec ID                                 : H264
    Bit rate                                 : 1 500 Kbps
    Width                                    : 800 pixels
    Height                                   : 450 pixels
    Display aspect ratio                     : 16:9
    Frame rate mode                          : Variable
    Frame rate                               : 29.970 fps
    Color space                              : YUV
    Chroma subsampling                       : 4:2:0
    Bit depth                                : 8 bits
    Scan type                                : Progressive
    Bits/(Pixel*Frame)                       : 0.139
    Stream size                              : 686 MiB (88%)
    Writing library                          : x264 core 112

    Audio
    ID                                       : 1
    Format                                   : MPEG Audio
    Format version                           : Version 1
    Format profile                           : Layer 3
    Mode                                     : Joint stereo
    Mode extension                           : MS Stereo
    Codec ID                                 : 55
    Codec ID/Hint                            : MP3
    Bit rate mode                            : Constant
    Bit rate                                 : 192 Kbps
    Channel(s)                               : 2 channels
    Sampling rate                            : 48.0 KHz
    Compression mode                         : Lossy
    Stream size                              : 88.3 MiB (11%)
    Alignment                                : Aligned on interleaves
    Interleave, duration                     : 24 ms (0.72 video frame)
    Writing library                          : LAME3.98.2
    Language                                 : Korean



older | 1 | .... | 1398 | 1399 | (Page 1400) | 1401 | 1402 | .... | 1405 | newer