Are you the publisher? Claim or contact us about this channel


Embed this content in your HTML

Search

Report adult content:

click to rate:

Account: (login)

More Channels


Showcase


Channel Catalog


Channel Description:

Asia Torrents RSS Feed

older | 1 | .... | 1400 | 1401 | (Page 1402) | 1403 | 1404 | 1405 | newer

    0 0

    Original Post: Scholar.Who.Walks.At.Night.E04.150716.HDTV.H264.450p-LIMO

    http://thetvdb.com/?tab=series&id=297074
    Details
    Title: 밤을 걷는 선비 / Bameul Geotneun Sunbi
    Also known as: Scholar of the Night
    Genre: Historical, fantasy, romance
    Episodes: 20
    Broadcast network: MBC
    Broadcast period: 2015-Jul-08 to 2015-Sep-10
    Air time: Wednesday & Thursday 22:00

    Synopsis
    When Jo Yang Sun (Lee Yoo Bi) is driven out of house and home after her father is framed for a crime, she is forced to crossdress in order to make ends meet as a bookseller, where she meets Kim Sung Yeol (Lee Joon Ki), a handsome, but mysterious scholar who is actually a vampire. Meanwhile, an evil presence at the royal palace stops at nothing to keep the Crown Prince from claiming his rightful throne.

    Cast
    Lee Jun Ki as Kim Sung Yeol (30)
    Lee Yoo Bi as Jo Yang Sun (21)
    Shim Chang Min as Grand Prince Lee Yun (24)
    Kim So Eun as Choi Hye Ryung (20) / Lee Myung Hee (120 years ago)
    Lee Soo Hyuk as Vampire Gwi (30-35)






    Code
    Video
    ID                                       : 0
    Format                                   : AVC
    Format/Info                              : Advanced Video Codec
    Format profile                           : High@L5.1
    Format settings, CABAC                   : Yes
    Format settings, ReFrames                : 4 frames
    Codec ID                                 : H264
    Bit rate                                 : 1 500 Kbps
    Width                                    : 800 pixels
    Height                                   : 450 pixels
    Display aspect ratio                     : 16:9
    Frame rate mode                          : Variable
    Frame rate                               : 29.970 fps
    Color space                              : YUV
    Chroma subsampling                       : 4:2:0
    Bit depth                                : 8 bits
    Scan type                                : Progressive
    Bits/(Pixel*Frame)                       : 0.139
    Stream size                              : 686 MiB (88%)
    Writing library                          : x264 core 112

    Audio
    ID                                       : 1
    Format                                   : MPEG Audio
    Format version                           : Version 1
    Format profile                           : Layer 3
    Mode                                     : Joint stereo
    Mode extension                           : MS Stereo
    Codec ID                                 : 55
    Codec ID/Hint                            : MP3
    Bit rate mode                            : Constant
    Bit rate                                 : 192 Kbps
    Channel(s)                               : 2 channels
    Sampling rate                            : 48.0 KHz
    Compression mode                         : Lossy
    Stream size                              : 88.3 MiB (11%)
    Alignment                                : Aligned on interleaves
    Interleave, duration                     : 24 ms (0.72 video frame)
    Writing library                          : LAME3.98.2
    Language                                 : Korean



    0 0

    Original Post: Scholar.Who.Walks.At.Night.E04.150716.HDTV.H264.720p-LIMO

    http://thetvdb.com/?tab=series&id=297074
    Details
    Title: 밤을 걷는 선비 / Bameul Geotneun Sunbi
    Also known as: Scholar of the Night
    Genre: Historical, fantasy, romance
    Episodes: 20
    Broadcast network: MBC
    Broadcast period: 2015-Jul-08 to 2015-Sep-10
    Air time: Wednesday & Thursday 22:00

    Synopsis
    When Jo Yang Sun (Lee Yoo Bi) is driven out of house and home after her father is framed for a crime, she is forced to crossdress in order to make ends meet as a bookseller, where she meets Kim Sung Yeol (Lee Joon Ki), a handsome, but mysterious scholar who is actually a vampire. Meanwhile, an evil presence at the royal palace stops at nothing to keep the Crown Prince from claiming his rightful throne.

    Cast
    Lee Jun Ki as Kim Sung Yeol (30)
    Lee Yoo Bi as Jo Yang Sun (21)
    Shim Chang Min as Grand Prince Lee Yun (24)
    Kim So Eun as Choi Hye Ryung (20) / Lee Myung Hee (120 years ago)
    Lee Soo Hyuk as Vampire Gwi (30-35)






    Code
    Video
    ID                               : 0
    Format                           : AVC
    Format/Info                      : Advanced Video Codec
    Format profile                   : High@L5.1
    Format settings, CABAC           : Yes
    Format settings, ReFrames        : 4 frames
    Codec ID                         : H264
    Duration                         : 1h 4mn
    Bit rate                         : 3 000 Kbps
    Width                            : 1 280 pixels
    Height                           : 720 pixels
    Display aspect ratio             : 16:9
    Frame rate mode                  : Variable
    Frame rate                       : 29.970 fps
    Color space                      : YUV
    Chroma subsampling               : 4:2:0
    Bit depth                        : 8 bits
    Scan type                        : Progressive
    Bits/(Pixel*Frame)               : 0.109
    Stream size                      : 1.35 GiB (94%)
    Writing library                  : x264 core 112
    Encoding settings                : cabac=1 / ref=3 / deblock=1:-1:-1 / analyse=0x3:0x113 / me=hex / subme=6 / psy=1 / psy_rd=1.00:1.00 / mixed_ref=1 / me_range=16 / chroma_me=1 / trellis=1 / 8x8dct=1 / cqm=0 / deadzone=21,11 / fast_pskip=0 / chroma_qp_offset=-4 / threads=12 / sliced_threads=0 / nr=0 / decimate=1 / interlaced=0 / constrained_intra=0 / bframes=3 / b_pyramid=2 / b_adapt=1 / b_bias=1 / direct=3 / weightb=1 / open_gop=0 / weightp=2 / keyint=299 / keyint_min=25 / scenecut=1 / intra_refresh=0 / rc_lookahead=40 / rc=abr / mbtree=1 / bitrate=3000 / ratetol=1.0 / qcomp=0.60 / qpmin=10 / qpmax=51 / qpstep=4 / ip_ratio=1.40 / aq=1:1.00

    Audio
    ID                               : 1
    Format                           : MPEG Audio
    Format version                   : Version 1
    Format profile                   : Layer 3
    Mode                             : Joint stereo
    Mode extension                   : MS Stereo
    Codec ID                         : 55
    Codec ID/Hint                    : MP3
    Duration                         : 1h 4mn
    Bit rate mode                    : Constant
    Bit rate                         : 192 Kbps
    Channel(s)                       : 2 channels
    Sampling rate                    : 48.0 KHz
    Stream size                      : 88.0 MiB (6%)
    Alignment                        : Split accross interleaves
    Interleave, duration             : 33 ms (1.00 video frame)
    Interleave, preload duration     : 500 ms
    Writing library                  : LAME3.98.2



    0 0

    Original Post: My Daughter Seo Young (2012) HDTV x264 1080p-DoA



    中文名: 我的女儿素英  
    外文名: 내 딸 서영이/My Daughter Seo Young  
    其它译名: 我的女儿瑞英  
    出品公司: KBS  
    制片地区: 韩国  
    导演: 柳贤基  
    编剧: 苏贤京  
    主演: 李宝英,李相允,千浩振,朴海镇,李正信,崔允英  
    集数: 55集  
    类型: 爱情,剧情,家庭  
    上映时间: 2012年9月15日  


    《我的女儿素英》为KBS周末剧。由李宝英、李相允、千浩振、朴海镇主演。讲述的是近在眼前却远在天边的一对父女之间的爱情与和解的故事。

    Details
    Title: 내 딸 서영이 / Nae Ddal Seoyoungi
    Also known as: Seo Young, My Daughter
    Previously known as: 내 딸 소영이 / Nae Ddal Soyoungi / My Daughter So Young
    Genre: Family, melodrama, romance
    Episodes: 50
    Broadcast network: KBS2
    Broadcast period: 2012-Sep-15 to TBA
    Air time: Saturday & Sunday 19:55
    Subtitles by KBS will be added later

    Synopsis
    This drama will tell the story of a father who separates with his daughter, their love, hate and reconciliation. Seo Young (Lee Bo Young) is a tough woman who tries to escape the harsh life of poverty with a strong passion to gain success, overcome her lower status and rise in society. On the road to fullfill her dream, she cuts ties with her poor family and incompetent father (Chun Ho Jin) who still love his daughter despite her bitterness.

    Cast
    Lee Sam Jae's family
    Chun Ho Jin as Lee Sam Jae
    Lee Bo Young as Lee Seo Young
    Lee Hye In as young Seo Young
    Park Hae Jin as Lee Sang Woo
    Kim Min Kyung (김민경) as Seo Young and Sang Woo's mother
    Kang Ki Bum's family
    Choi Jung Woo as Kang Ki Bum
    Lee Sang Yoon as Kang Woo Jae
    Kim Hye Ok as Cha Ji Sun
    Park Jung Ah as Kang Mi Kyung
    Lee Jung Shin as Kang Sung Jae
    Choi Min Suk's family
    Hong Yo Seob as Choi Min Suk
    Song Ok Sook as Kim Kang Soon
    Choi Yoon Young as Choi Ho Jung
    Shim Hyung Tak as Choi Kyung Ho
    Other people
    Jo Eun Sook as Yoon So Mi
    Jang Hee Jin as Jung Sun Woo
    Min Young Won as Lee Yun Hee
    Kwak Seung Nam as Ko Seung Chan
    ?? as Bang Shim Duk
    Jo Ah Sung (주아성) as Jae Hee
    Kim Seol Hyun (김설현) as Seo Eun Soo
    Lee Seung Joo (이승주) as Woo Jae's friend
    Jung Ki Sung (정기성) as Young Ki (Mi Kyung's senior)
    Kim Kyung Joon (김경준) as Sung Jae's friend
    Kim Jong Min (김종민) as Seo Young's fake boyfriend (cameo, ep 1)
    Lee Ji Hye (이지혜) as top model patient (cameo, ep 6)
    Jung Seung Hwan (정승환) (cameo)











    Code

    General
    Unique ID                                : 190765952684436025099816335630810710607 (0x8F842FA1EB7DAF74B5FA560CE943824F)
    Complete name                            : My.Daughter.Seo.Young.E43.1080p.HDTV.x264.AC3-DoA.mkv
    Format                                   : Matroska
    Format version                           : Version 4 / Version 2
    File size                                : 3.31 GiB
    Duration                                 : 1h 4mn
    Overall bit rate                         : 7 372 Kbps
    Movie name                               : 내 딸 서영이. Encoded by Elanor
    Encoded date                             : UTC 2015-07-16 17:03:05
    Writing application                      : mkvmerge v8.1.0 ('Psychedelic Postcard') 64bit
    Writing library                          : libebml v1.3.1 + libmatroska v1.4.2
    DURATION                                 : 01:04:20.790000000
    NUMBER_OF_FRAMES                         : 115708
    NUMBER_OF_BYTES                          : 3371345067
    _STATISTICS_WRITING_APP                  : mkvmerge v8.1.0 ('Psychedelic Postcard') 64bit
    _STATISTICS_WRITING_DATE_UTC             : 2015-07-16 17:03:05
    _STATISTICS_TAGS                         : BPS DURATION NUMBER_OF_FRAMES NUMBER_OF_BYTES

    Video
    ID                                       : 2
    Format                                   : AVC
    Format/Info                              : Advanced Video Codec
    Format profile                           : High@L4.1
    Format settings, CABAC                   : Yes
    Format settings, ReFrames                : 4 frames
    Codec ID                                 : V_MPEG4/ISO/AVC
    Duration                                 : 1h 4mn
    Bit rate                                 : 6 841 Kbps
    Width                                    : 1 912 pixels
    Height                                   : 1 072 pixels
    Display aspect ratio                     : 16:9
    Frame rate mode                          : Constant
    Frame rate                               : 29.970 fps
    Color space                              : YUV
    Chroma subsampling                       : 4:2:0
    Bit depth                                : 8 bits
    Scan type                                : Progressive
    Bits/(Pixel*Frame)                       : 0.111
    Stream size                              : 3.07 GiB (93%)
    Writing library                          : x264 core 144 r2525 40bb568
    Encoding settings                        : cabac=1 / ref=4 / deblock=1:-2:-2 / analyse=0x3:0x133 / me=umh / subme=10 / psy=1 / psy_rd=1.00:0.15 / mixed_ref=1 / me_range=24 / chroma_me=1 / trellis=2 / 8x8dct=1 / cqm=0 / deadzone=21,11 / fast_pskip=1 / chroma_qp_offset=-5 / threads=12 / lookahead_threads=2 / sliced_threads=0 / nr=0 / decimate=1 / interlaced=0 / bluray_compat=0 / constrained_intra=0 / bframes=8 / b_pyramid=2 / b_adapt=2 / b_bias=0 / direct=3 / weightb=1 / open_gop=0 / weightp=2 / keyint=288 / keyint_min=27 / scenecut=40 / intra_refresh=0 / rc_lookahead=60 / rc=crf / mbtree=1 / crf=18.0 / qcomp=0.60 / qpmin=0 / qpmax=69 / qpstep=4 / ip_ratio=1.40 / aq=1:1.00
    Default                                  : Yes
    Forced                                   : No

    Audio
    ID                                       : 1
    Format                                   : AC-3
    Format/Info                              : Audio Coding 3
    Mode extension                           : CM (complete main)
    Format settings, Endianness              : Big
    Codec ID                                 : A_AC3
    Duration                                 : 1h 4mn
    Bit rate mode                            : Constant
    Bit rate                                 : 384 Kbps
    Channel(s)                               : 2 channels
    Channel positions                        : Front: L R
    Sampling rate                            : 48.0 KHz
    Bit depth                                : 16 bits
    Compression mode                         : Lossy
    Delay relative to video                  : 32ms
    Stream size                              : 177 MiB (5%)
    Default                                  : Yes
    Forced                                   : No




    0 0

    Original Post: Lee Seung Gi - Hope Concert in Seoul 2010 DVDRip MP4 DVD 1

    Lee Seung Gi - Hope Concert in Seoul 2010



    Title: Lee Seung Gi Hope Concert in Seoul 2010
    Revised romanization: Lee Seung Gi - Huimang Concert in Seoul 2010
    Hangul: 이승기 - 희망 Concert in Seoul 2010
    Release Date: 2011-12-19
    Runtime: 1hr 46mins
    Screen Format: 16:9 WIDE SCREEN
    Language: Korean
    Country: South Korea
    Subtitles: English hardsubbed

    DVD 1 - The full concert:

    Spoiler:show
    사랑이 술을 가르쳐
    외쳐본다
    착한 거짓말
    제발
    우리 헤어지자
    하기 힘들 말
    나만의 것
    한번만 더
    결혼해줄래
    처음처럼 그때처럼
    오래오래오
    누이
    사랑의 트위스트
    불의 발견
    희야
    내여자라니까
    사랑해서 사랑해서
    CRAZY FOR U
    아 옛날이여
    SMILE BOY
    여행을 떠나요
    아직 못다한 이야기



    Code
    SOURCE .........: 이승기 - 희망 Concert in Seoul 2010 (2DVDs + 포토북) (한국판)
    VIDEO STREAM....: MPEG4 Video(H264)
    FORMAT..........: AVC
    FRAME RATE......: 29.970 fps
    AUDIO 1.........: Korean, AAC 44100Hz stereo 127kbps [Audio]
    Display aspect ratio...: 1.707
    RESOLUTiON......: 1024x600
    LENGTH..........: 1.77GB



    Screenshots:








    Please enjoy and seed. However, do not re-upload.


    0 0

    Original Post: Young Lord Yakuza (1961 DVDRIP)

    This is one of the best of the lot, and features some of the greatest stars of the era. With a series of complex plot twists and violent sword action this film was made during the Golden Era of Toei Studios. Their immense popularity during this time period gave birth to literally hundreds of superb samurai films.

    Synopsis: This is the exciting tale of Young Lord Taihei, who disguises himself as a ronin and goes to Edo to find the lost family treasure, a plover incense burner.

    Title: Young Lord Yakuza
    Japanese title: Wakasama Yakuza
    Director: Toshikazu Kono
    Genre: Jidaigeki / Action / Comedy / Drama
    Release date: 1961
    Runtime: 1hr 29min 49sec
    Language: Japanese
    Country: Japan
    Subtitles: English (hardcoded)
    IMDB URL: No IMDB

    Starring: Hashizo Okawa, Keiko Okawa, Isao Kimura, Denjiro Okochi, Eitaro Ozawa









    Technical Information

    Video
    ID: 1
    Format: AVC
    Format/Info: Advanced Video Codec
    Format profile: Main@L4.0
    Format settings, CABAC: Yes
    Format settings, ReFrames: 4 frames
    Codec ID: V_MPEG4/ISO/AVC
    Bit rate: 1 182 Kbps
    Width: 696 pixels
    Height: 410 pixels
    Display aspect ratio: 3:2
    Original display aspect ratio: 3:2
    Frame rate mode: Variable
    Color space: YUV
    Chroma subsampling: 4:2:0
    Bit depth: 8 bits
    Scan type: Progressive
    Writing library: x264 core 142 r2479 dd79a61
    Encoding settings: cabac=1 / ref=1 / deblock=1:0:0 / analyse=0x1:0x111 / me=hex / subme=2 / psy=1 / psy_rd=1.00:0.00 / mixed_ref=0 / me_range=16 / chroma_me=1 / trellis=0 / 8x8dct=0 / cqm=0 / deadzone=21,11 / fast_pskip=1 / chroma_qp_offset=0 / threads=6 / lookahead_threads=2 / sliced_threads=0 / nr=0 / decimate=1 / interlaced=0 / bluray_compat=0 / constrained_intra=0 / bframes=3 / b_pyramid=2 / b_adapt=1 / b_bias=0 / direct=1 / weightb=1 / open_gop=0 / weightp=1 / keyint=300 / keyint_min=30 / scenecut=40 / intra_refresh=0 / rc_lookahead=10 / rc=crf / mbtree=1 / crf=20.0 / qcomp=0.60 / qpmin=0 / qpmax=69 / qpstep=4 / vbv_maxrate=20000 / vbv_bufsize=25000 / crf_max=0.0 / nal_hrd=none / filler=0 / ip_ratio=1.40 / aq=1:1.00
    Default : Yes
    Forced: No
    Color primaries: BT.601 NTSC
    Transfer characteristics: BT.709
    Matrix coefficients: BT.601
    Color range: Limited

    Audio
    ID: 2
    Format: AC-3
    Format/Info: Audio Coding 3
    Mode extension: CM (complete main)
    Format settings, Endianness: Big
    Codec ID: A_AC3
    Duration: 1h 29mn
    Bit rate mode: Constant
    Bit rate: 256 Kbps
    Channel(s): 2 channels
    Channel positions: Front: L R
    Sampling rate: 48.0 KHz
    Bit depth: 16 bits
    Compression mode: Lossy
    Stream size: 164 MiB (17%)
    Title: Stereo
    Language: Japanese
    Default: Yes
    Forced: No


    0 0

    Original Post: Tange Sazen: The Mysterious Sword (1960 DVDRIP)

    This Tange Sazen movie is one of the best movies in the series, as Tange Sazen must deal with the people who betrayed and attacked him.

    Synopsis: The legendary one-armed, one-eyed swordsman Tange Sazen is back to aid a Magistrate in his efforts to steal bribe money on its way to Edo for the benefit of poor farmers and meeting those who had him set into his life as a one-armed, one-eyed swordsman.

    Title: Tange Sazen: The Mysterious Sword
    Japanese title: Tange Sazen: Yoto Nuretsubame
    Director: Sadatsugu Matsuda
    Genre: Jidaigeki / Action / Drama
    Release date: 1960
    Runtime: 1hr 18min 50sec
    Language: Japanese
    Country: Japan
    Subtitles: English (optional)
    IMDB URL:http://www.imdb.com/title/tt0201350/

    Starring: Ryutaro Otoma, Hashizo Okawa, Ryunosuke Tsukigata, Satomi Oka, Kyoko Aoyama









    Technical Information

    Video
    ID: 1
    Format: AVC
    Format/Info: Advanced Video Codec
    Format profile: Main@L4.0
    Format settings, CABAC: Yes
    Format settings, ReFrames: 4 frames
    Codec ID: V_MPEG4/ISO/AVC
    Bit rate: 1 239 Kbps
    Width: 670 pixels
    Height: 352 pixels
    Display aspect ratio: 16:9
    Original display aspect ratio: 16:9
    Frame rate mode: Variable
    Color space: YUV
    Chroma subsampling: 4:2:0
    Bit depth: 8 bits
    Scan type: Progressive
    Writing library: x264 core 142 r2479 dd79a61
    Encoding settings: cabac=1 / ref=1 / deblock=1:0:0 / analyse=0x1:0x111 / me=hex / subme=2 / psy=1 / psy_rd=1.00:0.00 / mixed_ref=0 / me_range=16 / chroma_me=1 / trellis=0 / 8x8dct=0 / cqm=0 / deadzone=21,11 / fast_pskip=1 / chroma_qp_offset=0 / threads=6 / lookahead_threads=2 / sliced_threads=0 / nr=0 / decimate=1 / interlaced=0 / bluray_compat=0 / constrained_intra=0 / bframes=3 / b_pyramid=2 / b_adapt=1 / b_bias=0 / direct=1 / weightb=1 / open_gop=0 / weightp=1 / keyint=300 / keyint_min=30 / scenecut=40 / intra_refresh=0 / rc_lookahead=10 / rc=crf / mbtree=1 / crf=20.0 / qcomp=0.60 / qpmin=0 / qpmax=69 / qpstep=4 / vbv_maxrate=20000 / vbv_bufsize=25000 / crf_max=0.0 / nal_hrd=none / filler=0 / ip_ratio=1.40 / aq=1:1.00
    Default: Yes
    Forced: No
    Color primaries: BT.601 NTSC
    Transfer characteristics: BT.709
    Matrix coefficients: BT.601
    Color range: Limited

    Audio
    ID: 2
    Format: AC-3
    Format/Info: Audio Coding 3
    Mode extension: CM (complete main)
    Format settings, Endianness: Big
    Codec ID: A_AC3
    Duration: 1h 18mn
    Bit rate mode: Constant
    Bit rate: 256 Kbps
    Channel(s): 2 channels
    Channel positions: Front: L R
    Sampling rate: 48.0 KHz
    Bit depth: 16 bits
    Compression mode: Lossy
    Stream size: 145 MiB (17%)
    Title: Stereo
    Language: Japanese
    Default: Yes
    Forced: No

    Text
    ID: 3
    Format: VobSub
    Codec ID: S_VOBSUB
    Codec ID/Info: The same subtitle format used on DVDs
    Language: English
    Default: Yes
    Forced: No


    0 0

    Original Post: Transfer Student (1982) DVDRip x264 AC3

    Transfer Student

    転校生 (Tenkousei)




    Year: 1982
    Alternate Title: I Are You, You Am Me
    Genre: Comedy, Drama
    Director: Nobuhiko Ôbayashi
    Writer: Hisashi Yamanaka
    Stars: Satomi Kobayashi, Toshinori Omi, Makoto Satô
    Runtime: 113 min
    Country: Japan
    Language: Japanese
    Subtitles: English, German
    IMDb Link


    Storyline
    9th-graders Kazuo (boy) and Kazumi (girl) take a tumble at a temple in a small seacoast town in Japan. Through supernatural intervention, their minds and bodies are switched, and the result is a touching and hilarious coming-of-age comedy as they attempt to survive the pressures of junior high school life.

    File info
    VIDEO
    Codec: x264
    Resolution: 700x396 (anamorphic)
    Aspect Ratio: 16/10
    Bitrate: 2230 kbps
    Frame Rate: 23.976 fps
    Source: R2J DVD

    AUDIO
    Codec: AC3
    Channels: 2.0ch
    Bitrate: 192 kbps

    SUBS
    VobSub

    Details
    Spoiler:show
    General
    Complete name                  : Transfer Student.mkv
    Format                         : Matroska
    Format version                 : Version 4 / Version 2
    File size                      : 1.96 GiB
    Duration                       : 1h 53mn
    Overall bit rate               : 2 471 Kbps
    Movie name                     : 転校生 (Transfer Student / I Are You, You Am Me)
    Encoded date                   : UTC 2015-07-13 19:54:02
    Writing application            : mkvmerge v7.9.0 ('Birds') 64bit
    Writing library                : libebml v1.3.1 + libmatroska v1.4.2

    Video
    ID                             : 1
    Format                         : AVC
    Format/Info                    : Advanced Video Codec
    Format profile                 : High@L3.1
    Format settings, CABAC         : Yes
    Format settings, ReFrames      : 16 frames
    Codec ID                       : V_MPEG4/ISO/AVC
    Duration                       : 1h 53mn
    Bit rate                       : 2 230 Kbps
    Width                          : 700 pixels
    Height                         : 396 pixels
    Display aspect ratio           : 16:10
    Original display aspect ratio  : 16:9
    Frame rate mode                : Constant
    Frame rate                     : 23.976 fps
    Color space                    : YUV
    Chroma subsampling             : 4:2:0
    Bit depth                      : 8 bits
    Scan type                      : Progressive
    Bits/(Pixel*Frame)             : 0.335
    Stream size                    : 1.77 GiB (90%)
    Writing library                : x264 core 146 r2538 121396c
    Encoding settings              : cabac=1 / ref=16 / deblock=1:-1:-1 / analyse=0x3:0x133 / me=umh / subme=10 / psy=1 / psy_rd=1.00:0.15 / mixed_ref=1 / me_range=24 / chroma_me=1 / trellis=2 / 8x8dct=1 / cqm=0 / deadzone=21,11 / fast_pskip=1 / chroma_qp_offset=-3 / threads=6 / lookahead_threads=1 / sliced_threads=0 / nr=0 / decimate=1 / interlaced=0 / bluray_compat=0 / constrained_intra=0 / bframes=8 / b_pyramid=2 / b_adapt=2 / b_bias=0 / direct=3 / weightb=1 / open_gop=0 / weightp=2 / keyint=240 / keyint_min=23 / scenecut=40 / intra_refresh=0 / rc_lookahead=60 / rc=crf / mbtree=1 / crf=16.0 / qcomp=0.60 / qpmin=0 / qpmax=69 / qpstep=4 / ip_ratio=1.40 / aq=1:1.00
    Default                        : Yes
    Forced                         : No

    Audio
    ID                             : 2
    Format                         : AC-3
    Format/Info                    : Audio Coding 3
    Mode extension                 : CM (complete main)
    Format settings, Endianness    : Big
    Codec ID                       : A_AC3
    Duration                       : 1h 53mn
    Bit rate mode                  : Constant
    Bit rate                       : 192 Kbps
    Channel(s)                     : 2 channels
    Channel positions              : Front: L R
    Sampling rate                  : 48.0 KHz
    Bit depth                      : 16 bits
    Compression mode               : Lossy
    Stream size                    : 156 MiB (8%)
    Language                       : Japanese
    Default                        : Yes
    Forced                         : No

    Text #1
    ID                             : 3
    Format                         : VobSub
    Muxing mode                    : zlib
    Codec ID                       : S_VOBSUB
    Codec ID/Info                  : The same subtitle format used on DVDs
    Language                       : English
    Default                        : Yes
    Forced                         : No

    Text #2
    ID                             : 4
    Format                         : VobSub
    Muxing mode                    : zlib
    Codec ID                       : S_VOBSUB
    Codec ID/Info                  : The same subtitle format used on DVDs
    Language                       : German
    Default                        : No
    Forced                         : No


    Screenshots


    Comments
    Enjoy another one. Who would like to transform into a boy/girl? (depending on what you are). Seems like lots of fun.

    Note: The image doesn't seem well cropped in some scenes, a tiny black border may be seen sometimes. That's because the image is not exactly centered during the movie, it shifts a bit. I preferred to leave the tiny borders rather than to overcrop (I HATE overcrops)


    0 0

    Original Post: Wild Heroes 720p DoA Complete

    Title (English): Wild Heroes
    Format: Renzoku
    Genre: Action
    Episodes: TBD
    Broadcast network: NTV
    Broadcast period: 2015-Apr-19 start
    Air time: Sunday 22:30
    Theme song: Kimi ga Ita kara by Crystal Kay
    Subtitles: None - [url=/][/url]
    RAW credit to DoA


    Cast
    Spoiler:show


       TAKAHIRO as Segawa Kiichi
       Aoyagi Sho
       Iwata Takanori
       Nogae Shuhei (野替愁平)
       Yagi Masayasu (八木将康)
       Sato Taiki (佐藤大樹)
       Kuroki Keiji (黒木啓司)
       Sakurada Hiyori (桜田ひより) as Hikari
       Mizusawa Elena
       Hasegawa Hatsunori
       Asaka Mayumi
       Tobita Hikari (飛田光里)
       Kusamura Reiko
       Sakai Miki
       Nakamura Shizuka
       Ninomiya Ai (二宮愛)
       Kazuki Saya
       Hirata Kaoru
       Tsukamoto Takashi
       Naitou Takashi


    Synopsis
    Spoiler:show

    A former delinquent, Segawa Kiichi (TAKAHIRO), happens to encounter a lonely 10-year-old girl, Hikari (Sakurada Hiyori), who looks like she is going to be killed by a gangster. He saves her by reflex, but does not get an answer when he asks what is going on. Because of that, he is mysteriously attacked time and again. With his own life in sudden danger, he calls on six friends (Aoyagi Sho, Iwata Takanori, Sato Taiki, Nogae Shuhei, Yagi Masayasu, Kuroki Keiji) from his high school days as a delinquent. These enthusiastic, single-minded men band together to protect her to the end.


    Mediainfo
    Spoiler:show

    Code
    Format                                   : Matroska
    Format version                           : Version 4 / Version 2
    File size                                : 1.15 GiB
    Duration                                 : 1h 11mn
    Overall bit rate                         : 2 301 Kbps
    Encoded date                             : UTC 2015-04-24 13:37:29
    Writing application                      : mkvmerge v7.0.0 ('Where We Going') 32bit built on Jun  9 2014 15:08:34
    Writing library                          : libebml v1.3.0 + libmatroska v1.4.1
    DURATION                                 : 01:11:42.165000000
    NUMBER_OF_FRAMES                         : 201664
    NUMBER_OF_BYTES                          : 101436972
    _STATISTICS_WRITING_APP                  : mkvmerge v7.0.0 ('Where We Going') 32bit built on Jun  9 2014 15:08:34
    _STATISTICS_WRITING_DATE_UTC             : 2015-04-24 13:37:29
    _STATISTICS_TAGS                         : BPS DURATION NUMBER_OF_FRAMES NUMBER_OF_BYTES

    Video
    ID                                       : 1
    Format                                   : AVC
    Format/Info                              : Advanced Video Codec
    Format profile                           : High@L4.1
    Format settings, CABAC                   : Yes
    Format settings, ReFrames                : 9 frames
    Codec ID                                 : V_MPEG4/ISO/AVC
    Duration                                 : 1h 11mn
    Width                                    : 1 280 pixels
    Height                                   : 720 pixels
    Display aspect ratio                     : 16:9
    Frame rate mode                          : Constant
    Frame rate                               : 29.970 fps
    Color space                              : YUV
    Chroma subsampling                       : 4:2:0
    Bit depth                                : 8 bits
    Scan type                                : Progressive
    Writing library                          : x264 core 146 r2538 121396c
    Encoding settings                        : cabac=1 / ref=9 / deblock=1:-3:-3 / analyse=0x3:0x133 / me=umh / subme=10 / psy=1 / psy_rd=1.00:0.00 / mixed_ref=1 / me_range=48 / chroma_me=1 / trellis=2 / 8x8dct=1 / cqm=0 / deadzone=21,11 / fast_pskip=0 / chroma_qp_offset=-2 / threads=12 / lookahead_threads=2 / sliced_threads=0 / nr=0 / decimate=1 / interlaced=0 / bluray_compat=0 / constrained_intra=0 / bframes=8 / b_pyramid=2 / b_adapt=2 / b_bias=0 / direct=3 / weightb=1 / open_gop=0 / weightp=2 / keyint=300 / keyint_min=29 / scenecut=40 / intra_refresh=0 / rc_lookahead=60 / rc=crf / mbtree=1 / crf=19.0 / qcomp=0.60 / qpmin=0 / qpmax=69 / qpstep=4 / ip_ratio=1.40 / aq=1:1.00
    Language                                 : English
    Default                                  : Yes
    Forced                                   : No
    DURATION                                 : 01:11:42.498000000
    NUMBER_OF_FRAMES                         : 128946
    NUMBER_OF_BYTES                          : 1134708484
    _STATISTICS_WRITING_APP                  : mkvmerge v7.0.0 ('Where We Going') 32bit built on Jun  9 2014 15:08:34
    _STATISTICS_WRITING_DATE_UTC             : 2015-04-24 13:37:29
    _STATISTICS_TAGS                         : BPS DURATION NUMBER_OF_FRAMES NUMBER_OF_BYTES

    Audio
    ID                                       : 2
    Format                                   : AAC
    Format/Info                              : Advanced Audio Codec
    Format profile                           : LC
    Codec ID                                 : A_AAC
    Duration                                 : 1h 11mn
    Channel(s)                               : 2 channels
    Channel positions                        : Front: L R
    Sampling rate                            : 48.0 KHz
    Compression mode                         : Lossy
    Delay relative to video                  : 14ms
    Default                                  : Yes
    Forced                                   : No













    0 0

    Original Post: No Tears For The Dead 1080p BluRay 2AUDIO DTS-HD x264-HDCN



    Title: No Tears For the Dead
    AKA: 우는 남자 /Wooneun Namja
    Genre: Action
    Release Date: June 4, 2014
    Runtime: 116 min
    Director: Lee Jeong-beom (이정범)
    Country: South Korea
    Language: Korean

    Plot
    A veteran assassin (Jang Dong-gun) accidentally kills a little girl, then falls in love with his next target -- the child's mother (Kim Min Hee).







    Code

    General
    Unique ID                                : 233378181740886007852368953767000963669 (0xAF9300BB4FA9E817AFEEEF3E51D27A55)
    Complete name                            : No.Tears.For.The.Dead.2014.1080p.BluRay.2AUDIO.DTS-HD.x264-HDCN.mkv
    Format                                   : Matroska
    Format version                           : Version 4 / Version 2
    File size                                : 13.5 GiB
    Duration                                 : 1h 56mn
    Overall bit rate mode                    : Variable
    Overall bit rate                         : 16.6 Mbps
    Movie name                               : 우는 남자. Encoded by Elanor
    Encoded date                             : UTC 2015-07-17 01:21:44
    Writing application                      : mkvmerge v8.1.0 ('Psychedelic Postcard') 64bit
    Writing library                          : libebml v1.3.1 + libmatroska v1.4.2
    DURATION                                 : 01:48:44.500000000
    NUMBER_OF_FRAMES                         : 649
    NUMBER_OF_BYTES                          : 17958
    _STATISTICS_WRITING_APP                  : mkvmerge v8.1.0 ('Psychedelic Postcard') 64bit
    _STATISTICS_WRITING_DATE_UTC             : 2015-07-17 01:21:44
    _STATISTICS_TAGS                         : BPS DURATION NUMBER_OF_FRAMES NUMBER_OF_BYTES

    Video
    ID                                       : 1
    Format                                   : AVC
    Format/Info                              : Advanced Video Codec
    Format profile                           : High@L4.1
    Format settings, CABAC                   : Yes
    Format settings, ReFrames                : 5 frames
    Codec ID                                 : V_MPEG4/ISO/AVC
    Duration                                 : 1h 56mn
    Width                                    : 1 920 pixels
    Height                                   : 804 pixels
    Display aspect ratio                     : 2.40:1
    Frame rate mode                          : Constant
    Frame rate                               : 23.976 fps
    Color space                              : YUV
    Chroma subsampling                       : 4:2:0
    Bit depth                                : 8 bits
    Scan type                                : Progressive
    Writing library                          : x264 core 144 r2525 40bb568
    Encoding settings                        : cabac=1 / ref=5 / deblock=1:-3:-3 / analyse=0x3:0x133 / me=umh / subme=11 / psy=1 / psy_rd=1.00:0.15 / mixed_ref=1 / me_range=49 / chroma_me=1 / trellis=2 / 8x8dct=1 / cqm=0 / deadzone=21,11 / fast_pskip=0 / chroma_qp_offset=-3 / threads=12 / lookahead_threads=2 / sliced_threads=0 / nr=0 / decimate=1 / interlaced=0 / bluray_compat=0 / constrained_intra=0 / bframes=9 / b_pyramid=2 / b_adapt=2 / b_bias=0 / direct=3 / weightb=1 / open_gop=0 / weightp=2 / keyint=240 / keyint_min=23 / scenecut=40 / intra_refresh=0 / rc_lookahead=60 / rc=crf / mbtree=1 / crf=16.0 / qcomp=0.60 / qpmin=0 / qpmax=69 / qpstep=4 / vbv_maxrate=62500 / vbv_bufsize=78125 / crf_max=0.0 / nal_hrd=none / filler=0 / ip_ratio=1.40 / aq=1:1.00
    Default                                  : Yes
    Forced                                   : No

    Audio #1
    ID                                       : 2
    Format                                   : DTS
    Format/Info                              : Digital Theater Systems
    Format profile                           : MA / Core
    Mode                                     : 16
    Format settings, Endianness              : Big
    Codec ID                                 : A_DTS
    Duration                                 : 1h 56mn
    Bit rate mode                            : Variable
    Bit rate                                 : Unknown / 1 509 Kbps
    Channel(s)                               : 6 channels
    Channel positions                        : Front: L C R, Side: L R, LFE
    Sampling rate                            : 48.0 KHz
    Bit depth                                : 24 bits
    Compression mode                         : Lossless / Lossy
    Title                                    : Korean Audio
    Language                                 : Korean
    Default                                  : Yes
    Forced                                   : Yes

    Audio #2
    ID                                       : 3
    Format                                   : DTS
    Format/Info                              : Digital Theater Systems
    Format profile                           : MA / Core
    Mode                                     : 16
    Format settings, Endianness              : Big
    Codec ID                                 : A_DTS
    Duration                                 : 1h 56mn
    Bit rate mode                            : Variable
    Bit rate                                 : Unknown / 1 509 Kbps
    Channel(s)                               : 6 channels
    Channel positions                        : Front: L C R, Side: L R, LFE
    Sampling rate                            : 48.0 KHz
    Bit depth                                : 24 bits
    Compression mode                         : Lossless / Lossy
    Title                                    : English Audio
    Language                                 : English
    Default                                  : No
    Forced                                   : No

    Text #1
    ID                                       : 4
    Format                                   : PGS
    Muxing mode                              : zlib
    Codec ID                                 : S_HDMV/PGS
    Codec ID/Info                            : The same subtitle format used on BDs/HD-DVDs
    Title                                    : English Subtitles
    Language                                 : English
    Default                                  : Yes
    Forced                                   : No

    Text #2
    ID                                       : 5
    Format                                   : UTF-8
    Codec ID                                 : S_TEXT/UTF8
    Codec ID/Info                            : UTF-8 Plain Text
    Title                                    : Chinese Simplified
    Language                                 : Chinese
    Default                                  : No
    Forced                                   : No

    Text #3
    ID                                       : 6
    Format                                   : UTF-8
    Codec ID                                 : S_TEXT/UTF8
    Codec ID/Info                            : UTF-8 Plain Text
    Title                                    : Chinese Traditional
    Language                                 : Chinese
    Default                                  : No
    Forced                                   : No





    0 0

    Original Post: [Album] Apink – Pink MEMORY [2nd Album][FLAC]



    Apink – Pink MEMORY
    Release Date: 2015.07.16
    Genre: Dance
    Language: Korean
    Bit Rate: FLAC
    credit to hulkpop.com

    Following two Japanese singles, APink is releasing their first Korean album of the year. The sweetheart girl group takes on various musical genres and a more mature style for their second full album Pink Memory which features ten tracks.

    Track List:

    01. Remember
    02. Perfume
    03. 끌려
    04. Dejavu
    05. 꽃잎점
    06. What A Boy Wants
    07. I DO
    08. 신기하죠
    09. Remember (Inst.)
    10. 새끼손가락



    0 0

    Original Post: [Album] SUPER JUNIOR – DEVIL (2015) [FLAC]



    https://en.wikipedia.org/wiki/Super_Junior

    슈퍼주니어 (SUPER JUNIOR) – DEVIL [SPECIAL ALBUM]
    Release Date: 2015.07.16
    Genre: Dance Pop
    Language: Korean
    Format: FLAC
    credit to hulkpop

    Celebrate ten years of Super Junior! The mega popular group vows to keep on running without stopping with the release of the special album Devil! The album features ten tracks of various genres including the trendy dance title song Devil. Besides the main group, the album features songs from Super Junior’s different subunits, including K.R.Y., T, M and D&E. Noted singer-songwriters like Lee Seung Hwan, Rose Motel, Kim Yoon Ah and Epitone Project also participated on the album.

    Track List:

    01. Devil
    02. Simply Beautiful
    03. 별이 뜬다 (Stars Appear…)
    04. Good Love
    05. We Can
    06. Don’t Wake Me Up
    07. 첫눈에 반했습니다 (Love at First Sight)
    08. 每天 (Forever with You)
    09. Rock’n Shine!
    10. Alright

    Audio
    Format                         : FLAC
    Format/Info                    : Free Lossless Audio Codec
    Duration                       : 3mn 36s
    Bit rate mode                  : Variable
    Bit rate                       : 1 053 Kbps
    Channel(s)                     : 2 channels
    Sampling rate                  : 44.1 KHz
    Bit depth                      : 16 bits
    Stream size                    : 27.2 MiB (100%)
    Writing library                : libFLAC 1.2.1



    0 0

    Original Post: [Album] BTOB – Complete (2015) [FLAC]



    https://en.wikipedia.org/wiki/BtoB_%28band%29

    BTOB (비투비) – 1st Album ‘Complete’
    Release Date: 2015.06.29
    Genre: Dance Pop
    Language: Korean
    Format: FLAC
    credit to hulkpop

    BTOB has been enjoying increased attention lately due to Sung Jae’s variety and drama appearances. Building on the momentum, the group is now releasing their first full-length album Complete. The album features the title song “It’s OK” and an acoustic version of “Insane.” The members again participated in the songwriting, writing and composing multiple songs on Complete, including “Friend’s Girlfriend,” “Miss You,” Shake It and Everything’s Good.

    Track List:

    01. Complete (Intro)
    02. 괜찮아요 (It’s Okay)
    03. 너나 잘 살아
    04. 북치고 장구치고
    05. Summer Romance
    06. 친구의 여자친구
    07. 꽃보다 그녀
    08. 보고파
    09. 어기여차 디여차
    10. Open
    11. 비밀 (Insane) (Acoustic Ver)
    12. Shake It
    13. Everything’s Good – 일훈 Solo (Outro)

    Audio
    Format                         : FLAC
    Format/Info                    : Free Lossless Audio Codec
    Duration                       : 4mn 11s
    Bit rate mode                  : Variable
    Bit rate                       : 1 009 Kbps
    Channel(s)                     : 2 channels
    Sampling rate                  : 44.1 KHz
    Bit depth                      : 16 bits
    Stream size                    : 30.3 MiB (99%)
    Writing library                : libFLAC 1.2.1



    0 0

    Original Post: [Mini Album] INFINITE – Reality (2015) [FLAC]



    https://en.wikipedia.org/wiki/Infinite_%28band%29

    인피니트 (INFINITE) – Reality
    Release Date: 2015.07.13
    Genre: Dance Pop
    Language: Korean
    Format: FLAC
    credit to hulkpop

    After a series of solo and unit activities, Infinite returns as a group with their highly anticipated fifth mini-album Reality. The album features seven brand new tracks from the popular group including Betting, Moonlight and the title song Bad, written, composed and produced by Rphabet.

    Track List:

    01. Betting
    02. Bad
    03. Moonlight
    04. 발걸음
    05. 마주보며 서 있어
    06. 러브레터
    07. 엔딩을 부탁해

    Audio
    Format                         : FLAC
    Format/Info                    : Free Lossless Audio Codec
    Duration                       : 3mn 36s
    Bit rate mode                  : Variable
    Bit rate                       : 1 057 Kbps
    Channel(s)                     : 2 channels
    Sampling rate                  : 44.1 KHz
    Bit depth                      : 16 bits
    Stream size                    : 27.2 MiB (100%)
    Writing library                : libFLAC 1.2.1



    0 0

    Original Post: [Mini Album] GOT7 – Just right (2015) [FLAC]



    https://en.wikipedia.org/wiki/Got7

    [EP] GOT7 – Just right
    Release Date: 2015.07.13
    Genre: Rap / Hip-Hop, Dance, R&B / Soul
    Language: Korean
    Format: FLAC
    credit to hulkpop

    The time is Just Right for a GOT7 comeback! The JYP group’s third mini-album features six tracks whose genres cover southern hip-hop, R&B and ballad. Park Jin Young wrote the lyrics for the album’s title song “Just Right.”

    Track List:

    01. 딱 좋아 (Just right)
    02. 보름달이 뜨기 전에
    03. 온몸이 반응해
    04. Nice
    05. Mine
    06. Back To Me

    Audio
    Format                         : FLAC
    Format/Info                    : Free Lossless Audio Codec
    Duration                       : 3mn 42s
    Bit rate mode                  : Variable
    Bit rate                       : 1 007 Kbps
    Channel(s)                     : 2 channels
    Sampling rate                  : 44.1 KHz
    Bit depth                      : 16 bits
    Stream size                    : 26.7 MiB (100%)
    Writing library                : libFLAC 1.2.1



    0 0

    Original Post: [Album] Girl's Day – LOVE (2015) [FLAC]



    https://en.wikipedia.org/wiki/Girl%27s_Day

    걸스데이 (Girl’s Day) 2집 – LOVE [2nd Album]
    Release Date: 2015.07.06
    Genre: Dance
    Language: Korean
    Format: FLAC

    Girl’s Day celebrates their fifth debut anniversary this summer with the release of their second full album Love! The album comes with 14 tracks including the title song “Ring My Bell,” a fun and funky dance song for the hot summer. The album has generated much buzz for its stunning concept photos featuring each member in different looks inspired by Olivia Hussey, Madonna, Audrey Hepburn and Sharon Stone.

    Track List:

    01. With Me
    02. 링마벨 (Ring My Bell)
    03. 마카롱
    04. Come Slowly
    05. Top Girl
    06. Darling
    07. 휘파람
    08. Look At Me
    09. Something
    10. Timing
    11. 보고싶어
    12. Show You
    13. Hello Bubble
    14. 링마벨 (Ring My Bell) (Inst.)

    Audio
    Format                         : FLAC
    Format/Info                    : Free Lossless Audio Codec
    Duration                       : 3mn 18s
    Bit rate mode                  : Variable
    Bit rate                       : 1 127 Kbps
    Channel(s)                     : 2 channels
    Sampling rate                  : 44.1 KHz
    Bit depth                      : 16 bits
    Stream size                    : 26.7 MiB (100%)
    Writing library                : libFLAC 1.2.1



    0 0

    Original Post: [Mini Album] AOA – Heart Attack (2015) [FLAC]



    https://en.wikipedia.org/wiki/AOA_%28band%29

    [EP] AOA – Heart Attack [Mini Album Vol. 3]
    Release Date: 2015.06.22
    Genre: Dance
    Language: Korean
    Format: FLAC
    credit to hulkpop

    AOA had a breakout string of hits in 2014 with “Mini Skirt,” “Short Hair” and “Like a Cat,” and they’ve been making impact in other fields this year with Ji Min participating in Unpretty Rapstar and Seol Hyun co-starring in Gangnam Blues and Orange Marmalade. The girl group is set to deliver another hot dance hit with the release of their third mini-album Heart Attack.

    Track List:

    01. 심쿵해 (Heart Attack)
    02. Luv Me
    03. 들어와 (Come To Me)
    04. 한 개 (One Thing)
    05. 진짜 (Really Really)
    06. Chocolate

    Audio
    Format                         : FLAC
    Format/Info                    : Free Lossless Audio Codec
    Duration                       : 3mn 16s
    Bit rate mode                  : Variable
    Bit rate                       : 1 140 Kbps
    Channel(s)                     : 2 channels
    Sampling rate                  : 44.1 KHz
    Bit depth                      : 16 bits
    Stream size                    : 26.7 MiB (100%)
    Writing library                : libFLAC 1.2.1



    0 0

    Original Post: (2015.07.17 KBS Music Bank) Girls' Generation - PARTY.TS

    2015.07.17 KBS Music Bank








    Code
    General
    ID                                       : 2145 (0x861)
    Complete name                            : 2015.07.17 Girls' Generation - PARTY.TS
    Format                                   : MPEG-TS
    File size                                : 456 MiB
    Duration                                 : 3mn 21s
    Start time                               : UTC 2015-07-17 10:02:29
    End time                                 : UTC 2015-07-17 10:05:50
    Overall bit rate mode                    : Variable
    Overall bit rate                         : 19.0 Mbps

    Video
    ID                                       : 33 (0x21)
    Menu ID                                  : 2 (0x2)
    Format                                   : MPEG Video
    Format version                           : Version 2
    Format profile                           : Main@High
    Format settings, BVOP                    : Yes
    Format settings, Matrix                  : Default
    Format settings, GOP                     : M=3, N=15
    Format settings, picture structure       : Frame
    Codec ID                                 : 2
    Duration                                 : 3mn 21s
    Bit rate                                 : 17.6 Mbps
    Maximum bit rate                         : 17.1 Mbps
    Width                                    : 1 920 pixels
    Height                                   : 1 080 pixels
    Display aspect ratio                     : 16:9
    Frame rate                               : 29.970 fps
    Standard                                 : Component
    Color space                              : YUV
    Chroma subsampling                       : 4:2:0
    Bit depth                                : 8 bits
    Scan type                                : Interlaced
    Scan order                               : Top Field First
    Compression mode                         : Lossy
    Bits/(Pixel*Frame)                       : 0.284
    Time code of first frame                 : 08:38:48;16
    Time code source                         : Group of pictures header
    GOP, Open/Closed                         : Open
    Stream size                              : 424 MiB (93%)
    Language                                 : Korean
    Color primaries                          : BT.601 PAL
    Transfer characteristics                 : BT.470 System B, BT.470 System G
    Matrix coefficients                      : BT.601
    Name                                     : ko:Video

    Audio
    ID                                       : 36 (0x24)
    Menu ID                                  : 2 (0x2)
    Format                                   : AC-3
    Format/Info                              : Audio Coding 3
    Mode extension                           : CM (complete main)
    Format settings, Endianness              : Big
    Codec ID                                 : 129
    Duration                                 : 3mn 21s
    Bit rate mode                            : Constant
    Bit rate                                 : 384 Kbps
    Channel(s)                               : 2 channels
    Channel positions                        : Front: L R
    Sampling rate                            : 48.0 KHz
    Compression mode                         : Lossy
    Delay relative to video                  : -271ms
    Stream size                              : 9.23 MiB (2%)
    Language                                 : Korean
    Name                                     : ko:Audio

    Text
    ID                                       : 33 (0x21)-1
    Menu ID                                  : 2 (0x2)
    Format                                   : EIA-708
    Muxing mode                              : A/53 / DTVCC Transport
    Muxing mode, more info                   : Muxed in Video #1
    Duration                                 : 3mn 21s
    Bit rate mode                            : Constant
    Stream size                              : 0.00 Byte (0%)
    Language                                 : Korean

    Menu
    ID                                       : 32 (0x20)
    Menu ID                                  : 2 (0x2)
    Duration                                 : 3mn 21s
    List                                     : 33 (0x21) (MPEG Video, Korean) / 4352 (0x1100) () / 1281 (0x501) () / 36 (0x24) (AC-3, Korean)
    Language                                 : Korean /  /  / Korean
    Service name                             : 전주 KBS2 DTV
    Service channel number                   : 9-1
    Service provider                         : KBS Digital TV
    Service type                             : Digital television
    UTC 2015-07-17 08:56:50                  : ko:뮤직뱅크 / ko:뮤직뱅크 795회 /  /  / 01:29:42 /
    UTC 2015-07-17 10:26:32                  : ko:2015 K리그 / ko:2015시즌 K리그 올스타전 /  /  / 01:47:25 /
    UTC 2015-07-17 12:13:57                  : ko:후계자 /  /  /  / 01:24:51 /
    UTC 2015-07-17 13:38:48                  : ko:오렌지 마말레이드 /  /  /  / 01:04:29 /
    UTC 2015-07-17 14:43:17                  : ko:유희열의 스케치북 / ko:에이핑크 홍진영 박현빈 김태우 /  /  / 01:27:17 /
    UTC 2015-07-17 16:10:34                  : ko:대국민 토크쇼 안녕하세요 스페셜 /  /  /  / 01:17:56 /
    UTC 2015-07-17 20:59:46                  : ko:국민대합창 우리歌 / ko:국민대합창 우리가 재방송 - 광주 대구 창원 대전 /  /  / 00:18:56 /
    UTC 2015-07-17 21:18:42                  : ko:다큐 공감 /  /  /  / 00:50:55 /
    UTC 2015-07-17 22:09:37                  : ko:나를 돌아봐 /  /  /  / 01:10:11 /
    UTC 2015-07-17 23:19:48                  : ko:특파원 현장보고 /  /  /  / 00:39:44 /
    UTC 2015-07-17 23:59:32                  : ko:인간의 조건 /  /  /  / 01:10:26 /
    UTC 2015-07-18 01:09:58                  : ko:영화가 좋다 /  /  /  / 01:09:37 /
    UTC 2015-07-18 02:19:35                  : ko:후계자 / ko:트로트 오디션 /  /  / 01:19:55 /
    UTC 2015-07-18 03:39:30                  : ko:개그 콘서트 /  /  /  / 01:29:36 /
    UTC 2015-07-18 05:09:06                  : ko:슈퍼맨이 돌아왔다 /  /  /  / 01:39:49 /




    0 0

    Original Post: The Lover (2015) HDTV x264 1080p-DoA

    Note: This drama contains sexual references and has been rated as a 19+ show.



    [剧 名]:The Lover
    [韩 名]:더 러버
    [译 名]:情人
    [播 送]:韩国Mnet
    [类 型]:Mnet木曜剧
    [首 播]:2015年04月02日
    [时 间]:每周四晚间11点00分(韩国时间)播放一集
    [导 演]:金泰恩
    [编 剧]:金珉硕
    [主 演]:吴正世、柳贤庆、郑俊英、崔汝珍、朴钟焕、夏恩雪、寺田拓哉、李在俊。
    [制 作]: DoA
    [集 数]:12集
    [简 介]:讲述四对20~30代的情侣,以“共同生活”为主题真实呈现男女一起生活时可能发生情况的的迷你戏剧故事。
    [官 网]:http://tv.mnet.com/program/14421

    Title: 더 러버 / The Lover
    Genre: Romance, Comedy
    Episodes: 12
    Broadcast network: Mnet
    Broadcast period: 2015-April-02 to 2015-June-18
    Air time: Thursday 23:00
    Original Soundtrack: The Lover OST

    - Synopsis
    It‘s an omnibus series about four different couples living together in one apartment complex.

    Oh Do Si and Ryoo Doo Ri play the main couple in their 30s who chose to live together instead of getting married, and have been sharing an apartment for two years. Oh Do Si plays a voice actor and Ryoo Doo Ri plays a reviewer who runs a blog.

    Choi Jin Nyeo and Jeong Yeong Joon are twelve years apart in age and have been living together for a year. He‘s a pretty-boy singer who carries his guitar everywhere he goes, but doesn‘t actually know how to play it all that well. She‘s a penny-pinching ahjumma in the body of a hot woman who basically supports her much younger boyfriend. He drives her crazy but he‘s a good guy at heart, and she can never manage to stay mad at him for long.

    Ha Seol Eun and Park Hwan Jong play a 20s couple that just moved in together. She‘s the type of woman who doesn‘t want her boyfriend to know that she isn‘t the perfect embodiment of femininity, and works tirelessly to keep up the illusion.

    Lee Joon Jae plays a loner who prefers to stay at home, but is forced to get a roommate for financial reasons. He doesn‘t even want to exchange unnecessary small talk with the guy, and thus seeks out a foreigner who can‘t speak Korean very well. Takuya plays the new roommate, a young man from Japan who‘s on a trip around the world. Takuya thinks it‘s a shame that Lee Joon Jae is wasting his youth as a homebody, and begins to draw him out into the world.

    - Cast
    Oh Jung Se as Oh Do Si
    Ryu Hyun Kyung as Ryoo Doo Ri
    Choi Yeo Jin as Choi Jin Nyeo
    Jung Joon Young as Jeong Yeong Joon
    Ha Eun Sul as Ha Seol Eun
    Park Jong Hwan as Park Hwan Jong
    Lee Jae Joon as Lee Joon Jae
    Terada Takuya as Takuya









    Code

    General
    Unique ID                                : 255004253703288649625672275465687979867 (0xBFD8086695D9FB2A8A5AAE65EA4ED75B)
    Complete name                            : The.Lover.E10.150611.1080p.HDTV.x264.AC3-DoA.mkv
    Format                                   : Matroska
    Format version                           : Version 4 / Version 2
    File size                                : 2.35 GiB
    Duration                                 : 45mn 37s
    Overall bit rate                         : 7 384 Kbps
    Movie name                               : 더 러버. Encoded by Elanor
    Encoded date                             : UTC 2015-07-17 08:27:12
    Writing application                      : mkvmerge v8.1.0 ('Psychedelic Postcard') 64bit
    Writing library                          : libebml v1.3.1 + libmatroska v1.4.2
    DURATION                                 : 00:45:37.901000000
    NUMBER_OF_FRAMES                         : 82055
    NUMBER_OF_BYTES                          : 2394818163
    _STATISTICS_WRITING_APP                  : mkvmerge v8.1.0 ('Psychedelic Postcard') 64bit
    _STATISTICS_WRITING_DATE_UTC             : 2015-07-17 08:27:12
    _STATISTICS_TAGS                         : BPS DURATION NUMBER_OF_FRAMES NUMBER_OF_BYTES

    Video
    ID                                       : 2
    Format                                   : AVC
    Format/Info                              : Advanced Video Codec
    Format profile                           : High@L4.1
    Format settings, CABAC                   : Yes
    Format settings, ReFrames                : 4 frames
    Codec ID                                 : V_MPEG4/ISO/AVC
    Duration                                 : 45mn 37s
    Bit rate                                 : 6 853 Kbps
    Width                                    : 1 912 pixels
    Height                                   : 1 072 pixels
    Display aspect ratio                     : 16:9
    Frame rate mode                          : Constant
    Frame rate                               : 29.970 fps
    Color space                              : YUV
    Chroma subsampling                       : 4:2:0
    Bit depth                                : 8 bits
    Scan type                                : Progressive
    Bits/(Pixel*Frame)                       : 0.112
    Stream size                              : 2.18 GiB (93%)
    Writing library                          : x264 core 144 r2525 40bb568
    Encoding settings                        : cabac=1 / ref=4 / deblock=1:-3:-3 / analyse=0x3:0x133 / me=umh / subme=11 / psy=1 / psy_rd=1.00:0.15 / mixed_ref=1 / me_range=49 / chroma_me=1 / trellis=2 / 8x8dct=1 / cqm=0 / deadzone=21,11 / fast_pskip=0 / chroma_qp_offset=-3 / threads=12 / lookahead_threads=2 / sliced_threads=0 / nr=0 / decimate=1 / interlaced=0 / bluray_compat=0 / constrained_intra=0 / bframes=9 / b_pyramid=2 / b_adapt=2 / b_bias=0 / direct=3 / weightb=1 / open_gop=0 / weightp=2 / keyint=300 / keyint_min=29 / scenecut=40 / intra_refresh=0 / rc_lookahead=60 / rc=crf / mbtree=1 / crf=16.0 / qcomp=0.60 / qpmin=0 / qpmax=69 / qpstep=4 / vbv_maxrate=62500 / vbv_bufsize=78125 / crf_max=0.0 / nal_hrd=none / filler=0 / ip_ratio=1.40 / aq=1:1.00
    Default                                  : Yes
    Forced                                   : No

    Audio
    ID                                       : 1
    Format                                   : AC-3
    Format/Info                              : Audio Coding 3
    Mode extension                           : CM (complete main)
    Format settings, Endianness              : Big
    Codec ID                                 : A_AC3
    Duration                                 : 45mn 37s
    Bit rate mode                            : Constant
    Bit rate                                 : 384 Kbps
    Channel(s)                               : 6 channels
    Channel positions                        : Front: L C R, Side: L R, LFE
    Sampling rate                            : 48.0 KHz
    Bit depth                                : 16 bits
    Compression mode                         : Lossy
    Stream size                              : 125 MiB (5%)
    Default                                  : Yes
    Forced                                   : No




    0 0

    Original Post: Oh.My.Ghost.E05.150717.HDTV.XviD-WITH

    http://thetvdb.com/index.php?tab=series&id=296841
    Details
    Title: 오 나의 귀신님 / O Naeui Gwishinnim
    Also known as: Oh My Ghostess
    Genre: Fantasy, romance
    Episodes: TBA
    Broadcast network: tvN
    Broadcast period: 2015-Jul-03 to 2015-??-??
    Air time: Friday & Saturday Night 20:30
    Original Soundtrack: Oh My Ghost OST

    Synopsis
    Na Bong Sun (Park Bo Young) may be a skilled souf chef, but she lacks the self-esteem to shine professionally and socially. Beyond her cooking talents, however, is an uncanny ability to communicate with ghosts. One day, her mystic senses go out of control when the seductive ghost of Shin Soon Ae (Kim Seul Gi) possesses her. Imbued with a fiery new "personality," Bong Sun starts turning heads, including that of Kang Sun Woo (Jo Jung Suk), the hottest chef in town and Bong Sun's secret crush!

    Main Cast
    Park Bo Young as Na Bong Sun (28, chef's assistant at Sun Restaurant)
    Jo Jung Suk as Kang Sun Woo (33, chef & owner at Sun Restaurant)
    Im Joo Hwan as Choi Sung Jae (32, police officer, Sun Woo's brother-in-law)
    Kim Seul Gi as Shin Soon Ae (virgin ghost, spirit no. 0825)
    Park Jung Ah as Lee So Hyung (33, PD)
    Shin Hye Sun as Kang Eun Hee (31, Sun Woo's younger sister, Sung Jae's wife)







    Code
    Video
    ID                                       : 0
    Format                                   : MPEG-4 Visual
    Format profile                           : Advanced Simple@L5
    Format settings, BVOP                    : 2
    Format settings, QPel                    : No
    Format settings, GMC                     : No warppoints
    Format settings, Matrix                  : Default (H.263)
    Muxing mode                              : Packed bitstream
    Codec ID                                 : XVID
    Codec ID/Hint                            : XviD
    Duration                                 : 1h 2mn
    Bit rate                                 : 1 237 Kbps
    Width                                    : 640 pixels
    Height                                   : 352 pixels
    Display aspect ratio                     : 16:9
    Frame rate                               : 29.970 fps
    Color space                              : YUV
    Chroma subsampling                       : 4:2:0
    Bit depth                                : 8 bits
    Scan type                                : Progressive
    Compression mode                         : Lossy
    Bits/(Pixel*Frame)                       : 0.183
    Stream size                              : 550 MiB (90%)
    Writing library                          : XviD 58

    Audio
    ID                                       : 1
    Format                                   : MPEG Audio
    Format version                           : Version 1
    Format profile                           : Layer 3
    Mode                                     : Joint stereo
    Mode extension                           : MS Stereo
    Codec ID                                 : 55
    Codec ID/Hint                            : MP3
    Duration                                 : 1h 2mn
    Bit rate mode                            : Constant
    Bit rate                                 : 128 Kbps
    Channel(s)                               : 2 channels
    Sampling rate                            : 48.0 KHz
    Compression mode                         : Lossy
    Stream size                              : 56.9 MiB (9%)
    Alignment                                : Aligned on interleaves
    Interleave, duration                     : 33 ms (1.00 video frame)
    Interleave, preload duration             : 504 ms



    0 0

    Original Post: Oh.My.Ghost.E05.150717.HDTV.H264.720p-WITH

    http://thetvdb.com/index.php?tab=series&id=296841
    Details
    Title: 오 나의 귀신님 / O Naeui Gwishinnim
    Also known as: Oh My Ghostess
    Genre: Fantasy, romance
    Episodes: TBA
    Broadcast network: tvN
    Broadcast period: 2015-Jul-03 to 2015-??-??
    Air time: Friday & Saturday Night 20:30
    Original Soundtrack: Oh My Ghost OST

    Synopsis
    Na Bong Sun (Park Bo Young) may be a skilled souf chef, but she lacks the self-esteem to shine professionally and socially. Beyond her cooking talents, however, is an uncanny ability to communicate with ghosts. One day, her mystic senses go out of control when the seductive ghost of Shin Soon Ae (Kim Seul Gi) possesses her. Imbued with a fiery new "personality," Bong Sun starts turning heads, including that of Kang Sun Woo (Jo Jung Suk), the hottest chef in town and Bong Sun's secret crush!

    Cast
    Main Cast
    Park Bo Young as Na Bong Sun (28, chef's assistant at Sun Restaurant)
    Jo Jung Suk as Kang Sun Woo (33, chef & owner at Sun Restaurant)
    Im Joo Hwan as Choi Sung Jae (32, police officer, Sun Woo's brother-in-law)
    Kim Seul Gi as Shin Soon Ae (virgin ghost, spirit no. 0825)
    Park Jung Ah as Lee So Hyung (33, PD)
    Shin Hye Sun as Kang Eun Hee (31, Sun Woo's younger sister, Sung Jae's wife)






    Code
    Video
    ID                                       : 1
    Format                                   : AVC
    Format/Info                              : Advanced Video Codec
    Format profile                           : Baseline@L1.3
    Format settings, CABAC                   : No
    Format settings, ReFrames                : 1 frame
    Codec ID                                 : avc1
    Codec ID/Info                            : Advanced Video Coding
    Duration                                 : 1h 3mn
    Bit rate                                 : 2 200 Kbps
    Maximum bit rate                         : 6 012 Kbps
    Width                                    : 1 280 pixels
    Height                                   : 720 pixels
    Display aspect ratio                     : 16:9
    Frame rate mode                          : Constant
    Frame rate                               : 29.970 fps
    Color space                              : YUV
    Chroma subsampling                       : 4:2:0
    Bit depth                                : 8 bits
    Scan type                                : Progressive
    Bits/(Pixel*Frame)                       : 0.080
    Stream size                              : 1 018 MiB (90%)
    Writing library                          : x264 core 128 r2216 198a7ea
    Encoding settings                        : cabac=0 / ref=1 / deblock=1:0:0 / analyse=0x1:0x111 / me=hex / subme=7 / psy=1 / psy_rd=1.00:0.00 / mixed_ref=0 / me_range=16 / chroma_me=1 / trellis=1 / 8x8dct=0 / cqm=0 / deadzone=21,11 / fast_pskip=1 / chroma_qp_offset=-2 / threads=12 / lookahead_threads=2 / sliced_threads=0 / nr=0 / decimate=1 / interlaced=0 / bluray_compat=0 / constrained_intra=0 / bframes=0 / weightp=0 / keyint=250 / keyint_min=25 / scenecut=40 / intra_refresh=0 / rc_lookahead=40 / rc=abr / mbtree=1 / bitrate=2200 / ratetol=1.0 / qcomp=0.60 / qpmin=0 / qpmax=69 / qpstep=4 / vbv_maxrate=50000 / vbv_bufsize=50000 / nal_hrd=none / ip_ratio=1.40 / aq=1:1.00


    Audio
    ID                                       : 2
    Format                                   : AAC
    Format/Info                              : Advanced Audio Codec
    Format profile                           : LC
    Codec ID                                 : 40
    Duration                                 : 1h 3mn
    Bit rate mode                            : Variable
    Bit rate                                 : 256 Kbps
    Maximum bit rate                         : 262 Kbps
    Channel(s)                               : 2 channels
    Channel positions                        : Front: L R
    Sampling rate                            : 48.0 KHz
    Compression mode                         : Lossy



older | 1 | .... | 1400 | 1401 | (Page 1402) | 1403 | 1404 | 1405 | newer