Are you the publisher? Claim or contact us about this channel


Embed this content in your HTML

Search

Report adult content:

click to rate:

Account: (login)

More Channels


Showcase


Channel Catalog


Channel Description:

Asia Torrents RSS Feed

older | 1 | .... | 1402 | 1403 | (Page 1404) | 1405 | newer

    0 0

    Original Post: Shinya Shokudo (aka Midnight Diner) 2015 Movie 720p KOR HDRip X264 AAC-iMBC




    Title: Shinya Shokudo
    Also known as: Midnight Diner
    Japanese: 深夜食堂
    Release Date: January 31, 2015
    Genre: Food / Drama / Restaurant / Life
    Language: Japanese
    Country: Japan
    Runtime: 119 minutes
    Subtitles: Korean - Hard Subbed


    Synopsis:
    Shinya Shokudo also known as Midnight Restaurant is a small restaurant which opens at 12 AM and operates till 7 AM in the morning. Although, there are only few selected items on the menu, the customers can request for their favourite dishes or things they would like to eat. If the owner is willing to make it and has the ingredients available, he will make it for you, also the customers brings in the ingredients sometimes for their own food.

    Every night, Master (Kaoru Kobayashi) is busy with customers at the restaurant he runs. He has a worried face, looking at the funerary urn which someone left at his restaurant. His customers also talk about the funerary urn.

    Based on the manga and TV series "Shinya Shokudo" by Yaro Abe.



















    Code
    General
    Complete name               : Midnight.Diner.2015.720p.KOR.HDRip.X264.AAC-iMBC.mp4
    Format                      : MPEG-4
    Format profile              : Base Media / Version 2
    Codec ID                    : mp42
    File size                   : 2.71 GiB
    Duration                    : 2h 0mn
    Overall bit rate mode       : Variable
    Overall bit rate            : 3222 Kbps


    Video
    ID                          : 2
    Format                      : AVC
    Format/Info                 : Advanced Video Codec
    Format profile              : Main@L3.2
    Format settings, CABAC      : Yes
    Format settings, ReFrames   : 3 frames
    Codec ID                    : avc1
    Codec ID/Info               : Advanced Video Coding
    Duration                    : 2h 0mn
    Source duration             : 2h 0mn
    Bit rate mode               : Constant
    Bit rate                    : 3000 Kbps
    Width                       : 1280 pixels
    Height                      : 720 pixels
    Display aspect ratio        : 16:9
    Frame rate mode             : Constant
    Frame rate                  : 30.000 fps
    Standard                    : NTSC
    Color space                 : YUV
    Chroma subsampling          : 4:2:0
    Bit depth                   : 8 bits
    Scan type                   : Progressive
    Bits/(Pixel*Frame)          : 0.109
    Stream size                 : 2.43 GiB (90%)


    Audio
    ID                          : 1
    Format                      : AAC
    Format/Info                 : Advanced Audio Codec
    Format profile              : LC
    Codec ID                    : 40
    Duration                    : 2h 0mn
    Bit rate mode               : Variable
    Bit rate                    : 320 Kbps
    Maximum bit rate            : 1152 Kbps
    Channel(s)                  : 2 channels
    Channel positions           : Front: L R
    Sampling rate               : 96.0 KHz
    Compression mode            : Lossy
    Stream size                 : 275 MiB (10%)



    0 0

    Original Post: Her.Granddaughter.2015.JAP.DVRip.x264.AC3-zdzdz [No subs]

    Her Granddaughter


    Japanese Ttle: 娚の一生  
    Romaji: Otoko no Isshou


    Year: 2015
    Country: Japan
    Director: Ryuichi Hiroki
    Writer: Keiko Nishi (manga)
    Genre: Drama
    Runtime: 119 min
    Language: Japanese
    Subtitles:
    None
    IMDB:http://www.imdb.com/title/tt3814950
    Release Date: February 14, 2015


    Cast:
    Nana Eikura - Tsugumi Dozono
    Etsushi Toyokawa - Jun Kaieda
    Osamu Mukai - Toshio Nakagawa
    Sakura Ando - Misaki Akimoto
    Tomoya Maeno - Tetushi Sonoda
    Motoki Ochiai - Takahiro Tomono
    Toshie Negishi - Kyoko Dozono
    Mari Hamada - Sayoko
    Yu Tokui - Tamio
    Hana Kino - Yoshiko Sakata
    Minami - Jun's secretary
    Mayuko Iwasa - Harumi Tomioka
    Chiharu Konno - Towa Shimoyashiki
    Erika Asakura - Miyuki Namazuta
    Ruka Wakabayashi - Makoto Tomioka
    Kentaro Sakaguchi - Shinobu Dozono



    Synopsis/ Plot:
    Tsugumi Dozono (Nana Eikura) works at a large electronics company in Tokyo. She likes to spend long vacations at her grandmother’s house in the countryside. One day, her grandmother passes away and Tsugumi Dozono decides to live in her grandmother's house while working from home. She finds a strange middle-aged man in the house. The man's name is Jun Kaieda (Etsushi Toyokawa).

    Jun Kaieda tells Tsugumi that he is her grandmother’s ex-student and her grandmother gave him a key to the annex house. Tsugumi, who does not know the exact relationship between her grandmother and Jun, begins to live with him.

     


    File/Video Technical Info

    VIDEO
    File Type: mkv
    Video Codec: x264
    Video Format: 720x384
    Aspect Ratio: 1.85:1
    Video Bitrate: 1297 kbps
    Video Frame Rate: 23.976 fps
    File Source: DVD

    AUDIO
    Audio Codec: AC3 (Ch. 6 - 48000Hz)
    Audio Bitrate: 448 kbps


    Details
    Spoiler:show

    Code
    General
    Unique ID                   : 223720250470334902586835220352441792715 (0xA84EF3F4D638670AA20E8A94512038CB)
    Complete name               : M:Her.Granddaughter.2015.JAP.DVRip.x264.AC3-zdzdz.mkv
    Format                      : Matroska
    Format version              : Version 4 / Version 2
    File size                   : 1.46 GiB
    Duration                    : 1h 59mn
    Overall bit rate            : 1 746 Kbps
    Encoded date                : UTC 2015-07-18 18:25:31
    Writing application         : mkvmerge v8.2.0 ('World of Adventure') 64bit
    Writing library             : libebml v1.3.1 + libmatroska v1.4.2
    DURATION                    : 01:59:51.424000000
    NUMBER_OF_FRAMES            : 224732
    NUMBER_OF_BYTES             : 402719744
    _STATISTICS_WRITING_APP     : mkvmerge v8.2.0 ('World of Adventure') 64bit
    _STATISTICS_WRITING_DATE_UT : 2015-07-18 18:25:31
    _STATISTICS_TAGS            : BPS DURATION NUMBER_OF_FRAMES NUMBER_OF_BYTES

    Video
    ID                          : 1
    Format                      : AVC
    Format/Info                 : Advanced Video Codec
    Format profile              : High@L5.1
    Format settings, CABAC      : Yes
    Format settings, ReFrames   : 11 frames
    Codec ID                    : V_MPEG4/ISO/AVC
    Duration                    : 1h 59mn
    Bit rate                    : 1 297 Kbps
    Width                       : 720 pixels
    Height                      : 384 pixels
    Display aspect ratio        : 1.85:1
    Frame rate mode             : Constant
    Frame rate                  : 23.976 fps
    Color space                 : YUV
    Chroma subsampling          : 4:2:0
    Bit depth                   : 8 bits
    Scan type                   : Progressive
    Bits/(Pixel*Frame)          : 0.196
    Stream size                 : 1.06 GiB (72%)
    Title                       : Encoded by zdzdz
    Writing library             : x264 core 146 r2538 121396c
    Encoding settings           : cabac=1 / ref=11 / deblock=1:-1:-1 / analyse=0x3:0x133 / me=umh / subme=11 / psy=1 / psy_rd=1.00:0.00 / mixed_ref=1 / me_range=32 / chroma_me=1 / trellis=2 / 8x8dct=1 / cqm=0 / deadzone=21,11 / fast_pskip=1 / chroma_qp_offset=-2 / threads=3 / lookahead_threads=1 / sliced_threads=0 / nr=0 / decimate=1 / interlaced=0 / bluray_compat=0 / constrained_intra=0 / bframes=10 / b_pyramid=2 / b_adapt=2 / b_bias=5 / direct=3 / weightb=1 / open_gop=0 / weightp=2 / keyint=240 / keyint_min=23 / scenecut=40 / intra_refresh=0 / rc_lookahead=40 / rc=2pass / mbtree=1 / bitrate=1297 / ratetol=1.0 / qcomp=0.60 / qpmin=0 / qpmax=69 / qpstep=4 / cplxblur=20.0 / qblur=0.5 / vbv_maxrate=240000 / vbv_bufsize=240000 / nal_hrd=none / filler=0 / ip_ratio=1.40 / aq=2:0.80
    Language                    : Japanese
    Default                     : Yes
    Forced                      : No
    DURATION                    : 01:59:51.518000000
    NUMBER_OF_FRAMES            : 172424
    NUMBER_OF_BYTES             : 1165070829
    _STATISTICS_WRITING_APP     : mkvmerge v8.2.0 ('World of Adventure') 64bit
    _STATISTICS_WRITING_DATE_UT : 2015-07-18 18:25:31
    _STATISTICS_TAGS            : BPS DURATION NUMBER_OF_FRAMES NUMBER_OF_BYTES

    Audio
    ID                          : 2
    Format                      : AC-3
    Format/Info                 : Audio Coding 3
    Mode extension              : CM (complete main)
    Format settings, Endianness : Big
    Codec ID                    : A_AC3
    Duration                    : 1h 59mn
    Bit rate mode               : Constant
    Bit rate                    : 448 Kbps
    Channel(s)                  : 6 channels
    Channel positions           : Front: L C R, Side: L R, LFE
    Sampling rate               : 48.0 KHz
    Compression mode            : Lossy
    Stream size                 : 384 MiB (26%)
    Title                       : AC3
    Language                    : Japanese
    Default                     : Yes
    Forced                      : No

    Menu
    00:00:00.000                : :Chapter 01
    00:08:04.667                : :Chapter 02
    00:15:00.334                : :Chapter 03
    00:26:25.334                : :Chapter 04
    00:37:24.202                : :Chapter 05
    00:49:37.335                : :Chapter 06
    00:56:31.502                : :Chapter 07
    01:04:50.370                : :Chapter 08
    01:13:19.670                : :Chapter 09
    01:25:40.371                : :Chapter 10
    01:37:33.005                : :Chapter 11
    01:44:32.005                : :Chapter 12
    01:49:02.505                : :Chapter 13
    01:54:29.373                : :Chapter 14






    Sceencaps



    REFERENCES

    Official Site: http://otokonoissyou-movie.jp/
    Wiki: http://asianwiki.com/Her_Granddaughter

    Movie Trailer:


    0 0

    Original Post: Murphy's Law of Love [Ongoing] E18 720p



    Details:

    Also known as Perhaps, This is Called Love
    Genre Romance, Comedy
    Created by Sanlih E-Television
    Written by Wang Ruo-ting 王若婷
    Fang Yi-de 方懿德
    Wu Xiang-ying 吳香穎
    Chen Xin-ying 陳妡盈
    Directed by Ye Tian-lun 葉天倫
    Li Qing-rong 李青蓉
    Opening theme Fly With Me by Landy Wen 溫嵐
    Ending theme Want To Say 想說 by GJ 蔣卓嘉
    Country of origin Republic of China (Taiwan)
    Original language(s) Mandarin
    No. of episodes 20
    http://thetvdb.com/?tab=series&id=293952

    Video Raws: thanks to abugemilang
    Subtitles: English SRT, credit Drama Fever and/or Viki, thanks to abugemilang

    Synopsis

    What happens when true love meets Murphy’s Law? Murphy’s Law states “anything that can go wrong, will go wrong.” Guan Xiao Tong (Ivelyn Lee) is known as the “love guru” of the Meet and Match Online Dating Company, able to solve anybody’s relationship issues. After He Zhi Yu (Wang Si Ping), a beautiful model, leaves Ji Jia Wei (Danson Tang), he is heartbroken but his father tries to convince him to move on. To help his own divorced father get close to Wu Mei Zhen (Lin Mei Zhen), the boss of the dating company, Jia Wei proposes a joint-company matchmaking event. There, Jia Wei meets Xiao Tong, and the two get off on the wrong foot and they soon delight in tormenting each other. Meanwhile, Mei Zhen’s son, Xiang Zi Yan (Jolin Chien), gets to know Xiao Tong and begins to develop feelings for her. Can dating experts who hold the fate of other people’s happiness in their own hands be able to navigate the tides of their own hearts? “Murphy’s Law of Love” is a 2015 Taiwanese drama series.

    Main cast

       Danson Tang 唐禹哲 as Ji Jia-wei 紀家尉
       Ivelyn Lee 李佳穎 as Guan Xiao-tong 關曉彤
       Jolin Chien 簡宏霖 as Xiang Zi-yan 向子諺
       Jenna Wang 王思平 as He Zhi-yu 何芝羽







    Video Codec

    Code
    Video
    ID                                       : 1
    Format                                   : AVC
    Format/Info                              : Advanced Video Codec
    Format profile                           : Main@L3.1
    Format settings, CABAC                   : Yes
    Format settings, ReFrames                : 4 frames
    Codec ID                                 : avc1
    Codec ID/Info                            : Advanced Video Coding
    Duration                                 : 1h 13mn
    Bit rate                                 : 1 169 Kbps
    Width                                    : 1 280 pixels
    Height                                   : 720 pixels
    Display aspect ratio                     : 16:9
    Frame rate mode                          : Constant
    Frame rate                               : 29.970 fps
    Color space                              : YUV
    Chroma subsampling                       : 4:2:0
    Bit depth                                : 8 bits
    Scan type                                : Progressive
    Bits/(Pixel*Frame)                       : 0.042
    Stream size                              : 611 MiB (82%)
    Writing library                          : x264 core 138 r2 9e941d1
    Encoding settings                        : cabac=1 / ref=1 / deblock=1:0:0 / analyse=0x1:0 / me=dia / subme=2 / psy=1 / psy_rd=1.00:0.00 / mixed_ref=0 / me_range=16 / chroma_me=1 / trellis=0 / 8x8dct=0 / cqm=0 / deadzone=21,11 / fast_pskip=1 / chroma_qp_offset=0 / threads=12 / lookahead_threads=4 / sliced_threads=0 / nr=0 / decimate=1 / interlaced=0 / bluray_compat=0 / constrained_intra=0 / bframes=3 / b_pyramid=2 / b_adapt=1 / b_bias=0 / direct=1 / weightb=1 / open_gop=0 / weightp=2 / keyint=300 / keyint_min=29 / scenecut=40 / intra_refresh=0 / rc_lookahead=40 / rc=crf / mbtree=1 / crf=23.0 / qcomp=0.60 / qpmin=0 / qpmax=69 / qpstep=4 / ip_ratio=1.40 / aq=1:1.00
    Tagged date                              : UTC 2015-03-23 09:32:32

    Audio
    ID                                       : 2
    Format                                   : AAC
    Format/Info                              : Advanced Audio Codec
    Format profile                           : LC
    Codec ID                                 : 40
    Duration                                 : 1h 13mn
    Bit rate mode                            : Constant
    Bit rate                                 : 192 Kbps
    Channel(s)                               : 2 channels
    Channel positions                        : Front: L R
    Sampling rate                            : 48.0 KHz
    Compression mode                         : Lossy
    Stream size                              : 100 MiB (13%)
    Tagged date                              : UTC 2015-03-23 09:32:32




    0 0

    Original Post: Ninja Hunt (1964) DVDRip Remastered



    The great actor Konoe Jushiro (from Yagyu Chronicle movie series) stars as Wadakuro, one of four ronin hired to fight against the Shogunate's plot to abolish the Gamo Clan, who are struggling to reinstate their young heir Tanemaru as their Lord. Facing the threat of the Koga Ninja, Wadakuro shows his own cruelty while on a personal vendetta.

    This is a very brutal ninja movie, lot’s of realistic ninja action, violent deaths, dark story line and completely without any ”humor” elements that Toei used to incorperate back in the golden era, a true classic not to be missed!radiation.

    Screenshots:









    IMDB LINK: http://www.imdb.com/title/tt0996474/
    Cast: KONOE Jushiro, TAMURA Takahiro, YAMASHIRO Shingo, KAWARAZAKI Choichiro
    Directed: YAMAUCHI Tetsuya
    Genre: Jidaigeki / Action
    Runtime: 87 min
    Also Known As: Ninja-gari
    Country: Japan
    Language: Japanese
    Subtitles: English (optional)

    ----------------------------------------------------

    Complete name                            : Ninja Gari (1964).mkv
    Format                                   : Matroska
    Format version                           : Version 2
    File size                                : 552 MiB
    Duration                                 : 1h 27mn
    Overall bit rate                         : 885 Kbps
    Encoded date                             : UTC
    Writing application                      : HandBrake 0.10.2 2015060900
    Writing library                          : Lavf55.12.0

    Video
    ID                                       : 1
    Format                                   : AVC
    Format/Info                              : Advanced Video Codec
    Format profile                           : Main@L4.0
    Format settings, CABAC                   : Yes
    Format settings, ReFrames                : 4 frames
    Codec ID                                 : V_MPEG4/ISO/AVC
    Width                                    : 718 pixels
    Height                                   : 366 pixels
    Display aspect ratio                     : 2.35:1
    Original display aspect ratio            : 2.35:1
    Frame rate mode                          : Variable
    Color space                              : YUV
    Chroma subsampling                       : 4:2:0
    Bit depth                                : 8 bits
    Scan type                                : Progressive
    Writing library                          : x264 core 142 r2479 dd79a61
    Encoding settings                        : cabac=1 / ref=1 / deblock=1:0:0 / analyse=0x1:0x111 / me=hex / subme=2 / psy=1 / psy_rd=1.00:0.00 / mixed_ref=0 / me_range=16 / chroma_me=1 / trellis=0 / 8x8dct=0 / cqm=0 / deadzone=21,11 / fast_pskip=1 / chroma_qp_offset=0 / threads=6 / lookahead_threads=2 / sliced_threads=0 / nr=0 / decimate=1 / interlaced=0 / bluray_compat=0 / constrained_intra=0 / bframes=3 / b_pyramid=2 / b_adapt=1 / b_bias=0 / direct=1 / weightb=1 / open_gop=0 / weightp=1 / keyint=240 / keyint_min=24 / scenecut=40 / intra_refresh=0 / rc_lookahead=10 / rc=crf / mbtree=1 / crf=20.0 / qcomp=0.60 / qpmin=0 / qpmax=69 / qpstep=4 / vbv_maxrate=20000 / vbv_bufsize=25000 / crf_max=0.0 / nal_hrd=none / filler=0 / ip_ratio=1.40 / aq=1:1.00
    Default                                  : Yes
    Forced                                   : No
    Color primaries                          : BT.601 NTSC
    Transfer characteristics                 : BT.709
    Matrix coefficients                      : BT.601
    Color range                              : Limited

    Audio
    ID                                       : 2
    Format                                   : AAC
    Format/Info                              : Advanced Audio Codec
    Format profile                           : LC
    Codec ID                                 : A_AAC
    Duration                                 : 1h 27mn
    Channel(s)                               : 2 channels
    Channel positions                        : Front: L R
    Sampling rate                            : 48.0 KHz
    Compression mode                         : Lossy
    Title                                    : Stereo
    Language                                 : Japanese
    Default                                  : Yes
    Forced                                   : No

    Text
    ID                                       : 3
    Format                                   : VobSub
    Codec ID                                 : S_VOBSUB
    Codec ID/Info                            : The same subtitle format used on DVDs
    Language                                 : English
    Default                                  : No
    Forced                                   : No


    0 0

    Original Post: Aru Hi, Ahiru Bus EP02 720p HDTV x264 AAC-DoA

    Title (romaji): Aru Hi, Ahiru Bus
    Format: Renzoku
    Genre: Drama
    Episodes: 8
    Broadcast network: NHK BS Premium
    Broadcast period: 2015-Jul-05 to 2015-Aug-23
    Air time: Sunday 22:00
    Theme song: IROIRO by moumoon
    Subtitles: None - [url=][/url]
    RAW credit to DoA


    Cast
       
       Fujiwara Norika as Asakura Hazuki
       Triendl Reina
       Kimura Midoriko as Toda Natsumi
       Hakamada Yoshihiko as Odagiri Jiro
       Kataoka Ainosuke
       Nakamura Tomoya
       Nomura Masumi
       Akizuki Narumi
       Kido Airi (城戸愛莉)
       Komatsu Mizuki (小松美月)
       Yanagi Yurina (柳ゆり菜)
       Hashimoto Tenka (橋本甜歌)
       Yamashita Kenjiro (山下健二郎) as Kosuke
       Aoyama Noriko
     

    Synopsis

    40-year-old Asakura Hazuki works for a big publishing company and is the editor of the female magazine ‘Us’. However, the magazine is discontinued. Hazuki's contract with the publishing company is not renewed and she ends up losing her job. To make matters worse, she breaks up with Kosuke, her boyfriend of seven years, and is pressed for the loan on designer goods which she bought on a spree. At 40, Hazuki is on the verge of losing everything. At that moment, she happens to get scouted to be a bus guide on Ahiru Bus, a city sightseeing tour which she has boarded. She is plunged into the completely foreign world of female bus guides. Hazuki aims to turn her life around as she journeys around a rapidly changing Tokyo. -- Jdrama Weblog


    Mediainfo
    Spoiler:show

    Code
    Format                                   : Matroska
    Format version                           : Version 4 / Version 2
    File size                                : 1.17 GiB
    Duration                                 : 49mn 0s
    Overall bit rate                         : 3 422 Kbps
    Encoded date                             : UTC 2015-07-16 05:22:05
    Writing application                      : mkvmerge v8.1.0 ('Psychedelic Postcard') 32bit
    Writing library                          : libebml v1.3.1 + libmatroska v1.4.2
    DURATION                                 : 00:49:00.010000000
    NUMBER_OF_FRAMES                         : 137813
    NUMBER_OF_BYTES                          : 92748149
    _STATISTICS_WRITING_APP                  : mkvmerge v8.1.0 ('Psychedelic Postcard') 32bit
    _STATISTICS_WRITING_DATE_UTC             : 2015-07-16 05:22:05
    _STATISTICS_TAGS                         : BPS DURATION NUMBER_OF_FRAMES NUMBER_OF_BYTES

    Video
    ID                                       : 1
    Format                                   : AVC
    Format/Info                              : Advanced Video Codec
    Format profile                           : High@L4.1
    Format settings, CABAC                   : Yes
    Format settings, ReFrames                : 8 frames
    Codec ID                                 : V_MPEG4/ISO/AVC
    Duration                                 : 49mn 0s
    Width                                    : 1 280 pixels
    Height                                   : 720 pixels
    Display aspect ratio                     : 16:9
    Frame rate mode                          : Constant
    Frame rate                               : 29.970 fps
    Color space                              : YUV
    Chroma subsampling                       : 4:2:0
    Bit depth                                : 8 bits
    Scan type                                : Progressive
    Writing library                          : x264 core 146 r2538 121396c
    Encoding settings                        : cabac=1 / ref=8 / deblock=1:-3:-3 / analyse=0x3:0x133 / me=umh / subme=9 / psy=1 / psy_rd=1.00:0.00 / mixed_ref=1 / me_range=16 / chroma_me=1 / trellis=2 / 8x8dct=1 / cqm=0 / deadzone=21,11 / fast_pskip=1 / chroma_qp_offset=-2 / threads=4 / lookahead_threads=1 / sliced_threads=0 / nr=0 / decimate=1 / interlaced=0 / bluray_compat=0 / constrained_intra=0 / bframes=8 / b_pyramid=2 / b_adapt=2 / b_bias=0 / direct=3 / weightb=1 / open_gop=0 / weightp=2 / keyint=300 / keyint_min=29 / scenecut=40 / intra_refresh=0 / rc_lookahead=60 / rc=crf / mbtree=1 / crf=18.0 / qcomp=0.60 / qpmin=0 / qpmax=69 / qpstep=4 / ip_ratio=1.40 / aq=1:1.00
    Language                                 : English
    Default                                  : Yes
    Forced                                   : No
    DURATION                                 : 00:49:00.003000000
    NUMBER_OF_FRAMES                         : 88112
    NUMBER_OF_BYTES                          : 1164016855
    _STATISTICS_WRITING_APP                  : mkvmerge v8.1.0 ('Psychedelic Postcard') 32bit
    _STATISTICS_WRITING_DATE_UTC             : 2015-07-16 05:22:05
    _STATISTICS_TAGS                         : BPS DURATION NUMBER_OF_FRAMES NUMBER_OF_BYTES

    Audio
    ID                                       : 2
    Format                                   : AAC
    Format/Info                              : Advanced Audio Codec
    Format profile                           : LC
    Codec ID                                 : A_AAC
    Duration                                 : 49mn 0s
    Channel(s)                               : 2 channels
    Channel positions                        : Front: L R
    Sampling rate                            : 48.0 KHz
    Compression mode                         : Lossy
    Default                                  : Yes
    Forced                                   : No








    0 0

    Original Post: Heat EP02 720p HDTV x264 AAC-DoA

    http://thetvdb.com/?tab=series&id=297112

    Romaji: Heat
    Director: Yoshinori Kobayashi, Genta Sato
    Writer: Kentaro Ushio, Bun Tsubota
    Network: Fuji TV, KTV
    Episodes:
    Release Date: July 7, 2015 --
    Runtime: Tuesdays 22:00-22:54
    Language: Japanese
    Country: Japan
    Subtitles: None - [url=][/url]
    RAW credit to DoA


    Cast
       
       Akira as Ikegami Tatsuya
       Inagaki Goro as Hibino Hitoshi
       Tanaka Kei as Hamada Naoki
       Ide Takuya as Sakaki Akihiro
       Kuriyama Chiaki as Izumi Sakura
       Sugawara Daikichi as Ishizawa Satoshi
       Horiuchi Keiko as Kanbe Kyok
       Masana Bokuzo as Narumi Masahiko
       Suzuki Nobuyuki as Todoroki Shuichi
       Yoshizawa Ryo as Matsuyama Kohei
       Sato Ryuta as Goda Atsushi
       Kudo Asuka as Shiraishi Toru
       Nanao as Yuki Eri
       Koshiba Fuka as Watarai Izumi
     

    Synopsis

    Tatsuya Ikegami (Akira) works for a real estate company. He's currently working on an urban development project that costs billions of yen. The city of Sachio is currently proposed as the site of the project.

    To buy the land for the project, Tatsuya Ikegami has to find out who the owners are. He hides his identity and joins the volunteer fire department in Sachio. There he meets other fire fighter volunteers including Sakura Azumi (Chiaki Kuriyama) & Atsushi Goda  (Ryuta Sato). At first, Tatsuya who is focused on result policy, has a hard time relating with them, but he changes.

    Meanwhile, competition between Tatsuya and employees at the real estate company proposing an alternate site for the project becomes intense.  


    Mediainfo
    Spoiler:show

    Code
    Format                                   : Matroska
    Format version                           : Version 4 / Version 2
    File size                                : 1.25 GiB
    Duration                                 : 46mn 24s
    Overall bit rate                         : 3 865 Kbps
    Movie name                               : HEAT 第2話 720p HDTV x264 AAC-DoA
    Encoded date                             : UTC 2015-07-15 21:14:19
    Writing application                      : mkvmerge v8.1.0 ('Psychedelic Postcard') 64bit
    Writing library                          : libebml v1.3.1 + libmatroska v1.4.2
    DURATION                                 : 00:46:24.917000000
    NUMBER_OF_FRAMES                         : 130543
    NUMBER_OF_BYTES                          : 65663129
    _STATISTICS_WRITING_APP                  : mkvmerge v8.1.0 ('Psychedelic Postcard') 64bit
    _STATISTICS_WRITING_DATE_UTC             : 2015-07-15 21:14:19
    _STATISTICS_TAGS                         : BPS DURATION NUMBER_OF_FRAMES NUMBER_OF_BYTES

    Video
    ID                                       : 1
    Format                                   : AVC
    Format/Info                              : Advanced Video Codec
    Format profile                           : High@L4.1
    Format settings, CABAC                   : Yes
    Format settings, ReFrames                : 9 frames
    Codec ID                                 : V_MPEG4/ISO/AVC
    Duration                                 : 46mn 24s
    Width                                    : 1 280 pixels
    Height                                   : 720 pixels
    Display aspect ratio                     : 16:9
    Frame rate mode                          : Constant
    Frame rate                               : 29.970 fps
    Color space                              : YUV
    Chroma subsampling                       : 4:2:0
    Bit depth                                : 8 bits
    Scan type                                : Progressive
    Title                                    : Encode by TTG-DoA
    Writing library                          : x264 core 146 r2538 121396c
    Encoding settings                        : cabac=1 / ref=9 / deblock=1:-3:-3 / analyse=0x3:0x133 / me=umh / subme=10 / psy=1 / psy_rd=1.00:0.15 / mixed_ref=1 / me_range=48 / chroma_me=1 / trellis=2 / 8x8dct=1 / cqm=0 / deadzone=21,11 / fast_pskip=0 / chroma_qp_offset=-3 / threads=12 / lookahead_threads=2 / sliced_threads=0 / nr=0 / decimate=1 / interlaced=0 / bluray_compat=0 / constrained_intra=0 / bframes=8 / b_pyramid=2 / b_adapt=2 / b_bias=0 / direct=3 / weightb=1 / open_gop=0 / weightp=2 / keyint=300 / keyint_min=29 / scenecut=40 / intra_refresh=0 / rc_lookahead=60 / rc=crf / mbtree=1 / crf=18.0 / qcomp=0.60 / qpmin=0 / qpmax=69 / qpstep=4 / ip_ratio=1.40 / aq=1:1.00
    Language                                 : Japanese
    Default                                  : Yes
    Forced                                   : No
    DURATION                                 : 00:46:24.918000000
    NUMBER_OF_FRAMES                         : 86307
    NUMBER_OF_BYTES                          : 1278924090
    _STATISTICS_WRITING_APP                  : mkvmerge v8.1.0 ('Psychedelic Postcard') 64bit
    _STATISTICS_WRITING_DATE_UTC             : 2015-07-15 21:14:19
    _STATISTICS_TAGS                         : BPS DURATION NUMBER_OF_FRAMES NUMBER_OF_BYTES

    Audio
    ID                                       : 2
    Format                                   : AAC
    Format/Info                              : Advanced Audio Codec
    Format profile                           : LC
    Codec ID                                 : A_AAC
    Duration                                 : 46mn 24s
    Channel(s)                               : 2 channels
    Channel positions                        : Front: L R
    Sampling rate                            : 48.0 KHz
    Compression mode                         : Lossy
    Language                                 : Japanese
    Default                                  : Yes
    Forced                                   : No

    Menu
    00:00:00.000                             : ja:Chapter 01
    00:17:20.005                             : ja:Chapter 02
    00:25:34.966                             : ja:Chapter 03
    00:33:31.943                             : ja:Chapter 04
    00:38:03.914                             : ja:Chapter 05








    0 0

    Original Post: Hanasaki Mai ga Damattenai 2 EP02 720p HDTV x264 AAC-DoA

    Romaji: Hanasaki Mai ga Damatte Inai
    Director: Seiichi Nagumo, Noriyoshi Sakuma, Yuma Suzuki
    Writer: Jun Ikeido (novel), Yuko Matsuda, Mika Umeda, Rie Yokota
    Network: NTV
    Episodes:
    Release Date: July 8, 2015 --
    Runtime: Wednesdays 22:00-23:00
    Language: Japanese
    Country: Japan
    Subtitles: English - anolibb (koalobster on AT)
    RAW credit to DoA


    Cast
           
       Anne as Hanasaki Mai
       Kamikawa Takaya as Soma Ken
       Tsukaji Muga as Shibasaki Taiichi
       Narimiya Hiroki as Matsuki Keisuke
       Enoki Takaaki as Karashima Shinjiro
       Ishibashi Ryo
       Komoto Masahiro as Kodama Naoki
       Osugi Ren as Hanasaki Kozo
       Namase Katsuhisa as Shinto Tsuyoshi

     
    Synopsis

    Mai Hanasaki (Anne Watanabe) and Ken Soma (Takaya Kamikawa) work for Tokyo Daiichi Bank and their job is to fix problems that arise at various local bank branches. Keisuke Matsuki (Hiroki Narimiya) is an enthusiastic and honest bank teller. While working with Mai Hanasaki, he develops feelings for Mai Hanasaki. Meanwhile, insensitive Mai Hanasaki is oblivious to Keisuke's feelings towards her.


    Mediainfo
    Spoiler:show

    Code
    Format                                   : Matroska
    Format version                           : Version 4 / Version 2
    File size                                : 1.37 GiB
    Duration                                 : 51mn 19s
    Overall bit rate                         : 3 829 Kbps
    Movie name                               : 花咲舞が黙ってない2 第2話 720p HDTV x264 AAC-DoA
    Encoded date                             : UTC 2015-07-16 03:50:42
    Writing application                      : mkvmerge v8.1.0 ('Psychedelic Postcard') 64bit
    Writing library                          : libebml v1.3.1 + libmatroska v1.4.2
    DURATION                                 : 00:51:19.893000000
    NUMBER_OF_FRAMES                         : 144370
    NUMBER_OF_BYTES                          : 72618110
    _STATISTICS_WRITING_APP                  : mkvmerge v8.1.0 ('Psychedelic Postcard') 64bit
    _STATISTICS_WRITING_DATE_UTC             : 2015-07-16 03:50:42
    _STATISTICS_TAGS                         : BPS DURATION NUMBER_OF_FRAMES NUMBER_OF_BYTES

    Video
    ID                                       : 1
    Format                                   : AVC
    Format/Info                              : Advanced Video Codec
    Format profile                           : High@L4.1
    Format settings, CABAC                   : Yes
    Format settings, ReFrames                : 9 frames
    Codec ID                                 : V_MPEG4/ISO/AVC
    Duration                                 : 51mn 19s
    Width                                    : 1 280 pixels
    Height                                   : 720 pixels
    Display aspect ratio                     : 16:9
    Frame rate mode                          : Constant
    Frame rate                               : 29.970 fps
    Color space                              : YUV
    Chroma subsampling                       : 4:2:0
    Bit depth                                : 8 bits
    Scan type                                : Progressive
    Title                                    : Encode by TTG-DoA
    Writing library                          : x264 core 146 r2538 121396c
    Encoding settings                        : cabac=1 / ref=9 / deblock=1:-2:-2 / analyse=0x3:0x133 / me=umh / subme=10 / psy=1 / psy_rd=1.00:0.15 / mixed_ref=1 / me_range=48 / chroma_me=1 / trellis=2 / 8x8dct=1 / cqm=0 / deadzone=21,11 / fast_pskip=0 / chroma_qp_offset=-3 / threads=12 / lookahead_threads=2 / sliced_threads=0 / nr=0 / decimate=1 / interlaced=0 / bluray_compat=0 / constrained_intra=0 / bframes=8 / b_pyramid=2 / b_adapt=2 / b_bias=0 / direct=3 / weightb=1 / open_gop=0 / weightp=2 / keyint=300 / keyint_min=29 / scenecut=40 / intra_refresh=0 / rc_lookahead=60 / rc=crf / mbtree=1 / crf=17.1 / qcomp=0.60 / qpmin=0 / qpmax=69 / qpstep=4 / ip_ratio=1.40 / aq=1:1.00
    Language                                 : Japanese
    Default                                  : Yes
    Forced                                   : No
    DURATION                                 : 00:51:19.876000000
    NUMBER_OF_FRAMES                         : 92304
    NUMBER_OF_BYTES                          : 1400313683
    _STATISTICS_WRITING_APP                  : mkvmerge v8.1.0 ('Psychedelic Postcard') 64bit
    _STATISTICS_WRITING_DATE_UTC             : 2015-07-16 03:50:42
    _STATISTICS_TAGS                         : BPS DURATION NUMBER_OF_FRAMES NUMBER_OF_BYTES

    Audio
    ID                                       : 2
    Format                                   : AAC
    Format/Info                              : Advanced Audio Codec
    Format profile                           : LC
    Codec ID                                 : A_AAC
    Duration                                 : 51mn 19s
    Channel(s)                               : 2 channels
    Channel positions                        : Front: L R
    Sampling rate                            : 48.0 KHz
    Compression mode                         : Lossy
    Language                                 : Japanese
    Default                                  : Yes
    Forced                                   : No

    Menu
    00:00:00.000                             : ja:Chapter 01
    00:15:12.978                             : ja:Chapter 02
    00:22:14.966                             : ja:Chapter 03
    00:29:47.952                             : ja:Chapter 04
    00:38:12.923                             : ja:Chapter 05








    0 0

    Original Post: Shi no Zouki EP01 720p HDTV x264 AAC-DoA

    https://jdramas.wordpress.com/2015/07/13/shi-no-zouki/

    Title (romaji): Shi no Zouki
    Format: Renzoku
    Genre: Medical, suspense
    Episodes: 5
    Broadcast network: WOWOW
    Broadcast period: 2015-Jul-12 to 2015-Aug-09
    Air time: Sunday 22:00
    Subtitles: None - [url=][/url]  
    RAW credit to DoA


    Cast
       
       Koizumi Kotaro as Numazaki Kyota
       Takeda Tetsuya as Hino Seiichiro
       Toyohara Kosuke
       Konishi Manami
       Ogi Shigemitsu as Ota Isamu
       Kawano Naoki
       Niizuma Seiko (新妻聖子)
       Shiba Toshio
       Nagano Satomi
       Otaka Hiroo
       Kojima Fujiko

     
    Synopsis

    Numazaki Kyota, a director of a company which produces TV programs, discovers a dead female body. A forensic autopsy determines that she froze to death. However, it also turns out that one of her kidneys has been removed. On the other hand, a patient at Hino Hospital has been receiving dialysis. Her body is approaching its limits and her daughter beseeches the attending physician, Hino Seiichiro, to transplant her own kidney to her mother. But Hino adamantly refuses. Meanwhile, an injured man and woman are taken to a hospital. The hospital director, Ota Isamu, notices that a kidney transplant had been done between them from their respective surgery scars. Then he learns that the kidney was purchased with money and notifies the police. Hino, who was the surgeon, is asked by the police to come voluntarily for questioning. This news spurs Numazaki to make the decision to go on gathering materials on the connection between the dead body that he found and the organ trade. He soon starts to get close to the darkness in medical treatment. -- Jdrama Weblog


    Mediainfo
    Spoiler:show

    Code
    Format                                   : Matroska
    Format version                           : Version 4 / Version 2
    File size                                : 1.35 GiB
    Duration                                 : 50mn 0s
    Overall bit rate                         : 3 869 Kbps
    Movie name                               : 死の臓器 第1話 720p HDTV x264 AAC-DoA
    Encoded date                             : UTC 2015-07-15 21:07:54
    Writing application                      : mkvmerge v8.1.0 ('Psychedelic Postcard') 64bit
    Writing library                          : libebml v1.3.1 + libmatroska v1.4.2
    DURATION                                 : 00:49:59.978000000
    NUMBER_OF_FRAMES                         : 140624
    NUMBER_OF_BYTES                          : 70733872
    _STATISTICS_WRITING_APP                  : mkvmerge v8.1.0 ('Psychedelic Postcard') 64bit
    _STATISTICS_WRITING_DATE_UTC             : 2015-07-15 21:07:54
    _STATISTICS_TAGS                         : BPS DURATION NUMBER_OF_FRAMES NUMBER_OF_BYTES

    Video
    ID                                       : 1
    Format                                   : AVC
    Format/Info                              : Advanced Video Codec
    Format profile                           : High@L4.1
    Format settings, CABAC                   : Yes
    Format settings, ReFrames                : 9 frames
    Codec ID                                 : V_MPEG4/ISO/AVC
    Duration                                 : 50mn 0s
    Width                                    : 1 280 pixels
    Height                                   : 720 pixels
    Display aspect ratio                     : 16:9
    Frame rate mode                          : Constant
    Frame rate                               : 29.970 fps
    Color space                              : YUV
    Chroma subsampling                       : 4:2:0
    Bit depth                                : 8 bits
    Scan type                                : Progressive
    Title                                    : Encode by TTG-DoA
    Writing library                          : x264 core 146 r2538 121396c
    Encoding settings                        : cabac=1 / ref=9 / deblock=1:-3:-3 / analyse=0x3:0x133 / me=umh / subme=10 / psy=1 / psy_rd=1.00:0.15 / mixed_ref=1 / me_range=48 / chroma_me=1 / trellis=2 / 8x8dct=1 / cqm=0 / deadzone=21,11 / fast_pskip=0 / chroma_qp_offset=-3 / threads=12 / lookahead_threads=2 / sliced_threads=0 / nr=0 / decimate=1 / interlaced=0 / bluray_compat=0 / constrained_intra=0 / bframes=8 / b_pyramid=2 / b_adapt=2 / b_bias=0 / direct=3 / weightb=1 / open_gop=0 / weightp=2 / keyint=300 / keyint_min=29 / scenecut=40 / intra_refresh=0 / rc_lookahead=60 / rc=crf / mbtree=1 / crf=17.4 / qcomp=0.60 / qpmin=0 / qpmax=69 / qpstep=4 / ip_ratio=1.40 / aq=1:1.00
    Language                                 : Japanese
    Default                                  : Yes
    Forced                                   : No
    DURATION                                 : 00:50:00.000000000
    NUMBER_OF_FRAMES                         : 92743
    NUMBER_OF_BYTES                          : 1379023346
    _STATISTICS_WRITING_APP                  : mkvmerge v8.1.0 ('Psychedelic Postcard') 64bit
    _STATISTICS_WRITING_DATE_UTC             : 2015-07-15 21:07:54
    _STATISTICS_TAGS                         : BPS DURATION NUMBER_OF_FRAMES NUMBER_OF_BYTES

    Audio
    ID                                       : 2
    Format                                   : AAC
    Format/Info                              : Advanced Audio Codec
    Format profile                           : LC
    Codec ID                                 : A_AAC
    Duration                                 : 50mn 0s
    Channel(s)                               : 2 channels
    Channel positions                        : Front: L R
    Sampling rate                            : 48.0 KHz
    Compression mode                         : Lossy
    Language                                 : Japanese
    Default                                  : Yes
    Forced                                   : No








    0 0

    Original Post: Forevermore (2014) Vol.1(1-11)



    Title: Forevermore
    Created by: Jay Fernando
    Developers: Malou N. Santos, Des M. de Guzman
    Writters: Ronalisa Co, Jerome Co, Mark Angos, Generiza Reyes
    Directors: Cathy Garcia-Molina, Richard I. Arellano, Theodore C. Boborol, Rory B. Quintos
    Network: ABS-CBN
    Release Date: October 27, 2014 – May 22, 2015
    Runtime: 25-30 min.
    No. of episodes: 148
    Genre: Romance, Drama, Comedy
    Language: Filipino
    Country: Philippines
    Subtitles: English
    IMDB URL: http://www.imdb.com/title/tt4183480/
    Wiki: https://en.wikipedia.org/wiki/Forevermore_%28TV_series%29

    Available time for seeding: Daily, 8am - 10pm

    Cast:
    Main cast

       Enrique Gil as Alexander "Xander" Grande III
       Liza Soberano as Maria Agnes Calay

    Supporting cast

       Joey Marquez as Buboy "Papang/Mang Bubs" Calay
       Zoren Legaspi as Alexander "Alex" Grande II
       Lilet as Bettina Rosales
       Irma Adlawan as Mirasol Amparo
       Marissa Delgado as Doña Soledad Grande
       Almira Muhlach as Marites "Mamang" Calay
       Pinky Amador as Sheree Diana Elizabeth Grande
       Sofia Andres as Katherine "Kate" Saavedra
       Yves Flores as Andrew Fontanilla

    Synopsis:
    This is the story of Alexander Grande III (Enrique Gil), the rebellious, broken only child of a hotel magnate, and Maria Agnes Calay (Liza Soberano), the humble, beautiful and hardworking daughter of a strawberry farmer in La Presa, Benguet. They cross paths when Xander crashes into Agnes' strawberry truck while base jumping. After the incident, his parents make him pay for the damages and his recklessness by having him work in the strawberry farm without any comfortable amenities under the guidance of Agnes alongside her strawberry farm community. The journey towards Xander's immersion within a totally different world was not easy for both, however, due to Agnes and the La Presa community, he transforms from a broken boy into a very charming, understanding, and caring man loved by everyone.

    Xander and Agnes soon fall deeply in love with each other, but unknown to Agnes, Xander has unfinished business with his first love, Kate Saavedra (Sofia Andres). Aside from this, Xander and Agnes' love is further challenged when they get entangled in the strawberry farm land dispute between their families. Realizing what is important, Xander makes the greatest sacrifice for Agnes, the woman he loves the most, and that it's best for them to part ways.

    As fate would have it, after two years of separation, they meet again. With both given another chance, will Xander and Agnes go out of their way to fight for what once was their great love? Can the past and present finally intertwine to seal the Forever they were always meant to have?

    Media Info:
    General
    Complete name                            : Forevermore 01.mp4
    Format                                   : MPEG-4
    Format profile                           : Base Media / Version 2
    Codec ID                                 : mp42
    File size                                : 272 MiB
    Duration                                 : 39mn 1s
    Overall bit rate mode                    : Variable
    Overall bit rate                         : 976 Kbps

    Video
    ID                                       : 1
    Format                                   : AVC
    Format/Info                              : Advanced Video Codec
    Format profile                           : High@L4
    Format settings, CABAC                   : Yes
    Format settings, ReFrames                : 4 frames
    Codec ID                                 : avc1
    Codec ID/Info                            : Advanced Video Coding
    Duration                                 : 39mn 1s
    Bit rate                                 : 841 Kbps
    Width                                    : 720 pixels
    Height                                   : 366 pixels
    Display aspect ratio                     : 16:9
    Frame rate mode                          : Variable
    Frame rate                               : 29.970 fps
    Minimum frame rate                       : 5.994 fps
    Maximum frame rate                       : 29.970 fps
    Color space                              : YUV
    Chroma subsampling                       : 4:2:0
    Bit depth                                : 8 bits
    Scan type                                : Progressive
    Bits/(Pixel*Frame)                       : 0.106
    Stream size                              : 235 MiB (86%)

    Audio
    ID                                       : 2
    Format                                   : AAC
    Format/Info                              : Advanced Audio Codec
    Format profile                           : LC
    Codec ID                                 : 40
    Duration                                 : 39mn 0s
    Bit rate mode                            : Variable
    Bit rate                                 : 128 Kbps
    Channel(s)                               : 2 channels
    Channel positions                        : Front: L R
    Sampling rate                            : 48.0 KHz
    Compression mode                         : Lossy
    Stream size                              : 35.8 MiB (13%)
    Title                                    : Stereo / Stereo
    Language                                 : Tagalog








    0 0

    Original Post: Jun Hyoseong (Secret) ~ Into You ~ collection of performances

    Jun Hyoseong: http://en.wikipedia.org/wiki/Jun_Hyoseong

    Special thanks to kpop24hrs.com & others who are encodes & share! smile1.gif

    Screenshots
    Spoiler:show








    MediaInfo
    Spoiler:show

    Code

    General
    ID                             : 2065 (0x811)
    File name                      : [150508] Hyosung (Secret) - Into You (KBS Music Bank).ts
    Format                         : MPEG-TS
    File size                      : 520 MiB
    Duration                       : 3mn 44s
    Overall bit rate mode          : Constant
    Overall bit rate               : 19.4 Mbps

    Video
    ID                             : 17 (0x11)
    Menu ID                        : 1 (0x1)
    Format                         : MPEG Video
    Format version                 : Version 2
    Format profile                 : Main@High
    Format settings, BVOP          : Yes
    Format settings, Matrix        : Custom
    Format settings, GOP           : M=3, N=15
    Format settings, picture struc : Frame
    Codec ID                       : 2
    Duration                       : 3mn 44s
    Bit rate                       : 18.0 Mbps
    Maximum bit rate               : 17.4 Mbps
    Width                          : 1 920 pixels
    Height                         : 1 080 pixels
    Display aspect ratio           : 16:9
    Active Format Description      : Letterbox 16:9 image
    Frame rate                     : 29.970 fps
    Standard                       : Component
    Color space                    : YUV
    Chroma subsampling             : 4:2:0
    Bit depth                      : 8 bits
    Scan type                      : Interlaced
    Scan order                     : Top Field First
    Compression mode               : Lossy
    Bits/(Pixel*Frame)             : 0.290
    Time code of first frame       : 16:17:44;07
    Time code source               : Group of pictures header
    GOP, Open/Closed               : Open
    Stream size                    : 483 MiB (93%)
    Name                           : ko:Video

    Audio
    ID                             : 20 (0x14)
    Menu ID                        : 1 (0x1)
    Format                         : AC-3
    Format/Info                    : Audio Coding 3
    Mode extension                 : CM (complete main)
    Format settings, Endianness    : Big
    Codec ID                       : 129
    Duration                       : 3mn 44s
    Bit rate mode                  : Constant
    Bit rate                       : 384 Kbps
    Channel(s)                     : 2 channels
    Channel positions              : Front: L R
    Sampling rate                  : 48.0 KHz
    Bit depth                      : 16 bits
    Compression mode               : Lossy
    Delay relative to video        : -208ms
    Stream size                    : 10.3 MiB (2%)
    Language                       : Korean
    Name                           : ko:Audio




    0 0

    Original Post: Love Without Distance 2015 1080p WEB-DL x264 AAC-SeeHD





    Detail:
    Title: Love Without Distance
    Genre: Comedy
    Release Date: 21 May 2015
    Runtime: 102 min
    Director: Oi Wah Lam
    Country: CHina
    Language: Mandarin
    Subtitles:Chinese, English Hardcoded

    Synopsis:
    Tyrant Chen (Francis Ng) is a struggle through the ups and downs, we have been successful fur traders, when he decided with his girlfriend Zhao Xiaowei (Yaoxing Tong ornaments) married, but was told that the hospital terminally ill, he Wei hide the disease and to start thinking about yourself life.
    Tyrant Chen in order to complete his dying wish, alone came to Italy. He feels that he must do something before his death shocked the world event, be sure to let your own business famous, but different cultural background makes Tyrant Chen abroad a series of misunderstandings and uproarious joke ……
    This time, Wei has found out, catch up with Italy find Tyrant Chen told him that his terminal illness is misdiagnosed! Chen Tyrant during this period of life has changed dramatically: the company faced bankruptcy, friends framed.
    Chen Tyrant turmoil in life reborn, the final harvest a beautiful love and sincere friendship relatives and friends. (Google Translate)

    Cast:
    francis Ng
    Yao Xingtong
    Ma Tianyu
    Li Jing
    Cica Zhou








    Code

    Video
    ID                                       : 1
    Format                                   : AVC
    Format/Info                              : Advanced Video Codec
    Format profile                           : Main@L4.0
    Format settings, CABAC                   : Yes
    Format settings, ReFrames                : 2 frames
    Codec ID                                 : V_MPEG4/ISO/AVC
    Duration                                 : 1h 42mn
    Width                                    : 1 920 pixels
    Height                                   : 1 080 pixels
    Display aspect ratio                     : 16:9
    Frame rate mode                          : Variable
    Frame rate                               : 25.000 fps
    Color space                              : YUV
    Chroma subsampling                       : 4:2:0
    Bit depth                                : 8 bits
    Scan type                                : Progressive
    Writing library                          : avc encoder v1.9
    Default                                  : Yes
    Forced                                   : No

    Audio
    ID                                       : 2
    Format                                   : AAC
    Format/Info                              : Advanced Audio Codec
    Format profile                           : LC
    Codec ID                                 : A_AAC
    Duration                                 : 1h 42mn
    Channel(s)                               : 2 channels
    Channel positions                        : Front: L R
    Sampling rate                            : 44.1 KHz
    Compression mode                         : Lossy
    Default                                  : Yes
    Forced                                   : No



    0 0

    Original Post: Hollywood Adventures 2015 1080p WEB-DL x264 AAC-SeeHD





    Detail:
    Title: Hollywood Adventures
    Genre: Action, Adventure, Comedy
    Release Date: 26 June 2015
    Runtime: 118 mins
    Director: Timothy Kendall
    Rating: 5.1/10 from 109 users  
    Country: China
    Language: Mandarin
    Subtitles:Chinese, English Hardcoded

    Synopsis:
    A young man goes from China to Hollywood on short notice to find his girlfriend. He ends up connected with two others in his quest, which gets much more complicated than he envisioned.

    Cast:
    Wei Zhao, Xiaoming Huang, Dawei Tong








    Code

    Video
    ID                                       : 1
    Format                                   : AVC
    Format/Info                              : Advanced Video Codec
    Format profile                           : High@L4.0
    Format settings, CABAC                   : Yes
    Format settings, ReFrames                : 4 frames
    Codec ID                                 : avc1
    Codec ID/Info                            : Advanced Video Coding
    Duration                                 : 1h 58mn
    Bit rate                                 : 3 033 Kbps
    Maximum bit rate                         : 12.6 Mbps
    Width                                    : 1 920 pixels
    Height                                   : 816 pixels
    Display aspect ratio                     : 2.35:1
    Frame rate mode                          : Variable
    Frame rate                               : 24.000 fps
    Minimum frame rate                       : 23.835 fps
    Maximum frame rate                       : 24.246 fps
    Color space                              : YUV
    Chroma subsampling                       : 4:2:0
    Bit depth                                : 8 bits
    Scan type                                : Progressive
    Bits/(Pixel*Frame)                       : 0.081
    Stream size                              : 2.51 GiB (96%)
    Writing library                          : Provided by x264  :: H.264/MPEG-4 AVC codec -V 1.6.08
    Encoded date                             : UTC 2015-07-16 09:33:49
    Tagged date                              : UTC 2015-07-16 10:34:36
    Color primaries                          : BT.709-5, BT.1361, IEC 61966-2-4, SMPTE RP177
    Transfer characteristics                 : BT.709-5, BT.1361
    Matrix coefficients                      : BT.709-5, BT.1361, IEC 61966-2-4 709, SMPTE RP177

    Audio
    ID                                       : 2
    Format                                   : AAC
    Format/Info                              : Advanced Audio Codec
    Format profile                           : LC
    Codec ID                                 : 40
    Duration                                 : 1h 58mn
    Bit rate mode                            : Variable
    Bit rate                                 : 128 Kbps
    Maximum bit rate                         : 138 Kbps
    Channel(s)                               : 2 channels
    Channel positions                        : Front: L R
    Sampling rate                            : 44.1 KHz
    Compression mode                         : Lossy
    Delay relative to video                  : -12s 500ms
    Stream size                              : 108 MiB (4%)
    Encoded date                             : UTC 2015-07-16 10:34:34
    Tagged date                              : UTC 2015-07-16 10:34:36



    0 0

    Original Post: The August without Emperor 1978 720p BluRay x264-WiKi





    Detail:
    Title: The August without Emperor
    Genre: Drama | Thriller
    Release Date: 23 September 1978
    Runtime: 140 min
    Director: Satsuo Yamamoto
    Rating: 6.9/10 (19 votes)
    Country: Japan
    Language: Japanese
    Subtitles:No Subtitles

    Synopsis:
    (Google Translated)
    At 1:00 on August 4, on the outskirts of the city of Morioka, Japan Self-Defense Forces patrol cars were burned. At 10:30 on August 15, Kagoshima, Army Self-Defense Services Department of the Yangtze River to see the police as Ichiro very surprised to see the list of dangerous elements in the son's name Fujisaki was positive. He came to her home apricots, apricot Fujisaki told she was busy engaged in transportation. 18:30, Hakata Station, Chinese Commercial News reporters Dan Senkan and Dao Le apricots, love duo had boarded the "Sakura" was an express. On the same day, Tokyo Prime Minister's office, the prime minister held an emergency meeting to discuss the situation Zorin possible military coup. 20:15, Shimonoseki Station, Stone Forest, apricots two were taken to the 1st car, Fujisaki also, apricots uneasy. 21:00, Tokyo, the mastermind behind the coup and the army SDF large Hata General Mano been identified Cabinet Intelligence room. See the Mano River arrested and found "not the emperor August" for the coup plan, code-named their car, the Prime Minister Zorin order pre-emptive. 21:50, Fujisaki bombs in the "Sakura" Number each vehicle, threatening the government to hand over large Hata. Carrying three hundred and sixty people "Sakura" was made as if a bomb disguised in the dark of night to Tokyo flew away ......

    Cast:
    Tsunehiko Watase, Sayuri Yoshinaga, Kiyoshi Atsumi








    Code

    Video
    ID                                       : 1
    Format                                   : AVC
    Format/Info                              : Advanced Video Codec
    Format profile                           : High@L4.1
    Format settings, CABAC                   : Yes
    Format settings, ReFrames                : 12 frames
    Codec ID                                 : V_MPEG4/ISO/AVC
    Duration                                 : 2h 20mn
    Bit rate                                 : 6 649 Kbps
    Width                                    : 1 280 pixels
    Height                                   : 544 pixels
    Display aspect ratio                     : 2.35:1
    Frame rate                               : 23.976 fps
    Color space                              : YUV
    Chroma subsampling                       : 4:2:0
    Bit depth                                : 8 bits
    Scan type                                : Progressive
    Bits/(Pixel*Frame)                       : 0.398
    Stream size                              : 6.53 GiB (89%)
    Writing library                          : x264 core 124 r2197+666+28 3970b70 tMod+MixAQ [8-bit@4:2:0 X86]
    Encoding settings                        : cabac=1 / ref=12 / deblock=1:-2:-2 / analyse=0x3:0x133 / me=tesa / subme=10 / psy=1 / fade_compensate=0.00 / psy_rd=1.00:0.10 / mixed_ref=1 / me_range=32 / chroma_me=1 / trellis=2 / 8x8dct=1 / cqm=0 / deadzone=21,11 / fast_pskip=0 / chroma_qp_offset=-3 / threads=36 / sliced_threads=0 / nr=0 / decimate=0 / interlaced=0 / bluray_compat=0 / constrained_intra=0 / fgo=0 / bframes=12 / b_pyramid=2 / b_adapt=2 / b_bias=0 / direct=3 / weightb=1 / open_gop=0 / weightp=2 / keyint=250 / keyint_min=23 / scenecut=60 / intra_refresh=0 / rc=crf / mbtree=0 / crf=17.3000 / qcomp=0.70 / qpmin=0 / qpmax=38 / qpstep=4 / ip_ratio=1.20 / pb_ratio=1.10 / aq=1 / aq-strength=0.80 / aq-sensitivity=10.00 / aq-ifactor=1.00 / aq-pfactor=1.00 / aq-bfactor=1.00 / aq2=0
    Language                                 : Japanese
    Default                                  : Yes
    Forced                                   : No

    Audio
    ID                                       : 2
    Format                                   : AC-3
    Format/Info                              : Audio Coding 3
    Mode extension                           : CM (complete main)
    Format settings, Endianness              : Big
    Codec ID                                 : A_AC3
    Duration                                 : 2h 20mn
    Bit rate mode                            : Constant
    Bit rate                                 : 640 Kbps
    Channel(s)                               : 2 channels
    Channel positions                        : Front: L R
    Sampling rate                            : 48.0 KHz
    Bit depth                                : 16 bits
    Compression mode                         : Lossy
    Stream size                              : 644 MiB (9%)
    Language                                 : Japanese
    Default                                  : Yes
    Forced                                   : No



    0 0
  • 07/19/15--03:27: Akagi (2015) - 01 [720p]
  • Original Post: Akagi (2015) - 01 [720p]


    FROM HIS CURRENT BEST SELLING MANGA "KANJI".
    here come Nobuyuki Fukumoto's with one of His early best work "AKAGI"


    Themes: psychological, mahjong, gambling
    ------
    PLOT [credits thanks to Patrick Macias of cruchyroll.com}
    Tokyo, 1958. A man seriously gambles at a mahjong parlor. He's playing against members of the Ryuzaki yakuza clan.
    If he loses, he must pay his debt through his own life insurance – truly a game of life and death. With his own existence at stake,
    he can only play passively, and the game comes to a head. Suddenly, a mysterious boy appears. His name is Akagi, a thirteen-year-old kid.
    The man senses a strong aura around the youth and decides to have Akagi substitute for him in the next round.
    --
    Synopsis
    This live action adaption center the battle between AKAGI and Iwao Washizu in which the game "Washizu Mahjong" is play,
    The mahjong tiles are mostly made out of glass tiles replace and make the game different in many ways compare that to of an regular match.

    Spoiler:show

      General
         Unique ID : 195840962620448824983752365671861028779 (0x935598F0D57D7478BCC5F0F4187587AB)
         Format : Matroska
         Format version : Version 4 / Version 2
         File size : 712 MiB
         Duration : 57mn 21s
         Overall bit rate : 1 736 Kbps
         Encoded date : UTC 2015-07-19 10:00:42
         Writing application : mkvmerge v7.5.0 ('Glass Culture') 64bit built on Jan  4 2015 16:48:44
         Writing library : libebml v1.3.1 + libmatroska v1.4.2
         DURATION : 00:57:21.002000000
         NUMBER_OF_FRAMES : 161297
         NUMBER_OF_BYTES : 81132391
         _STATISTICS_WRITING_APP : mkvmerge v7.5.0 ('Glass Culture') 64bit built on Jan  4 2015 16:48:44
         _STATISTICS_WRITING_DATE_UTC : 2015-07-19 10:00:42
         _STATISTICS_TAGS : BPS DURATION NUMBER_OF_FRAMES NUMBER_OF_BYTES
      Video #1
         ID : 1
         Format : AVC
         Format/Info : Advanced Video Codec
         Format profile : High 10@L5.0
         Format settings, CABAC : Yes
         Format settings, ReFrames : 10 frames
         Codec ID : V_MPEG4/ISO/AVC
         Duration : 57mn 21s
         Width : 1 280 pixels
         Height : 720 pixels
         Display aspect ratio : 16:9
         Frame rate mode : Constant
         Frame rate : 29.970 fps
         Color space : YUV
         Chroma subsampling : 4:2:0
         Bit depth : 10 bits
         Scan type : Progressive
         Writing library : x264 core 142 r2431+42 c69a006 tMod [10-bit@all X86_64]
         Encoding settings : cabac=1 / ref=10 / deblock=1:0:0 / analyse=0x3:0x133 / me=umh / subme=10 / psy=1 / fade_compensate=0.00 / psy_rd=0.80:0.05 / mixed_ref=1 / me_range=24 / chroma_me=1 / trellis=2 / 8x8dct=1 / cqm=0 / deadzone=21,11 / fast_pskip=1 / chroma_qp_offset=-3 / threads=12 / lookahead_threads=3 / sliced_threads=0 / nr=0 / decimate=1 / interlaced=0 / bluray_compat=0 / constrained_intra=0 / fgo=0 / bframes=10 / b_pyramid=2 / b_adapt=2 / b_bias=0 / direct=3 / weightb=1 / open_gop=0 / weightp=2 / keyint=250 / keyint_min=25 / scenecut=40 / intra_refresh=0 / rc_lookahead=60 / rc=crf / mbtree=1 / crf=19.0000 / qcomp=0.70 / qpmin=0:0:0 / qpmax=81:81:81 / qpstep=4 / ip_ratio=1.40 / aq=3:0.70 / aq-sensitivity=10.00 / aq-factor=1.00:1.00:1.00 / aq2=0 / aq3=0
         Language : Japanese
         Default : Yes
         Forced : No
         Matrix coefficients : BT.709
         DURATION : 00:57:21.004000000
         NUMBER_OF_FRAMES : 103127
         NUMBER_OF_BYTES : 664565753
         _STATISTICS_WRITING_APP : mkvmerge v7.5.0 ('Glass Culture') 64bit built on Jan  4 2015 16:48:44
         _STATISTICS_WRITING_DATE_UTC : 2015-07-19 10:00:42
         _STATISTICS_TAGS : BPS DURATION NUMBER_OF_FRAMES NUMBER_OF_BYTES
      Audio #2
         ID : 2
         Format : AAC
         Format/Info : Advanced Audio Codec
         Format profile : LC
         Codec ID : A_AAC
         Duration : 57mn 21s
         Channel(s) : 2 channels
         Channel positions : Front: L R
         Sampling rate : 48.0 KHz
         Compression mode : Lossy
         Language : Japanese
         Default : Yes
         Forced : No






    0 0

    Original Post: Law of the Jungle with Friends E170 720p WITH (Ep 8 Yap Island)


    Hangul: 정글의 법칙
    Genre: Variety Show
    Language: Korean
    Country: South Korea
    Subtitles: No Subtitles

    Cast:

    Kim Byung-man
    Ryu Dam
    Park Han-byul
    Kangnam
    Ryu Seung-soo
    Lee Jung-jin
    Bae Soo-bin
    Yoon Sang-hyun
    Lee Yi-kyung
    Eun Ji-won
    Jung Jin Woon
    Dasom

    Synopsis:

    Law of the Jungle

    Law of the Jungle (Korean: 정글의 법칙) is a South Korean reality-documentary show on SBS. It was first aired on October 21, 2011. This show is a hybrid of reality-variety television, natural documentaries, and human drama; a new concept of programming.[1] The cast of celebrities travel to primitive, natural places to survive on their own and experience life with local tribes and people.[2] Originally airing at the Friday 11:05 pm KST time slot, the program was switched into Good Sunday for its second season beginning May 6, 2012, airing before Running Man at the 5:00 pm time slot, replacing K-pop Star Season 1.[3] With the return of K-pop Star Season 2 to Good Sunday, the program returned to Friday nights but airing at 10:00 pm instead beginning November 16, 2012.[4] Originally airing as Kim Byung-man's Law of the Jungle (Korean: 김병만의 정글의 법칙) after the creator and "clan leader" Kim Byung-man, "Kim Byung-man's" was dropped from the title beginning in Season 3.

    Special editions of the program air as well featuring a different cast not in the regular time slot. Law of the Jungle W (W for Women) features an all-female cast and generally airs during the Seollal and Chuseok holidays.[5] Law of the Jungle K (K for Kids) features celebrities with their children, and has aired as a Seollal special in 2013.


    Code
    General
    Format                                   : MPEG-4
    Format profile                           : Base Media
    Codec ID                                 : isom
    File size                                : 1.32 GiB
    Duration                                 : 1h 16mn
    Overall bit rate mode                    : Variable
    Overall bit rate                         : 2 472 Kbps

    Video
    ID                                       : 1
    Format                                   : AVC
    Format/Info                              : Advanced Video Codec
    Format profile                           : Baseline@L1.3
    Format settings, CABAC                   : No
    Format settings, ReFrames                : 1 frame
    Codec ID                                 : avc1
    Codec ID/Info                            : Advanced Video Coding
    Duration                                 : 1h 16mn
    Bit rate                                 : 2 200 Kbps
    Maximum bit rate                         : 12.2 Mbps
    Width                                    : 1 280 pixels
    Height                                   : 720 pixels
    Display aspect ratio                     : 16:9
    Frame rate mode                          : Constant
    Frame rate                               : 29.970 fps
    Color space                              : YUV
    Chroma subsampling                       : 4:2:0
    Bit depth                                : 8 bits
    Scan type                                : Progressive
    Bits/(Pixel*Frame)                       : 0.080
    Stream size                              : 1.18 GiB (90%)
    Writing library                          : x264 core 128 r2216 198a7ea
    Encoding settings                        : cabac=0 / ref=1 / deblock=1:0:0 / analyse=0x1:0x111 / me=hex / subme=7 / psy=1 / psy_rd=1.00:0.00 / mixed_ref=0 / me_range=16 / chroma_me=1 / trellis=1 / 8x8dct=0 / cqm=0 / deadzone=21,11 / fast_pskip=1 / chroma_qp_offset=-2 / threads=12 / lookahead_threads=2 / sliced_threads=0 / nr=0 / decimate=1 / interlaced=0 / bluray_compat=0 / constrained_intra=0 / bframes=0 / weightp=0 / keyint=250 / keyint_min=25 / scenecut=40 / intra_refresh=0 / rc_lookahead=40 / rc=abr / mbtree=1 / bitrate=2200 / ratetol=1.0 / qcomp=0.60 / qpmin=0 / qpmax=69 / qpstep=4 / vbv_maxrate=50000 / vbv_bufsize=50000 / nal_hrd=none / ip_ratio=1.40 / aq=1:1.00

    Audio
    ID                                       : 2
    Format                                   : AAC
    Format/Info                              : Advanced Audio Codec
    Format profile                           : LC
    Codec ID                                 : 40
    Duration                                 : 1h 16mn
    Bit rate mode                            : Variable
    Bit rate                                 : 256 Kbps
    Maximum bit rate                         : 263 Kbps
    Channel(s)                               : 2 channels
    Channel positions                        : Front: L R
    Sampling rate                            : 48.0 KHz
    Compression mode                         : Lossy
    Stream size                              : 139 MiB (10%)








    *Please PM me if there is something wrong. If you have the subtitle, please add it smile1.gif

    Don't try to HIT AND RUN. Don't forget to seed minimum at least 1.5..


    0 0

    Original Post: King of Mask Singer E16 720p WITH



    Hangul: 복면가왕
    Genre: Variety Show
    Language: Korean
    Country: South Korea
    Subtitles: No Subtitles

    Cast:
    11 Celebrity Judges + 1 Main MC:
    - Kim Sung Joo - Main MC (Dad, Where Are We Going?)
    - Kim Gura - Sub MC (JTBC War of Words, MBC Radio Star, Quiz to Change the World)
    - So Yi Hyun - Sub MC (Heartstrings, Cheongdamdong Alice, Three Days)
    - B1A4 Sandeul
    - Kim Hyung Seok (Music Producer - Kim Gunmo, Baby Vox, Jo Sung Mo, etc)
    - Ji Sang Ryeol (X-Man, 1 Night 2 Days)
    - Hwang Seok Jung (Lost in Love, Hello Schoolgirl)
    - Kim Jung Nam (Turbo 1995-97)
    - ZE:A Kwanghee
    - Shin Bong Sun (Heroes, Happy Together)
    - Yoo Sang Moo (Gag Concert, Comedy Big League, I Am a Man)
    - Girl's Day Yura


    When you have to compete with only your voice, who will be the last singer standing? “King of Mask Singer” is a South Korean variety show where the participants compete against each other wearing masks to hide their true identities. The contestants may be famous singers or stars who have always aspired to sing – but they all have one thing in common. They must all compete with their vocals alone because no one will know their true identities until the very end! Enjoy these highlight clips from the popular variety show, featuring MCs Kim Sung Joo and Kim Goo Ra.

    Format of the Show:
    - 11 Celebrity Judges and 88 Audience Voters = 99 Votes
    - All singers initially are masked.
    - Round 1: Duet with 2 members, 99 Voters will choose which of the 2 contestants sang better.
    - Round 2 + 3: Each contestant sings their own song.
    - Loser in each vote gets their identity revealed, and is eliminated.
    - Final Winner stays unknown to the audience and judges, but revealed at the end of the broadcast to the viewers.


    Code

    General
    Format                                   : MPEG-4
    Format profile                           : Base Media
    Codec ID                                 : isom
    File size                                : 1.37 GiB
    Duration                                 : 1h 19mn
    Overall bit rate mode                    : Variable
    Overall bit rate                         : 2 472 Kbps

    Video
    ID                                       : 1
    Format                                   : AVC
    Format/Info                              : Advanced Video Codec
    Format profile                           : Baseline@L1.3
    Format settings, CABAC                   : No
    Format settings, ReFrames                : 1 frame
    Codec ID                                 : avc1
    Codec ID/Info                            : Advanced Video Coding
    Duration                                 : 1h 19mn
    Bit rate                                 : 2 200 Kbps
    Maximum bit rate                         : 10.6 Mbps
    Width                                    : 1 280 pixels
    Height                                   : 720 pixels
    Display aspect ratio                     : 16:9
    Frame rate mode                          : Constant
    Frame rate                               : 29.970 fps
    Color space                              : YUV
    Chroma subsampling                       : 4:2:0
    Bit depth                                : 8 bits
    Scan type                                : Progressive
    Bits/(Pixel*Frame)                       : 0.080
    Stream size                              : 1.22 GiB (90%)
    Writing library                          : x264 core 128 r2216 198a7ea
    Encoding settings                        : cabac=0 / ref=1 / deblock=1:0:0 / analyse=0x1:0x111 / me=hex / subme=7 / psy=1 / psy_rd=1.00:0.00 / mixed_ref=0 / me_range=16 / chroma_me=1 / trellis=1 / 8x8dct=0 / cqm=0 / deadzone=21,11 / fast_pskip=1 / chroma_qp_offset=-2 / threads=12 / lookahead_threads=2 / sliced_threads=0 / nr=0 / decimate=1 / interlaced=0 / bluray_compat=0 / constrained_intra=0 / bframes=0 / weightp=0 / keyint=250 / keyint_min=25 / scenecut=40 / intra_refresh=0 / rc_lookahead=40 / rc=abr / mbtree=1 / bitrate=2200 / ratetol=1.0 / qcomp=0.60 / qpmin=0 / qpmax=69 / qpstep=4 / vbv_maxrate=50000 / vbv_bufsize=50000 / nal_hrd=none / ip_ratio=1.40 / aq=1:1.00

    Audio
    ID                                       : 2
    Format                                   : AAC
    Format/Info                              : Advanced Audio Codec
    Format profile                           : LC
    Codec ID                                 : 40
    Duration                                 : 1h 19mn
    Bit rate mode                            : Variable
    Bit rate                                 : 256 Kbps
    Maximum bit rate                         : 262 Kbps
    Channel(s)                               : 2 channels
    Channel positions                        : Front: L R
    Sampling rate                            : 48.0 KHz
    Compression mode                         : Lossy
    Stream size                              : 145 MiB (10%)







    *Please PM me if there is something wrong, Don't ask for subtitle. smile1.gif

    Don't try to HIT AND RUN. Don't forget to seed minimum at least 1.5.. Please always seed, since I will not re-upload If it already deleted on my seedbox.


    0 0

    Original Post: Bluebird's.House.E44.150719.HDTV.XviD-LIMO

    http://thetvdb.com/?tab=series&id=292452&lid=7
    Details
    Title: 파랑새의 집 / Parangsaeui Jib
    Also known as: Bluebird's Nest
    Genre: Family, human, romance, comedy
    Episodes: 50
    Broadcast network: KBS2
    Broadcast period: 2015-Feb-21 to 2015-???-??
    Air time: Saturday & Sunday Night 19:55
    Original Soundtrack: Bluebird's House OST
    Synopsis
    A drama that tells the story of strong bond between the members of a family even though they are not blood-related. This drama also portrays the hope of parents toward their children's success and how difficult for fresh university graduates to get respectable and well-paid jobs.

    Cast
    Main Cast
    Lee Joon Hyuk as Kim Ji Wan (29)
    Chae Soo Bin as Han Eun Soo (24)
    Lee Sang Yeob as Jang Hyun Do (28)
    Kyung Soo Jin as Kang Young Joo (25)
    Kim Ji Wan's family
    Choi Myung Gil as Han Sun Hee (55)
    Jung Jae Soon as Lee Jin Yi (70)
    Jang Hyun Do's family
    Chun Ho Jin as Jang Tae Soo (55)
    Lee Hye Sook as Jung Soo Kyung (52)
    Kang Young Joo's family
    Song Ok Sook as Oh Min Ja (55)
    Jung Won Joong as Kang Jae Chul (53)
    Others
    Uhm Hyun Kyung as Seo Mi Ji (29)
    Nam Kyung Eup as Shin Young Hwan (50)






    Code
    Video
    ID                                       : 0
    Format                                   : MPEG-4 Visual
    Format profile                           : Advanced Simple@L5
    Format settings, BVOP                    : No
    Format settings, QPel                    : No
    Format settings, GMC                     : No warppoints
    Format settings, Matrix                  : Default (MPEG)
    Codec ID                                 : XVID
    Codec ID/Hint                            : XviD
    Duration                                 : 1h 29mn
    Bit rate                                 : 1 388 Kbps
    Width                                    : 624 pixels
    Height                                   : 352 pixels
    Display aspect ratio                     : 16:9
    Frame rate                               : 29.970 fps
    Color space                              : YUV
    Chroma subsampling                       : 4:2:0
    Bit depth                                : 8 bits
    Scan type                                : Progressive
    Compression mode                         : Lossy
    Bits/(Pixel*Frame)                       : 0.211
    Stream size                              : 886 MiB (87%)
    Writing library                          : XviD 1.2.1 (UTC 2008-12-04)

    Audio
    ID                                       : 1
    Format                                   : MPEG Audio
    Format version                           : Version 1
    Format profile                           : Layer 3
    Mode                                     : Joint stereo
    Mode extension                           : MS Stereo
    Codec ID                                 : 55
    Codec ID/Hint                            : MP3
    Duration                                 : 1h 29mn
    Bit rate mode                            : Constant
    Bit rate                                 : 128 Kbps
    Channel(s)                               : 2 channels
    Sampling rate                            : 48.0 KHz
    Compression mode                         : Lossy
    Stream size                              : 81.7 MiB (8%)
    Alignment                                : Aligned on interleaves
    Writing library                          : LAME3.98.2



    0 0

    Original Post: Bluebird's.House.E44.150719.HDTV.H264.720p-LIMO

    http://thetvdb.com/?tab=series&id=292452&lid=7
    Details
    Title: 파랑새의 집 / Parangsaeui Jib
    Also known as: Bluebird's Nest
    Genre: Family, human, romance, comedy
    Episodes: 50
    Broadcast network: KBS2
    Broadcast period: 2015-Feb-21 to 2015-???-??
    Air time: Saturday & Sunday Night 19:55
    Original Soundtrack: Bluebird's House OST
    Synopsis
    A drama that tells the story of strong bond between the members of a family even though they are not blood-related. This drama also portrays the hope of parents toward their children's success and how difficult for fresh university graduates to get respectable and well-paid jobs.

    Cast
    Main Cast
    Lee Joon Hyuk as Kim Ji Wan (29)
    Chae Soo Bin as Han Eun Soo (24)
    Lee Sang Yeob as Jang Hyun Do (28)
    Kyung Soo Jin as Kang Young Joo (25)
    Kim Ji Wan's family
    Choi Myung Gil as Han Sun Hee (55)
    Jung Jae Soon as Lee Jin Yi (70)
    Jang Hyun Do's family
    Chun Ho Jin as Jang Tae Soo (55)
    Lee Hye Sook as Jung Soo Kyung (52)
    Kang Young Joo's family
    Song Ok Sook as Oh Min Ja (55)
    Jung Won Joong as Kang Jae Chul (53)
    Others
    Uhm Hyun Kyung as Seo Mi Ji (29)
    Nam Kyung Eup as Shin Young Hwan (50)






    Code
    Video
    ID                             : 1
    Format                         : AVC
    Format/Info                    : Advanced Video Codec
    Format profile                 : High@L5.1
    Format settings, CABAC         : Yes
    Format settings, ReFrames      : 4 frames
    Codec ID                       : V_MPEG4/ISO/AVC
    Duration                       : 1h 24mn
    Bit rate                       : 887 Kbps
    Nominal bit rate               : 2 496 Kbps
    Width                          : 1 280 pixels
    Height                         : 720 pixels
    Display aspect ratio           : 16:9
    Frame rate mode                : Constant
    Frame rate                     : 29.970 fps
    Color space                    : YUV
    Chroma subsampling             : 4:2:0
    Bit depth                      : 8 bits
    Scan type                      : Progressive
    Bits/(Pixel*Frame)             : 0.032
    Stream size                    : 535 MiB (68%)
    Writing library                : x264 core 130 r2273 b3065e6
    Encoding settings              : cabac=1 / ref=3 / deblock=1:0:0 / analyse=0x3:0x113 / me=hex / subme=7 / psy=1 / psy_rd=1.00:0.00 / mixed_ref=1 / me_range=16 / chroma_me=1 / trellis=1 / 8x8dct=1 / cqm=0 / deadzone=21,11 / fast_pskip=1 / chroma_qp_offset=-2 / threads=1 / lookahead_threads=1 / sliced_threads=0 / nr=0 / decimate=1 / interlaced=0 / bluray_compat=0 / constrained_intra=0 / bframes=3 / b_pyramid=2 / b_adapt=1 / b_bias=0 / direct=1 / weightb=1 / open_gop=0 / weightp=2 / keyint=300 / keyint_min=29 / scenecut=40 / intra_refresh=0 / rc_lookahead=40 / rc=2pass / mbtree=1 / bitrate=2496 / ratetol=1.0 / qcomp=0.60 / qpmin=0 / qpmax=69 / qpstep=4 / cplxblur=20.0 / qblur=0.5 / vbv_maxrate=300000 / vbv_bufsize=300000 / nal_hrd=none / ip_ratio=1.40 / aq=1:1.00
    Default                        : Yes
    Forced                         : No

    Audio
    ID                             : 2
    Format                         : AC-3
    Format/Info                    : Audio Coding 3
    Mode extension                 : CM (complete main)
    Format settings, Endianness    : Big
    Codec ID                       : A_AC3
    Duration                       : 1h 24mn
    Bit rate mode                  : Constant
    Bit rate                       : 384 Kbps
    Channel(s)                     : 2 channels
    Channel positions              : Front: L R
    Sampling rate                  : 44.1 KHz
    Bit depth                      : 16 bits
    Compression mode               : Lossy
    Stream size                    : 232 MiB (30%)
    Language                       : Korean
    Default                        : Yes
    Forced                         : No



    0 0

    Original Post: Make.A.Woman.Cry.E28.150719.HDTV.XviD-LIMO

    http://thetvdb.com/?tab=series&id=294274&lid=7
    Details
    Title: 여자를 울려 / Yeojareul Woolryeo
    Also known as: Let the Woman Cry
    Genre: Family, drama, romance
    Episodes: 50
    Broadcast network: MBC
    Broadcast period: 2015-Apr-18 to 2015-???-??
    Air time: Saturday & Sunday 20:45
    Original Soundtrack: Make a Woman Cry OST

    Synopsis
    Jung Duk In was a former detective who resigned after her son died. She then opens a food stall in front of her son's school to preserves the memory of him and to protects the other students. Along the way she will struggle to forgive people who were responsible for her son's death.

    Cast

    Main Cast
    Kim Jung Eun as Jung Duk In
    Song Chang Ui as Kang Jin Woo
    Lee Soon Jae as Kang Tae Hwan
    Ha Hee Ra as Na Eun Soo
    Oh Dae Gyu as Kang Jin Myung
    Lee Tae Ran as Choi Hong Ran






    Code
    Video
    ID                                       : 0
    Format                                   : MPEG-4 Visual
    Format profile                           : Advanced Simple@L5
    Format settings, BVOP                    : No
    Format settings, QPel                    : No
    Format settings, GMC                     : No warppoints
    Format settings, Matrix                  : Default (MPEG)
    Codec ID                                 : XVID
    Codec ID/Hint                            : XviD
    Duration                                 : 1h 29mn
    Bit rate                                 : 1 388 Kbps
    Width                                    : 624 pixels
    Height                                   : 352 pixels
    Display aspect ratio                     : 16:9
    Frame rate                               : 29.970 fps
    Color space                              : YUV
    Chroma subsampling                       : 4:2:0
    Bit depth                                : 8 bits
    Scan type                                : Progressive
    Compression mode                         : Lossy
    Bits/(Pixel*Frame)                       : 0.211
    Stream size                              : 886 MiB (87%)
    Writing library                          : XviD 1.2.1 (UTC 2008-12-04)

    Audio
    ID                                       : 1
    Format                                   : MPEG Audio
    Format version                           : Version 1
    Format profile                           : Layer 3
    Mode                                     : Joint stereo
    Mode extension                           : MS Stereo
    Codec ID                                 : 55
    Codec ID/Hint                            : MP3
    Duration                                 : 1h 29mn
    Bit rate mode                            : Constant
    Bit rate                                 : 128 Kbps
    Channel(s)                               : 2 channels
    Sampling rate                            : 48.0 KHz
    Compression mode                         : Lossy
    Stream size                              : 81.7 MiB (8%)
    Alignment                                : Aligned on interleaves
    Writing library                          : LAME3.98.2



    0 0

    Original Post: Make.A.Woman.Cry.E28.150719.HDTV.H264.720p-LIMO

    http://thetvdb.com/?tab=series&id=294274&lid=7
    Details
    Title: 여자를 울려 / Yeojareul Woolryeo
    Also known as: Let the Woman Cry
    Genre: Family, drama, romance
    Episodes: 50
    Broadcast network: MBC
    Broadcast period: 2015-Apr-18 to 2015-???-??
    Air time: Saturday & Sunday 20:45
    Original Soundtrack: Make a Woman Cry OST

    Synopsis
    Jung Duk In was a former detective who resigned after her son died. She then opens a food stall in front of her son's school to preserves the memory of him and to protects the other students. Along the way she will struggle to forgive people who were responsible for her son's death.

    Cast

    Main Cast
    Kim Jung Eun as Jung Duk In
    Song Chang Ui as Kang Jin Woo
    Lee Soon Jae as Kang Tae Hwan
    Ha Hee Ra as Na Eun Soo
    Oh Dae Gyu as Kang Jin Myung
    Lee Tae Ran as Choi Hong Ran






    Code
    Video
    ID                             : 1
    Format                         : AVC
    Format/Info                    : Advanced Video Codec
    Format profile                 : High@L5.1
    Format settings, CABAC         : Yes
    Format settings, ReFrames      : 4 frames
    Codec ID                       : V_MPEG4/ISO/AVC
    Duration                       : 1h 24mn
    Bit rate                       : 887 Kbps
    Nominal bit rate               : 2 496 Kbps
    Width                          : 1 280 pixels
    Height                         : 720 pixels
    Display aspect ratio           : 16:9
    Frame rate mode                : Constant
    Frame rate                     : 29.970 fps
    Color space                    : YUV
    Chroma subsampling             : 4:2:0
    Bit depth                      : 8 bits
    Scan type                      : Progressive
    Bits/(Pixel*Frame)             : 0.032
    Stream size                    : 535 MiB (68%)
    Writing library                : x264 core 130 r2273 b3065e6
    Encoding settings              : cabac=1 / ref=3 / deblock=1:0:0 / analyse=0x3:0x113 / me=hex / subme=7 / psy=1 / psy_rd=1.00:0.00 / mixed_ref=1 / me_range=16 / chroma_me=1 / trellis=1 / 8x8dct=1 / cqm=0 / deadzone=21,11 / fast_pskip=1 / chroma_qp_offset=-2 / threads=1 / lookahead_threads=1 / sliced_threads=0 / nr=0 / decimate=1 / interlaced=0 / bluray_compat=0 / constrained_intra=0 / bframes=3 / b_pyramid=2 / b_adapt=1 / b_bias=0 / direct=1 / weightb=1 / open_gop=0 / weightp=2 / keyint=300 / keyint_min=29 / scenecut=40 / intra_refresh=0 / rc_lookahead=40 / rc=2pass / mbtree=1 / bitrate=2496 / ratetol=1.0 / qcomp=0.60 / qpmin=0 / qpmax=69 / qpstep=4 / cplxblur=20.0 / qblur=0.5 / vbv_maxrate=300000 / vbv_bufsize=300000 / nal_hrd=none / ip_ratio=1.40 / aq=1:1.00
    Default                        : Yes
    Forced                         : No

    Audio
    ID                             : 2
    Format                         : AC-3
    Format/Info                    : Audio Coding 3
    Mode extension                 : CM (complete main)
    Format settings, Endianness    : Big
    Codec ID                       : A_AC3
    Duration                       : 1h 24mn
    Bit rate mode                  : Constant
    Bit rate                       : 384 Kbps
    Channel(s)                     : 2 channels
    Channel positions              : Front: L R
    Sampling rate                  : 44.1 KHz
    Bit depth                      : 16 bits
    Compression mode               : Lossy
    Stream size                    : 232 MiB (30%)
    Language                       : Korean
    Default                        : Yes
    Forced                         : No



older | 1 | .... | 1402 | 1403 | (Page 1404) | 1405 | newer