Are you the publisher? Claim this channel


Embed this content in your HTML

Search



Account: (login)

More Channels


Channel Catalog


Channel Description:

Asia Torrents RSS Feed

older | 1 | .... | 809 | 810 | 811 | (Page 812) | 813 | 814 | 815 | .... | 1007 | newer

  • 01/31/13--10:37: Pink.2011.XviD.AC3-Zoom (chan 1160181)
  • Original Post: Pink.2011.XviD.AC3-Zoom


    A.K.A: 핑크 (Pingkeu)
    Cast: Lee Seung-Yeon, Seo Kap-Suk, Lee Won-Jong
    Directed: Jeon Soo-Il
    Genre: Drama
    Runtime: 01:37:05
    Country: South Korea
    Language: Korean
    Subtitles: Korean/English sub/idx


    Plot:
    Set in a run-down bar named "Pink," movie follows the lives of people surrounding the bar including its owner Ok-Ryun.








    Code
    Video
    ID                             : 0
    Format                         : MPEG-4 Visual
    Format profile                 : Advanced Simple@L5
    Format settings, BVOP          : 2
    Format settings, QPel          : No
    Format settings, GMC           : No warppoints
    Format settings, Matrix        : Default (H.263)
    Muxing mode                    : Packed bitstream
    Codec ID                       : XVID
    Codec ID/Hint                  : XviD
    Duration                       : 1h 36mn
    Bit rate                       : 1 564 Kbps
    Width                          : 800 pixels
    Height                         : 336 pixels
    Display aspect ratio           : 2.40:1
    Frame rate                     : 23.976 fps
    Color space                    : YUV
    Chroma subsampling             : 4:2:0
    Bit depth                      : 8 bits
    Scan type                      : Progressive
    Compression mode               : Lossy
    Bits/(Pixel*Frame)             : 0.243
    Stream size                    : 1.06 GiB (77%)
    Writing library                : XviD 64

    Audio
    ID                             : 1
    Format                         : AC-3
    Format/Info                    : Audio Coding 3
    Mode extension                 : CM (complete main)
    Format settings, Endianness    : Big
    Codec ID                       : 2000
    Duration                       : 1h 36mn
    Bit rate mode                  : Constant
    Bit rate                       : 448 Kbps
    Channel(s)                     : 6 channels
    Channel positions              : Front: L C R, Side: L R, LFE
    Sampling rate                  : 48.0 KHz
    Bit depth                      : 16 bits
    Compression mode               : Lossy
    Stream size                    : 310 MiB (22%)
    Alignment                      : Split accross interleaves
    Interleave, duration           : 42 ms (1.00 video frame)
    Interleave, preload duration   : 500 ms






  • 01/31/13--10:37: Yeosu 2010.XviD.AC3-Zoom (chan 1160181)
  • Original Post: Yeosu 2010.XviD.AC3-Zoom



    Movie: Yeosu
    Revised romanization: Ryeosu
    Hangul: 려수
    Director: Jin Kwang-Kyo
    Writer:
    Producer:
    Cinematographer:
    World Premiere: October 2010 (Pusan International Film Festival)
    Release Date: November 10, 2011
    Runtime: 98 min.
    Language: Korean
    Country: South Korea
    Subtitles Korean/English sub/idx

    Plot

    Chul-Soo (Jung Eui-Chul) works as a part-time delivery service man to pay for his university tuition fees. Chul-Soo goes to the city of Yeosu to deliver the ashes of a dead homeless. Mi-Jin (Koh Joon-Hee) is a woman who became a surrogate mother to pay for her university tuition fees. After having her baby she changes her mind and flees with her baby. They meet in a motel in Yeosu ...
    Cast

    Jung Eui-Chul - Chul-Soo
    Koh Joon-Hee - Mi-Jin
    Film Festivals

    2010 (15th) Pusan International Film Festival - October 7-15 - Korean Cinema Today: Vision *World Premiere









    Code
    Video
    ID                             : 0
    Format                         : MPEG-4 Visual
    Format profile                 : Advanced Simple@L5
    Format settings, BVOP          : 2
    Format settings, QPel          : No
    Format settings, GMC           : No warppoints
    Format settings, Matrix        : Default (H.263)
    Muxing mode                    : Packed bitstream
    Codec ID                       : XVID
    Codec ID/Hint                  : XviD
    Duration                       : 1h 36mn
    Bit rate                       : 1 645 Kbps
    Width                          : 800 pixels
    Height                         : 432 pixels
    Display aspect ratio           : 1.85:1
    Frame rate                     : 23.976 fps
    Color space                    : YUV
    Chroma subsampling             : 4:2:0
    Bit depth                      : 8 bits
    Scan type                      : Progressive
    Compression mode               : Lossy
    Bits/(Pixel*Frame)             : 0.199
    Stream size                    : 1.10 GiB (81%)
    Writing library                : XviD 64

    Audio
    ID                             : 1
    Format                         : AC-3
    Format/Info                    : Audio Coding 3
    Mode extension                 : CM (complete main)
    Format settings, Endianness    : Big
    Codec ID                       : 2000
    Duration                       : 1h 36mn
    Bit rate mode                  : Constant
    Bit rate                       : 384 Kbps
    Channel(s)                     : 2 channels
    Channel positions              : Front: L R
    Sampling rate                  : 48.0 KHz
    Bit depth                      : 16 bits
    Compression mode               : Lossy
    Delay relative to video        : 13ms
    Stream size                    : 264 MiB (19%)
    Alignment                      : Split accross interleaves
    Interleave, duration           : 42 ms (1.00 video frame)
    Interleave, preload duration   : 500 ms






    Original Post: Suicide Me (2003) DVDRip x264 AC3 [NO SUBS]





    Suicide Me

    Directors: Thodsapol Siriwiwat & Piraphan Laoyont
    Cast: Tawan Chantaraviboon, Nat Wattanapat

    Plot Synopsis
    Kiang has just been dumped by his girlfriend and is suicidal. He unsuccessfully tries several ways to kill himself. He bumps into a girl who hastily marries him and forces him to move in with her. She is obsessed in getting rich quick and now has a sinister plan on how to reach her goal.

    AKA:นายอโศกกับน.ส.เพลินจิต
    Year: 2003
    Country: Thailand
    Language: Thai
    Subtitles:NONE
    Film Genre: Comedy
    IMDB:http://www.imdb.com/title/tt0996964/

    Movie Sample:http://www.dailymotion.com/video/xx1pir
    Movie Sample:https://www.youtube.com/watch?v=X4MfyDbINYE

    Links:
    ThaiFilmDb
    Siam Zone
    NangDee

    Source: DVD5 PAL
    File Format: MP4KV
    Video Codec: x264 core129 r2245
    Resolution: 720x400
    Frame Rate:24 fps
    Video Bitrate: 1250 2-pass
    Audio: 5.1 AC3 448
    Video Runtime: 1 hour 43 mins





    Original Post: Girls Generation (SNSD) // Into the New World [Album]

    Girls Generation (SNSD) // Into the New World [Album] (.mp3 @192kbps)



    Track Listing:
    1. "Into the New World (Korean: 다시 만난 세계)"  
    2. "Beginning"
    3. "Perfect For You (소원)"
    4. "Into the New World (Instrumental Version)"  


    Original Post: Girls Generation (SNSD) // Mr.Taxi/Run Devil Run [Japanese Album]

    Girls Generation (SNSD) // Mr.Taxi/Run Devil Run [Album] (.mp3 @320kbps)



    Track Listing:
    1. Mr. Taxi
    2. Run Devil Run (Japanese Ver.)


    Original Post: Girls Generation (SNSD) // Oh! [Album] (Apple Lossless)

    Girls Generation (SNSD) // Oh! [Album] (Apple Lossless .m4a)



    Track Listing:
    1. "Oh!"  
    2. "Show! Show! Show!"
    3. "뻔 & Fun (Sweet Talking Baby)"  
    4. "영원히 너와 꿈꾸고 싶다 (Forever)"
    5. "웃자 (Be Happy)"
    6. "화성인 바이러스 (Boys & Girls)" [feat. Key of Shinee]
    7. "카라멜 커피 (Talk to Me)" (Jessica and Tiffany duet)
    8. "별별별 (☆★☆)" (Byeol Byeol Byeol)
    9. "무조건 해피엔딩 (Stick wit U)" (Mujogeon Haepiending)
    10. "좋은 일만 생각하기 (Day by Day)" (Taeyeon, Jessica, Tiffany, Seohyun, Sunny)
    11. "Gee" (Bonus Track)
    12. "소원을 말해봐 (Genie)" (Bonus Track)


    Original Post: Girls Generation (SNSD) // Run Devil Run [Album Repackage]

    Girls Generation (SNSD) // Run Devil Run [Album Repackage] (.mp3 @320kbps)



    Track Listing:
    1. Run Devil Run
    2. Echo
    3. 별별별☆★☆ (Star Star Star) [R&B Version]


    Original Post: Masquerade 2012 HDRip x264 720p AAC Mbaro

    광해, 왕이 된 남자 Gwanghae, Wangyidoen Namja Masquerade 2012 HDRip x264 720p AAC Mbaro:

    Korean Posters:





    English Poster:



    Links:

    http://www.imdb.com/title/tt2290840
    http://asianwiki.com/Masquerade_-_Korean_Movie
    http://en.wikipedia.org/wiki/Gwanghae

    Profile:

    Title English: Masquerade
    Title English Literal: Ghwanghae, Man Became A King
    Title Korean RR: Gwanghae, Wangyidoen Namja
    Title Hangul: 광해, 왕이 된 남자

    Genre: Adaptation, Award Winning, Historical, Period-17th Century, Drama, Best Film-Movie of the Year
    Director: Choo Chang-min
    Producers: Im Sang-jin, Won Dong-yeon, Kim Ho-seong, Mikey Lee
    Writer: Hwang Jo-yoon
    Music: Mowg, Kim Jun-seong
    Cinematographer: Lee Tae-yoon
    Editing: Nam Na-yeong
    Distributer: CJ Entertainment
    Release Date: September 13, 2012
    Running Time: 131 minutes
    Country: South Korea
    Language: Korean
    Budget: ₩9.5 billion

    Casts:

    Lee Byung-hun ... King Gwanghae/Ha-sun
    Ryoo Seung-ryong ... Chief Secretary Heo Gyun
    Han Hyo-joo ... Queen Consort Joong Jun
    Jang Kwang ... Chief Eunuch
    Kim In-kwon ... Captain Do, king's personal bodyguard
    Shim Eun-kyung ... Sa-wol, food taster
    Kim Myung-gon ... Interior Minister Park Chung-seo
    Park Ji-ah ... Lady Han, chief court lady
    Shin Jeong-geun ... Lee Jeong-rang
    Jeon Guk-hyang ... Lady Jeong
    Yang Jun-mo ... Kim
    Mun Chang-gil ... prime minister
    Jeon Bae-su ... Hyeong-pan
    Do Yong-gu ... Byeong-pan
    Yu Sun-ung ... Ho-pan
    Lee Yang-hui ... Gong-pan
    Park Gyeong-geun ... musician
    Shin Un-seop ... Ye-pan
    Kim Jong-gu ... royal physician
    Lee El ... Lady Ahn
    Lee Jun-hyeok ... Hyeon-gam
    Seo Jin-weon ... General Overseer Do
    Kim Hye-weon ... Pearl, courtesan
    Kim Hak-jun ... Yu Jeong-ho
    Kim Hye-hwa ... Plum Blossom Pot servant
    Kim Seung-hun ... Yi-bang
    Lee Bong-ryeon ... court woman
    Ju Yeong-ho ... Gwanghae's astrologist

    Background:

    Historically, Gwanghae, the 15th Joseon king from 1574-1641, attempted diplomacy through neutrality as China's Ming Dynasty (1368-1644) and Qing Dynasty (1636-1912) set their sights on the country. He also tried his hand at other reforms and reconstruction to try and make the nation prosperous, including an emphasis on the restoration of documents, but met with opposition and was later deposed and exiled to Jeju Island. Since he was deposed in a coup by a faction of Westerners, historians did not give him a temple name like Taejo or Sejong.

    The film is an interpretation of the missing 15 days in the Annals of the Joseon Dynasty during Gwanghae's reign -- designated by his 1616 journal entry, "One must not record that which he wishes to hide.

    Plot:

    King Gwanghae (Lee Byung-Hun) has been the King for the past 8 years. He now suspects that someone within the royal court is attempting to poison him. In response, King Gwanghae orders his councilor Heo Gyun (Ryoo Seung-Ryong) to find someone that looks like him to sit in his throne.

    Heo Gyun then comes across a clown named Ha-Sun (Lee Byung-Hun), who performs lewd shows in front of drunken noblemen. Ha-Sun indeed strongly resembles King Gwanghae and is even able to imitate the way King Gwanghae speaks. Heo Gyun takes Ha-Sun to the royal palace without giving any explanations. At night, Ha-Sun takes the King's seat, while the King slips away to his mistress's home.

    A short time later, King Gwanghae collapses and is taken to a safe house. Meanwhile, Ha-Sun continues his ruse as the King until the King can recover. Slowly, Ha-Sun's own personality comes out and the people in the King's inner court notice the changes. The King appears more humane to those around him and far less volatile. While Ha-Sun's true voice comes out, enemies within the King's inner circle plan their next move.

    Notes:

    - "The Masquerade King" retells Mark Twain's "The Prince & The Pauper" set in Joseon era South Korea.
    - Earliest Korean working title was "Gwanghae" (referring to King Gwanghae 1574–1641) then changed to "Naneun Joseonui Wangyida" ("I am the King of Joseon"wink.gif. Korean movie title then changed to "Gwanghae: Wangyidoen Namja" ("Ghwanghae: Man Became A King"wink.gif.
    - June 9, 2011 - Director Kang Woo-Suk & lead actor Jung Jae-Young dropped out of the project due to differences with production company CJ Entertainment.
    - November 14, 2011 - Lee Byung-Hun accepted lead role vacated by Jung Jae-Young.
    - Filming began February 12, 2012 at Namyangju Studios in Namyangju City, Gyeonggi Province.
    - Filming finished June 14, 2012.
    - On October 20, 2012, "Masquerade" passed 10,000,000 million admissions in South Korea, becoming only the 8th film to ever do so. As of October 20, 2012, "Masquerade" has sold a total of 10,041,564 tickets.

    Awards:

    2012 (33rd) Blue Dragon Film Awards - November 30, 2012
        Best Art Design
    2012 Korean Association of Film Critics Awards - November 7, 2012
        Best Technical Achievement
    2012 (49th) Daejong Film Awards - October 30, 2012
        Best Film
        Best Director
        Best Actor (Lee Byung-Hun)
        Best Supporting Actor (Ryoo Seung-Ryong)
        Best Screenplay
        Best Cinematography
        Best Visual Effects
        Best Costume Design
        Best Art Design
        Best Music
        Best Sound Effects
        Best Lighting
        Best Editing
        Best Production
        Popularity Award (Lee Byung-Hun)

    -----

    Video & Audio Technical Specs:

    Encoder: Mbaro

    Screenshots:










    General:

    Complete name                            : Masquerade.2012.720p.HDRip.H264-Mbaro.mp4
    Format                                   : MPEG-4
    Format profile                           : Base Media
    Codec ID                                 : isom
    File size                                : 2.94 GiB
    Duration                                 : 2h 11mn
    Overall bit rate mode                    : Variable
    Overall bit rate                         : 3199 Kbps

    Video:

    ID                                       : 1
    Format                                   : AVC
    Format/Info                              : Advanced Video Codec
    Format profile                           : Baseline@L3.1
    Format settings, CABAC                   : No
    Format settings, ReFrames                : 1 frame
    Codec ID                                 : avc1
    Codec ID/Info                            : Advanced Video Coding
    Duration                                 : 2h 11mn
    Bit rate                                 : 3005 Kbps
    Width                                    : 1280 pixels
    Height                                   : 720 pixels
    Display aspect ratio                     : 16:9
    Frame rate mode                          : Constant
    Frame rate                               : 23.976 fps
    Color space                              : YUV
    Chroma subsampling                       : 4:2:0
    Bit depth                                : 8 bits
    Scan type                                : Progressive
    Bits/(Pixel*Frame)                       : 0.136
    Stream size                              : 2.76 GiB (94%)
    Language                                 : English

    Audio:

    ID                                       : 2
    Format                                   : AAC
    Format/Info                              : Advanced Audio Codec
    Format profile                           : LC
    Codec ID                                 : 40
    Duration                                 : 2h 11mn
    Bit rate mode                            : Variable
    Bit rate                                 : 192 Kbps
    Channel(s)                               : 2 channels
    Channel positions                        : Front: L R
    Sampling rate                            : 48.0 KHz
    Compression mode                         : Lossy
    Stream size                              : 178 MiB (6%)
    Language                                 : English

    -----

    Subtitle:

    English subtitle (none ATM).

    -----

    Trailer:



    Original Post: Girls Generation (SNSD) // Tell Me Your Wish (Genie) [EP Album] {Apple Lossless}

    Girls Generation (SNSD) // Tell Me Your Wish (Genie) [EP Album] {Apple Lossless .m4a}



    Track Listing:
    1. "Tell Me Your Wish (Genie) (Korean: 소원을 말해봐 (지니))"
    2. "Etude (Hangul: 에뛰드)"
    3. "Girlfriend (Korean: 여자친구)"  
    4. "Boyfriend (Korean: 남자친구)"
    5. "My Child (Korean: 동화)"
    6. "One Year Later (Korean: 1년 後) by Jessica & Onew (from Shinee)"  


    Original Post: Samet Beach of Love (2011) DVDRip x264 AAC [NO SUBS]





    Samet Beach of Love

    Director: Tul Bunnual
    Cast: Atiwat Lamgul, Dujdao Duangpradab

    Plot Synopsis
    White... Nen is going to Samet island to meet his brother. He rescue Nanny who is about to commit suicide. They quickly get intimate but they do not have sex because Nen believes he wants something more than just sex.

    Pink... Nat invites Jaek to Samet in the hopes of sleeping with her. But Jaek do not wish to have a serious relationship with him. But something unexpected happens and both of them starts to have true feelings for each other.

    Violet... Ken and Noi broke up two years ago. But one day both of them happen to meet again when a mutual friend invites them to Samet island. Ken realized that he is still in love with Noi but it may already be too late.

    AKA:เสม็ดเสร็จหรือยัง
    Year: 2011
    Country: Thailand
    Language: Thai
    Subtitles:NONE
    Film Genre: Drama

    Source: DVD5 PAL
    File Format: MP4
    Video Codec: x264 core129 r2245
    Resolution: 672x384
    Frame Rate: 25 fps
    Video Bitrate: 1180 2-pass
    Audio: stereo AAC-LC 128 ABR 2-pass
    Video Runtime: 1 hour 47 mins





    Original Post: Girls Generation (SNSD) // Tell Me Your Wish (Genie) [Japanese Album] {Apple Lossless}

    Girls Generation (SNSD) // Tell Me Your Wish (Genie) [Japanese Album] {Apple Lossless .m4a}



    Track Listing:
    1. "Genie" (Japanese version)
    2. "Tell Me Your Wish (Genie)" (Korean version)
    3. "Genie" (Without main vocal)


    Original Post: The Lotto so Happy (2011) DVDRip x264 AAC [NO SUBS]





    The Lotto so Happy

    Director: Danai Amporndanai
    Cast: Somlek Sakdikul, Naowarat Yuktanan

    Plot Synopsis
    In Thailand everyone loves the lottery, both the legal one and the illegal one. This film shows what the real hardcore lottery fans are like!

    AKA:หวย [huay]
    Year: 2011
    Country: Thailand
    Language: Thai
    Subtitles:NONE
    Film Genre: Comedy

    Source: DVD5 PAL
    File Format: MP4
    Video Codec: x264 core129 r2245
    Resolution: 672x384
    Frame Rate: 25 fps
    Video Bitrate: 1210 2-pass
    Audio: stereo AAC-LC 128 ABR 2-pass
    Video Runtime: 1 hour 18 mins





  • 01/31/13--11:29: Me Myself (2007) DVDRip x264 AC3 (chan 1160181)
  • Original Post: Me Myself (2007) DVDRip x264 AC3





    Me...Myself

    Director: Pongpat Wachirabunjong
    Cast: Ananda Everingham, Chayanan Manomaisantiphap, Puttachat Pongsuchat

    Plot Synopsis
    A man is robbed while making a call in a phone booth. Staggering in the middle of the road from the beating by the thieves, he is then struck by a car driving by a woman named Oom. Feeling sorry for him, Oom brings the man to her apartment and gives him shelter. The man, it turns out, has developed amnesia. Based the name on a pendant the man is wearing – his only possession – Oom names him Tan. A doctor's examination reveals that Tan is uninjured except that he can't remember anything about his life prior to being struck by Oom's car. Tan is given a journal and urged to free associate in an effort to recall his past life. Eventually he finds out he was the star in a transvestite cabaret show.

    AKA:ขอให้รักจงเจริญ
    Year: 2007
    Country: Thailand
    Language: Thai
    Subtitles:English
    Film Genre: Drama
    IMDB:http://www.imdb.com/title/tt1020884/


    YouTube:Behind the Scenes & Music Video

    Movie Sample:http://www.dailymotion.com/video/xx1pdb

    Links:
    Wikipedia
    ThaiFilmDb
    Thaicinema
    Siam Zone
    NangDee

    Source: DVD9 PAL
    File Format: MKV
    Video Codec: x264 core129 r2245
    Resolution: 720x400
    Frame Rate: 25 fps
    Video Bitrate: 2500 2-pass
    Audio: 5.1 AC3 448
    Video Runtime: 1 hour 49 mins





  • 01/31/13--11:38: OK Baytong (2003) DVDRip x264 AAC (chan 1160181)
  • Original Post: OK Baytong (2003) DVDRip x264 AAC





    OK Baytong

    Director: Nonzee Nimibutr
    Cast: Phoovarit Phumpuang, Jeeranan Manojam, Attaporn Teemakorn

    Plot Synopsis
    Tum is a Buddhist monk for 27 years. When his sister is killed in a terrorist explosion on a train in the south of Thailand,
    he decided to disrobe in order to look after his niece. Once in the city, Tum has to learn a new life.
    Living above his sister's hair salon, he is confronted with a new world he knows nothing about, i.e. cell phones, drinking,
    sex, love, trousers with zip, to ride a bicycle, to work. This movie raises Buddhist vs Muslim themes.

    AKA:โอเคเบตง
    Year: 2003
    Country: Thailand
    Language: Thai
    Subtitles:English
    Film Genre: Drama
    IMDB:http://www.imdb.com/title/tt0398238/


    YouTube:Behind the Scenes & Music Video

    Movie Sample:http://www.dailymotion.com/video/xx1phr

    Links:
    Wikipedia
    ThaiFilmDb
    Siam Zone
    NangDee

    Source: DVD9 PAL
    File Format: MP4
    Video Codec: x264 core129 r2245
    Resolution: 704x400
    Frame Rate: 25 fps
    Video Bitrate: 950 2-pass
    Audio: stereo AAC-LC 128 ABR 2-pass
    Video Runtime: 1 hour 37 mins





    Original Post: Orange Caramel // A~ing ♡ [EP Album]

    Orange Caramel // A~ing [EP Album] (.mp3 @192kbps)



    Track Listing:
    1. A~ing ♡
    2. One Love
    3. Yet...
    4. Standing Here
    5. A~ing ♡ (Instrumental)


    Original Post: Orange Caramel // Magic Girl [EP Album]

    Orange Caramel // Magic Girl [EP Album] (.mp3 @320kbps)



    Track Listing:
    1. 마법소녀
    2. 사랑을 미룰 순 없나요
    3. 마법소녀 (Instrumental)
    4. 사랑을 미룰 순 없나요 (Instrumental)


    Original Post: Strong Heart E160 (Flower Boy Next Door) HDTV XVID KOR



    Strong Heart (Hangul: 강심장; Hanja: 强心臟) is a South Korean talk show or talk battle broadcast by Seoul Broadcasting System (SBS). It airs on Tuesdays from 11:50 to Wednesdays 00:30. It is hosted by Lee Dong Wook and Shin Dong Yeop with Boom, Super Junior's Leeteuk and Eunhyuk as hosts of a special segment and regular guests along with Kim Hyo Jin, Jung Juri and Yang Se Hyung. Who are known as six-fixed guests.

    English Subtitle by Dramafever
    December 25, 2012: Park Shin Hye, Yoon Shi Yoon, Kim Ji Hoon, Lee Ki Yong, Park Eun Ji, Go Kyung Pyo, Choi Ji Woo, Ji Sook, Mi Ru, Yang Jin Seok, Jung Joo Ri, Hae Geum




    Code
    Video
    ID                                       : 0
    Format                                   : MPEG-4 Visual
    Format profile                           : Advanced Simple@L5
    Format settings, BVOP                    : No
    Format settings, QPel                    : No
    Format settings, GMC                     : No warppoints
    Format settings, Matrix                  : Default (MPEG)
    Codec ID                                 : XVID
    Codec ID/Hint                            : XviD
    Duration                                 : 1h 22mn
    Bit rate                                 : 1 446 Kbps
    Width                                    : 624 pixels
    Height                                   : 352 pixels
    Display aspect ratio                     : 16:9
    Frame rate                               : 29.970 fps
    Color space                              : YUV
    Chroma subsampling                       : 4:2:0
    Bit depth                                : 8 bits
    Scan type                                : Progressive
    Compression mode                         : Lossy
    Bits/(Pixel*Frame)                       : 0.220
    Stream size                              : 849 MiB (91%)
    Writing library                          : XviD 1.2.1 (UTC 2008-12-04)

    Audio
    ID                                       : 1
    Format                                   : MPEG Audio
    Format version                           : Version 1
    Format profile                           : Layer 3
    Mode                                     : Joint stereo
    Mode extension                           : MS Stereo
    Codec ID                                 : 55
    Codec ID/Hint                            : MP3
    Duration                                 : 1h 22mn
    Bit rate mode                            : Constant
    Bit rate                                 : 128 Kbps
    Channel(s)                               : 2 channels
    Sampling rate                            : 48.0 KHz
    Compression mode                         : Lossy
    Stream size                              : 75.2 MiB (8%)
    Alignment                                : Aligned on interleaves
    Interleave, duration                     : 24 ms (0.72 video frame)
    Writing library                          : LAME3.98.2
    Language                                 : un




    Original Post: Strong Heart E160 (Flower Boy Next Door) HDTV 720p KOR



    Strong Heart (Hangul: 강심장; Hanja: 强心臟) is a South Korean talk show or talk battle broadcast by Seoul Broadcasting System (SBS). It airs on Tuesdays from 11:50 to Wednesdays 00:30. It is hosted by Lee Dong Wook and Shin Dong Yeop with Boom, Super Junior's Leeteuk and Eunhyuk as hosts of a special segment and regular guests along with Kim Hyo Jin, Jung Juri and Yang Se Hyung. Who are known as six-fixed guests.

    English Subtitle by Dramafever
    December 25, 2012: Park Shin Hye, Yoon Shi Yoon, Kim Ji Hoon, Lee Ki Yong, Park Eun Ji, Go Kyung Pyo, Choi Ji Woo, Ji Sook, Mi Ru, Yang Jin Seok, Jung Joo Ri, Hae Geum




    Code
    Video
    ID                                       : 0
    Format                                   : AVC
    Format/Info                              : Advanced Video Codec
    Format profile                           : High@L5.1
    Format settings, CABAC                   : Yes
    Format settings, ReFrames                : 4 frames
    Codec ID                                 : H264
    Duration                                 : 1h 16mn
    Bit rate                                 : 3 000 Kbps
    Width                                    : 1 280 pixels
    Height                                   : 720 pixels
    Display aspect ratio                     : 16:9
    Frame rate mode                          : Variable
    Frame rate                               : 29.970 fps
    Color space                              : YUV
    Chroma subsampling                       : 4:2:0
    Bit depth                                : 8 bits
    Scan type                                : Progressive
    Bits/(Pixel*Frame)                       : 0.109
    Stream size                              : 1.60 GiB (94%)
    Writing library                          : x264 core 112
    Encoding settings                        : cabac=1 / ref=3 / deblock=1:-1:-1 / analyse=0x3:0x113 / me=hex / subme=6 / psy=1 / psy_rd=1.00:1.00 / mixed_ref=1 / me_range=16 / chroma_me=1 / trellis=1 / 8x8dct=1 / cqm=0 / deadzone=21,11 / fast_pskip=0 / chroma_qp_offset=-4 / threads=12 / sliced_threads=0 / nr=0 / decimate=1 / interlaced=0 / constrained_intra=0 / bframes=3 / b_pyramid=2 / b_adapt=1 / b_bias=1 / direct=3 / weightb=1 / open_gop=0 / weightp=2 / keyint=299 / keyint_min=25 / scenecut=1 / intra_refresh=0 / rc_lookahead=40 / rc=abr / mbtree=1 / bitrate=3000 / ratetol=1.0 / qcomp=0.60 / qpmin=10 / qpmax=51 / qpstep=4 / ip_ratio=1.40 / aq=1:1.00

    Audio
    ID                                       : 1
    Format                                   : MPEG Audio
    Format version                           : Version 1
    Format profile                           : Layer 3
    Mode                                     : Joint stereo
    Mode extension                           : MS Stereo
    Codec ID                                 : 55
    Codec ID/Hint                            : MP3
    Duration                                 : 1h 16mn
    Bit rate mode                            : Constant
    Bit rate                                 : 192 Kbps
    Channel(s)                               : 2 channels
    Sampling rate                            : 48.0 KHz
    Compression mode                         : Lossy
    Stream size                              : 105 MiB (6%)
    Alignment                                : Split accross interleaves
    Interleave, duration                     : 33 ms (1.00 video frame)
    Interleave, preload duration             : 500 ms
    Writing library                          : LAME3.98.2





    Original Post: Antic Cafe discography 2005 - 2009

    File format: mp3
    Size: 718 MB
    Bitrate: 128kbps-320kbps

    Antic Cafe (アンティック-珈琲店- Antikku Kafe)is a Japanese pop rock band formed in 2003 and signed to Sony Music Japan. Their visual image is oshare kei, and they describe their music as "Harajuku Dance Rock". The group has released four full-length albums, one compilation album, and four EPs. On September 1, 2009, the band announced that after their live on January 4, 2010 at the Nippon Budokan, they would suspend activities and put the group on hiatus, however they stated they will not disband. On April 1, 2012, after two year break, the team announced the resumption of activity.

    Genres: Pop rock, dance rock, power pop

    Website: http://www.ancafe-web.com/

    Members:

       Miku (みく?) – Vocals
       Kanon (カノン?) – bass, backing vocals
       Teruki (輝喜?) – drums
       Takuya (タクヤ?) – guitars, backing vocals
       Yu-ki (ゆうき Yūki?) – keyboards, synthesizers

    Albums:

    [2005.02.23] Amedama Rock
    [2005.11.09] Shikisai Moment
    [2006.11.29] Magnya Carta
    [2008.04.09] Gokutama Rock Cafe
    [2009.09.09] BB Parallel World

    Compilation:

    [2009.12.09] Antic Cafe

    Enjoy smile1.gif



    Original Post: [MV/HD] T-ara - Cry Cry [Ballad Ver] (Karaoke) 1080P








    Thanks to DiademSubs for subbing.


    Code
    General

    Format                                   : AVI
    Format/Info                              : Audio Video Interleave
    File size                                : 189 MiB
    Duration                                 : 3mn 18s
    Overall bit rate                         : 7 999 Kbps
    Writing application                      : MEncoder SVN-r29352(20090610-gcc4.3.3)
    Writing library                          : VirtualDub build 32706/release

    Video
    ID                                       : 0
    Format                                   : MPEG-4 Visual
    Format profile                           : Advanced Simple@L5
    Format settings, BVOP                    : 2
    Format settings, QPel                    : No
    Format settings, GMC                     : No warppoints
    Format settings, Matrix                  : Default (H.263)
    Muxing mode                              : Packed bitstream
    Codec ID                                 : XVID
    Codec ID/Hint                            : XviD
    Duration                                 : 3mn 18s
    Bit rate                                 : 7 797 Kbps
    Width                                    : 1 920 pixels
    Height                                   : 1 080 pixels
    Display aspect ratio                     : 16:9
    Frame rate                               : 23.976 fps
    Color space                              : YUV
    Chroma subsampling                       : 4:2:0
    Bit depth                                : 8 bits
    Scan type                                : Progressive
    Compression mode                         : Lossy
    Bits/(Pixel*Frame)                       : 0.157
    Stream size                              : 184 MiB (97%)
    Writing library                          : XviD 64

    Audio
    ID                                       : 1
    Format                                   : MPEG Audio
    Format version                           : Version 1
    Format profile                           : Layer 3
    Mode                                     : Joint stereo
    Mode extension                           : MS Stereo
    Codec ID                                 : 55
    Codec ID/Hint                            : MP3
    Duration                                 : 3mn 18s
    Bit rate mode                            : Constant
    Bit rate                                 : 192 Kbps
    Channel(s)                               : 2 channels
    Sampling rate                            : 48.0 KHz
    Compression mode                         : Lossy
    Stream size                              : 4.54 MiB (2%)
    Alignment                                : Split accross interleaves
    Interleave, duration                     : 42 ms (1.00 video frame)
    Interleave, preload duration             : 500 ms
    Writing library                          : LAME3.98




older | 1 | .... | 809 | 810 | 811 | (Page 812) | 813 | 814 | 815 | .... | 1007 | newer