Are you the publisher? Claim or contact us about this channel


Embed this content in your HTML

Search

Report adult content:

click to rate:

Account: (login)

More Channels


Channel Catalog


Channel Description:

Asia Torrents RSS Feed

older | 1 | .... | 815 | 816 | 817 | (Page 818) | 819 | 820 | 821 | .... | 1169 | newer

    0 0

    Original Post: My Daughter Seo Young E45 HDTV XVID KOR


    Details
    Title: 내 딸 서영이 / Nae Ddal Seoyoungi
    Also known as: Seo Young, My Daughter
    Previously known as: 내 딸 소영이 / Nae Ddal Soyoungi / My Daughter So Young
    Genre: Family, melodrama, romance
    Episodes: 50
    Broadcast network: KBS2
    Broadcast period: 2012-Sep-15 to TBA
    Air time: Saturday & Sunday 19:55
    Subtitles by KBS will be added later

    Synopsis
    This drama will tell the story of a father who separates with his daughter, their love, hate and reconciliation. Seo Young (Lee Bo Young) is a tough woman who tries to escape the harsh life of poverty with a strong passion to gain success, overcome her lower status and rise in society. On the road to fullfill her dream, she cuts ties with her poor family and incompetent father (Chun Ho Jin) who still love his daughter despite her bitterness.

    Cast
    Lee Sam Jae's family
    Chun Ho Jin as Lee Sam Jae
    Lee Bo Young as Lee Seo Young
    Lee Hye In as young Seo Young
    Park Hae Jin as Lee Sang Woo
    Kim Min Kyung (김민경) as Seo Young and Sang Woo's mother
    Kang Ki Bum's family
    Choi Jung Woo as Kang Ki Bum
    Lee Sang Yoon as Kang Woo Jae
    Kim Hye Ok as Cha Ji Sun
    Park Jung Ah as Kang Mi Kyung
    Lee Jung Shin as Kang Sung Jae
    Choi Min Suk's family
    Hong Yo Seob as Choi Min Suk
    Song Ok Sook as Kim Kang Soon
    Choi Yoon Young as Choi Ho Jung
    Shim Hyung Tak as Choi Kyung Ho
    Other people
    Jo Eun Sook as Yoon So Mi
    Jang Hee Jin as Jung Sun Woo
    Min Young Won as Lee Yun Hee
    Kwak Seung Nam as Ko Seung Chan
    ?? as Bang Shim Duk
    Jo Ah Sung (주아성) as Jae Hee
    Kim Seol Hyun (김설현) as Seo Eun Soo
    Lee Seung Joo (이승주) as Woo Jae's friend
    Jung Ki Sung (정기성) as Young Ki (Mi Kyung's senior)
    Kim Kyung Joon (김경준) as Sung Jae's friend
    Kim Jong Min (김종민) as Seo Young's fake boyfriend (cameo, ep 1)
    Lee Ji Hye (이지혜) as top model patient (cameo, ep 6)
    Jung Seung Hwan (정승환) (cameo)




    Code
    Video
    ID                                       : 0
    Format                                   : MPEG-4 Visual
    Format profile                           : Advanced Simple@L5
    Format settings, BVOP                    : No
    Format settings, QPel                    : No
    Format settings, GMC                     : No warppoints
    Format settings, Matrix                  : Default (MPEG)
    Codec ID                                 : XVID
    Codec ID/Hint                            : XviD
    Duration                                 : 1h 6mn
    Bit rate                                 : 1 391 Kbps
    Width                                    : 624 pixels
    Height                                   : 352 pixels
    Display aspect ratio                     : 16:9
    Frame rate                               : 29.970 fps
    Color space                              : YUV
    Chroma subsampling                       : 4:2:0
    Bit depth                                : 8 bits
    Scan type                                : Progressive
    Compression mode                         : Lossy
    Bits/(Pixel*Frame)                       : 0.211
    Stream size                              : 660 MiB (87%)
    Writing library                          : XviD 1.2.1 (UTC 2008-12-04)

    Audio
    ID                                       : 1
    Format                                   : MPEG Audio
    Format version                           : Version 1
    Format profile                           : Layer 3
    Mode                                     : Joint stereo
    Mode extension                           : MS Stereo
    Codec ID                                 : 55
    Codec ID/Hint                            : MP3
    Duration                                 : 1h 6mn
    Bit rate mode                            : Constant
    Bit rate                                 : 128 Kbps
    Channel(s)                               : 2 channels
    Sampling rate                            : 48.0 KHz
    Compression mode                         : Lossy
    Stream size                              : 60.8 MiB (8%)
    Alignment                                : Aligned on interleaves
    Writing library                          : LAME3.98.2
    Language                                 : un



    0 0

    Original Post: My Daughter Seo Young E45 HDTV 720p KOR


    Details
    Title: 내 딸 서영이 / Nae Ddal Seoyoungi
    Also known as: Seo Young, My Daughter
    Previously known as: 내 딸 소영이 / Nae Ddal Soyoungi / My Daughter So Young
    Genre: Family, melodrama, romance
    Episodes: 50
    Broadcast network: KBS2
    Broadcast period: 2012-Sep-15 to TBA
    Air time: Saturday & Sunday 19:55
    Subtitles by KBS will be added later

    Synopsis
    This drama will tell the story of a father who separates with his daughter, their love, hate and reconciliation. Seo Young (Lee Bo Young) is a tough woman who tries to escape the harsh life of poverty with a strong passion to gain success, overcome her lower status and rise in society. On the road to fullfill her dream, she cuts ties with her poor family and incompetent father (Chun Ho Jin) who still love his daughter despite her bitterness.

    Cast
    Lee Sam Jae's family
    Chun Ho Jin as Lee Sam Jae
    Lee Bo Young as Lee Seo Young
    Lee Hye In as young Seo Young
    Park Hae Jin as Lee Sang Woo
    Kim Min Kyung (김민경) as Seo Young and Sang Woo's mother
    Kang Ki Bum's family
    Choi Jung Woo as Kang Ki Bum
    Lee Sang Yoon as Kang Woo Jae
    Kim Hye Ok as Cha Ji Sun
    Park Jung Ah as Kang Mi Kyung
    Lee Jung Shin as Kang Sung Jae
    Choi Min Suk's family
    Hong Yo Seob as Choi Min Suk
    Song Ok Sook as Kim Kang Soon
    Choi Yoon Young as Choi Ho Jung
    Shim Hyung Tak as Choi Kyung Ho
    Other people
    Jo Eun Sook as Yoon So Mi
    Jang Hee Jin as Jung Sun Woo
    Min Young Won as Lee Yun Hee
    Kwak Seung Nam as Ko Seung Chan
    ?? as Bang Shim Duk
    Jo Ah Sung (주아성) as Jae Hee
    Kim Seol Hyun (김설현) as Seo Eun Soo
    Lee Seung Joo (이승주) as Woo Jae's friend
    Jung Ki Sung (정기성) as Young Ki (Mi Kyung's senior)
    Kim Kyung Joon (김경준) as Sung Jae's friend
    Kim Jong Min (김종민) as Seo Young's fake boyfriend (cameo, ep 1)
    Lee Ji Hye (이지혜) as top model patient (cameo, ep 6)
    Jung Seung Hwan (정승환) (cameo)




    Code
    Video
    ID                               : 0
    Format                           : AVC
    Format/Info                      : Advanced Video Codec
    Format profile                   : High@L5.1
    Format settings, CABAC           : Yes
    Format settings, ReFrames        : 4 frames
    Codec ID                         : H264
    Duration                         : 1h 4mn
    Bit rate                         : 3 000 Kbps
    Width                            : 1 280 pixels
    Height                           : 720 pixels
    Display aspect ratio             : 16:9
    Frame rate mode                  : Variable
    Frame rate                       : 29.970 fps
    Color space                      : YUV
    Chroma subsampling               : 4:2:0
    Bit depth                        : 8 bits
    Scan type                        : Progressive
    Bits/(Pixel*Frame)               : 0.109
    Stream size                      : 1.35 GiB (94%)
    Writing library                  : x264 core 112
    Encoding settings                : cabac=1 / ref=3 / deblock=1:-1:-1 / analyse=0x3:0x113 / me=hex / subme=6 / psy=1 / psy_rd=1.00:1.00 / mixed_ref=1 / me_range=16 / chroma_me=1 / trellis=1 / 8x8dct=1 / cqm=0 / deadzone=21,11 / fast_pskip=0 / chroma_qp_offset=-4 / threads=12 / sliced_threads=0 / nr=0 / decimate=1 / interlaced=0 / constrained_intra=0 / bframes=3 / b_pyramid=2 / b_adapt=1 / b_bias=1 / direct=3 / weightb=1 / open_gop=0 / weightp=2 / keyint=299 / keyint_min=25 / scenecut=1 / intra_refresh=0 / rc_lookahead=40 / rc=abr / mbtree=1 / bitrate=3000 / ratetol=1.0 / qcomp=0.60 / qpmin=10 / qpmax=51 / qpstep=4 / ip_ratio=1.40 / aq=1:1.00

    Audio
    ID                               : 1
    Format                           : MPEG Audio
    Format version                   : Version 1
    Format profile                   : Layer 3
    Mode                             : Joint stereo
    Mode extension                   : MS Stereo
    Codec ID                         : 55
    Codec ID/Hint                    : MP3
    Duration                         : 1h 4mn
    Bit rate mode                    : Constant
    Bit rate                         : 192 Kbps
    Channel(s)                       : 2 channels
    Sampling rate                    : 48.0 KHz
    Stream size                      : 88.0 MiB (6%)
    Alignment                        : Split accross interleaves
    Interleave, duration             : 33 ms (1.00 video frame)
    Interleave, preload duration     : 500 ms
    Writing library                  : LAME3.98.2



    0 0

    Original Post: Incarnation of Money E05 HDTV XVID KOR



    Details
    Title: 돈의 화신 / Donui Hwashin
    Also known as: Money Incarnation / Money Demons / The Embodiment of Money / Money Incarnate
    Genre: Melodrama, romance, comedy, mystery
    Episodes: 24
    Broadcast network: SBS
    Broadcast period: 2013-Feb-02 to 2013-Apr-21
    Air time: Saturday & Sunday 21:50
    Original Soundtrack: Incarnation of Money OST
    Subtitles will be added when available

    Synopsis
    A drama based on law about money, love and passion. It is about lobbying, rebating, connecting and corruption of the Korean society through Lee Cha Don who loses everything because of money.
    Lee Cha Don (Kang Ji Hwan) is a man who rises to the seat of a special branch prosecutor with the money of a loan shark, while Bok Jae In (Hwang Jung Eum) is the daughter of the loan shark who raises Lee Cha Don.--HanCinema

    Main Cast
    Kang Ji Hwan as Lee Cha Don
    Park Ji Bin as young Cha Don
    Park Sang Min as Ji Se Kwang
    Hwang Jung Eum as Bok Jae In
    Seo Shin Ae as young Jae In
    Choi Yeo Jin as Jeon Ji Hoo
    Oh Yoon Ah as Eun Bi Ryung
    Kim Soo Mi as Bok Hwa Sool




    Code
    Video
    ID                                       : 0
    Format                                   : MPEG-4 Visual
    Format profile                           : Advanced Simple@L5
    Format settings, BVOP                    : No
    Format settings, QPel                    : No
    Format settings, GMC                     : No warppoints
    Format settings, Matrix                  : Default (MPEG)
    Codec ID                                 : XVID
    Codec ID/Hint                            : XviD
    Duration                                 : 1h 6mn
    Bit rate                                 : 1 391 Kbps
    Width                                    : 624 pixels
    Height                                   : 352 pixels
    Display aspect ratio                     : 16:9
    Frame rate                               : 29.970 fps
    Color space                              : YUV
    Chroma subsampling                       : 4:2:0
    Bit depth                                : 8 bits
    Scan type                                : Progressive
    Compression mode                         : Lossy
    Bits/(Pixel*Frame)                       : 0.211
    Stream size                              : 660 MiB (87%)
    Writing library                          : XviD 1.2.1 (UTC 2008-12-04)

    Audio
    ID                                       : 1
    Format                                   : MPEG Audio
    Format version                           : Version 1
    Format profile                           : Layer 3
    Mode                                     : Joint stereo
    Mode extension                           : MS Stereo
    Codec ID                                 : 55
    Codec ID/Hint                            : MP3
    Duration                                 : 1h 6mn
    Bit rate mode                            : Constant
    Bit rate                                 : 128 Kbps
    Channel(s)                               : 2 channels
    Sampling rate                            : 48.0 KHz
    Compression mode                         : Lossy
    Stream size                              : 60.8 MiB (8%)
    Alignment                                : Aligned on interleaves
    Writing library                          : LAME3.98.2
    Language                                 : un



    0 0

    Original Post: Hundred Year Inheritance E13 HDTV XVID KOR


    Details

    Title: 백년의 유산 / Baeknyeoneui Yoosan
    Also known as: One Hundred Years’ Legacy / 100 Years' Legacy
    Previously known as: 삼대째 국수집 / Samdaessae Gooksoojib / Third Generation Noodle House / Noodle House
    Genre: Family, romance
    Episodes: TBA
    Broadcast network: MBC
    Broadcast period: 2013-Jan-05 to 2013-???-??
    Air time: Saturday & Sunday 21:50
    Subtitles will be uploaded when available

    Synopsis

    A warm-hearted family drama about a long-running noodle house that’s been operated by one family for generations. This drama will revolve around themes of food, love and family.
    Min Chae Won (Eugene) is the granddaughter of a long-run, humble noodle house family. She is a lively and bright woman who comes to meet Lee Se Yoon (Lee Jung Jin), the son of a wealthy household who is infamous for his disparaging treatment of all those around him but actually a warm-hearted inside.

    Main Cast
    Eugene as Min Chae Won
    Lee Jung Jin as Lee Se Yoon
    Choi Won Young as Kim Chul Goo
    Yoon Ah Jung as Kim Joo Ri




    Code
    Video
    ID                                       : 0
    Format                                   : MPEG-4 Visual
    Format profile                           : Advanced Simple@L5
    Format settings, BVOP                    : No
    Format settings, QPel                    : No
    Format settings, GMC                     : No warppoints
    Format settings, Matrix                  : Default (MPEG)
    Codec ID                                 : XVID
    Codec ID/Hint                            : XviD
    Duration                                 : 1h 6mn
    Bit rate                                 : 1 391 Kbps
    Width                                    : 624 pixels
    Height                                   : 352 pixels
    Display aspect ratio                     : 16:9
    Frame rate                               : 29.970 fps
    Color space                              : YUV
    Chroma subsampling                       : 4:2:0
    Bit depth                                : 8 bits
    Scan type                                : Progressive
    Compression mode                         : Lossy
    Bits/(Pixel*Frame)                       : 0.211
    Stream size                              : 660 MiB (87%)
    Writing library                          : XviD 1.2.1 (UTC 2008-12-04)

    Audio
    ID                                       : 1
    Format                                   : MPEG Audio
    Format version                           : Version 1
    Format profile                           : Layer 3
    Mode                                     : Joint stereo
    Mode extension                           : MS Stereo
    Codec ID                                 : 55
    Codec ID/Hint                            : MP3
    Duration                                 : 1h 6mn
    Bit rate mode                            : Constant
    Bit rate                                 : 128 Kbps
    Channel(s)                               : 2 channels
    Sampling rate                            : 48.0 KHz
    Compression mode                         : Lossy
    Stream size                              : 60.8 MiB (8%)
    Alignment                                : Aligned on interleaves
    Writing library                          : LAME3.98.2
    Language                                 : un



    0 0

    Original Post: Hundred Year Inheritance E13 HDTV 720p KOR


    Details

    Title: 백년의 유산 / Baeknyeoneui Yoosan
    Also known as: One Hundred Years’ Legacy / 100 Years' Legacy
    Previously known as: 삼대째 국수집 / Samdaessae Gooksoojib / Third Generation Noodle House / Noodle House
    Genre: Family, romance
    Episodes: TBA
    Broadcast network: MBC
    Broadcast period: 2013-Jan-05 to 2013-???-??
    Air time: Saturday & Sunday 21:50
    Subtitles will be uploaded when available

    Synopsis

    A warm-hearted family drama about a long-running noodle house that’s been operated by one family for generations. This drama will revolve around themes of food, love and family.
    Min Chae Won (Eugene) is the granddaughter of a long-run, humble noodle house family. She is a lively and bright woman who comes to meet Lee Se Yoon (Lee Jung Jin), the son of a wealthy household who is infamous for his disparaging treatment of all those around him but actually a warm-hearted inside.

    Main Cast
    Eugene as Min Chae Won
    Lee Jung Jin as Lee Se Yoon
    Choi Won Young as Kim Chul Goo
    Yoon Ah Jung as Kim Joo Ri




    Code
    Video
    ID                               : 0
    Format                           : AVC
    Format/Info                      : Advanced Video Codec
    Format profile                   : High@L5.1
    Format settings, CABAC           : Yes
    Format settings, ReFrames        : 4 frames
    Codec ID                         : H264
    Duration                         : 1h 4mn
    Bit rate                         : 3 000 Kbps
    Width                            : 1 280 pixels
    Height                           : 720 pixels
    Display aspect ratio             : 16:9
    Frame rate mode                  : Variable
    Frame rate                       : 29.970 fps
    Color space                      : YUV
    Chroma subsampling               : 4:2:0
    Bit depth                        : 8 bits
    Scan type                        : Progressive
    Bits/(Pixel*Frame)               : 0.109
    Stream size                      : 1.35 GiB (94%)
    Writing library                  : x264 core 112
    Encoding settings                : cabac=1 / ref=3 / deblock=1:-1:-1 / analyse=0x3:0x113 / me=hex / subme=6 / psy=1 / psy_rd=1.00:1.00 / mixed_ref=1 / me_range=16 / chroma_me=1 / trellis=1 / 8x8dct=1 / cqm=0 / deadzone=21,11 / fast_pskip=0 / chroma_qp_offset=-4 / threads=12 / sliced_threads=0 / nr=0 / decimate=1 / interlaced=0 / constrained_intra=0 / bframes=3 / b_pyramid=2 / b_adapt=1 / b_bias=1 / direct=3 / weightb=1 / open_gop=0 / weightp=2 / keyint=299 / keyint_min=25 / scenecut=1 / intra_refresh=0 / rc_lookahead=40 / rc=abr / mbtree=1 / bitrate=3000 / ratetol=1.0 / qcomp=0.60 / qpmin=10 / qpmax=51 / qpstep=4 / ip_ratio=1.40 / aq=1:1.00

    Audio
    ID                               : 1
    Format                           : MPEG Audio
    Format version                   : Version 1
    Format profile                   : Layer 3
    Mode                             : Joint stereo
    Mode extension                   : MS Stereo
    Codec ID                         : 55
    Codec ID/Hint                    : MP3
    Duration                         : 1h 4mn
    Bit rate mode                    : Constant
    Bit rate                         : 192 Kbps
    Channel(s)                       : 2 channels
    Sampling rate                    : 48.0 KHz
    Stream size                      : 88.0 MiB (6%)
    Alignment                        : Split accross interleaves
    Interleave, duration             : 33 ms (1.00 video frame)
    Interleave, preload duration     : 500 ms
    Writing library                  : LAME3.98.2



    0 0

    Original Post: Incarnation of Money E05 HDTV 450p KOR



    Details
    Title: 돈의 화신 / Donui Hwashin
    Also known as: Money Incarnation / Money Demons / The Embodiment of Money / Money Incarnate
    Genre: Melodrama, romance, comedy, mystery
    Episodes: 24
    Broadcast network: SBS
    Broadcast period: 2013-Feb-02 to 2013-Apr-21
    Air time: Saturday & Sunday 21:50
    Original Soundtrack: Incarnation of Money OST
    Subtitles will be added when available

    Synopsis
    A drama based on law about money, love and passion. It is about lobbying, rebating, connecting and corruption of the Korean society through Lee Cha Don who loses everything because of money.
    Lee Cha Don (Kang Ji Hwan) is a man who rises to the seat of a special branch prosecutor with the money of a loan shark, while Bok Jae In (Hwang Jung Eum) is the daughter of the loan shark who raises Lee Cha Don.--HanCinema

    Main Cast
    Kang Ji Hwan as Lee Cha Don
    Park Ji Bin as young Cha Don
    Park Sang Min as Ji Se Kwang
    Hwang Jung Eum as Bok Jae In
    Seo Shin Ae as young Jae In
    Choi Yeo Jin as Jeon Ji Hoo
    Oh Yoon Ah as Eun Bi Ryung
    Kim Soo Mi as Bok Hwa Sool




    Code
    Video
    ID                                       : 0
    Format                                   : AVC
    Format/Info                              : Advanced Video Codec
    Format profile                           : High@L5.1
    Format settings, CABAC                   : Yes
    Format settings, ReFrames                : 4 frames
    Codec ID                                 : H264
    Duration                                 : 1h 4mn
    Bit rate                                 : 1 500 Kbps
    Width                                    : 800 pixels
    Height                                   : 450 pixels
    Display aspect ratio                     : 16:9
    Frame rate mode                          : Variable
    Frame rate                               : 29.970 fps
    Color space                              : YUV
    Chroma subsampling                       : 4:2:0
    Bit depth                                : 8 bits
    Scan type                                : Progressive
    Bits/(Pixel*Frame)                       : 0.139
    Stream size                              : 686 MiB (88%)
    Writing library                          : x264 core 112

    Audio
    ID                                       : 1
    Format                                   : MPEG Audio
    Format version                           : Version 1
    Format profile                           : Layer 3
    Mode                                     : Joint stereo
    Mode extension                           : MS Stereo
    Codec ID                                 : 55
    Codec ID/Hint                            : MP3
    Duration                                 : 1h 4mn
    Bit rate mode                            : Constant
    Bit rate                                 : 192 Kbps
    Channel(s)                               : 2 channels
    Sampling rate                            : 48.0 KHz
    Compression mode                         : Lossy
    Stream size                              : 88.3 MiB (11%)
    Alignment                                : Aligned on interleaves
    Interleave, duration                     : 24 ms (0.72 video frame)
    Writing library                          : LAME3.98.2
    Language                                 : Korean



    0 0

    Original Post: Incarnation of Money E05 HDTV 720p KOR



    Details
    Title: 돈의 화신 / Donui Hwashin
    Also known as: Money Incarnation / Money Demons / The Embodiment of Money / Money Incarnate
    Genre: Melodrama, romance, comedy, mystery
    Episodes: 24
    Broadcast network: SBS
    Broadcast period: 2013-Feb-02 to 2013-Apr-21
    Air time: Saturday & Sunday 21:50
    Original Soundtrack: Incarnation of Money OST
    Subtitles will be added when available

    Synopsis
    A drama based on law about money, love and passion. It is about lobbying, rebating, connecting and corruption of the Korean society through Lee Cha Don who loses everything because of money.
    Lee Cha Don (Kang Ji Hwan) is a man who rises to the seat of a special branch prosecutor with the money of a loan shark, while Bok Jae In (Hwang Jung Eum) is the daughter of the loan shark who raises Lee Cha Don.--HanCinema

    Main Cast
    Kang Ji Hwan as Lee Cha Don
    Park Ji Bin as young Cha Don
    Park Sang Min as Ji Se Kwang
    Hwang Jung Eum as Bok Jae In
    Seo Shin Ae as young Jae In
    Choi Yeo Jin as Jeon Ji Hoo
    Oh Yoon Ah as Eun Bi Ryung
    Kim Soo Mi as Bok Hwa Sool




    Code
    Video
    ID                                       : 0
    Format                                   : AVC
    Format/Info                              : Advanced Video Codec
    Format profile                           : High@L5.1
    Format settings, CABAC                   : Yes
    Format settings, ReFrames                : 4 frames
    Codec ID                                 : H264
    Duration                                 : 1h 4mn
    Bit rate                                 : 1 500 Kbps
    Width                                    : 800 pixels
    Height                                   : 450 pixels
    Display aspect ratio                     : 16:9
    Frame rate mode                          : Variable
    Frame rate                               : 29.970 fps
    Color space                              : YUV
    Chroma subsampling                       : 4:2:0
    Bit depth                                : 8 bits
    Scan type                                : Progressive
    Bits/(Pixel*Frame)                       : 0.139
    Stream size                              : 686 MiB (88%)
    Writing library                          : x264 core 112

    Audio
    ID                                       : 1
    Format                                   : MPEG Audio
    Format version                           : Version 1
    Format profile                           : Layer 3
    Mode                                     : Joint stereo
    Mode extension                           : MS Stereo
    Codec ID                                 : 55
    Codec ID/Hint                            : MP3
    Duration                                 : 1h 4mn
    Bit rate mode                            : Constant
    Bit rate                                 : 192 Kbps
    Channel(s)                               : 2 channels
    Sampling rate                            : 48.0 KHz
    Compression mode                         : Lossy
    Stream size                              : 88.3 MiB (11%)
    Alignment                                : Aligned on interleaves
    Interleave, duration                     : 24 ms (0.72 video frame)
    Writing library                          : LAME3.98.2
    Language                                 : Korean



    0 0

    Original Post: The Wings Of Kirin 2012 DVDRip XVID [LURAZ]




    Synopsis

    A man's body is found under the statue of a giraffe with wings in the Nihombashi area of Tokyo. A suspect named Yashima has a car accident and falls unconscious while he is attempting to run away. Yashima's lover Kaori comes from Fukushima and tells detectives that he is absolutely not a criminal. Meanwhile, Detective Kyoichiro Kaga's (Hiroshi Abe) investigates and uncovers a point of contact between the dead body and Yashima. A hidden fact of the victim is revealed which even his children did not know about ...

    Info

    Complete name : THE WINGS OF KIRIN DVDRip XVID [LURAZ].avi
    Original name :  Kirin no Tsubasa: Gekijoban Shinzanmono
    Subtitle : English Hardcode
    Format : AVI
    Format/Info : Audio Video Interleave
    Format profile : OpenDML
    File size : 1.05 GiB
    Duration : 2h 9mn
    Overall bit rate : 1 166 Kbps
    Writing application : MEncoder SVN-r33883(20110719-gcc4.5.2)
    Writing library : MPlayer

    Video

    ID : 0
    Format : MPEG-4 Visual
    Format profile : Advanced Simple@L5
    Format settings, BVOP : 2
    Format settings, QPel : No
    Format settings, GMC : No warppoints
    Format settings, Matrix : Default (H.263)
    Codec ID : XVID
    Codec ID/Hint : XviD
    Duration : 2h 9mn
    Bit rate : 1 022 Kbps
    Width : 854 pixels
    Height : 480 pixels
    Display aspect ratio : 16:9
    Frame rate : 24.000 fps
    Color space : YUV
    Chroma subsampling : 4:2:0
    Bit depth : 8 bits
    Scan type : Progressive
    Compression mode : Lossy
    Bits/(Pixel*Frame) : 0.104
    Stream size : 947 MiB (88%)
    Writing library : XviD 1.2.1 (UTC 2008-12-04)

    Audio

    ID : 1
    Format : MPEG Audio
    Format version : Version 1
    Format profile : Layer 3
    Mode : Joint stereo
    Mode extension : MS Stereo
    Codec ID : 55
    Codec ID/Hint : MP3
    Duration : 2h 9mn
    Bit rate mode : Constant
    Bit rate : 128 Kbps
    Channel(s) : 2 channels
    Sampling rate : 44.1 KHz
    Compression mode : Lossy
    Delay relative to video : 42ms
    Stream size : 119 MiB (11%)
    Alignment : Aligned on interleaves
    Interleave, duration : 26 ms (0.63 video frame)
    Interleave, preload duration : 522 ms

    Shots



    ENJOY WATCHING AND SEEDING!





    0 0

    Original Post: 101st Marriage Proposal (2013) HDRip x264 AAC-DWR



    MOVIE INFO
    Title: 101 proposal
    Title in Pinyin : 101 Ci Qiu Hun
    Links : http://www.topchinesemovies.com/101-proposals/
    imDB: http://www.imdb.com/title/tt2277668/
    Director: Leste Chen
    Screenplay: Zhang Wei / Peng Ren
    Genre: Romance
    Producer countries / regions: China / Taiwan / Japan
    Language: Mandarin
    Release Date: 2013-02-12 (Mainland China)
    Running Time: 104 minutes
    Subtitles : Chinese / English (Hardsub)

    CAST
    Lin Chiling – Cellist
    Huang Bo – Huang Da
    Godfrey Gao – Rich cad
    Amanda Qin

    FILE TECHNICAL SPEC
    File Format..........: mp4
    Codec................: MP4/x264
    Resolution...........: 1280 X 544
    AR...................: 2.35:1
    Frame Rate...........: 23.976 fps
    Audio................: AAC
    Audio Bitrate........: 93.3kbps - 133kbps

    SCREENSHOT


    PLOT
    Huang Da is a down on his luck ordinary guy who has desperate for love and tries to propose to a beautiful young cellist. His attempts to propose are complicated by a rich, charming and handsome rival who is determined to win the girl’s hand at all costs. Can Huang Da with his heart of gold triumph in love over a man who has everything he does not?

    TRAILER


    CREDIT TO DWR
    LEECH, SEED & ENJOYthumbsup.gif


    0 0

    Original Post: NEKO_TOKIDOKI_RAION (2012) [DVD RIP] [NO ENGLISH SUBS]





    Information Link: http://www.amazon.co.jp/gp/product/B006Y42XSI/
    Cast:
    Directed:
    Genre: Children's Entertainment
    Runtime: 34mn
    Also Known As:
    Country: Japan
    Language: Japanese
    Subtitles: No Subtitles

    Type.................: MOVIE
    File Format..........: MPEG-4
    Codec................: MP42/AVC1
    Resolution...........: 72x480
    AR...................: 16:9
    Video Bitrate........: 4253kb/s
    Audio................: AAC/AC-3
    Audio Bitrate........: 160kbps - 224kbps
    Source...............: RETAIL DVD

    Description: (JP -> EN Translation by Google)
    Best song of the month of the long-awaited DVD collection of songs of the month for one year! !

    Best DVD a collection of songs Okaasan to Issho NHK, monthly.
    The title song "The Lion cat sometimes" a popular song Teasobi
    Full of songs that everyone waiting-for example, "Kon and Konnyaku" "Let's go with a smile knows" "Go! Go Go! Shinkansen" even more! !

    All 16 songs plus 7 tracks, such as the familiar songs and popular songs with "Saturday! Atsumare" song to the tune of 9 March 2012 until April 2011.
    The song is included as a binder, such as the original DVD.

    Singing the end of the video-recorded award show specials.

    (Except Bonus) karaoke lyrics display function

    [Track]
    Go on the Shinkansen bus whale! Go Go!
    Lion dance-it in the dream-ん ★ Ruru Yukiho robot Max Mons Tap replies Taro Kocho of insect-kitchy-koo Take It sometimes smile-cat friends

    · Let us change within your small ふ I-Con and konjac song becomes someone's favorite curry everyone Kitchen Orchestra


    [Bonus] Uta Gassen end Okaasan to Issho! (Scheduled for all 9 tracks on this disc)
    Ho! Ho! Ho! Chan, who was troubled troubled-kun, I'm okay as we're together, the temperature energetic song, of Rarapa,
    なかよし will change, within your cha-cha Taro cold, north wind toy brat, Futari


    [Specifications Edition]
    As soon as I switched to the normal specification eliminates Reversible Jacket / Skeleton Case ※


    [Cast]
    Yoshihisa Kobayashi confused: Gymnastics brother Takumi Mitani: Daisuke Yokoyama sister of song: song brother! Pokopotteito Mayu Ito: Mute sister of Gil, Minya, Mekobu


    Pony Canyon Sold by: NHK Enterprise Issue: NHK Educational: Planning and production
    Content (from "Kinemajunposha" database)
    Best DVD song "Okaasan to Issho" NHK's popular with children. In addition to the seven songs number popular familiar songs and nine songs that have been aired in March 2012 from April 2011 In addition to "The Lion sometimes cats" in the "Saturday! Atsumare", the Singing end-specials program to Bonus recorded.
    Content (from "Oricon" database)
    Best DVD song of the month once a year "Okaasan to Issho". Best DVD version of a collection of songs that decision is sung in daily broadcasting, are loved. And popular songs from April 2012 until March 2011, all 16 songs plus the familiar in songs such as "Saturday! Atsumare". The song is included as a binder, such as the original DVD. Singing the end of the video-recorded award show specials.


    0 0

    Original Post: FUNFUN_SMILE (2012) [DVD-RIP] [NO ENGLISH SUBS]





    Information Link: http://www.amazon.co.jp/gp/product/B008YPJ8VK/
    Cast:
    Directed:
    Genre: Children's Entertainment
    Runtime: 1h 10mn
    Also Known As:
    Country: Japan
    Language: Japanese
    Subtitles: No Subtitles

    Type.................: MOVIE
    File Format..........: MPEG-4
    Codec................: MP42/AVC1
    Resolution...........: 72x480
    AR...................: 16:9
    Video Bitrate........: 4253kb/s
    Audio................: AAC/AC-3
    Audio Bitrate........: 160kbps - 224kbps
    Source...............: RETAIL DVD

    Description: (JP -> EN Translation by Google)
    Complete recording of the special stage that took place at the Saitama Super Arena in August 2012!

    In addition to the usual members and Pokopotteito, of "mixed up!", Sister Mayu Ito, Osamu Sakata brother, Pakkororin, smiling, this time, also appeared Pun!
    Then, from the "! Had if not absent" infant popular NHK program, also participated Doggy Guest!

    Just a little bit different from the family concert, it is a special luxury and lively stage.

    Simultaneous release CD.


    [Track]
    -If I turn the earth! Atsumare fan fan fan-box-it-a-smile! Atsumare Ovu~achua?
    ~ Balloon-cha-cha-punt! ~ Toy-Doraneko rock'n'roll Yahho Ho walked slowly smile-so-Take It Puta Yes I'll pa
    , Position, Nino, Hart Concern filled Nomukou-march to the same robot Boyoyon ★ Max replies confused! Special march-roots or Lion cat sometimes!
    Go! Shinkansen Go-Go!
    Tsu-Kitchen Orchestra パチパチ parade!
    - Tomorrow, cheering Papapapa Pan Pan Pan Ska Don will join hands with hands and swollen!

    [Bonus]
    ~ Fukunokami no 福 Family Concert Tour 2011 Mini-Musical
    ♪ I, Taro Kocho of insect kitchy-koo!, Let's go happy, with a smile

    Initial benefits】 ※ Edition specification] The reversible jacket, skeleton case to be limited by the quantity lasts, there is no stock

    Smile / Doggy / Pakkororin / Mayu Ito / Osamu Sakata / Pokopotteito / Lisa Uehara / Y. Kobayashi / takumi Mitani / Daisuke Yokoyama [appearance], Pun


    NHK Educational Issued by: Planning and Production
    Content (from "Kinemajunposha" database)
    DVD into the special stage of popular NHK program, which was held at the Saitama Super Arena in August. Showcase the fun stage we Pokopotteito popular characters and performers familiar song and dance were fused. Also appeared in my Doggy! "If you have not had not" popular program.
    Content (from "Oricon" database)
    Complete recording of the special stage that took place at the Saitama Super Arena in August 2012. My sister Mayu Ito of "mixed up!" In addition, older brother Osamu Sakata, Pakkororin, smiling, this time, appeared to Pokopotteito Pun members and always. In addition, guest participation from Doggy! "If you have not had no show" NHK also popular infant. Special Family Concert Stage and bustling luxurious and just a little bit different.


    0 0
  • 02/16/13--10:50: Queen Of Ambition OST Part.1
  • Original Post: Queen Of Ambition OST Part.1

    Album Title : 야왕 OST Part 1  (Queen Of Ambition OST Part.1)

    Artist : 김남길 (Kim Nam Gil)
    Release Date : 2013-01-14
    Genre : OST
    Language : Korean
    Bit Rate : 128 kbps
    Track List
    1. 너는 모른다 (You Dont Know)
    2. 너는 모른다 (You Dont Know Inst.)


    0 0
  • 02/16/13--11:02: Queen Of Ambition OST Part.2
  • Original Post: Queen Of Ambition OST Part.2

    Album Title : 야왕 OST Part 2  (Queen Of Ambition OST Part.2)

    Artist : 에일리 (Ailee)
    Release Date : 2013-01-28
    Genre : OST
    Language : Korean
    Bit Rate : 128 kbps
    Track List
    1. 사랑해 미워해 (Ice Flower )
    2. 사랑해 미워해 (Ice Flower Inst.)


    0 0

    Original Post: Goddess.Of.Glass.Vol.2.2012.720p.KORSUB.HDRip.XviD-Gaon

    Warning: Nudity | Sex



    Title: Goddess Of Glass Vol.2
    Hangul: 유리의 여신 2
    Year: 2012
    Genre: Drama | Erotic
    Runtime: 1 hour 19 min.
    Country: Japan
    Language: Japanese
    Subtitles: Korean (hardsubbed)

    Synopsis
    None found in english.

    어느 날 대학에 다니는 소설가 지망생 쿠리미야는 우연히 사쿠라를 만나게 된다. 사쿠라는 쿠리미야에게 대학에서 열리는 미스 캠퍼스 콘테스트에 나가라고 하고 쿠리미야는 자신은 나갈 수 없다며 후배를 소개시켜 준다고 한다. 그 후 쿠리미야는 후배 아야를 소개시켜주지만 아야와 사쿠라는 이미 예전부터 좋아하는 사이였다. 그런 일이 있은 후 사쿠라는 점점 쿠리미야를 좋아하게 되고 쿠리미야는 아야를 배신할 수 없다며 만나기를 꺼려한다. 아야는 콘테스트에 나가 우승을 하고 프로덕션에도 나가는 등 바쁘게 생활하지만 사쿠라로부터 헤어지자는 얘기를 듣고 놀란다. 사쿠라는 쿠리미야에게 아야와 헤어졌다고 얘기하고 쿠리미야 역시 전부터 좋아하고 있던 사쿠라를 받아들여 행복한 미래를 꿈꾼다.

    General
    Complete name                  : Goddess.Of.Glass.Vol.2.2012.720p.KORSUB.HDRip.XviD-Gaon.avi
    Format                         : AVI
    Format/Info                    : Audio Video Interleave
    Format profile                 : OpenDML
    File size                      : 2.04 GiB
    Duration                       : 1h 19mn
    Overall bit rate               : 3 684 Kbps

    Video
    ID                             : 0
    Format                         : MPEG-4 Visual
    Format profile                 : Simple@L1
    Format settings, BVOP          : No
    Format settings, QPel          : No
    Format settings, GMC           : No warppoints
    Format settings, Matrix        : Default (H.263)
    Codec ID                       : XVID
    Codec ID/Hint                  : XviD
    Duration                       : 1h 19mn
    Bit rate                       : 3 542 Kbps
    Width                          : 1 920 pixels
    Height                         : 1 080 pixels
    Display aspect ratio           : 16:9
    Frame rate                     : 29.970 fps
    Color space                    : YUV
    Chroma subsampling             : 4:2:0
    Bit depth                      : 8 bits
    Scan type                      : Progressive
    Compression mode               : Lossy
    Bits/(Pixel*Frame)             : 0.057
    Stream size                    : 1.97 GiB (96%)

    Audio
    ID                             : 1
    Format                         : MPEG Audio
    Format version                 : Version 1
    Format profile                 : Layer 3
    Mode                           : Joint stereo
    Mode extension                 : MS Stereo
    Codec ID                       : 55
    Codec ID/Hint                  : MP3
    Duration                       : 1h 19mn
    Bit rate mode                  : Constant
    Bit rate                       : 128 Kbps
    Channel(s)                     : 2 channels
    Sampling rate                  : 48.0 KHz
    Compression mode               : Lossy



    0 0

    Original Post: Cheer Up Mr Kim E048 HDTV XVID KOR



    Details

    Title: 힘내요, 미스터 김! / Himnaeyo, Miseuteo Kim!
    Genre: Family, romance, comedy
    Episodes: 100+
    Broadcast network: KBS1
    Broadcast period: 2012-Nov-05 to 2013-??-??
    Airtime: Monday to Friday 20:25
    Subtitles by KBSWorld

    Synopsis

    A family drama about a bachelor who raises four children and works all sorts of jobs to support his adopted family.
    Kim Tae Pyung (Kim Dong Wan) is the guardian of four children with different family names and is an apartment cleaner and housework helper with good looks and skilled hands. He is one tough guy who's made up of patience and perseverance and he takes care of children who are in the same situation as him in the past.--HanCinema
    Cast

    Main Cast
    Kim Dong Wan as Kim Tae Pyung
    Wang Ji Hye as Lee Woo Kyung
    Choi Jung Yoon as Chun Ji Young
    Yang Jin Woo as Baek Gun Wook
    Tae Pyung's family
    Suh Ji Hee as Kim Hee Rae
    Yun Joon Suk as Ri Chul Ryong
    Oh Jae Moo as Go Joo Sung
    Noh Jung Ui as Song Ah
    Woo Kyung's family
    Choi Il Hwa as Lee Sang Gook
    Sa Mi Ja as Oh Ssang Shim
    Jung Jae Soon as Oh Ssang Ji
    Kang Sung Min as Ho Kyung
    Ji Young's family
    Baek Il Sub as Chun Kyung Sool
    Lee Doo Il as Chun Myung Kwan
    Jin Kyung as Jo Jae Nam
    Kim Soo Yun as Chun Joo Hee
    Gun Wook's family
    Kim Hye Sun as Hong Hae Sook
    Lee Jung Kil as Baek Jae Sang
    Other people
    Song Seo Yun as Joo Yun Ji
    Kim Duk Hyun as Director Kim




    Code
    Video
    ID                                       : 0
    Format                                   : MPEG-4 Visual
    Format profile                           : Advanced Simple@L5
    Format settings, BVOP                    : No
    Format settings, QPel                    : No
    Format settings, GMC                     : No warppoints
    Format settings, Matrix                  : Default (MPEG)
    Codec ID                                 : XVID
    Codec ID/Hint                            : XviD
    Duration                                 : 35mn 1s
    Bit rate                                 : 1 447 Kbps
    Width                                    : 624 pixels
    Height                                   : 352 pixels
    Display aspect ratio                     : 16:9
    Frame rate                               : 29.970 fps
    Color space                              : YUV
    Chroma subsampling                       : 4:2:0
    Bit depth                                : 8 bits
    Scan type                                : Progressive
    Compression mode                         : Lossy
    Bits/(Pixel*Frame)                       : 0.220
    Stream size                              : 363 MiB (91%)
    Writing library                          : XviD 1.2.1 (UTC 2008-12-04)

    Audio
    ID                                       : 1
    Format                                   : MPEG Audio
    Format version                           : Version 1
    Format profile                           : Layer 3
    Mode                                     : Joint stereo
    Mode extension                           : MS Stereo
    Codec ID                                 : 55
    Codec ID/Hint                            : MP3
    Duration                                 : 35mn 1s
    Bit rate mode                            : Constant
    Bit rate                                 : 128 Kbps
    Channel(s)                               : 2 channels
    Sampling rate                            : 48.0 KHz
    Compression mode                         : Lossy
    Stream size                              : 32.1 MiB (8%)
    Alignment                                : Aligned on interleaves
    Interleave, duration                     : 24 ms (0.72 video frame)
    Writing library                          : LAME3.98.2
    Language                                 : un



    0 0

    Original Post: Cheer Up Mr Kim E048 HDTV 450p KOR



    Details

    Title: 힘내요, 미스터 김! / Himnaeyo, Miseuteo Kim!
    Genre: Family, romance, comedy
    Episodes: 100+
    Broadcast network: KBS1
    Broadcast period: 2012-Nov-05 to 2013-??-??
    Airtime: Monday to Friday 20:25
    Subtitles by KBSWorld

    Synopsis

    A family drama about a bachelor who raises four children and works all sorts of jobs to support his adopted family.
    Kim Tae Pyung (Kim Dong Wan) is the guardian of four children with different family names and is an apartment cleaner and housework helper with good looks and skilled hands. He is one tough guy who's made up of patience and perseverance and he takes care of children who are in the same situation as him in the past.--HanCinema
    Cast

    Main Cast
    Kim Dong Wan as Kim Tae Pyung
    Wang Ji Hye as Lee Woo Kyung
    Choi Jung Yoon as Chun Ji Young
    Yang Jin Woo as Baek Gun Wook
    Tae Pyung's family
    Suh Ji Hee as Kim Hee Rae
    Yun Joon Suk as Ri Chul Ryong
    Oh Jae Moo as Go Joo Sung
    Noh Jung Ui as Song Ah
    Woo Kyung's family
    Choi Il Hwa as Lee Sang Gook
    Sa Mi Ja as Oh Ssang Shim
    Jung Jae Soon as Oh Ssang Ji
    Kang Sung Min as Ho Kyung
    Ji Young's family
    Baek Il Sub as Chun Kyung Sool
    Lee Doo Il as Chun Myung Kwan
    Jin Kyung as Jo Jae Nam
    Kim Soo Yun as Chun Joo Hee
    Gun Wook's family
    Kim Hye Sun as Hong Hae Sook
    Lee Jung Kil as Baek Jae Sang
    Other people
    Song Seo Yun as Joo Yun Ji
    Kim Duk Hyun as Director Kim




    Code
    Video
    ID                                       : 0
    Format                                   : AVC
    Format/Info                              : Advanced Video Codec
    Format profile                           : High@L5.1
    Format settings, CABAC                   : Yes
    Format settings, ReFrames                : 4 frames
    Codec ID                                 : H264
    Duration                                 : 1h 4mn
    Bit rate                                 : 1 500 Kbps
    Width                                    : 800 pixels
    Height                                   : 450 pixels
    Display aspect ratio                     : 16:9
    Frame rate mode                          : Variable
    Frame rate                               : 29.970 fps
    Color space                              : YUV
    Chroma subsampling                       : 4:2:0
    Bit depth                                : 8 bits
    Scan type                                : Progressive
    Bits/(Pixel*Frame)                       : 0.139
    Stream size                              : 686 MiB (88%)
    Writing library                          : x264 core 112

    Audio
    ID                                       : 1
    Format                                   : MPEG Audio
    Format version                           : Version 1
    Format profile                           : Layer 3
    Mode                                     : Joint stereo
    Mode extension                           : MS Stereo
    Codec ID                                 : 55
    Codec ID/Hint                            : MP3
    Duration                                 : 1h 4mn
    Bit rate mode                            : Constant
    Bit rate                                 : 192 Kbps
    Channel(s)                               : 2 channels
    Sampling rate                            : 48.0 KHz
    Compression mode                         : Lossy
    Stream size                              : 88.3 MiB (11%)
    Alignment                                : Aligned on interleaves
    Interleave, duration                     : 24 ms (0.72 video frame)
    Writing library                          : LAME3.98.2
    Language                                 : Korean



    Details

    Title: 힘내요, 미스터 김! / Himnaeyo, Miseuteo Kim!
    Genre: Family, romance, comedy
    Episodes: 100+
    Broadcast network: KBS1
    Broadcast period: 2012-Nov-05 to 2013-??-??
    Airtime: Monday to Friday 20:25
    Subtitles by KBSWorld

    Synopsis

    A family drama about a bachelor who raises four children and works all sorts of jobs to support his adopted family.
    Kim Tae Pyung (Kim Dong Wan) is the guardian of four children with different family names and is an apartment cleaner and housework helper with good looks and skilled hands. He is one tough guy who's made up of patience and perseverance and he takes care of children who are in the same situation as him in the past.--HanCinema
    Cast

    Main Cast
    Kim Dong Wan as Kim Tae Pyung
    Wang Ji Hye as Lee Woo Kyung
    Choi Jung Yoon as Chun Ji Young
    Yang Jin Woo as Baek Gun Wook
    Tae Pyung's family
    Suh Ji Hee as Kim Hee Rae
    Yun Joon Suk as Ri Chul Ryong
    Oh Jae Moo as Go Joo Sung
    Noh Jung Ui as Song Ah
    Woo Kyung's family
    Choi Il Hwa as Lee Sang Gook
    Sa Mi Ja as Oh Ssang Shim
    Jung Jae Soon as Oh Ssang Ji
    Kang Sung Min as Ho Kyung
    Ji Young's family
    Baek Il Sub as Chun Kyung Sool
    Lee Doo Il as Chun Myung Kwan
    Jin Kyung as Jo Jae Nam
    Kim Soo Yun as Chun Joo Hee
    Gun Wook's family
    Kim Hye Sun as Hong Hae Sook
    Lee Jung Kil as Baek Jae Sang
    Other people
    Song Seo Yun as Joo Yun Ji
    Kim Duk Hyun as Director Kim




    Code
    Video
    ID                                       : 0
    Format                                   : AVC
    Format/Info                              : Advanced Video Codec
    Format profile                           : High@L5.1
    Format settings, CABAC                   : Yes
    Format settings, ReFrames                : 4 frames
    Codec ID                                 : H264
    Duration                                 : 1h 4mn
    Bit rate                                 : 1 500 Kbps
    Width                                    : 800 pixels
    Height                                   : 450 pixels
    Display aspect ratio                     : 16:9
    Frame rate mode                          : Variable
    Frame rate                               : 29.970 fps
    Color space                              : YUV
    Chroma subsampling                       : 4:2:0
    Bit depth                                : 8 bits
    Scan type                                : Progressive
    Bits/(Pixel*Frame)                       : 0.139
    Stream size                              : 686 MiB (88%)
    Writing library                          : x264 core 112

    Audio
    ID                                       : 1
    Format                                   : MPEG Audio
    Format version                           : Version 1
    Format profile                           : Layer 3
    Mode                                     : Joint stereo
    Mode extension                           : MS Stereo
    Codec ID                                 : 55
    Codec ID/Hint                            : MP3
    Duration                                 : 1h 4mn
    Bit rate mode                            : Constant
    Bit rate                                 : 192 Kbps
    Channel(s)                               : 2 channels
    Sampling rate                            : 48.0 KHz
    Compression mode                         : Lossy
    Stream size                              : 88.3 MiB (11%)
    Alignment                                : Aligned on interleaves
    Interleave, duration                     : 24 ms (0.72 video frame)
    Writing library                          : LAME3.98.2
    Language                                 : Korean



    0 0

    Original Post: Cheer Up Mr Kim E048 HDTV 720p KOR



    Details

    Title: 힘내요, 미스터 김! / Himnaeyo, Miseuteo Kim!
    Genre: Family, romance, comedy
    Episodes: 100+
    Broadcast network: KBS1
    Broadcast period: 2012-Nov-05 to 2013-??-??
    Airtime: Monday to Friday 20:25
    Subtitles by KBSWorld

    Synopsis

    A family drama about a bachelor who raises four children and works all sorts of jobs to support his adopted family.
    Kim Tae Pyung (Kim Dong Wan) is the guardian of four children with different family names and is an apartment cleaner and housework helper with good looks and skilled hands. He is one tough guy who's made up of patience and perseverance and he takes care of children who are in the same situation as him in the past.--HanCinema
    Cast

    Main Cast
    Kim Dong Wan as Kim Tae Pyung
    Wang Ji Hye as Lee Woo Kyung
    Choi Jung Yoon as Chun Ji Young
    Yang Jin Woo as Baek Gun Wook
    Tae Pyung's family
    Suh Ji Hee as Kim Hee Rae
    Yun Joon Suk as Ri Chul Ryong
    Oh Jae Moo as Go Joo Sung
    Noh Jung Ui as Song Ah
    Woo Kyung's family
    Choi Il Hwa as Lee Sang Gook
    Sa Mi Ja as Oh Ssang Shim
    Jung Jae Soon as Oh Ssang Ji
    Kang Sung Min as Ho Kyung
    Ji Young's family
    Baek Il Sub as Chun Kyung Sool
    Lee Doo Il as Chun Myung Kwan
    Jin Kyung as Jo Jae Nam
    Kim Soo Yun as Chun Joo Hee
    Gun Wook's family
    Kim Hye Sun as Hong Hae Sook
    Lee Jung Kil as Baek Jae Sang
    Other people
    Song Seo Yun as Joo Yun Ji
    Kim Duk Hyun as Director Kim




    Code
    Video
    ID                               : 0
    Format                           : AVC
    Format/Info                      : Advanced Video Codec
    Format profile                   : High@L5.1
    Format settings, CABAC           : Yes
    Format settings, ReFrames        : 4 frames
    Codec ID                         : H264
    Duration                         : 1h 4mn
    Bit rate                         : 3 000 Kbps
    Width                            : 1 280 pixels
    Height                           : 720 pixels
    Display aspect ratio             : 16:9
    Frame rate mode                  : Variable
    Frame rate                       : 29.970 fps
    Color space                      : YUV
    Chroma subsampling               : 4:2:0
    Bit depth                        : 8 bits
    Scan type                        : Progressive
    Bits/(Pixel*Frame)               : 0.109
    Stream size                      : 1.35 GiB (94%)
    Writing library                  : x264 core 112
    Encoding settings                : cabac=1 / ref=3 / deblock=1:-1:-1 / analyse=0x3:0x113 / me=hex / subme=6 / psy=1 / psy_rd=1.00:1.00 / mixed_ref=1 / me_range=16 / chroma_me=1 / trellis=1 / 8x8dct=1 / cqm=0 / deadzone=21,11 / fast_pskip=0 / chroma_qp_offset=-4 / threads=12 / sliced_threads=0 / nr=0 / decimate=1 / interlaced=0 / constrained_intra=0 / bframes=3 / b_pyramid=2 / b_adapt=1 / b_bias=1 / direct=3 / weightb=1 / open_gop=0 / weightp=2 / keyint=299 / keyint_min=25 / scenecut=1 / intra_refresh=0 / rc_lookahead=40 / rc=abr / mbtree=1 / bitrate=3000 / ratetol=1.0 / qcomp=0.60 / qpmin=10 / qpmax=51 / qpstep=4 / ip_ratio=1.40 / aq=1:1.00

    Audio
    ID                               : 1
    Format                           : MPEG Audio
    Format version                   : Version 1
    Format profile                   : Layer 3
    Mode                             : Joint stereo
    Mode extension                   : MS Stereo
    Codec ID                         : 55
    Codec ID/Hint                    : MP3
    Duration                         : 1h 4mn
    Bit rate mode                    : Constant
    Bit rate                         : 192 Kbps
    Channel(s)                       : 2 channels
    Sampling rate                    : 48.0 KHz
    Stream size                      : 88.0 MiB (6%)
    Alignment                        : Split accross interleaves
    Interleave, duration             : 33 ms (1.00 video frame)
    Interleave, preload duration     : 500 ms
    Writing library                  : LAME3.98.2



    0 0

    Original Post: The.Thieves.2012.720p.BRRip.x264.AC3-JYK

    The.Thieves.2012.720p.BRRip.x264.AC3-JYK




    A.K.A: 도둑들 (Do-dook-deul)
    IMDB LINK: http://www.hancinema.net/korean_movie_The_Thieves.php
    Cast: Kim Yoon-seok, Kim Hye-soo, Simon Yam, Jeon Ji-hyeon
    Directed: Choi Dong-hoon (최동훈)
    Genre: Crime | Thriller
    Runtime: 02:15:53 (h:m:s)
    Country: South Korea
    Language: Korean
    Subtitles: NONE A.T.M


    Plot:
    In order to let things cool down from their latest heist, Popeye and his group of thieves go to Macau on a job. But the mastermind behind this job is none other than Popeye's old partner Macau Park, who escaped with 68kg of gold several years ago on their last job together. Macau Park brought Chinese thieves as well but little did they know what Macau Park planned for each one of them. His plan takes an unexpected turn when Popeye brings Pepsi, a genius safe-cracker and old flame of Macau Park, to settle the old score. The thieves' target is a $20 million diamond known as 'Tear of the Sun', kept safely away in a casino, brought there to be sold by a notorious Chinese fence. While working together to steal this fabled diamond, they all have their own agenda to keep the diamond for themselves. But who will succeed and live to see another day?


    Code

    General
    Format.......: Matroska
    File Size....: 3.04 GiB
    Duration.....: 2h 15mn
    Bitrate......: 3 199 Kbps
    Subtitles....: English
    Encoder".......JYK
    Source.......: BluRay

    Video
    Video Format......: AVC
    Video Codec.......: x264 core 129 r2230 1cffe9f        
    Bitrate...........: 2 750 Kbps
    Frame Rate........: 24.000 fps
    Width.............: 1 280 pixels
    Height............: 544 pixels
    aspect ratio......: 2.35:1

    Audio
    Format..........: AC-3
    Bitrate.........: 448 Kbps
    Channels........: 6 channels
    Sampling Rate...: 48.0 KHz
    Language........: Korean



    Spoiler:show

    General
    Unique ID                                : 211952674032602679097952064743207981051 (0x9F7499A4D26C7C8EADDE8440F759CFFB)
    Complete name                            : The.Thieves.2012.720p.BRRip.x264.AC3-JYK/The.Thieves.2012.720p.BRRip.x264.AC3-JYK.mkv
    Format                                   : Matroska
    Format version                           : Version 2
    File size                                : 3.04 GiB
    Duration                                 : 2h 15mn
    Overall bit rate                         : 3 199 Kbps
    Encoded date                             : UTC 2013-01-18 10:09:32
    Writing application                      : mkvmerge v5.8.0 ('No Sleep / Pillow') built on Sep  2 2012 15:37:04
    Writing library                          : libebml v1.2.3 + libmatroska v1.3.0

    Video
    ID                                       : 1
    Format                                   : AVC
    Format/Info                              : Advanced Video Codec
    Format profile                           : High@L4.1
    Format settings, CABAC                   : Yes
    Format settings, ReFrames                : 8 frames
    Codec ID                                 : V_MPEG4/ISO/AVC
    Duration                                 : 2h 15mn
    Bit rate                                 : 2 750 Kbps
    Width                                    : 1 280 pixels
    Height                                   : 544 pixels
    Display aspect ratio                     : 2.35:1
    Frame rate                               : 24.000 fps
    Color space                              : YUV
    Chroma subsampling                       : 4:2:0
    Bit depth                                : 8 bits
    Scan type                                : Progressive
    Bits/(Pixel*Frame)                       : 0.165
    Stream size                              : 2.55 GiB (84%)
    Writing library                          : x264 core 129 r2230 1cffe9f
    Encoding settings                        : cabac=1 / ref=8 / deblock=1:0:0 / analyse=0x3:0x113 / me=hex / subme=7 / psy=1 / psy_rd=1.00:0.00 / mixed_ref=0 / me_range=16 / chroma_me=1 / trellis=1 / 8x8dct=1 / cqm=0 / deadzone=21,11 / fast_pskip=0 / chroma_qp_offset=-2 / threads=3 / lookahead_threads=1 / sliced_threads=0 / nr=0 / decimate=0 / interlaced=0 / bluray_compat=0 / constrained_intra=0 / bframes=8 / b_pyramid=2 / b_adapt=1 / b_bias=0 / direct=1 / weightb=1 / open_gop=0 / weightp=2 / keyint=240 / keyint_min=24 / scenecut=40 / intra_refresh=0 / rc_lookahead=40 / rc=2pass / mbtree=1 / bitrate=2750 / ratetol=1.0 / qcomp=0.60 / qpmin=0 / qpmax=69 / qpstep=4 / cplxblur=20.0 / qblur=0.5 / ip_ratio=1.40 / aq=1:1.00
    Language                                 : English
    Default                                  : Yes
    Forced                                   : No

    Audio
    ID                                       : 2
    Format                                   : AC-3
    Format/Info                              : Audio Coding 3
    Mode extension                           : CM (complete main)
    Codec ID                                 : A_AC3
    Duration                                 : 2h 15mn
    Bit rate mode                            : Constant
    Bit rate                                 : 448 Kbps
    Channel(s)                               : 6 channels
    Channel positions                        : Front: L C R, Side: L R, LFE
    Sampling rate                            : 48.0 KHz
    Bit depth                                : 16 bits
    Compression mode                         : Lossy
    Stream size                              : 435 MiB (14%)
    Language                                 : Korean
    Default                                  : Yes
    Forced                                   : No




    Enjoy and please seed!



    0 0
  • 02/20/13--07:10: IRIS 2 E03 HDTV XVID KOR
  • Original Post: IRIS 2 E03 HDTV XVID KOR


    TV Show: IRIS 2 / IRIS II: New Generation
    Revised romanization: Airiseu 2
    Hangul: 아이리스 2
    Director: Pyo Min-Soo
    Writer:
    Network: KBS2
    Episodes:
    Release Date: February 13, 2013 --
    Runtime: Wed. & Thu. 21:55
    Language: Korean
    Country: South Korea
    Subtitles by Dramafever will be added later.
    There will be a 24hr delay for each person that annoys me for subtitles.


    Plot

    Set 3 years after the death of National Intelligence Service (NIS) agent Kim Hyeon-Jun (Lee Byung-Hun), members of the National Security Service (NSS) team, including Jung Yoo-Gun (Jang Hyuk), Ji Soo-Yeon (Lee Da-Hae) and other agents attempt to pull the curtain on mysterious group IRIS.
    Agent Yoo Gun is the leader of NSS TF-A team. While he goes up against Baek San (Kim Young-Chul), Yoo Gun becomes involved in a case which changes his fate forever.

    Cast
    Main Cast
    Jang Hyuk as Jung Yoo Gun
    Lee Da Hae as Ji Soo Yun
    Kim So Hyun as young Ji Soo Yun
    Lee Bum Soo as Yoo Joong Won
    Oh Yun Soo as Choi Min
    Yoon Doo Joon as Seo Hyun Woo
    Im Soo Hyang as Kim Yun Hwa
    Lee Joon as Yoon Shi Hyuk
    Kim Young Chul as Baek San
    Jung Suk Won as young Baek San




    Code
    Video
    ID                                       : 0
    Format                                   : MPEG-4 Visual
    Format profile                           : Advanced Simple@L5
    Format settings, BVOP                    : No
    Format settings, QPel                    : No
    Format settings, GMC                     : No warppoints
    Format settings, Matrix                  : Default (MPEG)
    Codec ID                                 : XVID
    Codec ID/Hint                            : XviD
    Duration                                 : 1h 6mn
    Bit rate                                 : 1 391 Kbps
    Width                                    : 624 pixels
    Height                                   : 352 pixels
    Display aspect ratio                     : 16:9
    Frame rate                               : 29.970 fps
    Color space                              : YUV
    Chroma subsampling                       : 4:2:0
    Bit depth                                : 8 bits
    Scan type                                : Progressive
    Compression mode                         : Lossy
    Bits/(Pixel*Frame)                       : 0.211
    Stream size                              : 660 MiB (87%)
    Writing library                          : XviD 1.2.1 (UTC 2008-12-04)

    Audio
    ID                                       : 1
    Format                                   : MPEG Audio
    Format version                           : Version 1
    Format profile                           : Layer 3
    Mode                                     : Joint stereo
    Mode extension                           : MS Stereo
    Codec ID                                 : 55
    Codec ID/Hint                            : MP3
    Duration                                 : 1h 6mn
    Bit rate mode                            : Constant
    Bit rate                                 : 128 Kbps
    Channel(s)                               : 2 channels
    Sampling rate                            : 48.0 KHz
    Compression mode                         : Lossy
    Stream size                              : 60.8 MiB (8%)
    Alignment                                : Aligned on interleaves
    Writing library                          : LAME3.98.2
    Language                                 : un



    0 0

    Original Post: Level 7 Civil Servant E09 HDTV XVID KOR



    Details

    Title: 7급 공무원 / 7 Geup Gongmoowon
    Also known as: Level 7 Civil Servant / 7th Level Civil Servant / My Girlfriend is an Agent
    Genre: Action, romance
    Episodes: 20
    Broadcast network: MBC
    Broadcast period: 2013-Jan-23 to 2013-??
    Air time: Wednesday & Thursday 21:55
    Original Soundtrack: 7th Grade Civil Servant OST
    Subtitles by Dramafever will be added later

    Synopsis

    A romantic comedy about a spy couple who hides their true identity from each other and at the same time illustrates about the love, friendship and internal department conflicts between the new generation of national intelligence agents. In the drama, while hiding their true identities from each other, the couple fall in love with each other.




    Code
    Video
    ID                                       : 0
    Format                                   : MPEG-4 Visual
    Format profile                           : Advanced Simple@L5
    Format settings, BVOP                    : No
    Format settings, QPel                    : No
    Format settings, GMC                     : No warppoints
    Format settings, Matrix                  : Default (MPEG)
    Codec ID                                 : XVID
    Codec ID/Hint                            : XviD
    Duration                                 : 1h 6mn
    Bit rate                                 : 1 391 Kbps
    Width                                    : 624 pixels
    Height                                   : 352 pixels
    Display aspect ratio                     : 16:9
    Frame rate                               : 29.970 fps
    Color space                              : YUV
    Chroma subsampling                       : 4:2:0
    Bit depth                                : 8 bits
    Scan type                                : Progressive
    Compression mode                         : Lossy
    Bits/(Pixel*Frame)                       : 0.211
    Stream size                              : 660 MiB (87%)
    Writing library                          : XviD 1.2.1 (UTC 2008-12-04)

    Audio
    ID                                       : 1
    Format                                   : MPEG Audio
    Format version                           : Version 1
    Format profile                           : Layer 3
    Mode                                     : Joint stereo
    Mode extension                           : MS Stereo
    Codec ID                                 : 55
    Codec ID/Hint                            : MP3
    Duration                                 : 1h 6mn
    Bit rate mode                            : Constant
    Bit rate                                 : 128 Kbps
    Channel(s)                               : 2 channels
    Sampling rate                            : 48.0 KHz
    Compression mode                         : Lossy
    Stream size                              : 60.8 MiB (8%)
    Alignment                                : Aligned on interleaves
    Writing library                          : LAME3.98.2
    Language                                 : un



older | 1 | .... | 815 | 816 | 817 | (Page 818) | 819 | 820 | 821 | .... | 1169 | newer