Are you the publisher? Claim or contact us about this channel


Embed this content in your HTML

Search

Report adult content:

click to rate:

Account: (login)

More Channels


Showcase


Channel Catalog


Channel Description:

Asia Torrents RSS Feed
    0 0

    Original Post: Love Without Distance 2015 1080p WEB-DL x264 AAC-SeeHD





    Detail:
    Title: Love Without Distance
    Genre: Comedy
    Release Date: 21 May 2015
    Runtime: 102 min
    Director: Oi Wah Lam
    Country: CHina
    Language: Mandarin
    Subtitles:Chinese, English Hardcoded

    Synopsis:
    Tyrant Chen (Francis Ng) is a struggle through the ups and downs, we have been successful fur traders, when he decided with his girlfriend Zhao Xiaowei (Yaoxing Tong ornaments) married, but was told that the hospital terminally ill, he Wei hide the disease and to start thinking about yourself life.
    Tyrant Chen in order to complete his dying wish, alone came to Italy. He feels that he must do something before his death shocked the world event, be sure to let your own business famous, but different cultural background makes Tyrant Chen abroad a series of misunderstandings and uproarious joke ……
    This time, Wei has found out, catch up with Italy find Tyrant Chen told him that his terminal illness is misdiagnosed! Chen Tyrant during this period of life has changed dramatically: the company faced bankruptcy, friends framed.
    Chen Tyrant turmoil in life reborn, the final harvest a beautiful love and sincere friendship relatives and friends. (Google Translate)

    Cast:
    francis Ng
    Yao Xingtong
    Ma Tianyu
    Li Jing
    Cica Zhou








    Code

    Video
    ID                                       : 1
    Format                                   : AVC
    Format/Info                              : Advanced Video Codec
    Format profile                           : Main@L4.0
    Format settings, CABAC                   : Yes
    Format settings, ReFrames                : 2 frames
    Codec ID                                 : V_MPEG4/ISO/AVC
    Duration                                 : 1h 42mn
    Width                                    : 1 920 pixels
    Height                                   : 1 080 pixels
    Display aspect ratio                     : 16:9
    Frame rate mode                          : Variable
    Frame rate                               : 25.000 fps
    Color space                              : YUV
    Chroma subsampling                       : 4:2:0
    Bit depth                                : 8 bits
    Scan type                                : Progressive
    Writing library                          : avc encoder v1.9
    Default                                  : Yes
    Forced                                   : No

    Audio
    ID                                       : 2
    Format                                   : AAC
    Format/Info                              : Advanced Audio Codec
    Format profile                           : LC
    Codec ID                                 : A_AAC
    Duration                                 : 1h 42mn
    Channel(s)                               : 2 channels
    Channel positions                        : Front: L R
    Sampling rate                            : 44.1 KHz
    Compression mode                         : Lossy
    Default                                  : Yes
    Forced                                   : No



    0 0

    Original Post: Hollywood Adventures 2015 1080p WEB-DL x264 AAC-SeeHD





    Detail:
    Title: Hollywood Adventures
    Genre: Action, Adventure, Comedy
    Release Date: 26 June 2015
    Runtime: 118 mins
    Director: Timothy Kendall
    Rating: 5.1/10 from 109 users  
    Country: China
    Language: Mandarin
    Subtitles:Chinese, English Hardcoded

    Synopsis:
    A young man goes from China to Hollywood on short notice to find his girlfriend. He ends up connected with two others in his quest, which gets much more complicated than he envisioned.

    Cast:
    Wei Zhao, Xiaoming Huang, Dawei Tong








    Code

    Video
    ID                                       : 1
    Format                                   : AVC
    Format/Info                              : Advanced Video Codec
    Format profile                           : High@L4.0
    Format settings, CABAC                   : Yes
    Format settings, ReFrames                : 4 frames
    Codec ID                                 : avc1
    Codec ID/Info                            : Advanced Video Coding
    Duration                                 : 1h 58mn
    Bit rate                                 : 3 033 Kbps
    Maximum bit rate                         : 12.6 Mbps
    Width                                    : 1 920 pixels
    Height                                   : 816 pixels
    Display aspect ratio                     : 2.35:1
    Frame rate mode                          : Variable
    Frame rate                               : 24.000 fps
    Minimum frame rate                       : 23.835 fps
    Maximum frame rate                       : 24.246 fps
    Color space                              : YUV
    Chroma subsampling                       : 4:2:0
    Bit depth                                : 8 bits
    Scan type                                : Progressive
    Bits/(Pixel*Frame)                       : 0.081
    Stream size                              : 2.51 GiB (96%)
    Writing library                          : Provided by x264  :: H.264/MPEG-4 AVC codec -V 1.6.08
    Encoded date                             : UTC 2015-07-16 09:33:49
    Tagged date                              : UTC 2015-07-16 10:34:36
    Color primaries                          : BT.709-5, BT.1361, IEC 61966-2-4, SMPTE RP177
    Transfer characteristics                 : BT.709-5, BT.1361
    Matrix coefficients                      : BT.709-5, BT.1361, IEC 61966-2-4 709, SMPTE RP177

    Audio
    ID                                       : 2
    Format                                   : AAC
    Format/Info                              : Advanced Audio Codec
    Format profile                           : LC
    Codec ID                                 : 40
    Duration                                 : 1h 58mn
    Bit rate mode                            : Variable
    Bit rate                                 : 128 Kbps
    Maximum bit rate                         : 138 Kbps
    Channel(s)                               : 2 channels
    Channel positions                        : Front: L R
    Sampling rate                            : 44.1 KHz
    Compression mode                         : Lossy
    Delay relative to video                  : -12s 500ms
    Stream size                              : 108 MiB (4%)
    Encoded date                             : UTC 2015-07-16 10:34:34
    Tagged date                              : UTC 2015-07-16 10:34:36



    0 0

    Original Post: The August without Emperor 1978 720p BluRay x264-WiKi





    Detail:
    Title: The August without Emperor
    Genre: Drama | Thriller
    Release Date: 23 September 1978
    Runtime: 140 min
    Director: Satsuo Yamamoto
    Rating: 6.9/10 (19 votes)
    Country: Japan
    Language: Japanese
    Subtitles:No Subtitles

    Synopsis:
    (Google Translated)
    At 1:00 on August 4, on the outskirts of the city of Morioka, Japan Self-Defense Forces patrol cars were burned. At 10:30 on August 15, Kagoshima, Army Self-Defense Services Department of the Yangtze River to see the police as Ichiro very surprised to see the list of dangerous elements in the son's name Fujisaki was positive. He came to her home apricots, apricot Fujisaki told she was busy engaged in transportation. 18:30, Hakata Station, Chinese Commercial News reporters Dan Senkan and Dao Le apricots, love duo had boarded the "Sakura" was an express. On the same day, Tokyo Prime Minister's office, the prime minister held an emergency meeting to discuss the situation Zorin possible military coup. 20:15, Shimonoseki Station, Stone Forest, apricots two were taken to the 1st car, Fujisaki also, apricots uneasy. 21:00, Tokyo, the mastermind behind the coup and the army SDF large Hata General Mano been identified Cabinet Intelligence room. See the Mano River arrested and found "not the emperor August" for the coup plan, code-named their car, the Prime Minister Zorin order pre-emptive. 21:50, Fujisaki bombs in the "Sakura" Number each vehicle, threatening the government to hand over large Hata. Carrying three hundred and sixty people "Sakura" was made as if a bomb disguised in the dark of night to Tokyo flew away ......

    Cast:
    Tsunehiko Watase, Sayuri Yoshinaga, Kiyoshi Atsumi








    Code

    Video
    ID                                       : 1
    Format                                   : AVC
    Format/Info                              : Advanced Video Codec
    Format profile                           : High@L4.1
    Format settings, CABAC                   : Yes
    Format settings, ReFrames                : 12 frames
    Codec ID                                 : V_MPEG4/ISO/AVC
    Duration                                 : 2h 20mn
    Bit rate                                 : 6 649 Kbps
    Width                                    : 1 280 pixels
    Height                                   : 544 pixels
    Display aspect ratio                     : 2.35:1
    Frame rate                               : 23.976 fps
    Color space                              : YUV
    Chroma subsampling                       : 4:2:0
    Bit depth                                : 8 bits
    Scan type                                : Progressive
    Bits/(Pixel*Frame)                       : 0.398
    Stream size                              : 6.53 GiB (89%)
    Writing library                          : x264 core 124 r2197+666+28 3970b70 tMod+MixAQ [8-bit@4:2:0 X86]
    Encoding settings                        : cabac=1 / ref=12 / deblock=1:-2:-2 / analyse=0x3:0x133 / me=tesa / subme=10 / psy=1 / fade_compensate=0.00 / psy_rd=1.00:0.10 / mixed_ref=1 / me_range=32 / chroma_me=1 / trellis=2 / 8x8dct=1 / cqm=0 / deadzone=21,11 / fast_pskip=0 / chroma_qp_offset=-3 / threads=36 / sliced_threads=0 / nr=0 / decimate=0 / interlaced=0 / bluray_compat=0 / constrained_intra=0 / fgo=0 / bframes=12 / b_pyramid=2 / b_adapt=2 / b_bias=0 / direct=3 / weightb=1 / open_gop=0 / weightp=2 / keyint=250 / keyint_min=23 / scenecut=60 / intra_refresh=0 / rc=crf / mbtree=0 / crf=17.3000 / qcomp=0.70 / qpmin=0 / qpmax=38 / qpstep=4 / ip_ratio=1.20 / pb_ratio=1.10 / aq=1 / aq-strength=0.80 / aq-sensitivity=10.00 / aq-ifactor=1.00 / aq-pfactor=1.00 / aq-bfactor=1.00 / aq2=0
    Language                                 : Japanese
    Default                                  : Yes
    Forced                                   : No

    Audio
    ID                                       : 2
    Format                                   : AC-3
    Format/Info                              : Audio Coding 3
    Mode extension                           : CM (complete main)
    Format settings, Endianness              : Big
    Codec ID                                 : A_AC3
    Duration                                 : 2h 20mn
    Bit rate mode                            : Constant
    Bit rate                                 : 640 Kbps
    Channel(s)                               : 2 channels
    Channel positions                        : Front: L R
    Sampling rate                            : 48.0 KHz
    Bit depth                                : 16 bits
    Compression mode                         : Lossy
    Stream size                              : 644 MiB (9%)
    Language                                 : Japanese
    Default                                  : Yes
    Forced                                   : No



    0 0
  • 07/19/15--03:27: Akagi (2015) - 01 [720p]
  • Original Post: Akagi (2015) - 01 [720p]


    FROM HIS CURRENT BEST SELLING MANGA "KANJI".
    here come Nobuyuki Fukumoto's with one of His early best work "AKAGI"


    Themes: psychological, mahjong, gambling
    ------
    PLOT [credits thanks to Patrick Macias of cruchyroll.com}
    Tokyo, 1958. A man seriously gambles at a mahjong parlor. He's playing against members of the Ryuzaki yakuza clan.
    If he loses, he must pay his debt through his own life insurance – truly a game of life and death. With his own existence at stake,
    he can only play passively, and the game comes to a head. Suddenly, a mysterious boy appears. His name is Akagi, a thirteen-year-old kid.
    The man senses a strong aura around the youth and decides to have Akagi substitute for him in the next round.
    --
    Synopsis
    This live action adaption center the battle between AKAGI and Iwao Washizu in which the game "Washizu Mahjong" is play,
    The mahjong tiles are mostly made out of glass tiles replace and make the game different in many ways compare that to of an regular match.

    Spoiler:show

      General
         Unique ID : 195840962620448824983752365671861028779 (0x935598F0D57D7478BCC5F0F4187587AB)
         Format : Matroska
         Format version : Version 4 / Version 2
         File size : 712 MiB
         Duration : 57mn 21s
         Overall bit rate : 1 736 Kbps
         Encoded date : UTC 2015-07-19 10:00:42
         Writing application : mkvmerge v7.5.0 ('Glass Culture') 64bit built on Jan  4 2015 16:48:44
         Writing library : libebml v1.3.1 + libmatroska v1.4.2
         DURATION : 00:57:21.002000000
         NUMBER_OF_FRAMES : 161297
         NUMBER_OF_BYTES : 81132391
         _STATISTICS_WRITING_APP : mkvmerge v7.5.0 ('Glass Culture') 64bit built on Jan  4 2015 16:48:44
         _STATISTICS_WRITING_DATE_UTC : 2015-07-19 10:00:42
         _STATISTICS_TAGS : BPS DURATION NUMBER_OF_FRAMES NUMBER_OF_BYTES
      Video #1
         ID : 1
         Format : AVC
         Format/Info : Advanced Video Codec
         Format profile : High 10@L5.0
         Format settings, CABAC : Yes
         Format settings, ReFrames : 10 frames
         Codec ID : V_MPEG4/ISO/AVC
         Duration : 57mn 21s
         Width : 1 280 pixels
         Height : 720 pixels
         Display aspect ratio : 16:9
         Frame rate mode : Constant
         Frame rate : 29.970 fps
         Color space : YUV
         Chroma subsampling : 4:2:0
         Bit depth : 10 bits
         Scan type : Progressive
         Writing library : x264 core 142 r2431+42 c69a006 tMod [10-bit@all X86_64]
         Encoding settings : cabac=1 / ref=10 / deblock=1:0:0 / analyse=0x3:0x133 / me=umh / subme=10 / psy=1 / fade_compensate=0.00 / psy_rd=0.80:0.05 / mixed_ref=1 / me_range=24 / chroma_me=1 / trellis=2 / 8x8dct=1 / cqm=0 / deadzone=21,11 / fast_pskip=1 / chroma_qp_offset=-3 / threads=12 / lookahead_threads=3 / sliced_threads=0 / nr=0 / decimate=1 / interlaced=0 / bluray_compat=0 / constrained_intra=0 / fgo=0 / bframes=10 / b_pyramid=2 / b_adapt=2 / b_bias=0 / direct=3 / weightb=1 / open_gop=0 / weightp=2 / keyint=250 / keyint_min=25 / scenecut=40 / intra_refresh=0 / rc_lookahead=60 / rc=crf / mbtree=1 / crf=19.0000 / qcomp=0.70 / qpmin=0:0:0 / qpmax=81:81:81 / qpstep=4 / ip_ratio=1.40 / aq=3:0.70 / aq-sensitivity=10.00 / aq-factor=1.00:1.00:1.00 / aq2=0 / aq3=0
         Language : Japanese
         Default : Yes
         Forced : No
         Matrix coefficients : BT.709
         DURATION : 00:57:21.004000000
         NUMBER_OF_FRAMES : 103127
         NUMBER_OF_BYTES : 664565753
         _STATISTICS_WRITING_APP : mkvmerge v7.5.0 ('Glass Culture') 64bit built on Jan  4 2015 16:48:44
         _STATISTICS_WRITING_DATE_UTC : 2015-07-19 10:00:42
         _STATISTICS_TAGS : BPS DURATION NUMBER_OF_FRAMES NUMBER_OF_BYTES
      Audio #2
         ID : 2
         Format : AAC
         Format/Info : Advanced Audio Codec
         Format profile : LC
         Codec ID : A_AAC
         Duration : 57mn 21s
         Channel(s) : 2 channels
         Channel positions : Front: L R
         Sampling rate : 48.0 KHz
         Compression mode : Lossy
         Language : Japanese
         Default : Yes
         Forced : No






    0 0

    Original Post: Law of the Jungle with Friends E170 720p WITH (Ep 8 Yap Island)


    Hangul: 정글의 법칙
    Genre: Variety Show
    Language: Korean
    Country: South Korea
    Subtitles: No Subtitles

    Cast:

    Kim Byung-man
    Ryu Dam
    Park Han-byul
    Kangnam
    Ryu Seung-soo
    Lee Jung-jin
    Bae Soo-bin
    Yoon Sang-hyun
    Lee Yi-kyung
    Eun Ji-won
    Jung Jin Woon
    Dasom

    Synopsis:

    Law of the Jungle

    Law of the Jungle (Korean: 정글의 법칙) is a South Korean reality-documentary show on SBS. It was first aired on October 21, 2011. This show is a hybrid of reality-variety television, natural documentaries, and human drama; a new concept of programming.[1] The cast of celebrities travel to primitive, natural places to survive on their own and experience life with local tribes and people.[2] Originally airing at the Friday 11:05 pm KST time slot, the program was switched into Good Sunday for its second season beginning May 6, 2012, airing before Running Man at the 5:00 pm time slot, replacing K-pop Star Season 1.[3] With the return of K-pop Star Season 2 to Good Sunday, the program returned to Friday nights but airing at 10:00 pm instead beginning November 16, 2012.[4] Originally airing as Kim Byung-man's Law of the Jungle (Korean: 김병만의 정글의 법칙) after the creator and "clan leader" Kim Byung-man, "Kim Byung-man's" was dropped from the title beginning in Season 3.

    Special editions of the program air as well featuring a different cast not in the regular time slot. Law of the Jungle W (W for Women) features an all-female cast and generally airs during the Seollal and Chuseok holidays.[5] Law of the Jungle K (K for Kids) features celebrities with their children, and has aired as a Seollal special in 2013.


    Code
    General
    Format                                   : MPEG-4
    Format profile                           : Base Media
    Codec ID                                 : isom
    File size                                : 1.32 GiB
    Duration                                 : 1h 16mn
    Overall bit rate mode                    : Variable
    Overall bit rate                         : 2 472 Kbps

    Video
    ID                                       : 1
    Format                                   : AVC
    Format/Info                              : Advanced Video Codec
    Format profile                           : Baseline@L1.3
    Format settings, CABAC                   : No
    Format settings, ReFrames                : 1 frame
    Codec ID                                 : avc1
    Codec ID/Info                            : Advanced Video Coding
    Duration                                 : 1h 16mn
    Bit rate                                 : 2 200 Kbps
    Maximum bit rate                         : 12.2 Mbps
    Width                                    : 1 280 pixels
    Height                                   : 720 pixels
    Display aspect ratio                     : 16:9
    Frame rate mode                          : Constant
    Frame rate                               : 29.970 fps
    Color space                              : YUV
    Chroma subsampling                       : 4:2:0
    Bit depth                                : 8 bits
    Scan type                                : Progressive
    Bits/(Pixel*Frame)                       : 0.080
    Stream size                              : 1.18 GiB (90%)
    Writing library                          : x264 core 128 r2216 198a7ea
    Encoding settings                        : cabac=0 / ref=1 / deblock=1:0:0 / analyse=0x1:0x111 / me=hex / subme=7 / psy=1 / psy_rd=1.00:0.00 / mixed_ref=0 / me_range=16 / chroma_me=1 / trellis=1 / 8x8dct=0 / cqm=0 / deadzone=21,11 / fast_pskip=1 / chroma_qp_offset=-2 / threads=12 / lookahead_threads=2 / sliced_threads=0 / nr=0 / decimate=1 / interlaced=0 / bluray_compat=0 / constrained_intra=0 / bframes=0 / weightp=0 / keyint=250 / keyint_min=25 / scenecut=40 / intra_refresh=0 / rc_lookahead=40 / rc=abr / mbtree=1 / bitrate=2200 / ratetol=1.0 / qcomp=0.60 / qpmin=0 / qpmax=69 / qpstep=4 / vbv_maxrate=50000 / vbv_bufsize=50000 / nal_hrd=none / ip_ratio=1.40 / aq=1:1.00

    Audio
    ID                                       : 2
    Format                                   : AAC
    Format/Info                              : Advanced Audio Codec
    Format profile                           : LC
    Codec ID                                 : 40
    Duration                                 : 1h 16mn
    Bit rate mode                            : Variable
    Bit rate                                 : 256 Kbps
    Maximum bit rate                         : 263 Kbps
    Channel(s)                               : 2 channels
    Channel positions                        : Front: L R
    Sampling rate                            : 48.0 KHz
    Compression mode                         : Lossy
    Stream size                              : 139 MiB (10%)








    *Please PM me if there is something wrong. If you have the subtitle, please add it smile1.gif

    Don't try to HIT AND RUN. Don't forget to seed minimum at least 1.5..


    0 0

    Original Post: King of Mask Singer E16 720p WITH



    Hangul: 복면가왕
    Genre: Variety Show
    Language: Korean
    Country: South Korea
    Subtitles: No Subtitles

    Cast:
    11 Celebrity Judges + 1 Main MC:
    - Kim Sung Joo - Main MC (Dad, Where Are We Going?)
    - Kim Gura - Sub MC (JTBC War of Words, MBC Radio Star, Quiz to Change the World)
    - So Yi Hyun - Sub MC (Heartstrings, Cheongdamdong Alice, Three Days)
    - B1A4 Sandeul
    - Kim Hyung Seok (Music Producer - Kim Gunmo, Baby Vox, Jo Sung Mo, etc)
    - Ji Sang Ryeol (X-Man, 1 Night 2 Days)
    - Hwang Seok Jung (Lost in Love, Hello Schoolgirl)
    - Kim Jung Nam (Turbo 1995-97)
    - ZE:A Kwanghee
    - Shin Bong Sun (Heroes, Happy Together)
    - Yoo Sang Moo (Gag Concert, Comedy Big League, I Am a Man)
    - Girl's Day Yura


    When you have to compete with only your voice, who will be the last singer standing? “King of Mask Singer” is a South Korean variety show where the participants compete against each other wearing masks to hide their true identities. The contestants may be famous singers or stars who have always aspired to sing – but they all have one thing in common. They must all compete with their vocals alone because no one will know their true identities until the very end! Enjoy these highlight clips from the popular variety show, featuring MCs Kim Sung Joo and Kim Goo Ra.

    Format of the Show:
    - 11 Celebrity Judges and 88 Audience Voters = 99 Votes
    - All singers initially are masked.
    - Round 1: Duet with 2 members, 99 Voters will choose which of the 2 contestants sang better.
    - Round 2 + 3: Each contestant sings their own song.
    - Loser in each vote gets their identity revealed, and is eliminated.
    - Final Winner stays unknown to the audience and judges, but revealed at the end of the broadcast to the viewers.


    Code

    General
    Format                                   : MPEG-4
    Format profile                           : Base Media
    Codec ID                                 : isom
    File size                                : 1.37 GiB
    Duration                                 : 1h 19mn
    Overall bit rate mode                    : Variable
    Overall bit rate                         : 2 472 Kbps

    Video
    ID                                       : 1
    Format                                   : AVC
    Format/Info                              : Advanced Video Codec
    Format profile                           : Baseline@L1.3
    Format settings, CABAC                   : No
    Format settings, ReFrames                : 1 frame
    Codec ID                                 : avc1
    Codec ID/Info                            : Advanced Video Coding
    Duration                                 : 1h 19mn
    Bit rate                                 : 2 200 Kbps
    Maximum bit rate                         : 10.6 Mbps
    Width                                    : 1 280 pixels
    Height                                   : 720 pixels
    Display aspect ratio                     : 16:9
    Frame rate mode                          : Constant
    Frame rate                               : 29.970 fps
    Color space                              : YUV
    Chroma subsampling                       : 4:2:0
    Bit depth                                : 8 bits
    Scan type                                : Progressive
    Bits/(Pixel*Frame)                       : 0.080
    Stream size                              : 1.22 GiB (90%)
    Writing library                          : x264 core 128 r2216 198a7ea
    Encoding settings                        : cabac=0 / ref=1 / deblock=1:0:0 / analyse=0x1:0x111 / me=hex / subme=7 / psy=1 / psy_rd=1.00:0.00 / mixed_ref=0 / me_range=16 / chroma_me=1 / trellis=1 / 8x8dct=0 / cqm=0 / deadzone=21,11 / fast_pskip=1 / chroma_qp_offset=-2 / threads=12 / lookahead_threads=2 / sliced_threads=0 / nr=0 / decimate=1 / interlaced=0 / bluray_compat=0 / constrained_intra=0 / bframes=0 / weightp=0 / keyint=250 / keyint_min=25 / scenecut=40 / intra_refresh=0 / rc_lookahead=40 / rc=abr / mbtree=1 / bitrate=2200 / ratetol=1.0 / qcomp=0.60 / qpmin=0 / qpmax=69 / qpstep=4 / vbv_maxrate=50000 / vbv_bufsize=50000 / nal_hrd=none / ip_ratio=1.40 / aq=1:1.00

    Audio
    ID                                       : 2
    Format                                   : AAC
    Format/Info                              : Advanced Audio Codec
    Format profile                           : LC
    Codec ID                                 : 40
    Duration                                 : 1h 19mn
    Bit rate mode                            : Variable
    Bit rate                                 : 256 Kbps
    Maximum bit rate                         : 262 Kbps
    Channel(s)                               : 2 channels
    Channel positions                        : Front: L R
    Sampling rate                            : 48.0 KHz
    Compression mode                         : Lossy
    Stream size                              : 145 MiB (10%)







    *Please PM me if there is something wrong, Don't ask for subtitle. smile1.gif

    Don't try to HIT AND RUN. Don't forget to seed minimum at least 1.5.. Please always seed, since I will not re-upload If it already deleted on my seedbox.


    0 0

    Original Post: Bluebird's.House.E44.150719.HDTV.XviD-LIMO

    http://thetvdb.com/?tab=series&id=292452&lid=7
    Details
    Title: 파랑새의 집 / Parangsaeui Jib
    Also known as: Bluebird's Nest
    Genre: Family, human, romance, comedy
    Episodes: 50
    Broadcast network: KBS2
    Broadcast period: 2015-Feb-21 to 2015-???-??
    Air time: Saturday & Sunday Night 19:55
    Original Soundtrack: Bluebird's House OST
    Synopsis
    A drama that tells the story of strong bond between the members of a family even though they are not blood-related. This drama also portrays the hope of parents toward their children's success and how difficult for fresh university graduates to get respectable and well-paid jobs.

    Cast
    Main Cast
    Lee Joon Hyuk as Kim Ji Wan (29)
    Chae Soo Bin as Han Eun Soo (24)
    Lee Sang Yeob as Jang Hyun Do (28)
    Kyung Soo Jin as Kang Young Joo (25)
    Kim Ji Wan's family
    Choi Myung Gil as Han Sun Hee (55)
    Jung Jae Soon as Lee Jin Yi (70)
    Jang Hyun Do's family
    Chun Ho Jin as Jang Tae Soo (55)
    Lee Hye Sook as Jung Soo Kyung (52)
    Kang Young Joo's family
    Song Ok Sook as Oh Min Ja (55)
    Jung Won Joong as Kang Jae Chul (53)
    Others
    Uhm Hyun Kyung as Seo Mi Ji (29)
    Nam Kyung Eup as Shin Young Hwan (50)






    Code
    Video
    ID                                       : 0
    Format                                   : MPEG-4 Visual
    Format profile                           : Advanced Simple@L5
    Format settings, BVOP                    : No
    Format settings, QPel                    : No
    Format settings, GMC                     : No warppoints
    Format settings, Matrix                  : Default (MPEG)
    Codec ID                                 : XVID
    Codec ID/Hint                            : XviD
    Duration                                 : 1h 29mn
    Bit rate                                 : 1 388 Kbps
    Width                                    : 624 pixels
    Height                                   : 352 pixels
    Display aspect ratio                     : 16:9
    Frame rate                               : 29.970 fps
    Color space                              : YUV
    Chroma subsampling                       : 4:2:0
    Bit depth                                : 8 bits
    Scan type                                : Progressive
    Compression mode                         : Lossy
    Bits/(Pixel*Frame)                       : 0.211
    Stream size                              : 886 MiB (87%)
    Writing library                          : XviD 1.2.1 (UTC 2008-12-04)

    Audio
    ID                                       : 1
    Format                                   : MPEG Audio
    Format version                           : Version 1
    Format profile                           : Layer 3
    Mode                                     : Joint stereo
    Mode extension                           : MS Stereo
    Codec ID                                 : 55
    Codec ID/Hint                            : MP3
    Duration                                 : 1h 29mn
    Bit rate mode                            : Constant
    Bit rate                                 : 128 Kbps
    Channel(s)                               : 2 channels
    Sampling rate                            : 48.0 KHz
    Compression mode                         : Lossy
    Stream size                              : 81.7 MiB (8%)
    Alignment                                : Aligned on interleaves
    Writing library                          : LAME3.98.2



    0 0

    Original Post: Bluebird's.House.E44.150719.HDTV.H264.720p-LIMO

    http://thetvdb.com/?tab=series&id=292452&lid=7
    Details
    Title: 파랑새의 집 / Parangsaeui Jib
    Also known as: Bluebird's Nest
    Genre: Family, human, romance, comedy
    Episodes: 50
    Broadcast network: KBS2
    Broadcast period: 2015-Feb-21 to 2015-???-??
    Air time: Saturday & Sunday Night 19:55
    Original Soundtrack: Bluebird's House OST
    Synopsis
    A drama that tells the story of strong bond between the members of a family even though they are not blood-related. This drama also portrays the hope of parents toward their children's success and how difficult for fresh university graduates to get respectable and well-paid jobs.

    Cast
    Main Cast
    Lee Joon Hyuk as Kim Ji Wan (29)
    Chae Soo Bin as Han Eun Soo (24)
    Lee Sang Yeob as Jang Hyun Do (28)
    Kyung Soo Jin as Kang Young Joo (25)
    Kim Ji Wan's family
    Choi Myung Gil as Han Sun Hee (55)
    Jung Jae Soon as Lee Jin Yi (70)
    Jang Hyun Do's family
    Chun Ho Jin as Jang Tae Soo (55)
    Lee Hye Sook as Jung Soo Kyung (52)
    Kang Young Joo's family
    Song Ok Sook as Oh Min Ja (55)
    Jung Won Joong as Kang Jae Chul (53)
    Others
    Uhm Hyun Kyung as Seo Mi Ji (29)
    Nam Kyung Eup as Shin Young Hwan (50)






    Code
    Video
    ID                             : 1
    Format                         : AVC
    Format/Info                    : Advanced Video Codec
    Format profile                 : High@L5.1
    Format settings, CABAC         : Yes
    Format settings, ReFrames      : 4 frames
    Codec ID                       : V_MPEG4/ISO/AVC
    Duration                       : 1h 24mn
    Bit rate                       : 887 Kbps
    Nominal bit rate               : 2 496 Kbps
    Width                          : 1 280 pixels
    Height                         : 720 pixels
    Display aspect ratio           : 16:9
    Frame rate mode                : Constant
    Frame rate                     : 29.970 fps
    Color space                    : YUV
    Chroma subsampling             : 4:2:0
    Bit depth                      : 8 bits
    Scan type                      : Progressive
    Bits/(Pixel*Frame)             : 0.032
    Stream size                    : 535 MiB (68%)
    Writing library                : x264 core 130 r2273 b3065e6
    Encoding settings              : cabac=1 / ref=3 / deblock=1:0:0 / analyse=0x3:0x113 / me=hex / subme=7 / psy=1 / psy_rd=1.00:0.00 / mixed_ref=1 / me_range=16 / chroma_me=1 / trellis=1 / 8x8dct=1 / cqm=0 / deadzone=21,11 / fast_pskip=1 / chroma_qp_offset=-2 / threads=1 / lookahead_threads=1 / sliced_threads=0 / nr=0 / decimate=1 / interlaced=0 / bluray_compat=0 / constrained_intra=0 / bframes=3 / b_pyramid=2 / b_adapt=1 / b_bias=0 / direct=1 / weightb=1 / open_gop=0 / weightp=2 / keyint=300 / keyint_min=29 / scenecut=40 / intra_refresh=0 / rc_lookahead=40 / rc=2pass / mbtree=1 / bitrate=2496 / ratetol=1.0 / qcomp=0.60 / qpmin=0 / qpmax=69 / qpstep=4 / cplxblur=20.0 / qblur=0.5 / vbv_maxrate=300000 / vbv_bufsize=300000 / nal_hrd=none / ip_ratio=1.40 / aq=1:1.00
    Default                        : Yes
    Forced                         : No

    Audio
    ID                             : 2
    Format                         : AC-3
    Format/Info                    : Audio Coding 3
    Mode extension                 : CM (complete main)
    Format settings, Endianness    : Big
    Codec ID                       : A_AC3
    Duration                       : 1h 24mn
    Bit rate mode                  : Constant
    Bit rate                       : 384 Kbps
    Channel(s)                     : 2 channels
    Channel positions              : Front: L R
    Sampling rate                  : 44.1 KHz
    Bit depth                      : 16 bits
    Compression mode               : Lossy
    Stream size                    : 232 MiB (30%)
    Language                       : Korean
    Default                        : Yes
    Forced                         : No



    0 0

    Original Post: Make.A.Woman.Cry.E28.150719.HDTV.XviD-LIMO

    http://thetvdb.com/?tab=series&id=294274&lid=7
    Details
    Title: 여자를 울려 / Yeojareul Woolryeo
    Also known as: Let the Woman Cry
    Genre: Family, drama, romance
    Episodes: 50
    Broadcast network: MBC
    Broadcast period: 2015-Apr-18 to 2015-???-??
    Air time: Saturday & Sunday 20:45
    Original Soundtrack: Make a Woman Cry OST

    Synopsis
    Jung Duk In was a former detective who resigned after her son died. She then opens a food stall in front of her son's school to preserves the memory of him and to protects the other students. Along the way she will struggle to forgive people who were responsible for her son's death.

    Cast

    Main Cast
    Kim Jung Eun as Jung Duk In
    Song Chang Ui as Kang Jin Woo
    Lee Soon Jae as Kang Tae Hwan
    Ha Hee Ra as Na Eun Soo
    Oh Dae Gyu as Kang Jin Myung
    Lee Tae Ran as Choi Hong Ran






    Code
    Video
    ID                                       : 0
    Format                                   : MPEG-4 Visual
    Format profile                           : Advanced Simple@L5
    Format settings, BVOP                    : No
    Format settings, QPel                    : No
    Format settings, GMC                     : No warppoints
    Format settings, Matrix                  : Default (MPEG)
    Codec ID                                 : XVID
    Codec ID/Hint                            : XviD
    Duration                                 : 1h 29mn
    Bit rate                                 : 1 388 Kbps
    Width                                    : 624 pixels
    Height                                   : 352 pixels
    Display aspect ratio                     : 16:9
    Frame rate                               : 29.970 fps
    Color space                              : YUV
    Chroma subsampling                       : 4:2:0
    Bit depth                                : 8 bits
    Scan type                                : Progressive
    Compression mode                         : Lossy
    Bits/(Pixel*Frame)                       : 0.211
    Stream size                              : 886 MiB (87%)
    Writing library                          : XviD 1.2.1 (UTC 2008-12-04)

    Audio
    ID                                       : 1
    Format                                   : MPEG Audio
    Format version                           : Version 1
    Format profile                           : Layer 3
    Mode                                     : Joint stereo
    Mode extension                           : MS Stereo
    Codec ID                                 : 55
    Codec ID/Hint                            : MP3
    Duration                                 : 1h 29mn
    Bit rate mode                            : Constant
    Bit rate                                 : 128 Kbps
    Channel(s)                               : 2 channels
    Sampling rate                            : 48.0 KHz
    Compression mode                         : Lossy
    Stream size                              : 81.7 MiB (8%)
    Alignment                                : Aligned on interleaves
    Writing library                          : LAME3.98.2



    0 0

    Original Post: Make.A.Woman.Cry.E28.150719.HDTV.H264.720p-LIMO

    http://thetvdb.com/?tab=series&id=294274&lid=7
    Details
    Title: 여자를 울려 / Yeojareul Woolryeo
    Also known as: Let the Woman Cry
    Genre: Family, drama, romance
    Episodes: 50
    Broadcast network: MBC
    Broadcast period: 2015-Apr-18 to 2015-???-??
    Air time: Saturday & Sunday 20:45
    Original Soundtrack: Make a Woman Cry OST

    Synopsis
    Jung Duk In was a former detective who resigned after her son died. She then opens a food stall in front of her son's school to preserves the memory of him and to protects the other students. Along the way she will struggle to forgive people who were responsible for her son's death.

    Cast

    Main Cast
    Kim Jung Eun as Jung Duk In
    Song Chang Ui as Kang Jin Woo
    Lee Soon Jae as Kang Tae Hwan
    Ha Hee Ra as Na Eun Soo
    Oh Dae Gyu as Kang Jin Myung
    Lee Tae Ran as Choi Hong Ran






    Code
    Video
    ID                             : 1
    Format                         : AVC
    Format/Info                    : Advanced Video Codec
    Format profile                 : High@L5.1
    Format settings, CABAC         : Yes
    Format settings, ReFrames      : 4 frames
    Codec ID                       : V_MPEG4/ISO/AVC
    Duration                       : 1h 24mn
    Bit rate                       : 887 Kbps
    Nominal bit rate               : 2 496 Kbps
    Width                          : 1 280 pixels
    Height                         : 720 pixels
    Display aspect ratio           : 16:9
    Frame rate mode                : Constant
    Frame rate                     : 29.970 fps
    Color space                    : YUV
    Chroma subsampling             : 4:2:0
    Bit depth                      : 8 bits
    Scan type                      : Progressive
    Bits/(Pixel*Frame)             : 0.032
    Stream size                    : 535 MiB (68%)
    Writing library                : x264 core 130 r2273 b3065e6
    Encoding settings              : cabac=1 / ref=3 / deblock=1:0:0 / analyse=0x3:0x113 / me=hex / subme=7 / psy=1 / psy_rd=1.00:0.00 / mixed_ref=1 / me_range=16 / chroma_me=1 / trellis=1 / 8x8dct=1 / cqm=0 / deadzone=21,11 / fast_pskip=1 / chroma_qp_offset=-2 / threads=1 / lookahead_threads=1 / sliced_threads=0 / nr=0 / decimate=1 / interlaced=0 / bluray_compat=0 / constrained_intra=0 / bframes=3 / b_pyramid=2 / b_adapt=1 / b_bias=0 / direct=1 / weightb=1 / open_gop=0 / weightp=2 / keyint=300 / keyint_min=29 / scenecut=40 / intra_refresh=0 / rc_lookahead=40 / rc=2pass / mbtree=1 / bitrate=2496 / ratetol=1.0 / qcomp=0.60 / qpmin=0 / qpmax=69 / qpstep=4 / cplxblur=20.0 / qblur=0.5 / vbv_maxrate=300000 / vbv_bufsize=300000 / nal_hrd=none / ip_ratio=1.40 / aq=1:1.00
    Default                        : Yes
    Forced                         : No

    Audio
    ID                             : 2
    Format                         : AC-3
    Format/Info                    : Audio Coding 3
    Mode extension                 : CM (complete main)
    Format settings, Endianness    : Big
    Codec ID                       : A_AC3
    Duration                       : 1h 24mn
    Bit rate mode                  : Constant
    Bit rate                       : 384 Kbps
    Channel(s)                     : 2 channels
    Channel positions              : Front: L R
    Sampling rate                  : 44.1 KHz
    Bit depth                      : 16 bits
    Compression mode               : Lossy
    Stream size                    : 232 MiB (30%)
    Language                       : Korean
    Default                        : Yes
    Forced                         : No



    0 0

    Original Post: Queen's.Flower.E38.150719.HDTV.XviD-LIMO

    http://thetvdb.com/?tab=series&id=293195
    Details
    Title: 여왕의 꽃 / Yeowangeui Ggot
    Previously known as: 적도의 꽃 (Flower of the Equator)
    Genre: Melodrama
    Episodes: 50
    Broadcast network: MBC
    Broadcast period: 2015-Mar-14 to 2015-???-??
    Air time: Saturday & Sunday 21:55

    Synopsis
    Rena Jung (Kim Sung Ryung) is a beautiful, but ambitious star chef who hosts her own cooking show. Her husband, Park Min-Joon (Lee Jong Hyuk), is the first son of a family that runs a large company. Their relationship is not so good, but they try to show other people they are still in love.

    In the past, Rena Jung abandoned her daughter for a chance at success. Now, her daughter, Kang Yi Sol (Lee Sung Kyung) appears in front of her. Kang Yi Sol resents her mother for abandoning her.

    Park Jae Joon (Yoon Park) is the husband's younger brother. He is popular with women, but he is attracted to Kang Yi-Sol.

    Cast
    Kim Sung Ryung as Rena Jung / Jung Eun Hye
    Lee Sung Kyung as Kang Yi Sol
    Yoon Park as Park Jae Joon
    Lee Jong Hyuk as Park Min Joon








    Code
    Video
    ID                                       : 0
    Format                                   : MPEG-4 Visual
    Format profile                           : Advanced Simple@L5
    Format settings, BVOP                    : No
    Format settings, QPel                    : No
    Format settings, GMC                     : No warppoints
    Format settings, Matrix                  : Default (MPEG)
    Codec ID                                 : XVID
    Codec ID/Hint                            : XviD
    Duration                                 : 1h 29mn
    Bit rate                                 : 1 388 Kbps
    Width                                    : 624 pixels
    Height                                   : 352 pixels
    Display aspect ratio                     : 16:9
    Frame rate                               : 29.970 fps
    Color space                              : YUV
    Chroma subsampling                       : 4:2:0
    Bit depth                                : 8 bits
    Scan type                                : Progressive
    Compression mode                         : Lossy
    Bits/(Pixel*Frame)                       : 0.211
    Stream size                              : 886 MiB (87%)
    Writing library                          : XviD 1.2.1 (UTC 2008-12-04)

    Audio
    ID                                       : 1
    Format                                   : MPEG Audio
    Format version                           : Version 1
    Format profile                           : Layer 3
    Mode                                     : Joint stereo
    Mode extension                           : MS Stereo
    Codec ID                                 : 55
    Codec ID/Hint                            : MP3
    Duration                                 : 1h 29mn
    Bit rate mode                            : Constant
    Bit rate                                 : 128 Kbps
    Channel(s)                               : 2 channels
    Sampling rate                            : 48.0 KHz
    Compression mode                         : Lossy
    Stream size                              : 81.7 MiB (8%)
    Alignment                                : Aligned on interleaves
    Writing library                          : LAME3.98.2



    0 0

    Original Post: Queen's.Flower.E38.150719.HDTV.H264.720p-LIMO

    http://thetvdb.com/?tab=series&id=293195
    Title: 여왕의 꽃 / Yeowangeui Ggot
    Previously known as: 적도의 꽃 (Flower of the Equator)
    Genre: Melodrama
    Episodes: 50
    Broadcast network: MBC
    Broadcast period: 2015-Mar-14 to 2015-???-??
    Air time: Saturday & Sunday 21:55

    Synopsis
    Rena Jung (Kim Sung Ryung) is a beautiful, but ambitious star chef who hosts her own cooking show. Her husband, Park Min-Joon (Lee Jong Hyuk), is the first son of a family that runs a large company. Their relationship is not so good, but they try to show other people they are still in love.

    In the past, Rena Jung abandoned her daughter for a chance at success. Now, her daughter, Kang Yi Sol (Lee Sung Kyung) appears in front of her. Kang Yi Sol resents her mother for abandoning her.

    Park Jae Joon (Yoon Park) is the husband's younger brother. He is popular with women, but he is attracted to Kang Yi-Sol.

    Cast
    Kim Sung Ryung as Rena Jung / Jung Eun Hye
    Lee Sung Kyung as Kang Yi Sol
    Yoon Park as Park Jae Joon
    Lee Jong Hyuk as Park Min Joon






    Code
    Video
    ID                             : 1
    Format                         : AVC
    Format/Info                    : Advanced Video Codec
    Format profile                 : High@L5.1
    Format settings, CABAC         : Yes
    Format settings, ReFrames      : 4 frames
    Codec ID                       : V_MPEG4/ISO/AVC
    Duration                       : 1h 24mn
    Bit rate                       : 887 Kbps
    Nominal bit rate               : 2 496 Kbps
    Width                          : 1 280 pixels
    Height                         : 720 pixels
    Display aspect ratio           : 16:9
    Frame rate mode                : Constant
    Frame rate                     : 29.970 fps
    Color space                    : YUV
    Chroma subsampling             : 4:2:0
    Bit depth                      : 8 bits
    Scan type                      : Progressive
    Bits/(Pixel*Frame)             : 0.032
    Stream size                    : 535 MiB (68%)
    Writing library                : x264 core 130 r2273 b3065e6
    Encoding settings              : cabac=1 / ref=3 / deblock=1:0:0 / analyse=0x3:0x113 / me=hex / subme=7 / psy=1 / psy_rd=1.00:0.00 / mixed_ref=1 / me_range=16 / chroma_me=1 / trellis=1 / 8x8dct=1 / cqm=0 / deadzone=21,11 / fast_pskip=1 / chroma_qp_offset=-2 / threads=1 / lookahead_threads=1 / sliced_threads=0 / nr=0 / decimate=1 / interlaced=0 / bluray_compat=0 / constrained_intra=0 / bframes=3 / b_pyramid=2 / b_adapt=1 / b_bias=0 / direct=1 / weightb=1 / open_gop=0 / weightp=2 / keyint=300 / keyint_min=29 / scenecut=40 / intra_refresh=0 / rc_lookahead=40 / rc=2pass / mbtree=1 / bitrate=2496 / ratetol=1.0 / qcomp=0.60 / qpmin=0 / qpmax=69 / qpstep=4 / cplxblur=20.0 / qblur=0.5 / vbv_maxrate=300000 / vbv_bufsize=300000 / nal_hrd=none / ip_ratio=1.40 / aq=1:1.00
    Default                        : Yes
    Forced                         : No

    Audio
    ID                             : 2
    Format                         : AC-3
    Format/Info                    : Audio Coding 3
    Mode extension                 : CM (complete main)
    Format settings, Endianness    : Big
    Codec ID                       : A_AC3
    Duration                       : 1h 24mn
    Bit rate mode                  : Constant
    Bit rate                       : 384 Kbps
    Channel(s)                     : 2 channels
    Channel positions              : Front: L R
    Sampling rate                  : 44.1 KHz
    Bit depth                      : 16 bits
    Compression mode               : Lossy
    Stream size                    : 232 MiB (30%)
    Language                       : Korean
    Default                        : Yes
    Forced                         : No



    0 0

    Original Post: The.Time.We.Were.Not.In.Love.E08.150719.HDTV.X264-LIMO

    http://thetvdb.com/index.php?tab=series&id=296628
    Title: 너를 사랑한 시간 / Neoreul Saranghan Shigan / The Time I've Loved You (lit.)
    English title: The Time We Were Not In Love
    Previously known as: 너를 사랑한 시간 7000일 / Neoreul Saranghan Shigan, 7000 Il
    Genre: Romance, comedy
    Episodes: 16
    Broadcast network: SBS
    Broadcast period: 2015-June-27 to 2015-Aug-16
    Air time: Saturday & Sunday 22:00
    Original Soundtrack: The Time We Were Not In Love OST
    Related TV Shows: In Time With You (FTV, 2011)

    Synopsis
    Jang Ha Na (Ha Ji Won) and Choi Won (Lee Jin Wook) are incredibly close platonic friends: throughout 20 years, they've braved it all through thick and thin. As Ha Na's 30th birthday approaches, Won extols the virtues of aging as a man—like a wine—while explaining that women are like grapes that shrivel into raisins. Determined to prove him wrong, Ha Na strikes a bet on which of the two will marry before turning 35. Based on Taiwan's hit In Time With You, can these two friends make the ultimate leap?

    Main Cast
    Ha Ji Won as Oh Ha Na
    Lee Jin Wook as Choi Won







    Code
    Video
    ID                             : 1
    Format                         : AVC
    Format/Info                    : Advanced Video Codec
    Format profile                 : Main@L4.0
    Format settings, CABAC         : Yes
    Format settings, ReFrames      : 4 frames
    Codec ID                       : V_MPEG4/ISO/AVC
    Duration                       : 58mn 44s
    Bit rate                       : 450 Kbps
    Width                          : 624 pixels
    Height                         : 350 pixels
    Display aspect ratio           : 16:9
    Frame rate mode                : Constant
    Frame rate                     : 29.970 fps
    Color space                    : YUV
    Chroma subsampling             : 4:2:0
    Bit depth                      : 8 bits
    Scan type                      : Progressive
    Bits/(Pixel*Frame)             : 0.069
    Stream size                    : 190 MiB (76%)
    Writing library                : x264 core 130 r2273 b3065e6
    Encoding settings              : cabac=1 / ref=1 / deblock=1:0:0 / analyse=0x1:0x111 / me=hex / subme=2 / psy=1 / psy_rd=1.00:0.00 / mixed_ref=0 / me_range=16 / chroma_me=1 / trellis=0 / 8x8dct=0 / cqm=0 / deadzone=21,11 / fast_pskip=1 / chroma_qp_offset=0 / threads=1 / lookahead_threads=1 / sliced_threads=0 / nr=0 / decimate=1 / interlaced=0 / bluray_compat=0 / constrained_intra=0 / bframes=3 / b_pyramid=2 / b_adapt=1 / b_bias=0 / direct=1 / weightb=1 / open_gop=0 / weightp=1 / keyint=300 / keyint_min=30 / scenecut=40 / intra_refresh=0 / rc_lookahead=10 / rc=abr / mbtree=1 / bitrate=450 / ratetol=1.0 / qcomp=0.60 / qpmin=0 / qpmax=69 / qpstep=4 / vbv_maxrate=20000 / vbv_bufsize=25000 / nal_hrd=none / ip_ratio=1.40 / aq=1:1.00
    Language                       : English
    Default                        : Yes
    Forced                         : No
    Color primaries                : BT.601 NTSC
    Transfer characteristics       : BT.709
    Matrix coefficients            : BT.601

    Audio
    ID                             : 2
    Format                         : MPEG Audio
    Format version                 : Version 1
    Format profile                 : Layer 3
    Mode                           : Joint stereo
    Mode extension                 : MS Stereo
    Codec ID                       : A_MPEG/L3
    Codec ID/Hint                  : MP3
    Duration                       : 58mn 44s
    Bit rate mode                  : Constant
    Bit rate                       : 128 Kbps
    Channel(s)                     : 2 channels
    Sampling rate                  : 48.0 KHz
    Compression mode               : Lossy
    Stream size                    : 53.8 MiB (22%)
    Default                        : Yes
    Forced                         : No



    0 0

    Original Post: The.Time.We.Were.Not.In.Love.E08.150719.HDTV.H264.450p-LIMO

    http://thetvdb.com/index.php?tab=series&id=296628
    Title: 너를 사랑한 시간 / Neoreul Saranghan Shigan / The Time I've Loved You (lit.)
    English title: The Time We Were Not In Love
    Previously known as: 너를 사랑한 시간 7000일 / Neoreul Saranghan Shigan, 7000 Il
    Genre: Romance, comedy
    Episodes: 16
    Broadcast network: SBS
    Broadcast period: 2015-June-27 to 2015-Aug-16
    Air time: Saturday & Sunday 22:00
    Original Soundtrack: The Time We Were Not In Love OST
    Related TV Shows: In Time With You (FTV, 2011)

    Synopsis
    Jang Ha Na (Ha Ji Won) and Choi Won (Lee Jin Wook) are incredibly close platonic friends: throughout 20 years, they've braved it all through thick and thin. As Ha Na's 30th birthday approaches, Won extols the virtues of aging as a man—like a wine—while explaining that women are like grapes that shrivel into raisins. Determined to prove him wrong, Ha Na strikes a bet on which of the two will marry before turning 35. Based on Taiwan's hit In Time With You, can these two friends make the ultimate leap?

    Main Cast
    Ha Ji Won as Oh Ha Na
    Lee Jin Wook as Choi Won








    Code
    Video
    ID                             : 1
    Format                         : AVC
    Format/Info                    : Advanced Video Codec
    Format profile                 : Main@L4.0
    Format settings, CABAC         : Yes
    Format settings, ReFrames      : 4 frames
    Codec ID                       : V_MPEG4/ISO/AVC
    Duration                       : 58mn 44s
    Bit rate                       : 450 Kbps
    Width                          : 624 pixels
    Height                         : 350 pixels
    Display aspect ratio           : 16:9
    Frame rate mode                : Constant
    Frame rate                     : 29.970 fps
    Color space                    : YUV
    Chroma subsampling             : 4:2:0
    Bit depth                      : 8 bits
    Scan type                      : Progressive
    Bits/(Pixel*Frame)             : 0.069
    Stream size                    : 190 MiB (76%)
    Writing library                : x264 core 130 r2273 b3065e6
    Encoding settings              : cabac=1 / ref=1 / deblock=1:0:0 / analyse=0x1:0x111 / me=hex / subme=2 / psy=1 / psy_rd=1.00:0.00 / mixed_ref=0 / me_range=16 / chroma_me=1 / trellis=0 / 8x8dct=0 / cqm=0 / deadzone=21,11 / fast_pskip=1 / chroma_qp_offset=0 / threads=1 / lookahead_threads=1 / sliced_threads=0 / nr=0 / decimate=1 / interlaced=0 / bluray_compat=0 / constrained_intra=0 / bframes=3 / b_pyramid=2 / b_adapt=1 / b_bias=0 / direct=1 / weightb=1 / open_gop=0 / weightp=1 / keyint=300 / keyint_min=30 / scenecut=40 / intra_refresh=0 / rc_lookahead=10 / rc=abr / mbtree=1 / bitrate=450 / ratetol=1.0 / qcomp=0.60 / qpmin=0 / qpmax=69 / qpstep=4 / vbv_maxrate=20000 / vbv_bufsize=25000 / nal_hrd=none / ip_ratio=1.40 / aq=1:1.00
    Language                       : English
    Default                        : Yes
    Forced                         : No
    Color primaries                : BT.601 NTSC
    Transfer characteristics       : BT.709
    Matrix coefficients            : BT.601

    Audio
    ID                             : 2
    Format                         : MPEG Audio
    Format version                 : Version 1
    Format profile                 : Layer 3
    Mode                           : Joint stereo
    Mode extension                 : MS Stereo
    Codec ID                       : A_MPEG/L3
    Codec ID/Hint                  : MP3
    Duration                       : 58mn 44s
    Bit rate mode                  : Constant
    Bit rate                       : 128 Kbps
    Channel(s)                     : 2 channels
    Sampling rate                  : 48.0 KHz
    Compression mode               : Lossy
    Stream size                    : 53.8 MiB (22%)
    Default                        : Yes
    Forced                         : No



    0 0

    Original Post: The.Time.We.Were.Not.In.Love.E08.150719.HDTV.H264.720p-LIMO

    http://thetvdb.com/index.php?tab=series&id=296628
    Title: 너를 사랑한 시간 / Neoreul Saranghan Shigan / The Time I've Loved You (lit.)
    English title: The Time We Were Not In Love
    Previously known as: 너를 사랑한 시간 7000일 / Neoreul Saranghan Shigan, 7000 Il
    Genre: Romance, comedy
    Episodes: 16
    Broadcast network: SBS
    Broadcast period: 2015-June-27 to 2015-Aug-16
    Air time: Saturday & Sunday 22:00
    Original Soundtrack: The Time We Were Not In Love OST
    Related TV Shows: In Time With You (FTV, 2011)

    Synopsis
    Jang Ha Na (Ha Ji Won) and Choi Won (Lee Jin Wook) are incredibly close platonic friends: throughout 20 years, they've braved it all through thick and thin. As Ha Na's 30th birthday approaches, Won extols the virtues of aging as a man—like a wine—while explaining that women are like grapes that shrivel into raisins. Determined to prove him wrong, Ha Na strikes a bet on which of the two will marry before turning 35. Based on Taiwan's hit In Time With You, can these two friends make the ultimate leap?

    Main Cast
    Ha Ji Won as Oh Ha Na
    Lee Jin Wook as Choi Won










    Code
    Video
    ID                                       : 0
    Format                                   : AVC
    Format/Info                              : Advanced Video Codec
    Format profile                           : High@L5.1
    Format settings, CABAC                   : Yes
    Format settings, ReFrames                : 4 frames
    Codec ID                                 : H264
    Bit rate                                 : 1 500 Kbps
    Width                                    : 800 pixels
    Height                                   : 450 pixels
    Display aspect ratio                     : 16:9
    Frame rate mode                          : Variable
    Frame rate                               : 29.970 fps
    Color space                              : YUV
    Chroma subsampling                       : 4:2:0
    Bit depth                                : 8 bits
    Scan type                                : Progressive
    Bits/(Pixel*Frame)                       : 0.139
    Stream size                              : 686 MiB (88%)
    Writing library                          : x264 core 112

    Audio
    ID                                       : 1
    Format                                   : MPEG Audio
    Format version                           : Version 1
    Format profile                           : Layer 3
    Mode                                     : Joint stereo
    Mode extension                           : MS Stereo
    Codec ID                                 : 55
    Codec ID/Hint                            : MP3
    Bit rate mode                            : Constant
    Bit rate                                 : 192 Kbps
    Channel(s)                               : 2 channels
    Sampling rate                            : 48.0 KHz
    Compression mode                         : Lossy
    Stream size                              : 88.3 MiB (11%)
    Alignment                                : Aligned on interleaves
    Interleave, duration                     : 24 ms (0.72 video frame)
    Writing library                          : LAME3.98.2
    Language                                 : Korean



    0 0

    Original Post: Jang Woo Ram – My Love Eun Dong OST Part.4



    장우람 – 사랑하는 은동아 (JTBC 금토미니시리즈) OST – Part.4
    Release Date: 2015.07.03
    Genre: OST
    Language: Korean
    Bit Rate: MP3-320kbps
    credit to hulkpop

    Track List:

    01. 널 그리다
    02. 널 그리다 (Inst.)



    0 0

    Original Post: The Groo – Masked Prosecutor OST Part.4



    그루 – 복면검사 (KBS 수목드라마) OST – Part.4
    Release Date: 2015.07.01
    Genre: OST
    Language: Korean
    Bit Rate: MP3-320kbps
    crdit to hulkpop

    Track List:

    01. 탓
    02. 탓 (Inst.)



    0 0

    Original Post: Every Single Day – The Time We Were Not In Love OST Part.4



    에브리 싱글 데이 – 너를 사랑한 시간 (SBS 주말드라마) OST – Part.4
    Release Date: 2015.07.18
    Genre: OST
    Language: Korean
    Bit Rate: MP3-320kbps
    credit to hulkpop

    Track List:

    01. 마음이 가네
    02. 마음이 가네 (Inst.)



    0 0

    Original Post: One Minute More 2015 1080p WEBRip x264 AC3-SeeHD





    Detail:
    Title: One Minute More
    Genre: Romance
    Release Date: 9 May 2014
    Runtime: 110 min
    Director: Weiling Chen
    Rating: 5.0/10 from 16 users
    Country: China
    Language: Mandarin
    Subtitles:Chinese, English Hardcoded

    Synopsis:
    (Google Translated)
    Tsai Wan true fashion editor (Zhang Jun Ning) and her boyfriend Shen Hao mediator (Peter Ho) cohabitation has been for a long time, Wan never really a career woman to work in the first place, while her boyfriend is Kosuke SOHO owners focus on quality of life, care of his girlfriend plus, to help her take care of all of life. Suddenly one day, Lira dog into their lives, and this cute little guy let Wan true and Kosuke originally attributed to plain cohabitation with the new sweet. But Wan really more busy work, she attend Kosuke and lira, emotional crisis escalated, until the break. Wan real work is about to new heights, high handsome colleague also began to Wan really fierce pursuit, but in this case, the dog's life, but the lira to the countdown ...... Wan really how life will change, her love turn go ......
     The film adapted from a Japanese writer Harada leaves dance novel "Just one minute."

    Cast:
    Janine Chun-Ning Chang, Peter Ho, Reina Ikehata







    Code

    Video
    ID                                       : 1
    Format                                   : AVC
    Format/Info                              : Advanced Video Codec
    Format profile                           : High@L4.0
    Format settings, CABAC                   : Yes
    Format settings, ReFrames                : 3 frames
    Codec ID                                 : V_MPEG4/ISO/AVC
    Duration                                 : 1h 33mn
    Bit rate                                 : 2 011 Kbps
    Width                                    : 1 920 pixels
    Height                                   : 804 pixels
    Display aspect ratio                     : 2.40:1
    Frame rate                               : 24.000 fps
    Color space                              : YUV
    Chroma subsampling                       : 4:2:0
    Bit depth                                : 8 bits
    Scan type                                : Progressive
    Bits/(Pixel*Frame)                       : 0.054
    Stream size                              : 1.31 GiB (80%)
    Default                                  : Yes
    Forced                                   : No

    Audio
    ID                                       : 2
    Format                                   : AC-3
    Format/Info                              : Audio Coding 3
    Mode extension                           : CM (complete main)
    Format settings, Endianness              : Big
    Codec ID                                 : A_AC3
    Duration                                 : 1h 33mn
    Bit rate mode                            : Constant
    Bit rate                                 : 448 Kbps
    Channel(s)                               : 2 channels
    Channel positions                        : Front: L R
    Sampling rate                            : 44.1 KHz
    Bit depth                                : 16 bits
    Compression mode                         : Lossy
    Stream size                              : 298 MiB (18%)
    Default                                  : Yes
    Forced                                   : No



    0 0

    Original Post: Sultry Assassin The Aphrodisiac Kill (2010) DVDRip

    For Adults Only!



    An Edo Period commoner discovers a weapon more powerful than the sword when he crosses paths with a female ninja on a dangerous mission. Yasaburo isn't a samurai, but he's devoted his life to becoming an expert swordsman. Upon encountering what appears to be a desperate prostitute, the benevolent peasant quickly comes to her aid. But Rin is no prostitute; she's a deadly Kunoichi in disguise, and she's on a mission to find the source of illegal aphrodisiacs being smuggled into Japan. She's never missed her mark, and she's about to confront her most deadly foe to date.

    Screenshots:







    IMDB LINK: http://www.imdb.com/title/tt1792641/
    Cast: Akiho Yoshizawa, Yoshihiro Satô, Asami
    Directed: Kenichi Fujiwara
    Genre: Action / Adventure / Thriller / Pinku
    Runtime: 68 min
    Also Known As: Tsuyakenkaku: Kunoichi biyaku seme
    Country: Japan
    Language: Japanese
    Subtitles: English (optional)

    ----------------------------------------------------

    Complete name                            : SULTRY_ASSA.mkv
    Format                                   : Matroska
    Format version                           : Version 2
    File size                                : 1.10 GiB
    Duration                                 : 1h 8mn
    Overall bit rate                         : 2 306 Kbps
    Encoded date                             : UTC
    Writing application                      : HandBrake 0.10.2 2015060900
    Writing library                          : Lavf55.12.0

    Video
    ID                                       : 1
    Format                                   : AVC
    Format/Info                              : Advanced Video Codec
    Format profile                           : Main@L4.0
    Format settings, CABAC                   : Yes
    Format settings, ReFrames                : 4 frames
    Codec ID                                 : V_MPEG4/ISO/AVC
    Duration                                 : 1h 8mn
    Width                                    : 720 pixels
    Height                                   : 480 pixels
    Display aspect ratio                     : 16:9
    Frame rate mode                          : Constant
    Frame rate                               : 29.970 fps
    Standard                                 : NTSC
    Color space                              : YUV
    Chroma subsampling                       : 4:2:0
    Bit depth                                : 8 bits
    Scan type                                : Progressive
    Writing library                          : x264 core 142 r2479 dd79a61
    Encoding settings                        : cabac=1 / ref=1 / deblock=1:0:0 / analyse=0x1:0x111 / me=hex / subme=2 / psy=1 / psy_rd=1.00:0.00 / mixed_ref=0 / me_range=16 / chroma_me=1 / trellis=0 / 8x8dct=0 / cqm=0 / deadzone=21,11 / fast_pskip=1 / chroma_qp_offset=0 / threads=6 / lookahead_threads=2 / sliced_threads=0 / nr=0 / decimate=1 / interlaced=0 / bluray_compat=0 / constrained_intra=0 / bframes=3 / b_pyramid=2 / b_adapt=1 / b_bias=0 / direct=1 / weightb=1 / open_gop=0 / weightp=1 / keyint=300 / keyint_min=30 / scenecut=40 / intra_refresh=0 / rc_lookahead=10 / rc=crf / mbtree=1 / crf=20.0 / qcomp=0.60 / qpmin=0 / qpmax=69 / qpstep=4 / vbv_maxrate=20000 / vbv_bufsize=25000 / crf_max=0.0 / nal_hrd=none / filler=0 / ip_ratio=1.40 / aq=1:1.00
    Default                                  : Yes
    Forced                                   : No
    Color primaries                          : BT.601 NTSC
    Transfer characteristics                 : BT.709
    Matrix coefficients                      : BT.601
    Color range                              : Limited

    Audio
    ID                                       : 2
    Format                                   : AAC
    Format/Info                              : Advanced Audio Codec
    Format profile                           : LC
    Codec ID                                 : A_AAC
    Duration                                 : 1h 8mn
    Channel(s)                               : 2 channels
    Channel positions                        : Front: L R
    Sampling rate                            : 48.0 KHz
    Compression mode                         : Lossy
    Title                                    : Stereo
    Language                                 : Japanese
    Default                                  : Yes
    Forced                                   : No

    Text
    ID                                       : 3
    Format                                   : VobSub
    Codec ID                                 : S_VOBSUB
    Codec ID/Info                            : The same subtitle format used on DVDs
    Language                                 : English
    Default                                  : No
    Forced                                   : No