Are you the publisher? Claim or contact us about this channel


Embed this content in your HTML

Search

Report adult content:

click to rate:

Account: (login)

More Channels


Showcase


Channel Catalog


Channel Description:

Asia Torrents RSS Feed

older | 1 | .... | 1376 | 1377 | (Page 1378) | 1379 | 1380 | .... | 1405 | newer

    0 0

    Original Post: Paradise in Service 2014 1080p BluRay AVC TrueHD 5.1

    Warning! Contain a little nudity~





    Detail:
    Title: Paradise in Service
    Genre: Drama, History, Romance
    Release Date: 5 September 2014
    Runtime: 133 min
    Director: Doze Niu
    Rating: 6.6/10 from 96 users
    Country: China, Taiwan
    Language: Mandarin
    Subtitles: English, Chinese

    Synopsis:
    Set in the island Kinmen, often seen as the most dangerous military base because it is geographically close to China, Paradise In Service follows the adventure of a boy who serves his military service in Unit 831 from 1969 to 1972, in preparation for a war that could erupt anytime. Through an unlucky lottery draw result, Pao, a twenty-something young man from Southern Taiwan has to serve the military in the remote and perilous Kinmen. Moreover, he is assigned to the Sea Dragon (ARB), a unit known for the toughest physical training. It never occurs to Pao that the greatest challenge is not his military training but a special task he is later appointed to. In this peculiar assignment, Pao vows to keep his virginity against all odds.

    Cast:
    Ethan Juan, Jianbin Chen, Regina Wan

    http://www.imdb.com/title/tt4012914/

    DISC INFO:

    Disc Title:     Paradise.in.Service.2014.1080p.BluRay.AVC.TrueHD.5.1
    Disc Size:      23,213,893,217 bytes
    Protection:     AACS
    BD-Java:        No
    BDInfo:         0.5.8

    PLAYLIST REPORT:

    Name:                   00001.MPLS
    Length:                 2:13:55.541 (h:m:s.ms)
    Size:                   22,945,683,456 bytes
    Total Bitrate:          22.84 Mbps

    VIDEO:

    Codec                   Bitrate             Description    
    -----                   -------             -----------    
    MPEG-4 AVC Video        17001 kbps          1080p / 24 fps / 16:9 / High Profile 4.1

    AUDIO:

    Codec                           Language        Bitrate         Description    
    -----                           --------        -------         -----------    
    Dolby TrueHD Audio              Chinese         1853 kbps       5.1 / 96 kHz / 1853 kbps / 16-bit
    (AC3 Embedded: 5.1 / 48 kHz / 640 kbps)
    Dolby Digital EX Audio          Chinese         640 kbps        5.1-EX / 48 kHz / 640 kbps

    SUBTITLES:

    Codec                           Language        Bitrate         Description    
    -----                           --------        -------         -----------    
    Presentation Graphics           Chinese         19.166 kbps                    
    Presentation Graphics           English         24.415 kbps





    0 0

    Original Post: Wolf.Warriors.2015.1080p.BluRay.AVC.TrueHD.7.1



    A Chinese special force soldier with extraordinary marksmanship is confronted by a group of deadly foreign mercenaries who are hired to assassinate him by a vicious drug lord.

    Title: 战狼
    English Title: Wolf Warrior
    Director: Wu Jing
    Release Date: 02 Apr 2015
    Runtime: 90 min.
    Genre: Action
    Language: Mandarin
    Country: China
    Subtitles: English, Chinese T/S

    http://www.imdb.com/title/tt3540136/

    DISC INFO:

    Disc Title:     Wolf.Warriors.2015.1080p.BluRay.AVC.TrueHD.7.1
    Disc Size:      23,849,491,351 bytes
    Protection:     AACS
    BD-Java:        No
    BDInfo:         0.5.8

    PLAYLIST REPORT:

    Name:                   00001.MPLS
    Length:                 1:30:03.523 (h:m:s.ms)
    Size:                   23,394,686,976 bytes
    Total Bitrate:          34.64 Mbps

    VIDEO:

    Codec                   Bitrate             Description    
    -----                   -------             -----------    
    MPEG-4 AVC Video        26256 kbps          1080p / 23.976 fps / 16:9 / High Profile 4.1

    AUDIO:

    Codec                           Language        Bitrate         Description    
    -----                           --------        -------         -----------    
    Dolby TrueHD Audio              Chinese         4356 kbps       7.1 / 96 kHz / 4356 kbps / 16-bit
    (AC3 Embedded: 5.1-EX / 48 kHz / 640 kbps)
    Dolby Digital EX Audio          Chinese         640 kbps        5.1-EX / 48 kHz / 640 kbps

    SUBTITLES:

    Codec                           Language        Bitrate         Description    
    -----                           --------        -------         -----------    
    Presentation Graphics           Chinese         18.511 kbps                    
    Presentation Graphics           Chinese         17.175 kbps                    
    Presentation Graphics           English         21.912 kbps





    0 0

    Original Post: Wolf.Warriors.2015.1080p.3D.BluRay.AVC.TrueHD.7.1



    A Chinese special force soldier with extraordinary marksmanship is confronted by a group of deadly foreign mercenaries who are hired to assassinate him by a vicious drug lord.

    Title: 战狼
    English Title: Wolf Warrior
    Director: Wu Jing
    Release Date: 02 Apr 2015
    Runtime: 90 min.
    Genre: Action
    Language: Mandarin
    Country: China
    Subtitles: English, Chinese T/S

    http://www.imdb.com/title/tt3540136/

    DISC INFO:

    Disc Title:     Wolf.Warriors.2015.1080p.3D.BluRay.AVC.TrueHD.7.1-RARBG
    Disc Size:      32,728,632,262 bytes
    Protection:     AACS
    BD-Java:        No
    Extras:         Blu-ray 3D
    BDInfo:         0.5.8

    PLAYLIST REPORT:

    Name:                   00001.MPLS
    Length:                 1:30:03.523 (h:m:s.ms)
    Size:                   32,272,527,360 bytes
    Total Bitrate:          47.78 Mbps

    VIDEO:

    Codec                   Bitrate             Description    
    -----                   -------             -----------    
    MPEG-4 AVC Video        23286 kbps          1080p / 23.976 fps / 16:9 / High Profile 4.1
    MPEG-4 MVC Video        15491 kbps                          

    AUDIO:

    Codec                           Language        Bitrate         Description    
    -----                           --------        -------         -----------    
    Dolby TrueHD Audio              Chinese         4356 kbps       7.1 / 96 kHz / 4356 kbps / 16-bit
    (AC3 Embedded: 5.1-EX / 48 kHz / 640 kbps)
    Dolby Digital EX Audio          Chinese         640 kbps        5.1-EX / 48 kHz / 640 kbps

    SUBTITLES:

    Codec                           Language        Bitrate         Description    
    -----                           --------        -------         -----------    
    Presentation Graphics           Chinese         18.511 kbps                    
    Presentation Graphics           Chinese         17.175 kbps                    
    Presentation Graphics           English         21.912 kbps





    0 0

    Original Post: The.Legend.of.Drunken.Master.1994.BluRay.Remux.1080p.AVC.FLAC.2.0-BMF




    Title: The Legend of Drunken Master
    Original Title : Jui kuen II
    Director: Chia-Liang Liu
    Release Date: 1994
    Runtime: 1h 42mn
    Genre: Comedy, Martial Arts
    Language: Cantonese, English
    Country: Hong-Kong
    Subtitles: English
    IMDB URL:http://www.imdb.com/title/tt0111512/

    Cast: Jackie Chan, Ho-Sung Pak, Lung Ti, Anita Mui...

    Synopsis: A young martial artist is caught between respecting his pacifist father's wishes or stopping a group of disrespectful foreigners from stealing precious artifacts.




    Code
    General
    Unique ID : 183579488798796349809851970256357633066 (0x8A1C1F9B6BD80C1EB520263F70892C2A)
    Complete name : The.Legend.of.Drunken.Master.1994.BluRay.Remux.1080p.AVC.FLAC.2.0-BMF.mkv
    Format : Matroska
    Format version : Version 4 / Version 2
    File size : 17.0 GiB
    Duration : 1h 42mn
    Overall bit rate mode : Variable
    Overall bit rate : 23.7 Mbps
    Movie name : Jui kuen II (AKA: The Legend of Drunken Master) (1994)
    Encoded date : UTC 2015-01-07 02:41:53
    Writing application : mkvmerge v7.5.0 ('Glass Culture') 64bit built on Jan 4 2015 16:48:44
    Writing library : libebml v1.3.1 + libmatroska v1.4.2
    _STATISTICS_WRITING_APP : mkvmerge v7.5.0 ('Glass Culture') 64bit built on Jan 4 2015 16:48:44
    _STATISTICS_WRITING_DATE_UTC : 2015-01-07 02:41:53
    _STATISTICS_TAGS : BPS DURATION NUMBER_OF_FRAMES NUMBER_OF_BYTES
    DURATION : 01:42:04.076000000
    NUMBER_OF_FRAMES : 2772
    NUMBER_OF_BYTES : 9711838

    Video
    ID : 1
    Format : AVC
    Format/Info : Advanced Video Codec
    Format profile : High@L4.1
    Format settings, CABAC : Yes
    Format settings, ReFrames : 4 frames
    Codec ID : V_MPEG4/ISO/AVC
    Duration : 1h 42mn
    Bit rate mode : Variable
    Maximum bit rate : 27.0 Mbps
    Width : 1 920 pixels
    Height : 1 080 pixels
    Display aspect ratio : 16:9
    Frame rate mode : Constant
    Frame rate : 23.976 fps
    Standard : NTSC
    Color space : YUV
    Chroma subsampling : 4:2:0
    Bit depth : 8 bits
    Scan type : Progressive
    Title : MPEG-4 AVC Video / 23160 kbps / 1080p / 23.976 fps / 16:9 / High Profile 4.1
    Default : Yes
    Forced : No
    Color primaries : BT.709
    Transfer characteristics : BT.709
    Matrix coefficients : BT.709
    Color range : Limited
    Audio
    ID : 2
    Format : FLAC
    Format/Info : Free Lossless Audio Codec
    Codec ID : A_FLAC
    Duration : 1h 42mn
    Bit rate mode : Variable
    Channel(s) : 2 channels
    Sampling rate : 48.0 KHz
    Bit depth : 16 bits
    Title : Cantonese / FLAC / 2.0 / 48 kHz / 523 kbps / 16-bit
    Writing library : libFLAC 1.2.1 (UTC 2007-09-17)
    Language : Chinese
    Default : Yes
    Forced : No

    Text
    ID : 3
    Format : PGS
    Muxing mode : zlib
    Codec ID : S_HDMV/PGS
    Codec ID/Info : The same subtitle format used on BDs/HD-DVDs
    Language : English
    Default : Yes
    Forced : No

    Menu
    00:00:00.000 : en:Chapter 01
    00:00:20.020 : en:Chapter 02
    00:03:33.296 : en:Chapter 03
    00:07:31.743 : en:Chapter 04
    00:16:17.018 : en:Chapter 05
    00:17:07.568 : en:Chapter 06
    00:24:57.621 : en:Chapter 07
    00:28:35.505 : en:Chapter 08
    00:33:30.342 : en:Chapter 09
    00:35:58.156 : en:Chapter 10
    00:45:46.577 : en:Chapter 11
    00:53:55.607 : en:Chapter 12
    00:57:44.169 : en:Chapter 13
    01:00:43.723 : en:Chapter 14
    01:03:46.281 : en:Chapter 15
    01:10:50.204 : en:Chapter 16
    01:14:23.376 : en:Chapter 17
    01:17:19.385 : en:Chapter 18
    01:23:45.562 : en:Chapter 19
    01:38:30.029 : en:Chapter 20
    01:39:50.776 : en:Chapter 21






    0 0

    Original Post: A House With A Beautiful View 2 .2015.720p.HDRip.H264-Ental





    Detail:
    Title: A House With A Beautiful View 2
    Genre: Drama Romance
    Release Date: 2015
    Runtime: 1h 29mn
    Country: South Korea
    Language: Korean
    Subtitles:No Subtitles

    Synopsis:
    (Google Translate) “We see an empty room‘m not going?”
    Hot real estate sales blitz journal published in three women and!
    Batdeon ten thousand years Hyung Joon unemployed abused his mother begins to work in real estate About acquaintances. Sexy career woman wife, aggressive attack of body siljangnim, lively and cute innocence until the new female employees! Now the empty house and exploration of the girls got a hot starts.

    Cast:
    Jeong Min Hyeok, White Nights, Yi Si Hyeon, Lee Soo Jin








    Code

    Video
    ID                                       : 1
    Format                                   : AVC
    Format/Info                              : Advanced Video Codec
    Format profile                           : Baseline@L3.0
    Format settings, CABAC                   : No
    Format settings, ReFrames                : 3 frames
    Codec ID                                 : avc1
    Codec ID/Info                            : Advanced Video Coding
    Duration                                 : 1h 29mn
    Bit rate                                 : 2 048 Kbps
    Maximum bit rate                         : 5 459 Kbps
    Width                                    : 1 280 pixels
    Height                                   : 720 pixels
    Display aspect ratio                     : 16:9
    Frame rate mode                          : Constant
    Frame rate                               : 29.970 fps
    Color space                              : YUV
    Chroma subsampling                       : 4:2:0
    Bit depth                                : 8 bits
    Scan type                                : Progressive
    Bits/(Pixel*Frame)                       : 0.074
    Stream size                              : 1.28 GiB (94%)
    Writing library                          : x264 core 129 r2230 1cffe9f
    Encoding settings                        : cabac=0 / ref=3 / deblock=1:0:0 / analyse=0x1:0x111 / me=hex / subme=7 / psy=1 / psy_rd=1.00:0.00 / mixed_ref=1 / me_range=16 / chroma_me=1 / trellis=1 / 8x8dct=0 / cqm=0 / deadzone=21,11 / fast_pskip=1 / chroma_qp_offset=-2 / threads=12 / lookahead_threads=2 / sliced_threads=0 / nr=0 / decimate=1 / interlaced=0 / bluray_compat=0 / constrained_intra=0 / bframes=0 / weightp=0 / keyint=250 / keyint_min=25 / scenecut=0 / intra_refresh=0 / rc_lookahead=40 / rc=abr / mbtree=1 / bitrate=2048 / ratetol=1.0 / qcomp=0.60 / qpmin=0 / qpmax=69 / qpstep=4 / vbv_maxrate=4096 / vbv_bufsize=4096 / nal_hrd=none / ip_ratio=1.40 / aq=1:1.00
    Tagged date                              : UTC 2015-05-28 08:52:42

    Audio
    ID                                       : 2
    Format                                   : AAC
    Format/Info                              : Advanced Audio Codec
    Format profile                           : LC
    Codec ID                                 : 40
    Duration                                 : 1h 29mn
    Bit rate mode                            : Variable
    Bit rate                                 : 128 Kbps
    Maximum bit rate                         : 154 Kbps
    Channel(s)                               : 2 channels
    Channel positions                        : Front: L R
    Sampling rate                            : 44.1 KHz
    Compression mode                         : Lossy
    Stream size                              : 81.8 MiB (6%)
    Encoded date                             : UTC 2015-05-28 08:52:41
    Tagged date                              : UTC 2015-05-28 08:52:42



    0 0

    Original Post: I'm.Home.EP10.END.720p.HDTV.x264.AAC



    http://wiki.d-addicts.com/I%27m_Home_%28TV_Asahi%29
    http://asianwiki.com/I%27m_Home
    http://thetvdb.com/?tab=series&id=293799&lid=7

    Title: アイムホーム
    Title (English): I'm home
    Format: Renzoku
    Genre: Family mystery
    Broadcast network: TV Asahi
    Episodes: 10
    Broadcast period: 2015-Apr-16 to 2015-Jun-18
    Air time: Thursday 21:00
    Language: Japanese
    Country: Japan
    Subtitles: English here: Watanuki and Chiyoko Fansub

    Cast
       Kimura Takuya as Ieji Hisashi
       Ueto Aya as Ieji Megumi
       Mizuno Miki as Nozawa Kaoru
       Tanaka Kei as Honjo Tsuyoshi
       Suzuki Kosuke as Watanuki Shinji
       Yoshimoto Miyu as Takanashi Yua
       Ino Manabu (猪野学) as Hifumi Tsutomu
       Anami Atsuko as Isami Yoko
       Nomaguchi Toru as Iwashita Noboru
       Yano Masato as Tokura Shingo
       Takahashi Rai (高橋來) as Ieji Yoshio
       Yamaguchi Mayu (山口まゆ) as Nozawa Subaru
       Arai Hirofumi as Kuroki Jin
       Mitsuishi Ken as Todoroki Haruki
       Watanabe Ikkei as Teshigawara Yosuke
       Oikawa Mitsuhiro as Tsukuba Yoshiaki
       Nishida Toshiyuki as Kozukue Yukio

    Synopsis
    Ieji Hisashi, a salaryman who works for a securities company, has a fuzzy memory of the recent five years because of an accident at his job posting. His wife of five years, Megumi and their 4-year-old son seem to wear masks. He can neither tell their facial expressions nor their emotions. He also struggles about his love for them. On the other hand, Ieji feels an attachment to his ex-wife, whom he divorced five years ago, and their daughter. What sort of days did he have in those five years which are a blank to him? Ieji sets out on a journey to find his past self with a mysterious bunch of 10 keys that he has. He becomes aware that he was a cold, career-minded man before the accident, and the persona that is gradually revealed is beyond the imagination of his present kindhearted self.

    General
    Complete name                  : I'm.Home.EP10.END.720p.HDTV.x264.AAC.mp4
    Format                         : MPEG-4
    Format profile                 : Base Media / Version 2
    Codec ID                       : mp42
    File size                      : 916 MiB
    Duration                       : 59mn 44s
    Overall bit rate mode          : Variable
    Overall bit rate               : 2 143 Kbps

    Video
    ID                             : 1
    Format                         : AVC
    Format/Info                    : Advanced Video Codec
    Format profile                 : High@L4.1
    Format settings, CABAC         : Yes
    Format settings, ReFrames      : 4 frames
    Codec ID                       : avc1
    Codec ID/Info                  : Advanced Video Coding
    Duration                       : 59mn 44s
    Bit rate                       : 2 007 Kbps
    Width                          : 1 280 pixels
    Height                         : 720 pixels
    Display aspect ratio           : 16:9
    Frame rate mode                : Constant
    Frame rate                     : 29.970 fps
    Standard                       : Component
    Color space                    : YUV
    Chroma subsampling             : 4:2:0
    Bit depth                      : 8 bits
    Scan type                      : Progressive
    Bits/(Pixel*Frame)             : 0.073
    Stream size                    : 858 MiB (94%)

    Audio
    ID                             : 2
    Format                         : AAC
    Format/Info                    : Advanced Audio Codec
    Format profile                 : LC
    Codec ID                       : 40
    Duration                       : 59mn 44s
    Bit rate mode                  : Variable
    Bit rate                       : 132 Kbps
    Maximum bit rate               : 576 Kbps
    Channel(s)                     : 2 channels
    Channel positions              : Front: L R
    Sampling rate                  : 48.0 KHz
    Compression mode               : Lossy







    0 0

    Original Post: Dr. Rintaro EP10 Finale 720p HDTV x264 AAC DoA

    Title (romaji): Dr. Rintaro
    Format: Renzoku
    Genre: Medical
    Episodes: TBD
    Broadcast network: NTV
    Broadcast period: 2015-Apr-15 start
    Air time: Wednesday 22:00
    Subtitles: English - torachan2006
    RAW credit to DoA


    Cast

       Sakai Masato as Hino Rintaro
       Aoi Yu as Yumeno
       Kichise Michiko as Mizushima Yuriko
       Uchida Yuki as Kiryuu Kaoru
       Takanashi Rin as Kawakami Yoko
       Takahashi Issei as Fukuhara Daisaku
       Matobu Sei as Yabe Machiko
       Nakanishi Miho (中西美帆) as Koyume
       Yo Kimiko as Masuda Ikumi
       Endo Kenichi as Araki Shigeto
       Sakai Wakana as Nakahata Madoka
       Nagatsuka Keishi (長塚圭史) as Miyagawa Takahiro
       Matsushige Yutaka as Hasumi Eisuke
       Ishibashi Renji as Ike Masayuki
       Takahata Atsuko as Aizawa Ruriko
       Kohinata Fumiyo as Ennouji Kazuo


    Synopsis

    His name is Hino Rintaro. He listens closely to the aching hearts of people and relieves them of their pain. He is published and makes television appearances. The number of people waiting to receive his consultation continues to grow. Despite his achievements, Dr. Rintaro falls short in one department: love. He even dismisses it by saying “Falling in love is just like a passing mental illness.” One day, during a meal with the president of the university, Rintaro meets a woman. Her name is Yumeno, a highly sought-after geisha in Shimbashi. Little did Rintaro know that this encounter would drastically change his life. -- NTV


    Mediainfo
    Spoiler:show

    Code
    Format                                   : Matroska
    Format version                           : Version 4 / Version 2
    File size                                : 829 MiB
    Duration                                 : 50mn 34s
    Overall bit rate                         : 2 291 Kbps
    Encoded date                             : UTC 2015-06-20 09:12:35
    Writing application                      : mkvmerge v8.0.0 ('Til The Day That I Die') 64bit
    Writing library                          : libebml v1.3.1 + libmatroska v1.4.2
    DURATION                                 : 00:50:34.901000000
    NUMBER_OF_FRAMES                         : 142261
    NUMBER_OF_BYTES                          : 71557291
    _STATISTICS_WRITING_APP                  : mkvmerge v8.0.0 ('Til The Day That I Die') 64bit
    _STATISTICS_WRITING_DATE_UTC             : 2015-06-20 09:12:35
    _STATISTICS_TAGS                         : BPS DURATION NUMBER_OF_FRAMES NUMBER_OF_BYTES

    Video
    ID                                       : 1
    Format                                   : AVC
    Format/Info                              : Advanced Video Codec
    Format profile                           : High@L4.1
    Format settings, CABAC                   : Yes
    Format settings, ReFrames                : 9 frames
    Codec ID                                 : V_MPEG4/ISO/AVC
    Duration                                 : 50mn 34s
    Width                                    : 1 280 pixels
    Height                                   : 720 pixels
    Display aspect ratio                     : 16:9
    Frame rate mode                          : Constant
    Frame rate                               : 29.970 fps
    Color space                              : YUV
    Chroma subsampling                       : 4:2:0
    Bit depth                                : 8 bits
    Scan type                                : Progressive
    Title                                    : DoA encoder
    Writing library                          : x264 core 146 r2538 121396c
    Encoding settings                        : cabac=1 / ref=9 / deblock=1:-2:-2 / analyse=0x3:0x133 / me=umh / subme=10 / psy=1 / psy_rd=1.00:0.15 / mixed_ref=1 / me_range=48 / chroma_me=1 / trellis=2 / 8x8dct=1 / cqm=0 / deadzone=21,11 / fast_pskip=0 / chroma_qp_offset=-3 / threads=12 / lookahead_threads=2 / sliced_threads=0 / nr=0 / decimate=1 / interlaced=0 / bluray_compat=0 / constrained_intra=0 / bframes=8 / b_pyramid=2 / b_adapt=2 / b_bias=0 / direct=3 / weightb=1 / open_gop=0 / weightp=2 / keyint=300 / keyint_min=29 / scenecut=40 / intra_refresh=0 / rc_lookahead=60 / rc=crf / mbtree=1 / crf=17.0 / qcomp=0.60 / qpmin=0 / qpmax=69 / qpstep=4 / ip_ratio=1.40 / aq=1:1.00
    Language                                 : English
    Default                                  : Yes
    Forced                                   : No
    DURATION                                 : 00:50:34.898000000
    NUMBER_OF_FRAMES                         : 90956
    NUMBER_OF_BYTES                          : 796654379
    _STATISTICS_WRITING_APP                  : mkvmerge v8.0.0 ('Til The Day That I Die') 64bit
    _STATISTICS_WRITING_DATE_UTC             : 2015-06-20 09:12:35
    _STATISTICS_TAGS                         : BPS DURATION NUMBER_OF_FRAMES NUMBER_OF_BYTES

    Audio
    ID                                       : 2
    Format                                   : AAC
    Format/Info                              : Advanced Audio Codec
    Format profile                           : LC
    Codec ID                                 : A_AAC
    Duration                                 : 50mn 34s
    Channel(s)                               : 2 channels
    Channel positions                        : Front: L R
    Sampling rate                            : 48.0 KHz
    Compression mode                         : Lossy
    Default                                  : Yes
    Forced                                   : No








    0 0

    Original Post: I.Remember.You.E01.150622.HDTV.X264-LIMO

    http://thetvdb.com/?tab=series&id=296265
    Details

    Title: 너를 기억해 / Neoreul Gieokhae
    Previously known as: Hello Monster (헬로 몬스터)
    Genre: Romance, thriller, mystery
    Episodes: 16
    Broadcast network: KBS2
    Broadcast period: 2015-Jun-22 to 2015-???-??
    Air time: Monday & Tuesday 22:00

    Synopsis
    A passionate detective with a strong track record has been investigating a mysterious former FBI profiler for a long while. They both somehow end up in the same investigation crime team which sparks their romance.

    Cast
    Seo In Gook
    Jang Na Ra
    Kim Jae Young
    Lee Chun Hee
    Choi Won Young
    Park Bo Gum
    Son Seung Won
    Min Sung Wook







    Code
    Video
    ID                             : 1
    Format                         : AVC
    Format/Info                    : Advanced Video Codec
    Format profile                 : Main@L4.0
    Format settings, CABAC         : Yes
    Format settings, ReFrames      : 4 frames
    Codec ID                       : V_MPEG4/ISO/AVC
    Duration                       : 58mn 44s
    Bit rate                       : 450 Kbps
    Width                          : 624 pixels
    Height                         : 350 pixels
    Display aspect ratio           : 16:9
    Frame rate mode                : Constant
    Frame rate                     : 29.970 fps
    Color space                    : YUV
    Chroma subsampling             : 4:2:0
    Bit depth                      : 8 bits
    Scan type                      : Progressive
    Bits/(Pixel*Frame)             : 0.069
    Stream size                    : 190 MiB (76%)
    Writing library                : x264 core 130 r2273 b3065e6
    Encoding settings              : cabac=1 / ref=1 / deblock=1:0:0 / analyse=0x1:0x111 / me=hex / subme=2 / psy=1 / psy_rd=1.00:0.00 / mixed_ref=0 / me_range=16 / chroma_me=1 / trellis=0 / 8x8dct=0 / cqm=0 / deadzone=21,11 / fast_pskip=1 / chroma_qp_offset=0 / threads=1 / lookahead_threads=1 / sliced_threads=0 / nr=0 / decimate=1 / interlaced=0 / bluray_compat=0 / constrained_intra=0 / bframes=3 / b_pyramid=2 / b_adapt=1 / b_bias=0 / direct=1 / weightb=1 / open_gop=0 / weightp=1 / keyint=300 / keyint_min=30 / scenecut=40 / intra_refresh=0 / rc_lookahead=10 / rc=abr / mbtree=1 / bitrate=450 / ratetol=1.0 / qcomp=0.60 / qpmin=0 / qpmax=69 / qpstep=4 / vbv_maxrate=20000 / vbv_bufsize=25000 / nal_hrd=none / ip_ratio=1.40 / aq=1:1.00
    Language                       : English
    Default                        : Yes
    Forced                         : No
    Color primaries                : BT.601 NTSC
    Transfer characteristics       : BT.709
    Matrix coefficients            : BT.601

    Audio
    ID                             : 2
    Format                         : MPEG Audio
    Format version                 : Version 1
    Format profile                 : Layer 3
    Mode                           : Joint stereo
    Mode extension                 : MS Stereo
    Codec ID                       : A_MPEG/L3
    Codec ID/Hint                  : MP3
    Duration                       : 58mn 44s
    Bit rate mode                  : Constant
    Bit rate                       : 128 Kbps
    Channel(s)                     : 2 channels
    Sampling rate                  : 48.0 KHz
    Compression mode               : Lossy
    Stream size                    : 53.8 MiB (22%)
    Default                        : Yes
    Forced                         : No



    0 0

    Original Post: I.Remember.You.E01.150622.HDTV.H264.450p-LIMO

    http://thetvdb.com/?tab=series&id=296265
    Details

    Title: 너를 기억해 / Neoreul Gieokhae
    Previously known as: Hello Monster (헬로 몬스터)
    Genre: Romance, thriller, mystery
    Episodes: 16
    Broadcast network: KBS2
    Broadcast period: 2015-Jun-22 to 2015-???-??
    Air time: Monday & Tuesday 22:00

    Synopsis
    A passionate detective with a strong track record has been investigating a mysterious former FBI profiler for a long while. They both somehow end up in the same investigation crime team which sparks their romance.

    Cast
    Seo In Gook
    Jang Na Ra
    Kim Jae Young
    Lee Chun Hee
    Choi Won Young
    Park Bo Gum
    Son Seung Won
    Min Sung Wook






    Code
    Video
    ID                                       : 0
    Format                                   : AVC
    Format/Info                              : Advanced Video Codec
    Format profile                           : High@L5.1
    Format settings, CABAC                   : Yes
    Format settings, ReFrames                : 4 frames
    Codec ID                                 : H264
    Bit rate                                 : 1 500 Kbps
    Width                                    : 800 pixels
    Height                                   : 450 pixels
    Display aspect ratio                     : 16:9
    Frame rate mode                          : Variable
    Frame rate                               : 29.970 fps
    Color space                              : YUV
    Chroma subsampling                       : 4:2:0
    Bit depth                                : 8 bits
    Scan type                                : Progressive
    Bits/(Pixel*Frame)                       : 0.139
    Stream size                              : 686 MiB (88%)
    Writing library                          : x264 core 112

    Audio
    ID                                       : 1
    Format                                   : MPEG Audio
    Format version                           : Version 1
    Format profile                           : Layer 3
    Mode                                     : Joint stereo
    Mode extension                           : MS Stereo
    Codec ID                                 : 55
    Codec ID/Hint                            : MP3
    Bit rate mode                            : Constant
    Bit rate                                 : 192 Kbps
    Channel(s)                               : 2 channels
    Sampling rate                            : 48.0 KHz
    Compression mode                         : Lossy
    Stream size                              : 88.3 MiB (11%)
    Alignment                                : Aligned on interleaves
    Interleave, duration                     : 24 ms (0.72 video frame)
    Writing library                          : LAME3.98.2
    Language                                 : Korean



    0 0

    Original Post: I.Remember.You.E01.150622.HDTV.H264.720p-LIMO

    http://thetvdb.com/?tab=series&id=296265
    Details

    Title: 너를 기억해 / Neoreul Gieokhae
    Previously known as: Hello Monster (헬로 몬스터)
    Genre: Romance, thriller, mystery
    Episodes: 16
    Broadcast network: KBS2
    Broadcast period: 2015-Jun-22 to 2015-???-??
    Air time: Monday & Tuesday 22:00

    Synopsis
    A passionate detective with a strong track record has been investigating a mysterious former FBI profiler for a long while. They both somehow end up in the same investigation crime team which sparks their romance.

    Cast
    Seo In Gook
    Jang Na Ra
    Kim Jae Young
    Lee Chun Hee
    Choi Won Young
    Park Bo Gum
    Son Seung Won
    Min Sung Wook






    Code
    Video
    ID                               : 0
    Format                           : AVC
    Format/Info                      : Advanced Video Codec
    Format profile                   : High@L5.1
    Format settings, CABAC           : Yes
    Format settings, ReFrames        : 4 frames
    Codec ID                         : H264
    Duration                         : 1h 4mn
    Bit rate                         : 3 000 Kbps
    Width                            : 1 280 pixels
    Height                           : 720 pixels
    Display aspect ratio             : 16:9
    Frame rate mode                  : Variable
    Frame rate                       : 29.970 fps
    Color space                      : YUV
    Chroma subsampling               : 4:2:0
    Bit depth                        : 8 bits
    Scan type                        : Progressive
    Bits/(Pixel*Frame)               : 0.109
    Stream size                      : 1.35 GiB (94%)
    Writing library                  : x264 core 112
    Encoding settings                : cabac=1 / ref=3 / deblock=1:-1:-1 / analyse=0x3:0x113 / me=hex / subme=6 / psy=1 / psy_rd=1.00:1.00 / mixed_ref=1 / me_range=16 / chroma_me=1 / trellis=1 / 8x8dct=1 / cqm=0 / deadzone=21,11 / fast_pskip=0 / chroma_qp_offset=-4 / threads=12 / sliced_threads=0 / nr=0 / decimate=1 / interlaced=0 / constrained_intra=0 / bframes=3 / b_pyramid=2 / b_adapt=1 / b_bias=1 / direct=3 / weightb=1 / open_gop=0 / weightp=2 / keyint=299 / keyint_min=25 / scenecut=1 / intra_refresh=0 / rc_lookahead=40 / rc=abr / mbtree=1 / bitrate=3000 / ratetol=1.0 / qcomp=0.60 / qpmin=10 / qpmax=51 / qpstep=4 / ip_ratio=1.40 / aq=1:1.00

    Audio
    ID                               : 1
    Format                           : MPEG Audio
    Format version                   : Version 1
    Format profile                   : Layer 3
    Mode                             : Joint stereo
    Mode extension                   : MS Stereo
    Codec ID                         : 55
    Codec ID/Hint                    : MP3
    Duration                         : 1h 4mn
    Bit rate mode                    : Constant
    Bit rate                         : 192 Kbps
    Channel(s)                       : 2 channels
    Sampling rate                    : 48.0 KHz
    Stream size                      : 88.0 MiB (6%)
    Alignment                        : Split accross interleaves
    Interleave, duration             : 33 ms (1.00 video frame)
    Interleave, preload duration     : 500 ms
    Writing library                  : LAME3.98.2



    0 0

    Original Post: Hwajung.E21.150622.HDTV.XviD-LIMO

    Details
    Title: 화정 / Hwajung
    Also known as: Splendid Politics
    Previously known as: Princess Jungmyung
    Genre: Historical, political, romance
    Episodes: 50
    Broadcast network: MBC
    Broadcast period: 2015-Apr-13 to 2015-Oct-??
    Air time: Monday & Tuesday 22:00
    Subtitles by Dramafever will be added later
    http://thetvdb.com/?tab=series&id=293910

    Synopsis
    Fair Princess Jungmyung (Lee Yeon Hee) lives a life of the highest privilege, until her half-brother Prince Gwanghae (Cha Seung Won) executes the rightful crown prince and usurps the throne. Exiled from court, Jungmyung goes under disguise as a man and learns to adapt to life as a commoner — never forgetting Gwanghae's wrongdoing. But amidst rampant corruption throughout the kingdom, can Jyungmyung exact her vengeance, restore order and take back her rightful place in the palace?

    Cast

    Main Cast
    Cha Seung Won as Prince Gwanghae
    Lee Tae Hwan as teen Gwanghae
    Lee Yun Hee as Princess Jungmyung
    Jung Chan Bi as teen Jungmyung
    Seo Jung Eun as child Jungmyung
    Kim Jae Won as King Injo
    Seo Kang Joon as Hong Ju Won
    Yoon Chan Young as teen Ju Won
    Choi Kwon Ju as child Ju Won
    Han Joo Wan as Kang In Woo
    Ahn Do Gyu as teen In Woo






    Code
    Video
    ID                                       : 0
    Format                                   : MPEG-4 Visual
    Format profile                           : Advanced Simple@L5
    Format settings, BVOP                    : No
    Format settings, QPel                    : No
    Format settings, GMC                     : No warppoints
    Format settings, Matrix                  : Default (MPEG)
    Codec ID                                 : XVID
    Codec ID/Hint                            : XviD
    Duration                                 : 1h 6mn
    Bit rate                                 : 1 391 Kbps
    Width                                    : 624 pixels
    Height                                   : 352 pixels
    Display aspect ratio                     : 16:9
    Frame rate                               : 29.970 fps
    Color space                              : YUV
    Chroma subsampling                       : 4:2:0
    Bit depth                                : 8 bits
    Scan type                                : Progressive
    Compression mode                         : Lossy
    Bits/(Pixel*Frame)                       : 0.211
    Stream size                              : 660 MiB (87%)
    Writing library                          : XviD 1.2.1 (UTC 2008-12-04)

    Audio
    ID                                       : 1
    Format                                   : MPEG Audio
    Format version                           : Version 1
    Format profile                           : Layer 3
    Mode                                     : Joint stereo
    Mode extension                           : MS Stereo
    Codec ID                                 : 55
    Codec ID/Hint                            : MP3
    Duration                                 : 1h 6mn
    Bit rate mode                            : Constant
    Bit rate                                 : 128 Kbps
    Channel(s)                               : 2 channels
    Sampling rate                            : 48.0 KHz
    Compression mode                         : Lossy
    Stream size                              : 60.8 MiB (8%)
    Alignment                                : Aligned on interleaves
    Writing library                          : LAME3.98.2



    0 0

    Original Post: Hwajung.E21.150622.HDTV.H264.720p-LIMO

    Details
    Title: 화정 / Hwajung
    Also known as: Splendid Politics
    Previously known as: Princess Jungmyung
    Genre: Historical, political, romance
    Episodes: 50
    Broadcast network: MBC
    Broadcast period: 2015-Apr-13 to 2015-Oct-??
    Air time: Monday & Tuesday 22:00
    Subtitles by Dramafever will be added later
    http://thetvdb.com/?tab=series&id=293910

    Synopsis
    Fair Princess Jungmyung (Lee Yeon Hee) lives a life of the highest privilege, until her half-brother Prince Gwanghae (Cha Seung Won) executes the rightful crown prince and usurps the throne. Exiled from court, Jungmyung goes under disguise as a man and learns to adapt to life as a commoner — never forgetting Gwanghae's wrongdoing. But amidst rampant corruption throughout the kingdom, can Jyungmyung exact her vengeance, restore order and take back her rightful place in the palace?

    Cast

    Main Cast
    Cha Seung Won as Prince Gwanghae
    Lee Tae Hwan as teen Gwanghae
    Lee Yun Hee as Princess Jungmyung
    Jung Chan Bi as teen Jungmyung
    Seo Jung Eun as child Jungmyung
    Kim Jae Won as King Injo
    Seo Kang Joon as Hong Ju Won
    Yoon Chan Young as teen Ju Won
    Choi Kwon Ju as child Ju Won
    Han Joo Wan as Kang In Woo
    Ahn Do Gyu as teen In Woo







    Code
    Video
    ID                             : 0
    Format                         : AVC
    Format/Info                    : Advanced Video Codec
    Format profile                 : High@L5.1
    Format settings, CABAC         : Yes
    Format settings, ReFrames      : 4 frames
    Codec ID                       : H264
    Duration                       : 1h 14mn
    Bit rate                       : 3 000 Kbps
    Width                          : 1 280 pixels
    Height                         : 720 pixels
    Display aspect ratio           : 16:9
    Frame rate mode                : Variable
    Frame rate                     : 29.970 fps
    Color space                    : YUV
    Chroma subsampling             : 4:2:0
    Bit depth                      : 8 bits
    Scan type                      : Progressive
    Bits/(Pixel*Frame)             : 0.109
    Stream size                    : 1.57 GiB (94%)
    Writing library                : x264 core 112
    Encoding settings              : cabac=1 / ref=3 / deblock=1:-1:-1 / analyse=0x3:0x113 / me=hex / subme=6 / psy=1 / psy_rd=1.00:1.00 / mixed_ref=1 / me_range=16 / chroma_me=1 / trellis=1 / 8x8dct=1 / cqm=0 / deadzone=21,11 / fast_pskip=0 / chroma_qp_offset=-4 / threads=12 / sliced_threads=0 / nr=0 / decimate=1 / interlaced=0 / constrained_intra=0 / bframes=3 / b_pyramid=2 / b_adapt=1 / b_bias=1 / direct=3 / weightb=1 / open_gop=0 / weightp=2 / keyint=299 / keyint_min=25 / scenecut=1 / intra_refresh=0 / rc_lookahead=40 / rc=abr / mbtree=1 / bitrate=3000 / ratetol=1.0 / qcomp=0.60 / qpmin=10 / qpmax=51 / qpstep=4 / ip_ratio=1.40 / aq=1:1.00

    Audio
    ID                             : 1
    Format                         : MPEG Audio
    Format version                 : Version 1
    Format profile                 : Layer 3
    Mode                           : Joint stereo
    Mode extension                 : MS Stereo
    Codec ID                       : 55
    Codec ID/Hint                  : MP3
    Duration                       : 1h 14mn
    Bit rate mode                  : Constant
    Bit rate                       : 192 Kbps
    Channel(s)                     : 2 channels
    Sampling rate                  : 48.0 KHz
    Compression mode               : Lossy
    Stream size                    : 102 MiB (6%)
    Alignment                      : Split accross interleaves
    Interleave, duration           : 33 ms (1.00 video frame)
    Interleave, preload duration   : 500 ms
    Writing library                : LAME3.98



    0 0

    Original Post: High.Society.E05.150622.HDTV.X264-LIMO

    http://thetvdb.com/?tab=series&id=296433

    Synopsis
    A love story between a woman, who is looking for a man who can love her although she is not wealthy, and an indigent man, who thinks love is simply a tool that the ruling class uses in order to control the people under them.

    Cast
    Main Cast
    UEE as Jang Yoon Ha (27)
    Sung Joon as Choi Joon Ki (29)
    Park Hyung Shik as Yoo Chang Soo (29)
    Im Ji Yeon as Lee Ji Yi (27)









    Code
    Video
    ID                             : 1
    Format                         : AVC
    Format/Info                    : Advanced Video Codec
    Format profile                 : Main@L4.0
    Format settings, CABAC         : Yes
    Format settings, ReFrames      : 4 frames
    Codec ID                       : V_MPEG4/ISO/AVC
    Duration                       : 58mn 44s
    Bit rate                       : 450 Kbps
    Width                          : 624 pixels
    Height                         : 350 pixels
    Display aspect ratio           : 16:9
    Frame rate mode                : Constant
    Frame rate                     : 29.970 fps
    Color space                    : YUV
    Chroma subsampling             : 4:2:0
    Bit depth                      : 8 bits
    Scan type                      : Progressive
    Bits/(Pixel*Frame)             : 0.069
    Stream size                    : 190 MiB (76%)
    Writing library                : x264 core 130 r2273 b3065e6
    Encoding settings              : cabac=1 / ref=1 / deblock=1:0:0 / analyse=0x1:0x111 / me=hex / subme=2 / psy=1 / psy_rd=1.00:0.00 / mixed_ref=0 / me_range=16 / chroma_me=1 / trellis=0 / 8x8dct=0 / cqm=0 / deadzone=21,11 / fast_pskip=1 / chroma_qp_offset=0 / threads=1 / lookahead_threads=1 / sliced_threads=0 / nr=0 / decimate=1 / interlaced=0 / bluray_compat=0 / constrained_intra=0 / bframes=3 / b_pyramid=2 / b_adapt=1 / b_bias=0 / direct=1 / weightb=1 / open_gop=0 / weightp=1 / keyint=300 / keyint_min=30 / scenecut=40 / intra_refresh=0 / rc_lookahead=10 / rc=abr / mbtree=1 / bitrate=450 / ratetol=1.0 / qcomp=0.60 / qpmin=0 / qpmax=69 / qpstep=4 / vbv_maxrate=20000 / vbv_bufsize=25000 / nal_hrd=none / ip_ratio=1.40 / aq=1:1.00
    Language                       : English
    Default                        : Yes
    Forced                         : No
    Color primaries                : BT.601 NTSC
    Transfer characteristics       : BT.709
    Matrix coefficients            : BT.601

    Audio
    ID                             : 2
    Format                         : MPEG Audio
    Format version                 : Version 1
    Format profile                 : Layer 3
    Mode                           : Joint stereo
    Mode extension                 : MS Stereo
    Codec ID                       : A_MPEG/L3
    Codec ID/Hint                  : MP3
    Duration                       : 58mn 44s
    Bit rate mode                  : Constant
    Bit rate                       : 128 Kbps
    Channel(s)                     : 2 channels
    Sampling rate                  : 48.0 KHz
    Compression mode               : Lossy
    Stream size                    : 53.8 MiB (22%)
    Default                        : Yes
    Forced                         : No



    0 0

    Original Post: High.Society.E05.150622.HDTV.H264.450p-LIMO

    http://thetvdb.com/?tab=series&id=296433

    Synopsis
    A love story between a woman, who is looking for a man who can love her although she is not wealthy, and an indigent man, who thinks love is simply a tool that the ruling class uses in order to control the people under them.

    Cast
    Main Cast
    UEE as Jang Yoon Ha (27)
    Sung Joon as Choi Joon Ki (29)
    Park Hyung Shik as Yoo Chang Soo (29)
    Im Ji Yeon as Lee Ji Yi (27)









    Code
    Video
    ID                                       : 0
    Format                                   : AVC
    Format/Info                              : Advanced Video Codec
    Format profile                           : High@L5.1
    Format settings, CABAC                   : Yes
    Format settings, ReFrames                : 4 frames
    Codec ID                                 : H264
    Bit rate                                 : 1 500 Kbps
    Width                                    : 800 pixels
    Height                                   : 450 pixels
    Display aspect ratio                     : 16:9
    Frame rate mode                          : Variable
    Frame rate                               : 29.970 fps
    Color space                              : YUV
    Chroma subsampling                       : 4:2:0
    Bit depth                                : 8 bits
    Scan type                                : Progressive
    Bits/(Pixel*Frame)                       : 0.139
    Stream size                              : 686 MiB (88%)
    Writing library                          : x264 core 112

    Audio
    ID                                       : 1
    Format                                   : MPEG Audio
    Format version                           : Version 1
    Format profile                           : Layer 3
    Mode                                     : Joint stereo
    Mode extension                           : MS Stereo
    Codec ID                                 : 55
    Codec ID/Hint                            : MP3
    Bit rate mode                            : Constant
    Bit rate                                 : 192 Kbps
    Channel(s)                               : 2 channels
    Sampling rate                            : 48.0 KHz
    Compression mode                         : Lossy
    Stream size                              : 88.3 MiB (11%)
    Alignment                                : Aligned on interleaves
    Interleave, duration                     : 24 ms (0.72 video frame)
    Writing library                          : LAME3.98.2
    Language                                 : Korean



    0 0

    Original Post: High.Society.E05.150622.HDTV.H264.720p-LIMO

    http://thetvdb.com/?tab=series&id=296433

    Synopsis
    A love story between a woman, who is looking for a man who can love her although she is not wealthy, and an indigent man, who thinks love is simply a tool that the ruling class uses in order to control the people under them.

    Cast
    Main Cast
    UEE as Jang Yoon Ha (27)
    Sung Joon as Choi Joon Ki (29)
    Park Hyung Shik as Yoo Chang Soo (29)
    Im Ji Yeon as Lee Ji Yi (27)









    Code
    Video
    ID                               : 0
    Format                           : AVC
    Format/Info                      : Advanced Video Codec
    Format profile                   : High@L5.1
    Format settings, CABAC           : Yes
    Format settings, ReFrames        : 4 frames
    Codec ID                         : H264
    Duration                         : 1h 4mn
    Bit rate                         : 3 000 Kbps
    Width                            : 1 280 pixels
    Height                           : 720 pixels
    Display aspect ratio             : 16:9
    Frame rate mode                  : Variable
    Frame rate                       : 29.970 fps
    Color space                      : YUV
    Chroma subsampling               : 4:2:0
    Bit depth                        : 8 bits
    Scan type                        : Progressive
    Bits/(Pixel*Frame)               : 0.109
    Stream size                      : 1.35 GiB (94%)
    Writing library                  : x264 core 112
    Encoding settings                : cabac=1 / ref=3 / deblock=1:-1:-1 / analyse=0x3:0x113 / me=hex / subme=6 / psy=1 / psy_rd=1.00:1.00 / mixed_ref=1 / me_range=16 / chroma_me=1 / trellis=1 / 8x8dct=1 / cqm=0 / deadzone=21,11 / fast_pskip=0 / chroma_qp_offset=-4 / threads=12 / sliced_threads=0 / nr=0 / decimate=1 / interlaced=0 / constrained_intra=0 / bframes=3 / b_pyramid=2 / b_adapt=1 / b_bias=1 / direct=3 / weightb=1 / open_gop=0 / weightp=2 / keyint=299 / keyint_min=25 / scenecut=1 / intra_refresh=0 / rc_lookahead=40 / rc=abr / mbtree=1 / bitrate=3000 / ratetol=1.0 / qcomp=0.60 / qpmin=10 / qpmax=51 / qpstep=4 / ip_ratio=1.40 / aq=1:1.00

    Audio
    ID                               : 1
    Format                           : MPEG Audio
    Format version                   : Version 1
    Format profile                   : Layer 3
    Mode                             : Joint stereo
    Mode extension                   : MS Stereo
    Codec ID                         : 55
    Codec ID/Hint                    : MP3
    Duration                         : 1h 4mn
    Bit rate mode                    : Constant
    Bit rate                         : 192 Kbps
    Channel(s)                       : 2 channels
    Sampling rate                    : 48.0 KHz
    Stream size                      : 88.0 MiB (6%)
    Alignment                        : Split accross interleaves
    Interleave, duration             : 33 ms (1.00 video frame)
    Interleave, preload duration     : 500 ms
    Writing library                  : LAME3.98.2



    0 0

    Original Post: [Mini Album] SISTAR – SHAKE IT [3rd Mini Album] [FLAC]



    [EP] 씨스타 – SHAKE IT [Mini Album Vol. 3]
    Release Date: 2015.06.22
    Genre: Dance
    Language: Korean
    Bit Rate: FLAC
    credit to jpfiles

    Every summer, Sistar releases a hot dance song and this year is no different. The girl group shakes things up with Shake It, a summer dance jam produced by Duble Sidekick. Sistar also collaborates with rappers Giriboy and Mad Clown on two of the album’s tracks.

    Track List:

    01. SHAKE IT
    02. 애처럼 굴지마 (Feat. 기리보이)
    03. GOOD TIME
    04. 나쁜놈 (Feat. 매드클라운)
    05. GO UP



    0 0

    Original Post: My.Beautiful.Bride.E01.150620.HDTV.XviD-WITH

    http://thetvdb.com/?tab=series&id=295917
    Details
    Title: 아름다운 나의 신부 / Areumdawoon Naeui Shinboo
    Genre: Melodrama, romance
    Episodes: 16
    Broadcast network: OCN
    Broadcast period: 2015-Jun-20 to 2015-???-??
    Air time: Saturday & Sunday 23:00
    Original Soundtrack: My Beautiful Bride OST
    Synopsis
    “My soon-to-be bride all of sudden disappeared. And I turned into a monster to find her”. The drama depicts the heartbreaking, pure hearted love by a man, who drives himself to the extreme situation in order to find his only love, his bride.







    Code
    Video
    ID                                       : 0
    Format                                   : MPEG-4 Visual
    Format profile                           : Advanced Simple@L5
    Format settings, BVOP                    : 2
    Format settings, QPel                    : No
    Format settings, GMC                     : No warppoints
    Format settings, Matrix                  : Default (H.263)
    Muxing mode                              : Packed bitstream
    Codec ID                                 : XVID
    Codec ID/Hint                            : XviD
    Duration                                 : 1h 3mn
    Bit rate                                 : 1 238 Kbps
    Width                                    : 640 pixels
    Height                                   : 352 pixels
    Display aspect ratio                     : 16:9
    Frame rate                               : 29.970 fps
    Color space                              : YUV
    Chroma subsampling                       : 4:2:0
    Bit depth                                : 8 bits
    Scan type                                : Progressive
    Compression mode                         : Lossy
    Bits/(Pixel*Frame)                       : 0.183
    Stream size                              : 566 MiB (90%)
    Writing library                          : XviD 58

    Audio
    ID                                       : 1
    Format                                   : MPEG Audio
    Format version                           : Version 1
    Format profile                           : Layer 3
    Mode                                     : Joint stereo
    Mode extension                           : MS Stereo
    Codec ID                                 : 55
    Codec ID/Hint                            : MP3
    Duration                                 : 1h 3mn
    Bit rate mode                            : Constant
    Bit rate                                 : 128 Kbps
    Channel(s)                               : 2 channels
    Sampling rate                            : 48.0 KHz
    Compression mode                         : Lossy
    Stream size                              : 58.5 MiB (9%)
    Alignment                                : Aligned on interleaves
    Interleave, duration                     : 33 ms (1.00 video frame)
    Interleave, preload duration             : 504 ms



    0 0

    Original Post: My.Beautiful.Bride.E01.150620.HDTV.H264.450p-WITH

    http://thetvdb.com/?tab=series&id=295917
    Details
    Title: 아름다운 나의 신부 / Areumdawoon Naeui Shinboo
    Genre: Melodrama, romance
    Episodes: 16
    Broadcast network: OCN
    Broadcast period: 2015-Jun-20 to 2015-???-??
    Air time: Saturday & Sunday 23:00
    Original Soundtrack: My Beautiful Bride OST
    Synopsis
    “My soon-to-be bride all of sudden disappeared. And I turned into a monster to find her”. The drama depicts the heartbreaking, pure hearted love by a man, who drives himself to the extreme situation in order to find his only love, his bride.







    Code
    Video
    ID                             : 1
    Format                         : AVC
    Format/Info                    : Advanced Video Codec
    Format profile                 : High@L4.1
    Format settings, CABAC         : Yes
    Format settings, ReFrames      : 4 frames
    Codec ID                       : avc1
    Codec ID/Info                  : Advanced Video Coding
    Duration                       : 1h 3mn
    Source duration                : 1h 3mn
    Bit rate                       : 1 400 Kbps
    Maximum bit rate               : 3 753 Kbps
    Width                          : 800 pixels
    Height                         : 450 pixels
    Display aspect ratio           : 16:9
    Frame rate mode                : Constant
    Frame rate                     : 29.970 fps
    Color space                    : YUV
    Chroma subsampling             : 4:2:0
    Bit depth                      : 8 bits
    Scan type                      : Progressive
    Bits/(Pixel*Frame)             : 0.130
    Stream size                    : 650 MiB
    Source stream size             : 650 MiB
    Writing library                : x264 core 128 r2216 198a7ea

    Audio
    ID                             : 2
    Format                         : AAC
    Format/Info                    : Advanced Audio Codec
    Format profile                 : LC
    Codec ID                       : 40
    Duration                       : 1h 3mn
    Bit rate mode                  : Variable
    Bit rate                       : 256 Kbps
    Maximum bit rate               : 262 Kbps
    Channel(s)                     : 2 channels
    Channel positions              : Front: L R
    Sampling rate                  : 48.0 KHz
    Compression mode               : Lossy
    Stream size                    : 117 MiB (42%)



    0 0

    Original Post: My.Beautiful.Bride.E01.150620.HDTV.H264.720p-WITH

    http://thetvdb.com/?tab=series&id=295917
    Details
    Title: 아름다운 나의 신부 / Areumdawoon Naeui Shinboo
    Genre: Melodrama, romance
    Episodes: 16
    Broadcast network: OCN
    Broadcast period: 2015-Jun-20 to 2015-???-??
    Air time: Saturday & Sunday 23:00
    Original Soundtrack: My Beautiful Bride OST
    Synopsis
    “My soon-to-be bride all of sudden disappeared. And I turned into a monster to find her”. The drama depicts the heartbreaking, pure hearted love by a man, who drives himself to the extreme situation in order to find his only love, his bride.






    Code
    Video
    ID                                       : 1
    Format                                   : AVC
    Format/Info                              : Advanced Video Codec
    Format profile                           : Baseline@L1.3
    Format settings, CABAC                   : No
    Format settings, ReFrames                : 1 frame
    Codec ID                                 : avc1
    Codec ID/Info                            : Advanced Video Coding
    Duration                                 : 1h 3mn
    Bit rate                                 : 2 200 Kbps
    Maximum bit rate                         : 6 012 Kbps
    Width                                    : 1 280 pixels
    Height                                   : 720 pixels
    Display aspect ratio                     : 16:9
    Frame rate mode                          : Constant
    Frame rate                               : 29.970 fps
    Color space                              : YUV
    Chroma subsampling                       : 4:2:0
    Bit depth                                : 8 bits
    Scan type                                : Progressive
    Bits/(Pixel*Frame)                       : 0.080
    Stream size                              : 1 018 MiB (90%)
    Writing library                          : x264 core 128 r2216 198a7ea
    Encoding settings                        : cabac=0 / ref=1 / deblock=1:0:0 / analyse=0x1:0x111 / me=hex / subme=7 / psy=1 / psy_rd=1.00:0.00 / mixed_ref=0 / me_range=16 / chroma_me=1 / trellis=1 / 8x8dct=0 / cqm=0 / deadzone=21,11 / fast_pskip=1 / chroma_qp_offset=-2 / threads=12 / lookahead_threads=2 / sliced_threads=0 / nr=0 / decimate=1 / interlaced=0 / bluray_compat=0 / constrained_intra=0 / bframes=0 / weightp=0 / keyint=250 / keyint_min=25 / scenecut=40 / intra_refresh=0 / rc_lookahead=40 / rc=abr / mbtree=1 / bitrate=2200 / ratetol=1.0 / qcomp=0.60 / qpmin=0 / qpmax=69 / qpstep=4 / vbv_maxrate=50000 / vbv_bufsize=50000 / nal_hrd=none / ip_ratio=1.40 / aq=1:1.00
    Encoded date                             : UTC 2015-03-28 15:15:31
    Tagged date                              : UTC 2015-03-28 15:20:35

    Audio
    ID                                       : 2
    Format                                   : AAC
    Format/Info                              : Advanced Audio Codec
    Format profile                           : LC
    Codec ID                                 : 40
    Duration                                 : 1h 3mn
    Bit rate mode                            : Variable
    Bit rate                                 : 256 Kbps
    Maximum bit rate                         : 262 Kbps
    Channel(s)                               : 2 channels
    Channel positions                        : Front: L R
    Sampling rate                            : 48.0 KHz
    Compression mode                         : Lossy
    Stream size                              : 117 MiB (10%)






    Code
    Video
    ID                                       : 0
    Format                                   : MPEG-4 Visual
    Format profile                           : Advanced Simple@L5
    Format settings, BVOP                    : 2
    Format settings, QPel                    : No
    Format settings, GMC                     : No warppoints
    Format settings, Matrix                  : Default (H.263)
    Muxing mode                              : Packed bitstream
    Codec ID                                 : XVID
    Codec ID/Hint                            : XviD
    Duration                                 : 1h 3mn
    Bit rate                                 : 1 238 Kbps
    Width                                    : 640 pixels
    Height                                   : 352 pixels
    Display aspect ratio                     : 16:9
    Frame rate                               : 29.970 fps
    Color space                              : YUV
    Chroma subsampling                       : 4:2:0
    Bit depth                                : 8 bits
    Scan type                                : Progressive
    Compression mode                         : Lossy
    Bits/(Pixel*Frame)                       : 0.183
    Stream size                              : 566 MiB (90%)
    Writing library                          : XviD 58

    Audio
    ID                                       : 1
    Format                                   : MPEG Audio
    Format version                           : Version 1
    Format profile                           : Layer 3
    Mode                                     : Joint stereo
    Mode extension                           : MS Stereo
    Codec ID                                 : 55
    Codec ID/Hint                            : MP3
    Duration                                 : 1h 3mn
    Bit rate mode                            : Constant
    Bit rate                                 : 128 Kbps
    Channel(s)                               : 2 channels
    Sampling rate                            : 48.0 KHz
    Compression mode                         : Lossy
    Stream size                              : 58.5 MiB (9%)
    Alignment                                : Aligned on interleaves
    Interleave, duration                     : 33 ms (1.00 video frame)
    Interleave, preload duration             : 504 ms



    0 0

    Original Post: My.Beautiful.Bride.E02.150621.HDTV.XviD-WITH

    http://thetvdb.com/?tab=series&id=295917
    Details
    Title: 아름다운 나의 신부 / Areumdawoon Naeui Shinboo
    Genre: Melodrama, romance
    Episodes: 16
    Broadcast network: OCN
    Broadcast period: 2015-Jun-20 to 2015-???-??
    Air time: Saturday & Sunday 23:00
    Original Soundtrack: My Beautiful Bride OST
    Synopsis
    “My soon-to-be bride all of sudden disappeared. And I turned into a monster to find her”. The drama depicts the heartbreaking, pure hearted love by a man, who drives himself to the extreme situation in order to find his only love, his bride.







    Code
    Video
    ID                                       : 0
    Format                                   : MPEG-4 Visual
    Format profile                           : Advanced Simple@L5
    Format settings, BVOP                    : 2
    Format settings, QPel                    : No
    Format settings, GMC                     : No warppoints
    Format settings, Matrix                  : Default (H.263)
    Muxing mode                              : Packed bitstream
    Codec ID                                 : XVID
    Codec ID/Hint                            : XviD
    Duration                                 : 1h 3mn
    Bit rate                                 : 1 238 Kbps
    Width                                    : 640 pixels
    Height                                   : 352 pixels
    Display aspect ratio                     : 16:9
    Frame rate                               : 29.970 fps
    Color space                              : YUV
    Chroma subsampling                       : 4:2:0
    Bit depth                                : 8 bits
    Scan type                                : Progressive
    Compression mode                         : Lossy
    Bits/(Pixel*Frame)                       : 0.183
    Stream size                              : 566 MiB (90%)
    Writing library                          : XviD 58

    Audio
    ID                                       : 1
    Format                                   : MPEG Audio
    Format version                           : Version 1
    Format profile                           : Layer 3
    Mode                                     : Joint stereo
    Mode extension                           : MS Stereo
    Codec ID                                 : 55
    Codec ID/Hint                            : MP3
    Duration                                 : 1h 3mn
    Bit rate mode                            : Constant
    Bit rate                                 : 128 Kbps
    Channel(s)                               : 2 channels
    Sampling rate                            : 48.0 KHz
    Compression mode                         : Lossy
    Stream size                              : 58.5 MiB (9%)
    Alignment                                : Aligned on interleaves
    Interleave, duration                     : 33 ms (1.00 video frame)
    Interleave, preload duration             : 504 ms



older | 1 | .... | 1376 | 1377 | (Page 1378) | 1379 | 1380 | .... | 1405 | newer