Are you the publisher? Claim or contact us about this channel


Embed this content in your HTML

Search

Report adult content:

click to rate:

Account: (login)

More Channels


Showcase


Channel Catalog


Channel Description:

Asia Torrents RSS Feed

older | 1 | .... | 1329 | 1330 | (Page 1331) | 1332 | 1333 | .... | 1405 | newer

    0 0

    Original Post: The Eyes Diary.2014-DVDRip.720p.x264-SeeingMole





    Detail:
    Title: The Eyes Diary
    Genre: Horror, Romance
    Release Date: 30 October 2014 (Thailand)
    Runtime: 1h 40mn
    Director: Chookiat Sakveerakul
    Rating: 6.1/10 from 28 users
    Country: Thailand
    Language: Thai
    Subtitles:No Subtitles

    Cast:
    Prama Immanothai, Focus Jirakul, Chonnikan Netjui

    Plot:
    It has been three months since Nott (Punjan) become full of sadness and suffering like he has never been. It's because that one night which cause him to lose Pla (Focus) his beloved girlfriend in the motorcycle accident. He wants to forget but cannot, his hear is full of guilt and sorrow and almost burst with grief. The only way for him to get through this is to meet Pla again in her afterlife, so he tries to find a way to see ghost. Finally, he decides to join the emergency crew volunteer and secretly picked up the belongings of the dead ones for himself. He thinks that by doing that, he will be able to see the ghosts, then he will be able to see Pla. However, things are not that simple. Nott has never met any ghost while his house-mate see them all the time until no one dares to stay in the house anymore Only Motta (Maeko) his friends seem to understand him and is always ready to stand with him. John (Jack) his friend at the volunteer foundation tries to tell him not to ask for ...

    Screenshot:






    Teaser:


    Mediainfo:

    :
    Video
    ID                                       : 1
    Format                                   : AVC
    Format/Info                              : Advanced Video Codec
    Format profile                           : High@L3.1
    Format settings, CABAC                   : Yes
    Format settings, ReFrames                : 5 frames
    Codec ID                                 : V_MPEG4/ISO/AVC
    Duration                                 : 1h 40mn
    Width                                    : 1 280 pixels
    Height                                   : 720 pixels
    Display aspect ratio                     : 16:9
    Frame rate                               : 23.976 fps
    Color space                              : YUV
    Chroma subsampling                       : 4:2:0
    Bit depth                                : 8 bits
    Scan type                                : Progressive
    Title                                    : www.SeeingMole.com คนเห็นผี The Eyes Diary (2014) DVDRip 720p [NNEDI3+LimitedSharpenFaster]
    Writing library                          : x264 core 144 r2525 40bb568
    Encoding settings                        : cabac=1 / ref=5 / deblock=1:0:0 / analyse=0x3:0x133 / me=umh / subme=9 / psy=1 / psy_rd=1.00:0.00 / mixed_ref=1 / me_range=24 / chroma_me=1 / trellis=1 / 8x8dct=1 / cqm=0 / deadzone=21,11 / fast_pskip=1 / chroma_qp_offset=-2 / threads=9 / lookahead_threads=1 / sliced_threads=0 / nr=0 / decimate=1 / interlaced=0 / bluray_compat=0 / constrained_intra=0 / bframes=5 / b_pyramid=2 / b_adapt=2 / b_bias=0 / direct=1 / weightb=1 / open_gop=0 / weightp=2 / keyint=240 / keyint_min=23 / scenecut=40 / intra_refresh=0 / rc_lookahead=40 / rc=crf / mbtree=1 / crf=16.0 / qcomp=0.60 / qpmin=0 / qpmax=69 / qpstep=4 / ip_ratio=1.40 / aq=1:1.00 / zones=138406,145029,q=41
    Default                                  : Yes
    Forced                                   : No
    Color primaries                          : BT.470-6 System B, BT.470-6 System G, BT.601-6 625, BT.1358 625, BT.1700 625 PAL, BT.1700 625 SECAM
    Transfer characteristics                 : BT.470-6 System B, BT.470-6 System G
    Matrix coefficients                      : BT.470-6 System B, BT.470-6 System G, BT.601-6 625, BT.1358 625, BT.1700 625 PAL, BT.1700 625 SECAM, IEC 61966-2-4 601

    Audio #1
    ID                                       : 2
    Format                                   : AC-3
    Format/Info                              : Audio Coding 3
    Mode extension                           : CM (complete main)
    Format settings, Endianness              : Big
    Codec ID                                 : A_AC3
    Duration                                 : 1h 40mn
    Bit rate mode                            : Constant
    Bit rate                                 : 448 Kbps
    Channel(s)                               : 6 channels
    Channel positions                        : Front: L C R, Side: L R, LFE
    Sampling rate                            : 48.0 KHz
    Bit depth                                : 16 bits
    Compression mode                         : Lossy
    Stream size                              : 323 MiB (12%)
    Title                                    : 5.1 AC3 448 www.SeeingMole.com
    Language                                 : Thai
    Default                                  : Yes
    Forced                                   : No

    Audio #2
    ID                                       : 3
    Format                                   : AAC
    Format/Info                              : Advanced Audio Codec
    Format profile                           : LC
    Codec ID                                 : A_AAC
    Duration                                 : 1h 40mn
    Channel(s)                               : 2 channels
    Channel positions                        : Front: L R
    Sampling rate                            : 48.0 KHz
    Compression mode                         : Lossy
    Delay relative to video                  : 9ms
    Title                                    : stereo AAC-LC 128 ABR 2-pass www.SeeingMole.com
    Language                                 : Thai
    Default                                  : No
    Forced                                   : No

    Menu
    00:00:00.000                             : en:Chapter 1
    00:06:39.355                             : en:Chapter 2
    00:10:52.988                             : en:Chapter 3
    00:14:41.822                             : en:Chapter 4
    00:19:25.855                             : en:Chapter 5



    0 0

    Original Post: [performance] Lizzy (After School, Orange Caramel) ~ Not an Easy Girl (collection) [HDTV][1080p]

    Lizzy: http://en.wikipedia.org/wiki/Lizzy_%28singer%29



    MediaInfo
    Spoiler:show

    General
    ID                                       : 1041 (0x411)
    File name                                : [150125] Lizzy (After School) - Not an Easy Girl (KBS1 Amateur Singing Contest).ts
    Format                                   : MPEG-TS
    File size                                : 456 MiB
    Duration                                 : 3mn 19s
    Overall bit rate mode                    : Variable
    Overall bit rate                         : 19.2 Mbps

    Video
    ID                                       : 17 (0x11)
    Menu ID                                  : 1 (0x1)
    Format                                   : MPEG Video
    Format version                           : Version 2
    Format profile                           : Main@High
    Format settings, BVOP                    : Yes
    Format settings, Matrix                  : Custom
    Format settings, GOP                     : M=3, N=15
    Format settings, picture structure       : Frame
    Codec ID                                 : 2
    Duration                                 : 3mn 19s
    Bit rate                                 : 17.8 Mbps
    Maximum bit rate                         : 17.5 Mbps
    Width                                    : 1 920 pixels
    Height                                   : 1 080 pixels
    Display aspect ratio                     : 16:9
    Frame rate                               : 29.970 fps
    Standard                                 : Component
    Color space                              : YUV
    Chroma subsampling                       : 4:2:0
    Bit depth                                : 8 bits
    Scan type                                : Interlaced
    Scan order                               : Top Field First
    Compression mode                         : Lossy
    Bits/(Pixel*Frame)                       : 0.287
    Time code of first frame                 : 10:10:58;19
    Time code source                         : Group of pictures header
    GOP, Open/Closed                         : Open
    Stream size                              : 424 MiB (93%)
    Name                                     : ko:Video

    Audio
    ID                                       : 20 (0x14)
    Menu ID                                  : 1 (0x1)
    Format                                   : AC-3
    Format/Info                              : Audio Coding 3
    Mode extension                           : CM (complete main)
    Format settings, Endianness              : Big
    Codec ID                                 : 129
    Duration                                 : 3mn 19s
    Bit rate mode                            : Constant
    Bit rate                                 : 384 Kbps
    Channel(s)                               : 2 channels
    Channel positions                        : Front: L R
    Sampling rate                            : 48.0 KHz
    Bit depth                                : 16 bits
    Compression mode                         : Lossy
    Delay relative to video                  : -178ms
    Stream size                              : 9.13 MiB (2%)
    Language                                 : Korean
    Name                                     : ko:Audio



    0 0

    Original Post: Vassline - Blood of Immortality (2004)

    http://en.wikipedia.org/wiki/Vassline


    Release Date: 2004.12
    Genre: Metalcore, post-hardcore
    Language: Korean
    Bit Rate: 320kbps

    Track listing
    01 Letalis Silentium
    02 An Ode To My Friend
    03 Affirmation For The Desperated
    04 Assassin Of Death
    05 Saddest End Of One Fine Morning
    06 Fear Coming
    07 Eventual Acception
    08 Caesar Of An Occasion
    09 Flowers In The Sand
    10 Sanguinolentus Desperatio
    11 Blood Of Immortality
    12 Last Cadence


    0 0

    Original Post: Crazy For Love/Crazy For You (2007) Complete Series (eng subbed)



    http://wiki.d-addicts.com/Crazy_for_You
    http://asianwiki.com/Crazy_in_Love
    http://www.hancinema.net/korean_drama_Crazy_for_Love.php

    Title: 사랑에 미치다 / Crazy for You
    Also known as: Crazy for Love / Crazy in Love
    Episodes: 16
    Broadcast network: SBS
    Broadcast period: 2007-Feb-03 to 2007-April-01
    Air time: Saturday & Sunday 21:55
    Language: Korean
    Country: South Korea
    Subtitles: English (.mkv embed)

    Main Cast
       Yoon Kye Sang as Kim Chae Joon
       Lee Mi Yeon as Suh Jin Young
       Go Joon Hee as Jo Min Hee
       Lee Jong Hyuk as Lee Hyun Chul

    Extended Cast
       Yoo Tae Joon as Kang Jae Hoon (Jin Young's fiance)
       Lee Kyung Jin as Yoo Sook Ja (Jae Hoon's mother)
       Song Jae Ho as Kang Oh Joon (Jae Hoon's father)
       Kim Young Ok as Han Bok Ja
       Go Kyu Pil as Cha Yeon Doo
       Jung Eun Chan as Lee Cheong Ho
       Jung Kyu Soo as Jo Seok Won
       Im Sung Min as Na Ui Seon
       Jung Ji Ah as Jung Sook



    Synopsis
    Suh Jin Young is an aviation maintenance technician. Her fiance Jae Hoon passed away in a horrible traffic accident. Kim Chae Joon dreams of becoming an aviation maintenance technician but he encounters prejudice because he is an ex-convict. He killed someone with his car. Suh Jin Young gives him a chance to work under her and they fall in love. However that love is severely tested when they both discover that the Chae Joon's victim was Suh Jin Young's fiance Jae Hoon.

    General
    Complete name                  : Crazy For You - 01.mkv
    Format                         : Matroska
    Format version                 : Version 2
    File size                      : 210 MiB
    Duration                       : 1h 2mn
    Overall bit rate mode          : Variable
    Overall bit rate               : 467 Kbps

    Video
    ID                             : 1
    Format                         : AVC
    Format/Info                    : Advanced Video Codec
    Format profile                 : High@L3.1
    Format settings, CABAC         : Yes
    Format settings, ReFrames      : 16 frames
    Codec ID                       : V_MPEG4/ISO/AVC
    Duration                       : 1h 2mn
    Bit rate                       : 400 Kbps
    Width                          : 624 pixels
    Height                         : 352 pixels
    Display aspect ratio           : 16:9
    Frame rate mode                : Constant
    Frame rate                     : 29.970 fps
    Color space                    : YUV
    Chroma subsampling             : 4:2:0
    Bit depth                      : 8 bits
    Scan type                      : Progressive
    Bits/(Pixel*Frame)             : 0.061
    Stream size                    : 177 MiB (84%)
    Writing library                : x264 core 114

    Audio
    ID                             : 2
    Format                         : Vorbis
    Format settings, Floor         : 1
    Codec ID                       : A_VORBIS
    Duration                       : 1h 2mn
    Bit rate mode                  : Variable
    Bit rate                       : 64.0 Kbps
    Channel count                  : 2 channels
    Sampling rate                  : 48.0 KHz
    Compression mode               : Lossy
    Stream size                    : 28.7 MiB (14%)

    Text
    ID                             : 3
    Format                         : UTF-8
    Codec ID                       : S_TEXT/UTF8
    Codec ID/Info                  : UTF-8 Plain Text
    Default                        : Yes







    0 0

    Original Post: Parasyte Part 1 2014 1080p BluRay x264 DTS-WiKi





    Detail:
    Title: Parasyte: Part 1
    AKA: Kiseijû: Part 1
    Genre: Horror, Sci-Fi
    Release Date: 29 November 2014
    Runtime: 109 min
    Director: Takashi Yamazaki
    Rating: 7.1/10 from 239 users
    Country: Japan
    Language: Japanese
    Subtitles:Chinese

    Cast:


    Plot:
    Mysterious worm-like aliens fall from the sky. They penetrate through the ears or nose into human beings and live off their brain while dominating the body. Now with human appearance, the parasites live among humans.

    Shinichi Izumi (Shota Sometani) is an ordinary high school student. His best friend is Satomi Murano (Ai Hashimoto). One day, Shinichi Izumi is attacked by a parasite, but he is able to fight off the parasite before it takes over his brain. The parasite though lives within his right hand. Shinichi Izumi and the parasite now live together. Shinichi believes the parasites are responsible for countless murders all around the world and he feels responsible, because he knows the truth.

    Meanwhile, Ryoko Tamiya (Eri Fukatsu) is a teacher that starts her new post at the same high school where Shinichi attends. She has been taken over by a parasite and comes to observe Shinichi.

    Screenshot:






    Teaser:


    Mediainfo:

    :

    Video
    ID                                       : 1
    Format                                   : AVC
    Format/Info                              : Advanced Video Codec
    Format profile                           : High@L4.1
    Format settings, CABAC                   : Yes
    Format settings, ReFrames                : 5 frames
    Codec ID                                 : V_MPEG4/ISO/AVC
    Duration                                 : 1h 49mn
    Width                                    : 1 920 pixels
    Height                                   : 804 pixels
    Display aspect ratio                     : 2.40:1
    Frame rate                               : 23.976 fps
    Color space                              : YUV
    Chroma subsampling                       : 4:2:0
    Bit depth                                : 8 bits
    Scan type                                : Progressive
    Language                                 : Japanese
    Default                                  : Yes
    Forced                                   : No

    Audio
    ID                                       : 2
    Format                                   : DTS
    Format/Info                              : Digital Theater Systems
    Codec ID                                 : A_DTS
    Duration                                 : 1h 49mn
    Channel(s)                               : 6 channels
    Sampling rate                            : 48.0 KHz
    Compression mode                         : Lossy
    Language                                 : Japanese
    Default                                  : Yes
    Forced                                   : No

    Text #1
    ID                                       : 3
    Format                                   : ASS
    Codec ID                                 : S_TEXT/ASS
    Codec ID/Info                            : Advanced Sub Station Alpha
    Compression mode                         : Lossless
    Title                                    : Simplified
    Language                                 : Chinese
    Default                                  : Yes
    Forced                                   : No

    Text #2
    ID                                       : 4
    Format                                   : ASS
    Codec ID                                 : S_TEXT/ASS
    Codec ID/Info                            : Advanced Sub Station Alpha
    Compression mode                         : Lossless
    Title                                    : Traditional
    Language                                 : Chinese
    Default                                  : No
    Forced                                   : No



    0 0

    Original Post: Jing Bi Rok 징비록 (2015) E07 HDTV H264 720p WITH



    Title: Jing Bi Rok 징비록 / The Jingbirok: A Memoir of Imjin War 징비록 (懲毖錄): 임진왜란 피로 쓴 교훈
    Revised romanization: Jingbirok: Imjinwaeran Piro Sseun Gyohoon
    Runtime: around 55 min/ep
    Broadcast period: 2015-Feb-14 to 2015-???-??
    Genre: Daeha drama, historical, political, action
    Language: Korean
    Country: South Korea
    Episodes: 50
    Broadcast network: KBS1
    Subtitle: English  softsub by DarkSmurfSub

    Synopsis
    Based on the memoir "Jibirok," written in 1604 by scholar Ryu Seong-Ryong. The memoir covers Ryu Seong-Ryong's experiences from 1592-1598 during the Japanese invasion of Joseon era South Korea, the story of what happened at Jojeong between the Japanese Invasion and the Battle of Noryang where General Lee Soon-sin was killed

    Cast   
    Kim Sang Joong as Seo Ae Ryu Sung Ryong
    Kim Tae Woo as King Seon Jo
    Im Dong Jin as Oh Eum Yoon Doo Soo
    Sun Dong Hyuk (선동혁) as Song Kang Jung Chul
    Choi Chul Ho as Baek Sa Lee Hang Bok
    Park Ji Il as Goo Bong Song Ik Pil
    Kim Hyo Won (김효원) as Woo Gye Sung Hon
    Kim Jong Soo (김종수) as Woo Song Dang Hwang Yoon Gil
    Kang In Ki (강인기) as Joong Bong Jo Hun

    Director: Kim Sang Hwi, Kim Young Jo (김영조)
    Sceenwriter: Jung Hyung Soo, Jung Ji Yun (정지연)

    Video: MPEG4 Video (H264) 1280x720 29.97fps 2183kbps [V: h264 constrained baseline L3.1, yuv420p, 1280x720, 2183 kb/s]
    Audio: AAC 48000Hz stereo 256kbps [A: aac lc, 48000 Hz, stereo, 256 kb/s]

    Media Info
    Spoiler:show

    Code
    General
    Complete name                  : Jing Bi Rok 징비록.E07.150307.HDTV.H264.720p-WITH.mp4
    Format                         : MPEG-4
    Format profile                 : Base Media
    Codec ID                       : isom
    File size                      : 877 MiB
    Duration                       : 50mn 13s
    Overall bit rate mode          : Variable
    Overall bit rate               : 2 443 Kbps
    Encoded date                   : UTC 2015-03-07 13:35:50
    Tagged date                    : UTC 2015-03-07 13:35:50

    Video
    ID                             : 1
    Format                         : AVC
    Format/Info                    : Advanced Video Codec
    Format profile                 : Baseline@L3.1
    Format settings, CABAC         : No
    Format settings, ReFrames      : 3 frames
    Codec ID                       : avc1
    Codec ID/Info                  : Advanced Video Coding
    Duration                       : 50mn 13s
    Bit rate                       : 2 200 Kbps
    Maximum bit rate               : 5 919 Kbps
    Width                          : 1 280 pixels
    Height                         : 720 pixels
    Display aspect ratio           : 16:9
    Frame rate mode                : Constant
    Frame rate                     : 29.970 fps
    Color space                    : YUV
    Chroma subsampling             : 4:2:0
    Bit depth                      : 8 bits
    Scan type                      : Progressive
    Bits/(Pixel*Frame)             : 0.080
    Stream size                    : 785 MiB (89%)
    Writing library                : x264 core 128 r2216 198a7ea
    Encoding settings              : cabac=0 / ref=3 / deblock=1:0:0 / analyse=0x1:0x111 / me=hex / subme=7 / psy=1 / psy_rd=1.00:0.00 / mixed_ref=1 / me_range=16 / chroma_me=1 / trellis=1 / 8x8dct=0 / cqm=0 / deadzone=21,11 / fast_pskip=1 / chroma_qp_offset=-2 / threads=12 / lookahead_threads=2 / sliced_threads=0 / nr=0 / decimate=1 / interlaced=0 / bluray_compat=0 / constrained_intra=0 / bframes=0 / weightp=0 / keyint=250 / keyint_min=25 / scenecut=40 / intra_refresh=0 / rc_lookahead=40 / rc=abr / mbtree=1 / bitrate=2200 / ratetol=1.0 / qcomp=0.60 / qpmin=0 / qpmax=69 / qpstep=4 / vbv_maxrate=50000 / vbv_bufsize=50000 / nal_hrd=none / ip_ratio=1.40 / aq=1:1.00
    Encoded date                   : UTC 2015-03-07 13:18:20
    Tagged date                    : UTC 2015-03-07 13:35:52

    Audio
    ID                             : 2
    Format                         : AAC
    Format/Info                    : Advanced Audio Codec
    Format profile                 : LC
    Codec ID                       : 40
    Duration                       : 50mn 13s
    Bit rate mode                  : Variable
    Bit rate                       : 256 Kbps
    Maximum bit rate               : 262 Kbps
    Channel(s)                     : 2 channels
    Channel positions              : Front: L R
    Sampling rate                  : 48.0 KHz
    Compression mode               : Lossy
    Stream size                    : 92.0 MiB (10%)
    Encoded date                   : UTC 2015-03-07 13:35:51
    Tagged date                    : UTC 2015-03-07 13:35:52






    0 0

    Original Post: Jing Bi Rok 징비록 (2015) E07 HDTV XviD WITH



    Title: Jing Bi Rok 징비록 / The Jingbirok: A Memoir of Imjin War 징비록 (懲毖錄): 임진왜란 피로 쓴 교훈
    Revised romanization: Jingbirok: Imjinwaeran Piro Sseun Gyohoon
    Runtime: around 55 min/ep
    Broadcast period: 2015-Feb-14 to 2015-???-??
    Genre: Daeha drama, historical, political, action
    Language: Korean
    Country: South Korea
    Episodes: 50
    Broadcast network: KBS1
    Subtitle: English  softsub by DarkSmurfSub

    Synopsis
    Based on the memoir "Jibirok," written in 1604 by scholar Ryu Seong-Ryong. The memoir covers Ryu Seong-Ryong's experiences from 1592-1598 during the Japanese invasion of Joseon era South Korea, the story of what happened at Jojeong between the Japanese Invasion and the Battle of Noryang where General Lee Soon-sin was killed

    Cast   
    Kim Sang Joong as Seo Ae Ryu Sung Ryong
    Kim Tae Woo as King Seon Jo
    Im Dong Jin as Oh Eum Yoon Doo Soo
    Sun Dong Hyuk (선동혁) as Song Kang Jung Chul
    Choi Chul Ho as Baek Sa Lee Hang Bok
    Park Ji Il as Goo Bong Song Ik Pil
    Kim Hyo Won (김효원) as Woo Gye Sung Hon
    Kim Jong Soo (김종수) as Woo Song Dang Hwang Yoon Gil
    Kang In Ki (강인기) as Joong Bong Jo Hun

    Director: Kim Sang Hwi, Kim Young Jo (김영조)
    Sceenwriter: Jung Hyung Soo, Jung Ji Yun (정지연)

    Video: Xvid 640x352 29.97fps 1238kbps [V: mpeg4 advanced simple profile, yuv420p, 640x352, 1238 kb/s]
    Audio: MP3 48000Hz stereo 128kbps [A: mp3, 48000 Hz, stereo, 128 kb/s]

    Media Info
    Spoiler:show

    Code
    General
    Complete name                  : Jing Bi Rok 징비록.E07.150307.HDTV.XviD-WITH.avi
    Format                         : AVI
    Format/Info                    : Audio Video Interleave
    File size                      : 495 MiB
    Duration                       : 50mn 13s
    Overall bit rate               : 1 378 Kbps
    Writing application            : VirtualDubMod 1.5.10.2 (build 2540/release)
    Writing library                : VirtualDubMod build 2540/release

    Video
    ID                             : 0
    Format                         : MPEG-4 Visual
    Format profile                 : Advanced Simple@L5
    Format settings, BVOP          : 2
    Format settings, QPel          : No
    Format settings, GMC           : No warppoints
    Format settings, Matrix        : Default (H.263)
    Muxing mode                    : Packed bitstream
    Codec ID                       : XVID
    Codec ID/Hint                  : XviD
    Duration                       : 50mn 13s
    Bit rate                       : 1 238 Kbps
    Width                          : 640 pixels
    Height                         : 352 pixels
    Display aspect ratio           : 16:9
    Frame rate                     : 29.970 fps
    Color space                    : YUV
    Chroma subsampling             : 4:2:0
    Bit depth                      : 8 bits
    Scan type                      : Progressive
    Compression mode               : Lossy
    Bits/(Pixel*Frame)             : 0.183
    Stream size                    : 445 MiB (90%)
    Writing library                : XviD 58

    Audio
    ID                             : 1
    Format                         : MPEG Audio
    Format version                 : Version 1
    Format profile                 : Layer 3
    Mode                           : Joint stereo
    Codec ID                       : 55
    Codec ID/Hint                  : MP3
    Duration                       : 50mn 13s
    Bit rate mode                  : Constant
    Bit rate                       : 128 Kbps
    Channel(s)                     : 2 channels
    Sampling rate                  : 48.0 KHz
    Compression mode               : Lossy
    Stream size                    : 46.0 MiB (9%)
    Alignment                      : Aligned on interleaves
    Interleave, duration           : 33 ms (1.00 video frame)
    Interleave, preload duration   : 504 ms
    Writing library                : LAME3.98.4





    0 0

    Original Post: [Single] BIGBANG – M [FLAC]



    http://en.wikipedia.org/wiki/Big_Bang_%28South_Korean_band%29

    BIGBANG – M
    Release Date: 2015.05.01
    Genre: Dance, Hip-Hop
    Language: Korean
    Format: FLAC
    credit to hulkpop

    Track List:

    01. LOSER
    02. BAE BAE

    Audio
    Format                         : FLAC
    Format/Info                    : Free Lossless Audio Codec
    Duration                       : 3mn 39s
    Bit rate mode                  : Variable
    Bit rate                       : 847 Kbps
    Channel count                  : 2 channels
    Sampling rate                  : 44.1 KHz
    Bit depth                      : 16 bits
    Stream size                    : 22.2 MiB (98%)
    Writing library                : libFLAC 1.3.0



    0 0

    Original Post: Drama Special E108: Ward 7 HDTV 720p WITH


    Details
    Title: Ward 7 / 수상한 7병동 / soo-sang-han 7 byung-dong
    Also known as: Suspicious Ward No. 7
    Genre: Drama
    Format: Drama Special
    Episodes: 1
    Broadcast network: KBS2
    Broadcast date: 2014-10-12
    Air time: Sunday 24:00

    Subtitles:
    English subtitle: NONE

    Synopsis
    Sujin and Jihun are a detective couple and have to take on a strange case. They have to have a test tube baby in order investigate a criminal whose wife is also having a test tube baby. They've been wanting a baby for a long time so Jihun likes the idea but Sujin isn't all that happy about it. But Sujin ends up going to the hospital to have the baby and she's put in ward 7 with some strange characters. They're all women trying to get pregnant. Sujin gets to experience life with the group of women who dream of having a baby and she gets to learn what it's like for women who desperately want a baby but can't have one.--KBS World

    Cast
    Shin Yi as Lee Su Jin (36), Homicide Detective
    Kim Jung Min as Ahn Ji Hoon (38), Su Jin's husband
    Lee Byung Joon as Captain Lee (early 50s), Homicide Lieutenant
    Shim Eun Jin as Kang Se Hee (early 30s)
    Kim Ho Chang as Detective Choi (28)
    Song Chae Hwan as Doctor

    Production Credits
    Director: Lee Min Jung
    Screenwriter: Choi Yong Wook


    Code
    Video
    ID                          : 1
    Format                      : AVC
    Format/Info                 : Advanced Video Codec
    Format profile              : High@L3.1
    Format settings, CABAC      : Yes
    Format settings, ReFrames   : 4 frames
    Codec ID                    : avc1
    Codec ID/Info               : Advanced Video Coding
    Duration                    : 1h 2mn
    Source duration             : 1h 2mn
    Bit rate                    : 2 200 Kbps
    Maximum bit rate            : 27.0 Mbps
    Width                       : 1 280 pixels
    Height                      : 720 pixels
    Display aspect ratio        : 16:9
    Frame rate mode             : Constant
    Frame rate                  : 29.970 fps
    Color space                 : YUV
    Chroma subsampling          : 4:2:0
    Bit depth                   : 8 bits
    Scan type                   : Progressive
    Bits/(Pixel*Frame)          : 0.080
    Stream size                 : 973 MiB (94%)
    Source stream size          : 973 MiB (94%)
    Writing library             : x264 core 128 r2216 198a7ea
    Encoding settings           : cabac=1 / ref=3 / deblock=1:0:0 / analyse=0x3:0x113 / me=hex / subme=7 / psy=1 / psy_rd=1.00:0.00 / mixed_ref=1 / me_range=16 / chroma_me=1 / trellis=1 / 8x8dct=1 / cqm=0 / deadzone=21,11 / fast_pskip=1 / chroma_qp_offset=-2 / threads=12 / lookahead_threads=2 / sliced_threads=0 / nr=0 / decimate=1 / interlaced=0 / bluray_compat=0 / constrained_intra=0 / bframes=3 / b_pyramid=2 / b_adapt=1 / b_bias=0 / direct=1 / weightb=1 / open_gop=0 / weightp=2 / keyint=250 / keyint_min=25 / scenecut=40 / intra_refresh=0 / rc_lookahead=40 / rc=abr / mbtree=1 / bitrate=2200 / ratetol=1.0 / qcomp=0.60 / qpmin=0 / qpmax=69 / qpstep=4 / vbv_maxrate=50000 / vbv_bufsize=50000 / nal_hrd=none / ip_ratio=1.40 / aq=1:1.00
    Encoded date                : UTC 2014-10-12 15:47:51
    Tagged date                 : UTC 2014-10-12 16:05:02

    Audio
    ID                          : 2
    Format                      : AAC
    Format/Info                 : Advanced Audio Codec
    Format profile              : LC
    Codec ID                    : 40
    Duration                    : 1h 2mn
    Bit rate mode               : Variable
    Bit rate                    : 128 Kbps
    Maximum bit rate            : 134 Kbps
    Channel(s)                  : 2 channels
    Channel positions           : Front: L R
    Sampling rate               : 48.0 KHz
    Compression mode            : Lossy
    Stream size                 : 56.8 MiB (6%)
    Encoded date                : UTC 2014-10-12 16:05:01
    Tagged date                 : UTC 2014-10-12 16:05:02



    0 0

    Original Post: Baek Chung Kang, JL – My Unfortunate Boyfriend OST Part.4



    백청강, 제이엘 (JL) [이진우] – 나의 유감스러운 남자친구 (MBC 드라마넷 금토드라마) OST – Part.4
    Release Date: 2015.05.01
    Genre: OST
    Language: Korean
    Bit Rate: MP3-320kbps
    credit to hulkpop

    Track List:

    01. Fall In Love
    02. Fall In Love (Inst.)



    0 0

    Original Post: Fluttering India E04 END HDTV 720p WITH

    Fluttering India


    Title: Fluttering India
    Hangul : 두근두근인도 / Duguendudeun Indo
    Director : Lee Ye Ji
    Network : KBS
    Episodes : 4
    Release Date : 2015-04-10
    Runtime : Wednesday 21:30​
    KBS Info : http://kbsworld.kbs.co.kr/programs/programs_intro.html?no=919&lang=e

    About :
    “Fluttering India” is a show produced by one of the best PDs in Korean television, Lee Ye Ji, who is famous for her work in “Hello Counselor.” Unlike other variety shows out there, the concept for this show will be how the idols interact with the locals, overcome language barriers, deal with a culture, and new environments. ​

    Cast :
    Changmin (TVXQ), Kyuhyun (Super Junior), Minho (SHINee), Jonghyun (CNBLUE), Sungkyu (INFINITE), Suho (EXO)​


    Code
    General
    Format                                   : MPEG-4
    Format profile                           : Base Media
    Codec ID                                 : isom
    File size                                : 1.30 GiB
    Duration                                 : 1h 15mn
    Overall bit rate mode                    : Variable
    Overall bit rate                         : 2 461 Kbps
    Encoded date                             : UTC 2015-04-10 13:59:08
    Tagged date                              : UTC 2015-04-10 13:59:08

    Video
    ID                                       : 1
    Format                                   : AVC
    Format/Info                              : Advanced Video Codec
    Format profile                           : Baseline@L1.3
    Format settings, CABAC                   : No
    Format settings, ReFrames                : 1 frame
    Codec ID                                 : avc1
    Codec ID/Info                            : Advanced Video Coding
    Duration                                 : 1h 15mn
    Bit rate                                 : 2 200 Kbps
    Maximum bit rate                         : 9 614 Kbps
    Width                                    : 1 280 pixels
    Height                                   : 720 pixels
    Display aspect ratio                     : 16:9
    Frame rate mode                          : Constant
    Frame rate                               : 29.970 fps
    Color space                              : YUV
    Chroma subsampling                       : 4:2:0
    Bit depth                                : 8 bits
    Scan type                                : Progressive
    Bits/(Pixel*Frame)                       : 0.080
    Stream size                              : 1.16 GiB (89%)
    Writing library                          : x264 core 128 r2216 198a7ea
    Encoding settings                        : cabac=0 / ref=1 / deblock=1:0:0 / analyse=0x1:0x111 / me=hex / subme=7 / psy=1 / psy_rd=1.00:0.00 / mixed_ref=0 / me_range=16 / chroma_me=1 / trellis=1 / 8x8dct=0 / cqm=0 / deadzone=21,11 / fast_pskip=1 / chroma_qp_offset=-2 / threads=12 / lookahead_threads=2 / sliced_threads=0 / nr=0 / decimate=1 / interlaced=0 / bluray_compat=0 / constrained_intra=0 / bframes=0 / weightp=0 / keyint=250 / keyint_min=25 / scenecut=40 / intra_refresh=0 / rc_lookahead=40 / rc=abr / mbtree=1 / bitrate=2200 / ratetol=1.0 / qcomp=0.60 / qpmin=0 / qpmax=69 / qpstep=4 / vbv_maxrate=50000 / vbv_bufsize=50000 / nal_hrd=none / ip_ratio=1.40 / aq=1:1.00
    Encoded date                             : UTC 2015-04-10 13:39:37
    Tagged date                              : UTC 2015-04-10 13:59:11

    Audio
    ID                                       : 2
    Format                                   : AAC
    Format/Info                              : Advanced Audio Codec
    Format profile                           : LC
    Codec ID                                 : 40
    Duration                                 : 1h 15mn
    Bit rate mode                            : Variable
    Bit rate                                 : 256 Kbps
    Maximum bit rate                         : 266 Kbps
    Channel(s)                               : 2 channels
    Channel positions                        : Front: L R
    Sampling rate                            : 48.0 KHz
    Compression mode                         : Lossy
    Stream size                              : 138 MiB (10%)
    Encoded date                             : UTC 2015-04-10 13:59:10
    Tagged date                              : UTC 2015-04-10 13:59:11





    [img]https://www.asiatorrents.me/imgz/images/9kiG8.jpg
    [/img]

    *Please PM me if there is something wrong, Don't ask for subtitle. smile1.gif

    Don't try to HIT AND RUN. Don't forget to seed minimum at least 1.5.. Please always seed, since I will not re-upload If it already deleted on my seedbox.


    0 0

    Original Post: Fluttering India HDTV 720p WITH

    Fluttering India


    Title: Fluttering India
    Hangul : 두근두근인도 / Duguendudeun Indo
    Director : Lee Ye Ji
    Network : KBS
    Episodes : 4
    Release Date : 2015-04-10
    Runtime : Wednesday 21:30​
    KBS Info : http://kbsworld.kbs.co.kr/programs/programs_intro.html?no=919&lang=e

    About :
    “Fluttering India” is a show produced by one of the best PDs in Korean television, Lee Ye Ji, who is famous for her work in “Hello Counselor.” Unlike other variety shows out there, the concept for this show will be how the idols interact with the locals, overcome language barriers, deal with a culture, and new environments. ​

    Cast :
    Changmin (TVXQ), Kyuhyun (Super Junior), Minho (SHINee), Jonghyun (CNBLUE), Sungkyu (INFINITE), Suho (EXO)​


    Code
    General
    Format                                   : MPEG-4
    Format profile                           : Base Media
    Codec ID                                 : isom
    File size                                : 1.30 GiB
    Duration                                 : 1h 15mn
    Overall bit rate mode                    : Variable
    Overall bit rate                         : 2 461 Kbps
    Encoded date                             : UTC 2015-04-10 13:59:08
    Tagged date                              : UTC 2015-04-10 13:59:08

    Video
    ID                                       : 1
    Format                                   : AVC
    Format/Info                              : Advanced Video Codec
    Format profile                           : Baseline@L1.3
    Format settings, CABAC                   : No
    Format settings, ReFrames                : 1 frame
    Codec ID                                 : avc1
    Codec ID/Info                            : Advanced Video Coding
    Duration                                 : 1h 15mn
    Bit rate                                 : 2 200 Kbps
    Maximum bit rate                         : 9 614 Kbps
    Width                                    : 1 280 pixels
    Height                                   : 720 pixels
    Display aspect ratio                     : 16:9
    Frame rate mode                          : Constant
    Frame rate                               : 29.970 fps
    Color space                              : YUV
    Chroma subsampling                       : 4:2:0
    Bit depth                                : 8 bits
    Scan type                                : Progressive
    Bits/(Pixel*Frame)                       : 0.080
    Stream size                              : 1.16 GiB (89%)
    Writing library                          : x264 core 128 r2216 198a7ea
    Encoding settings                        : cabac=0 / ref=1 / deblock=1:0:0 / analyse=0x1:0x111 / me=hex / subme=7 / psy=1 / psy_rd=1.00:0.00 / mixed_ref=0 / me_range=16 / chroma_me=1 / trellis=1 / 8x8dct=0 / cqm=0 / deadzone=21,11 / fast_pskip=1 / chroma_qp_offset=-2 / threads=12 / lookahead_threads=2 / sliced_threads=0 / nr=0 / decimate=1 / interlaced=0 / bluray_compat=0 / constrained_intra=0 / bframes=0 / weightp=0 / keyint=250 / keyint_min=25 / scenecut=40 / intra_refresh=0 / rc_lookahead=40 / rc=abr / mbtree=1 / bitrate=2200 / ratetol=1.0 / qcomp=0.60 / qpmin=0 / qpmax=69 / qpstep=4 / vbv_maxrate=50000 / vbv_bufsize=50000 / nal_hrd=none / ip_ratio=1.40 / aq=1:1.00
    Encoded date                             : UTC 2015-04-10 13:39:37
    Tagged date                              : UTC 2015-04-10 13:59:11

    Audio
    ID                                       : 2
    Format                                   : AAC
    Format/Info                              : Advanced Audio Codec
    Format profile                           : LC
    Codec ID                                 : 40
    Duration                                 : 1h 15mn
    Bit rate mode                            : Variable
    Bit rate                                 : 256 Kbps
    Maximum bit rate                         : 266 Kbps
    Channel(s)                               : 2 channels
    Channel positions                        : Front: L R
    Sampling rate                            : 48.0 KHz
    Compression mode                         : Lossy
    Stream size                              : 138 MiB (10%)
    Encoded date                             : UTC 2015-04-10 13:59:10
    Tagged date                              : UTC 2015-04-10 13:59:11





    [img]https://www.asiatorrents.me/imgz/images/9kiG8.jpg
    [/img]

    *Please PM me if there is something wrong, Don't ask for subtitle. smile1.gif

    Don't try to HIT AND RUN. Don't forget to seed minimum at least 1.5.. Please always seed, since I will not re-upload If it already deleted on my seedbox.


    0 0

    Original Post: Law of the Jungle with Friends E159 720p WITH (Ep. 6 Indochina)



    Hangul: 정글의 법칙
    Genre: Variety Show
    Language: Korean
    Country: South Korea
    Subtitles: No Subtitles

    Cast: Kim Byun-man, Ryu Dam, Son Ho-jun, Raymon Kim, Kim Jong-min, Lim Ji-yeon, Park Hyung-sik, Seo In-guk, Jang Su-won, Lee Sung-jae

    Synopsis:

    Law of the Jungle

    Law of the Jungle (Korean: 정글의 법칙) is a South Korean reality-documentary show on SBS. It was first aired on October 21, 2011. This show is a hybrid of reality-variety television, natural documentaries, and human drama; a new concept of programming.[1] The cast of celebrities travel to primitive, natural places to survive on their own and experience life with local tribes and people.[2] Originally airing at the Friday 11:05 pm KST time slot, the program was switched into Good Sunday for its second season beginning May 6, 2012, airing before Running Man at the 5:00 pm time slot, replacing K-pop Star Season 1.[3] With the return of K-pop Star Season 2 to Good Sunday, the program returned to Friday nights but airing at 10:00 pm instead beginning November 16, 2012.[4] Originally airing as Kim Byung-man's Law of the Jungle (Korean: 김병만의 정글의 법칙) after the creator and "clan leader" Kim Byung-man, "Kim Byung-man's" was dropped from the title beginning in Season 3.

    Special editions of the program air as well featuring a different cast not in the regular time slot. Law of the Jungle W (W for Women) features an all-female cast and generally airs during the Seollal and Chuseok holidays.[5] Law of the Jungle K (K for Kids) features celebrities with their children, and has aired as a Seollal special in 2013.


    Code
    General
    Format                                   : MPEG-4
    Format profile                           : Base Media
    Codec ID                                 : isom
    File size                                : 1.16 GiB
    Duration                                 : 1h 7mn
    Overall bit rate mode                    : Variable
    Overall bit rate                         : 2 455 Kbps

    Video
    ID                                       : 1
    Format                                   : AVC
    Format/Info                              : Advanced Video Codec
    Format profile                           : Baseline@L1.3
    Format settings, CABAC                   : No
    Format settings, ReFrames                : 1 frame
    Codec ID                                 : avc1
    Codec ID/Info                            : Advanced Video Coding
    Duration                                 : 1h 7mn
    Bit rate                                 : 2 200 Kbps
    Maximum bit rate                         : 11.8 Mbps
    Width                                    : 1 280 pixels
    Height                                   : 720 pixels
    Display aspect ratio                     : 16:9
    Frame rate mode                          : Constant
    Frame rate                               : 29.970 fps
    Color space                              : YUV
    Chroma subsampling                       : 4:2:0
    Bit depth                                : 8 bits
    Scan type                                : Progressive
    Bits/(Pixel*Frame)                       : 0.080
    Stream size                              : 1.04 GiB (89%)
    Writing library                          : x264 core 128 r2216 198a7ea
    Encoding settings                        : cabac=0 / ref=1 / deblock=1:0:0 / analyse=0x1:0x111 / me=hex / subme=7 / psy=1 / psy_rd=1.00:0.00 / mixed_ref=0 / me_range=16 / chroma_me=1 / trellis=1 / 8x8dct=0 / cqm=0 / deadzone=21,11 / fast_pskip=1 / chroma_qp_offset=-2 / threads=12 / lookahead_threads=2 / sliced_threads=0 / nr=0 / decimate=1 / interlaced=0 / bluray_compat=0 / constrained_intra=0 / bframes=0 / weightp=0 / keyint=250 / keyint_min=25 / scenecut=40 / intra_refresh=0 / rc_lookahead=40 / rc=abr / mbtree=1 / bitrate=2200 / ratetol=1.0 / qcomp=0.60 / qpmin=0 / qpmax=69 / qpstep=4 / vbv_maxrate=50000 / vbv_bufsize=50000 / nal_hrd=none / ip_ratio=1.40 / aq=1:1.00

    Audio
    ID                                       : 2
    Format                                   : AAC
    Format/Info                              : Advanced Audio Codec
    Format profile                           : LC
    Codec ID                                 : 40
    Duration                                 : 1h 7mn
    Bit rate mode                            : Variable
    Bit rate                                 : 256 Kbps
    Maximum bit rate                         : 264 Kbps
    Channel(s)                               : 2 channels
    Channel positions                        : Front: L R
    Sampling rate                            : 48.0 KHz
    Compression mode                         : Lossy
    Stream size                              : 124 MiB (10%)







    *Please PM me if there is something wrong, Don't ask for subtitle. smile1.gif

    Don't try to HIT AND RUN. Don't forget to seed minimum at least 1.5.. Sharing is GOOD


    0 0

    Original Post: Design Talks - Memory (704x400 x264)



    http://thetvdb.com/?tab=series&id=274809


    Broadcast Date: 21 Jan. 2014
    Run Time: 30 min
    Genre: Documentary
    Language: English
    Country: Japan
    Subtitles: None

    Magazine style intellectual aesthetic voyage, exploring art and philosophy in Japanese designs from antiques to high-techs, commodities and fashions.

    This Episode:
    Memory

    In traditional Japanese belief, every object in the world contains a divine spirit. A constant awareness of these invisible presences is deeply embedded in the Japanese consciousness. Recently, more artists have been creating designs that focus on this collective memory. Joined in the studio by photographer Everett Brown, we'll discuss designs which shed light on Japan's memories of itself - in doing so, we'll visit an ancient world, and explore the question of whether there is a universal sense of beauty.




    Code

    General
    Format                                   : Matroska
    Format version                           : Version 2
    File size                                : 424 MiB
    Duration                                 : 28mn 0s
    Overall bit rate                         : 2 115 Kbps
    Writing application                      : libmatroska 1.3.0
    Writing library                          : SolveigMM Matroska Muxer Version 1.0.1208.20

    Video
    ID                                       : 1
    Format                                   : AVC
    Format/Info                              : Advanced Video Codec
    Format profile                           : High@L5
    Format settings, CABAC                   : Yes
    Format settings, ReFrames                : 8 frames
    Format settings, GOP                     : M=1, N=2
    Codec ID                                 : V_MPEG4/ISO/AVC
    Width                                    : 704 pixels
    Height                                   : 400 pixels
    Display aspect ratio                     : 16:9
    Frame rate mode                          : Variable
    Original frame rate                      : 25.000 fps
    Color space                              : YUV
    Chroma subsampling                       : 4:2:0
    Bit depth                                : 8 bits
    Scan type                                : Progressive
    Language                                 : English
    Default                                  : No
    Forced                                   : No
    Color range                              : Limited
    Color primaries                          : BT.601 PAL
    Transfer characteristics                 : BT.470 System B, BT.470 System G
    Matrix coefficients                      : BT.601

    Audio
    ID                                       : 2
    Format                                   : AAC
    Format/Info                              : Advanced Audio Codec
    Format profile                           : LC
    Codec ID                                 : A_AAC
    Duration                                 : 28mn 0s
    Channel(s)                               : 1 channel
    Channel positions                        : Front: C
    Sampling rate                            : 48.0 KHz
    Compression mode                         : Lossy
    Delay relative to video                  : 21ms
    Language                                 : English
    Default                                  : No
    Forced                                   : No




    0 0

    Original Post: Undulant Fever 2014 720p BluRay x264-WiKi

    Contain a Little Nudity





    Detail:
    Title: Undulant Fever
    Genre: Umi wo kanjiru toki
    Release Date:
    Runtime: 118 min
    Director: Hiroshi Ando
    Rating: 5.7/10 from 15 users
    Country: Japan
    Language: Japanese
    Subtitles:Chinese, Japanese

    Synopsis:
    Emiko meets Yo in high school while they’re both members of the newspaper club. After Yo kisses her for the first time, they wind up having sex impulsively. From that moment on, whenever they’d see each other, Emiko would demand sex from Yo in spite of them not being involved in a romantic relationship. As time passes, Emiko begins working at a flower shop in Tokyo in order to be near the building where Yo lives while attending university. She continues having sex Yo, but begins to feel deeply hurt and rejected by him.

    Cast:
    Yui Ichikawa, Sosuke Ikematsu, Masaki Miura








    Code

    Video
    ID                                       : 1
    Format                                   : AVC
    Format/Info                              : Advanced Video Codec
    Format profile                           : High@L4.1
    Format settings, CABAC                   : Yes
    Format settings, ReFrames                : 9 frames
    Codec ID                                 : V_MPEG4/ISO/AVC
    Duration                                 : 1h 59mn
    Width                                    : 1 280 pixels
    Height                                   : 690 pixels
    Display aspect ratio                     : 1.85:1
    Frame rate                               : 23.976 fps
    Color space                              : YUV
    Chroma subsampling                       : 4:2:0
    Bit depth                                : 8 bits
    Scan type                                : Progressive
    Language                                 : Japanese
    Default                                  : Yes
    Forced                                   : No

    Audio
    ID                                       : 2
    Format                                   : AC-3
    Format/Info                              : Audio Coding 3
    Codec ID                                 : A_AC3
    Duration                                 : 1h 59mn
    Channel(s)                               : 6 channels
    Sampling rate                            : 48.0 KHz
    Compression mode                         : Lossy
    Language                                 : Japanese
    Default                                  : Yes
    Forced                                   : No

    Text #1
    ID                                       : 3
    Format                                   : ASS
    Codec ID                                 : S_TEXT/ASS
    Codec ID/Info                            : Advanced Sub Station Alpha
    Compression mode                         : Lossless
    Title                                    : Simplified
    Language                                 : Chinese
    Default                                  : Yes
    Forced                                   : No

    Text #2
    ID                                       : 4
    Format                                   : ASS
    Codec ID                                 : S_TEXT/ASS
    Codec ID/Info                            : Advanced Sub Station Alpha
    Compression mode                         : Lossless
    Title                                    : Traditional
    Language                                 : Japanese
    Default                                  : No
    Forced                                   : No



    0 0

    Original Post: Undulant Fever 2014 1080p BluRay x264-WiKi

    Contain a Little Nudity





    Detail:
    Title: Undulant Fever
    Genre: Umi wo kanjiru toki
    Release Date:
    Runtime: 118 min
    Director: Hiroshi Ando
    Rating: 5.7/10 from 15 users
    Country: Japan
    Language: Japanese
    Subtitles:Chinese

    Synopsis:
    Emiko meets Yo in high school while they’re both members of the newspaper club. After Yo kisses her for the first time, they wind up having sex impulsively. From that moment on, whenever they’d see each other, Emiko would demand sex from Yo in spite of them not being involved in a romantic relationship. As time passes, Emiko begins working at a flower shop in Tokyo in order to be near the building where Yo lives while attending university. She continues having sex Yo, but begins to feel deeply hurt and rejected by him.

    Cast:
    Yui Ichikawa, Sosuke Ikematsu, Masaki Miura


    Code

    Video
    ID                                       : 1
    Format                                   : AVC
    Format/Info                              : Advanced Video Codec
    Format profile                           : High@L4.1
    Format settings, CABAC                   : Yes
    Format settings, ReFrames                : 4 frames
    Codec ID                                 : V_MPEG4/ISO/AVC
    Duration                                 : 1h 59mn
    Width                                    : 1 920 pixels
    Height                                   : 1 036 pixels
    Display aspect ratio                     : 1.85:1
    Frame rate                               : 23.976 fps
    Color space                              : YUV
    Chroma subsampling                       : 4:2:0
    Bit depth                                : 8 bits
    Scan type                                : Progressive
    Language                                 : Japanese
    Default                                  : Yes
    Forced                                   : No

    Audio
    ID                                       : 2
    Format                                   : AC-3
    Format/Info                              : Audio Coding 3
    Codec ID                                 : A_AC3
    Duration                                 : 1h 59mn
    Channel(s)                               : 6 channels
    Sampling rate                            : 48.0 KHz
    Compression mode                         : Lossy
    Language                                 : Japanese
    Default                                  : Yes
    Forced                                   : No

    Text #1
    ID                                       : 3
    Format                                   : ASS
    Codec ID                                 : S_TEXT/ASS
    Codec ID/Info                            : Advanced Sub Station Alpha
    Compression mode                         : Lossless
    Title                                    : Simplified
    Language                                 : Chinese
    Default                                  : Yes
    Forced                                   : No

    Text #2
    ID                                       : 4
    Format                                   : ASS
    Codec ID                                 : S_TEXT/ASS
    Codec ID/Info                            : Advanced Sub Station Alpha
    Compression mode                         : Lossless
    Title                                    : Traditional
    Language                                 : Chinese
    Default                                  : No
    Forced                                   : No



    0 0

    Original Post: I Fine Thank You Love You.2014-DVDRip.x264.AAC-SeeingMole





    Detail:
    Title: I Fine..Thank You Love You
    Genre: Comedy
    Release Date: 10 December 2014
    Runtime: 117 min
    Director: Mez Tharatorn
    Rating: 7.6/10 from 292 users
    Country: Thailand
    Language: Thai
    Subtitles:No SUbtitles

    Synopsis:
    Sora Aoi, Puttachat Pongsuchat, Preechaya Pongthananikorn

    Cast:
    Pleng is a charming and beautiful English tutor. Her ordinary life takes an unexpected turn when she is asked a favor by one of her students to help dump her Thai boyfriend named Gym. Unfortunately, Gym doesn’t understand English so Pleng’s student records her voice message and asks Pleng to translate her message to him.

    When Gym realizes that he is being dumped, he pins blame on Pleng for his girlfriend leaving him being that Pleng taught his girlfriend the English to pass her US job interview. It is at that moment Gym persuades Pleng to teach him English too, hoping to go to the US to reconcile with his girlfriend. Pleng has reservations but agrees.








    Code

    Video
    ID                                       : 1
    Format                                   : AVC
    Format/Info                              : Advanced Video Codec
    Format profile                           : High@L3.0
    Format settings, CABAC                   : Yes
    Format settings, ReFrames                : 5 frames
    Codec ID                                 : avc1
    Codec ID/Info                            : Advanced Video Coding
    Duration                                 : 1h 55mn
    Bit rate                                 : 1 034 Kbps
    Maximum bit rate                         : 6 035 Kbps
    Width                                    : 720 pixels
    Height                                   : 400 pixels
    Display aspect ratio                     : 16:9
    Frame rate mode                          : Constant
    Frame rate                               : 25.000 fps
    Color space                              : YUV
    Chroma subsampling                       : 4:2:0
    Bit depth                                : 8 bits
    Scan type                                : Progressive
    Bits/(Pixel*Frame)                       : 0.144
    Stream size                              : 856 MiB (89%)
    Title                                    : www.SeeingMole.com I Fine Thank You Love You (2014) DVDRip
    Writing library                          : x264 core 146 r2538 121396c
    Encoding settings                        : cabac=1 / ref=5 / deblock=1:0:0 / analyse=0x3:0x133 / me=umh / subme=9 / psy=1 / psy_rd=1.00:0.00 / mixed_ref=1 / me_range=24 / chroma_me=1 / trellis=1 / 8x8dct=1 / cqm=0 / deadzone=21,11 / fast_pskip=1 / chroma_qp_offset=-2 / threads=12 / lookahead_threads=1 / sliced_threads=0 / nr=0 / decimate=1 / interlaced=0 / bluray_compat=0 / constrained_intra=0 / bframes=5 / b_pyramid=2 / b_adapt=2 / b_bias=0 / direct=1 / weightb=1 / open_gop=0 / weightp=2 / keyint=250 / keyint_min=25 / scenecut=40 / intra_refresh=0 / rc_lookahead=40 / rc=crf / mbtree=1 / crf=17.0 / qcomp=0.60 / qpmin=0 / qpmax=69 / qpstep=4 / ip_ratio=1.40 / aq=1:1.00 / zones=166570,173756,q=36
    Encoded date                             : UTC 2015-04-12 04:23:34
    Tagged date                              : UTC 2015-04-12 04:23:43
    Color primaries                          : BT.470-6 System B, BT.470-6 System G, BT.601-6 625, BT.1358 625, BT.1700 625 PAL, BT.1700 625 SECAM
    Transfer characteristics                 : BT.470-6 System B, BT.470-6 System G
    Matrix coefficients                      : BT.470-6 System B, BT.470-6 System G, BT.601-6 625, BT.1358 625, BT.1700 625 PAL, BT.1700 625 SECAM, IEC 61966-2-4 601

    Audio
    ID                                       : 2
    Format                                   : AAC
    Format/Info                              : Advanced Audio Codec
    Format profile                           : LC
    Codec ID                                 : 40
    Duration                                 : 1h 55mn
    Bit rate mode                            : Variable
    Bit rate                                 : 128 Kbps
    Maximum bit rate                         : 139 Kbps
    Channel(s)                               : 2 channels
    Channel positions                        : Front: L R
    Sampling rate                            : 48.0 KHz
    Compression mode                         : Lossy
    Delay relative to video                  : -13ms
    Stream size                              : 106 MiB (11%)
    Title                                    : stereo AAC-LC 128 ABR 2-pass www.SeeingMole.com
    Language                                 : Thai
    Encoded date                             : UTC 2015-04-12 04:23:40
    Tagged date                              : UTC 2015-04-12 04:23:43



    0 0

    Original Post: Tokugawa Chronicles: Ambition of the Three Branches Complete Series (1986 Remastered DVDRIP)

    This action-packed series is a hallmark of the Japan Action Club with great performances by Kitaoji Kinya (Lone Wolf and Cub 2002) in a dual role as Tokugawa Yoshimune (the Roughneck Shogun) and Yagyu Shinrokuro, the two finest swordsmen in the nation. Opposing them is Harada Yoshio as the evil Yamanouchi Iganosuke. Rounding out this all-star cast are Nakamura Katsuo and the peerless Ichikawa Utaemon

    Synopsis: Tokugawa Chronicles-Ambition of the 3 Branches" tells of the battles between the 3 related families Kishu, Mito, and Owari, as each vies for the shogun’s seat in the line of succession. Highlighting the series are many fights between the young lord’s Negoro ninja helpers and their mortal enemies, the Koga ninja. History comes alive with the bloody blades of the three families at war within the highest levels of government as the search for a new shogun continues!  

    Title: Tokugawa Chronicles: Ambition of the Three Branches
    Japanese title: Tokugawa Gosanke no Yabo
    Director: Ozu Histoshi
    Genre: Jidaigeki / Action / Drama
    Release date: 1986
    Runtime: 585min approx
    Language: Japanese
    Country: Japan
    Subtitles: English (optional)
    IMDB URL: No IMDB

    Starring: KITAOJI Kinya, ICHIKAWA Utaemon, TANBA Tetsuro, NAKAMURA Katsuo, HARADA Yoshio

    Episode 01-The Tiger of Kishu!
    Episode 02-The Glorious Reunion of Father and Son
    Episode 03-The 30,000 Ryo Bet in Yoshiwara
    Episode 04-Blood Sprays on Mito Highway
    Episode 05-A Flower Falls in Kyoto
    Episode 06-The Great Explosion! Duel on the Cliff
    Episode 07-Ninja Against Ninja! Owari's Twister
    Episode 08-Intrigue Swirl's! Lords Assassinated
    Episode 09-A Trap is Set in O'oku, A Tragic Love Affair
    Episode 10-Yoshimune Rises Against the Owari-Mito Forces!
    Episode 11-The Attack at Jigoku Valley!
    Episode 12-Severe Earthquake! Seat of the Eighth Shogun
    Episode 13-The Last Great Battle



    Screen Shots







    Technical Information

    ***General***
    Format: Matroska
    Format version: Version 2
    File size: 6,17 GiB
    Duration: 585min
    Overall bit rate: 1 593 Kbps
    Writing application: HandBrake
    Writing library: Lavf55.12.0

    ***Video***
    ID: 1
    Format: AVC
    Format/Info: Advanced Video Codec
    Format profile: Main@L4.0
    Format settings, CABAC: Yes
    Format settings, ReFrames: 4 frames
    Codec ID: V_MPEG4/ISO/AVC
    Bit rate: 1 338 Kbps
    Width: epi 1, 5, 9, 10, 11, 12, 13: 696 pixels - epi 2, 6, 7: 692 pixels - epi 3, 4, 8: 694 pixels
    Height: epi 1, 2, 3, 4, 5, 6, 7, 8, 10, 11: 474 pixels - epi 9, 12: 472 pixels - epi 13: 478 pixels
    Display aspect ratio: 4:3
    Original display aspect ratio: 4:3
    Frame rate mode: Variable
    Color space: YUV
    Chroma subsampling: 4:2:0
    Bit depth: 8 bits
    Scan type: Progressive
    Writing library: x264 core 142 r2479 dd79a61
    Encoding settings: cabac=1 / ref=1 / deblock=1:0:0 / analyse=0x1:0x111 / me=hex / subme=2 / psy=1 / psy_rd=1.00:0.00 / mixed_ref=0 / me_range=16 / chroma_me=1 / trellis=0 / 8x8dct=0 / cqm=0 / deadzone=21,11 / fast_pskip=1 / chroma_qp_offset=0 / threads=6 / lookahead_threads=2 / sliced_threads=0 / nr=0 / decimate=1 / interlaced=0 / bluray_compat=0 / constrained_intra=0 / bframes=3 / b_pyramid=2 / b_adapt=1 / b_bias=0 / direct=1 / weightb=1 / open_gop=0 / weightp=1 / keyint=300 / keyint_min=30 / scenecut=40 / intra_refresh=0 / rc_lookahead=10 / rc=crf / mbtree=1 / crf=20.0 / qcomp=0.60 / qpmin=0 / qpmax=69 / qpstep=4 / vbv_maxrate=20000 / vbv_bufsize=25000 / crf_max=0.0 / nal_hrd=none / filler=0 / ip_ratio=1.40 / aq=1:1.00
    Default: Yes
    Forced: No
    Color primaries: BT.601 NTSC
    Transfer characteristics: BT.709
    Matrix coefficients: BT.601
    Color range: Limited

    ***Audio***
    ID: 2
    Format: AC-3
    Format/Info: Audio Coding 3
    Mode extension: CM (complete main)
    Format settings, Endianness: Big
    Codec ID: A_AC3
    Duration: 585min
    Bit rate mode: Constant
    Bit rate: 224 Kbps
    Channel(s): 2 channels
    Channel positions: Front: L R
    Sampling rate: 48.0 KHz
    Bit depth: 16 bits
    Compression mode: Lossy
    Stream size: 72.0 MiB (14%)
    Title: Stereo
    Language: Japanese
    Default: Yes
    Forced: No

    ***Text***
    ID: 3
    Format: VobSub
    Codec ID: S_VOBSUB
    Codec ID/Info: The same subtitle format used on DVDs
    Language: English
    Default: Yes
    Forced: No


    0 0

    Original Post: Scapegoat EP02 720p HDTV x264 AAC-DoA



    http://wiki.d-addicts.com/Scapegoat
    http://asianwiki.com/Scapegoat_%28Japanese_Drama%29
    http://thetvdb.com/?tab=series&id=293072&lid=7

    Title (English): Scapegoat
    Format: Renzoku
    Genre: Political, suspense
    Episodes: 4
    Broadcast network: WOWOW
    Broadcast period: 2015-Apr-12 to 2015-May-03
    Air time: Sunday 22:00
    Theme song: Prayer by Hirahara Ayaka
    Subtitles: None
    RAW credit to DoA


    Cast

       Kuroki Hitomi as Misaki Koko
       Ishimaru Kanji as Yagisawa Shun
       Sasaki Nozomi as Misaki Mayu
       Yamaguchi Sayaka as Akimoto Tsukasa
       Koichi Mantaro as Yamashita Takumi
       Aijima Kazuyuki as Amami Toshiro
       Mitsuishi Ken as Higuchi Daigo
       Jinbo Satoshi as Tasaki Keigo
       Kobayashi Takashi as Misaki Nobuaki
       Nishioka Tokuma as Ozeki Shiro
       Furuya Ikko as Yamashiro Taizo


    Synopsis

    Misaki Koko, a university professor, receives a phone call out of the blue from her former boyfriend, Yagisawa Shun, who is now an executive officer of a television network. Yagisawa has been asked by Yamashiro Taizo, the leader of Meisei Party, to introduce Koko. Yamashiro intends to bring Koko in as a civilian cabinet minister with the aim of regaining political control in the next general election. Hiroko has kept a distance from politicians because of a past feud with her father. She hesitates, not able to give Yamashiro a reply. However, several days later, an article announcing her appointment appears in the newspapers. This is Yamashiro's strategy to draw her in. Unable to back out, Koko decides to enter politics with the support of her husband, Nobuaki. However, right after she takes office, she is faced with an unprecedented crisis. Will she be able to survive? -- Jdrama Weblog (edited)


    Mediainfo
    Spoiler:show

    Code
    Format                                   : Matroska
    Format version                           : Version 4 / Version 2
    File size                                : 758 MiB
    Duration                                 : 50mn 0s
    Overall bit rate                         : 2 118 Kbps
    Encoded date                             : UTC 2015-04-27 18:30:45
    Writing application                      : mkvmerge v7.8.0 ('River Man') 32bit built on Mar 27 2015 16:18:02
    Writing library                          : libebml v1.3.1 + libmatroska v1.4.2
    DURATION                                 : 00:50:00.000000000
    NUMBER_OF_FRAMES                         : 140625
    NUMBER_OF_BYTES                          : 70734375
    _STATISTICS_WRITING_APP                  : mkvmerge v7.8.0 ('River Man') 32bit built on Mar 27 2015 16:18:02
    _STATISTICS_WRITING_DATE_UTC             : 2015-04-27 18:30:45
    _STATISTICS_TAGS                         : BPS DURATION NUMBER_OF_FRAMES NUMBER_OF_BYTES

    Video
    ID                                       : 1
    Format                                   : AVC
    Format/Info                              : Advanced Video Codec
    Format profile                           : High@L4.1
    Format settings, CABAC                   : Yes
    Format settings, ReFrames                : 8 frames
    Codec ID                                 : V_MPEG4/ISO/AVC
    Duration                                 : 50mn 0s
    Width                                    : 1 280 pixels
    Height                                   : 720 pixels
    Display aspect ratio                     : 16:9
    Frame rate mode                          : Constant
    Frame rate                               : 23.976 fps
    Original frame rate                      : 29.970 fps
    Color space                              : YUV
    Chroma subsampling                       : 4:2:0
    Bit depth                                : 8 bits
    Scan type                                : Progressive
    Writing library                          : x264 core 146 r2538 121396c
    Encoding settings                        : cabac=1 / ref=8 / deblock=1:-3:-3 / analyse=0x3:0x133 / me=umh / subme=9 / psy=1 / psy_rd=1.00:0.00 / mixed_ref=1 / me_range=16 / chroma_me=1 / trellis=2 / 8x8dct=1 / cqm=0 / deadzone=21,11 / fast_pskip=1 / chroma_qp_offset=-2 / threads=6 / lookahead_threads=1 / sliced_threads=0 / nr=0 / decimate=1 / interlaced=0 / bluray_compat=0 / constrained_intra=0 / bframes=8 / b_pyramid=2 / b_adapt=2 / b_bias=0 / direct=3 / weightb=1 / open_gop=0 / weightp=2 / keyint=300 / keyint_min=29 / scenecut=40 / intra_refresh=0 / rc_lookahead=60 / rc=crf / mbtree=1 / crf=18.0 / qcomp=0.60 / qpmin=0 / qpmax=69 / qpstep=4 / ip_ratio=1.40 / aq=1:1.00
    Language                                 : English
    Default                                  : Yes
    Forced                                   : No
    DURATION                                 : 00:49:59.972000000
    NUMBER_OF_FRAMES                         : 72527
    NUMBER_OF_BYTES                          : 722826924
    _STATISTICS_WRITING_APP                  : mkvmerge v7.8.0 ('River Man') 32bit built on Mar 27 2015 16:18:02
    _STATISTICS_WRITING_DATE_UTC             : 2015-04-27 18:30:45
    _STATISTICS_TAGS                         : BPS DURATION NUMBER_OF_FRAMES NUMBER_OF_BYTES

    Audio
    ID                                       : 2
    Format                                   : AAC
    Format/Info                              : Advanced Audio Codec
    Format profile                           : LC
    Codec ID                                 : A_AAC
    Duration                                 : 50mn 0s
    Channel(s)                               : 2 channels
    Channel positions                        : Front: L R
    Sampling rate                            : 48.0 KHz
    Compression mode                         : Lossy
    Default                                  : Yes
    Forced                                   : No





    0 0

    Original Post: TVB Limelight Years E04 HDTV 720p-TVBDO



    If you like my upload, please press the "Thank You" buttoncool2.gif

    English Title: Limelight Years
    Chinese Title:華麗轉身
    Network: TVB
    Release Date: April 27, 2015
    Episodes: 20
    Country: Hong Kong
    Audio: Cantonese (AC-3 6 Channels)
    Subtitles: English (.srt embedded)
    Genre: Modern
    Cast: Liza Wang, Damion Lau, Alex Fong, Linda Chung, Eliza Sum, Jonathan Wong, Jacqueline Wong, Michelle Yim (Guest Star)

    Synopsis: There is darkness behind the limelight. After recovering from a long-term sickness, retiring singer Wah Fong Ying (Liza Wang) has come to realize that she has failed to live a fulfilling life. With two failed marriages and strained relationships with her three children, Fong Ying is much lonelier than she admits. Summoning up all her courage, Fong Ying flies to Taiwan to mend her broken relationship with her oldest daughter. During this time, she comes across Hong Kong photographer Law Ben (Damian Lau), who is in Taiwan to fulfill his late wife’s (Michelle Yim) wish of returning to her ancestral home. Sparks fly when the extraordinary meets the ordinary. Both Fong Ying and Ben find their strength as they quietly support each other.

    Encouraged by Ben, Fong Ying decides to perform one last time in a goodbye concert for her close friends and family, but her youngest daughter Tong Yan (Eliza Sam) reacts coldly to the invitation. Nonetheless, Fong Ying remains committed to her last concert and hires a new assistant Szeto Dik Dik (Linda Chung) and a new creative director, Song Sheung Hang (Alex Fong). Dik Dik and Sheung Han initially struggle to get along due to past misunderstandings, but they eventually cultivate a deep relationship. Just as Fong Ying starts to find the light again, she is once again attacked by darkness. While Sheung Hang was preparing a special issue to promote Fong Ying’s concert, he discovers an ugly secret that Fong Ying has been keeping for many years. Dik Dik finds out that Fong Ying and her uncle were involved in the past. Ben is also starting to have hallucinations…







    If you like my upload, please press the "Thank You" buttoncool2.gif


    Code

    General
    Format                                   : Matroska
    Format version                           : Version 4 / Version 2
    File size                                : 1.66 GiB
    Duration                                 : 44mn 11s
    Overall bit rate                         : 5 387 Kbps
    Movie name                               : @TVBDO
    Encoded date                             : UTC 2015-05-02 03:34:03
    Writing application                      : mkvmerge v7.8.0 ('River Man') 64bit built on Mar 27 2015 16:31:37
    Writing library                          : Lavf56.31.100
    DURATION                                 : 00:41:18.897000000
    NUMBER_OF_FRAMES                         : 591
    NUMBER_OF_BYTES                          : 24708
    _STATISTICS_WRITING_APP                  : mkvmerge v7.8.0 ('River Man') 64bit built on Mar 27 2015 16:31:37
    _STATISTICS_WRITING_DATE_UTC             : 2015-05-02 03:34:03
    _STATISTICS_TAGS                         : BPS DURATION NUMBER_OF_FRAMES NUMBER_OF_BYTES

    Video
    ID                                       : 2
    Format                                   : AVC
    Format/Info                              : Advanced Video Codec
    Format profile                           : High@L3.1
    Format settings, CABAC                   : Yes
    Format settings, ReFrames                : 4 frames
    Codec ID                                 : V_MPEG4/ISO/AVC
    Duration                                 : 44mn 11s
    Bit rate                                 : 5 000 Kbps
    Width                                    : 1 280 pixels
    Height                                   : 720 pixels
    Display aspect ratio                     : 16:9
    Frame rate mode                          : Variable
    Frame rate                               : 25.000 fps
    Color space                              : YUV
    Chroma subsampling                       : 4:2:0
    Bit depth                                : 8 bits
    Scan type                                : Progressive
    Bits/(Pixel*Frame)                       : 0.217
    Stream size                              : 1.51 GiB (91%)
    Writing library                          : x264 core 146 r2538 121396c
    Encoding settings                        : cabac=1 / ref=3 / deblock=1:0:0 / analyse=0x3:0x113 / me=hex / subme=6 / psy=1 / psy_rd=1.00:0.00 / mixed_ref=1 / me_range=16 / chroma_me=1 / trellis=1 / 8x8dct=1 / cqm=0 / deadzone=21,11 / fast_pskip=1 / chroma_qp_offset=-2 / threads=8 / lookahead_threads=1 / sliced_threads=0 / nr=0 / decimate=1 / interlaced=0 / bluray_compat=0 / constrained_intra=0 / bframes=3 / b_pyramid=2 / b_adapt=1 / b_bias=0 / direct=1 / weightb=1 / open_gop=0 / weightp=2 / keyint=250 / keyint_min=25 / scenecut=40 / intra_refresh=0 / rc_lookahead=40 / rc=2pass / mbtree=1 / bitrate=5000 / ratetol=1.0 / qcomp=0.60 / qpmin=10 / qpmax=51 / qpstep=4 / cplxblur=20.0 / qblur=0.5 / ip_ratio=1.41 / aq=1:1.00
    Default                                  : Yes
    Forced                                   : No
    DURATION                                 : 00:44:11.008000000
    NUMBER_OF_FRAMES                         : 82844
    NUMBER_OF_BYTES                          : 127248384
    _STATISTICS_WRITING_APP                  : mkvmerge v7.8.0 ('River Man') 64bit built on Mar 27 2015 16:31:37
    _STATISTICS_WRITING_DATE_UTC             : 2015-05-02 03:34:03
    _STATISTICS_TAGS                         : BPS DURATION NUMBER_OF_FRAMES NUMBER_OF_BYTES

    Audio
    ID                                       : 3
    Format                                   : AC-3
    Format/Info                              : Audio Coding 3
    Mode extension                           : CM (complete main)
    Format settings, Endianness              : Big
    Codec ID                                 : A_AC3
    Duration                                 : 44mn 11s
    Bit rate mode                            : Constant
    Bit rate                                 : 384 Kbps
    Channel(s)                               : 6 channels
    Channel positions                        : Front: L C R, Side: L R, LFE
    Sampling rate                            : 48.0 KHz
    Bit depth                                : 16 bits
    Compression mode                         : Lossy
    Stream size                              : 121 MiB (7%)
    Default                                  : Yes
    Forced                                   : No

    Text
    ID                                       : 1
    Format                                   : UTF-8
    Codec ID                                 : S_TEXT/UTF8
    Codec ID/Info                            : UTF-8 Plain Text
    Writing library                          : Lavc56.35.101 libx264
    Language                                 : English
    Default                                  : Yes
    Forced                                   : No
    DURATION                                 : 00:44:11.040000000
    NUMBER_OF_FRAMES                         : 66276
    NUMBER_OF_BYTES                          : 1657203686
    _STATISTICS_WRITING_APP                  : mkvmerge v7.8.0 ('River Man') 64bit built on Mar 27 2015 16:31:37
    _STATISTICS_WRITING_DATE_UTC             : 2015-05-02 03:34:03
    _STATISTICS_TAGS                         : BPS DURATION NUMBER_OF_FRAMES NUMBER_OF_BYTES



older | 1 | .... | 1329 | 1330 | (Page 1331) | 1332 | 1333 | .... | 1405 | newer