Are you the publisher? Claim or contact us about this channel


Embed this content in your HTML

Search

Report adult content:

click to rate:

Account: (login)

More Channels


Showcase


Channel Catalog


Channel Description:

Asia Torrents RSS Feed

older | 1 | .... | 1333 | 1334 | (Page 1335) | 1336 | 1337 | .... | 1405 | newer

    0 0

    Original Post: [Single] Pocket Girls - Bbang Bbang



    포켓걸스 (Pocket Girls) – 빵빵
    Release Date: 2015.04.10
    Genre: Electronic
    Bitrate: MP3-320K
    Credits: hulkpop

    Track List:
    01. 빵빵
    02. 빵빵 (Inst.)



    0 0

    Original Post: Sunny 2008 720p BluRay x264 DTS-WiKi





    Detail:
    Title: Sunny
    Genre: Drama / War / Period-1970 / Music / Award Winning
    Release Date: July 23, 2008
    Runtime: 126 min
    Director: Lee Joon-Ik
    Rating: 6.7/10 from 227 users
    Country: South Korea
    Language: Korean
    Subtitles:No Subtitles

    Synopsis:
    In 1971 Korea, Soon-Yi (Soo-Ae) is an average housewife, whose only hobby is singing. At the time, some 320,000 Korean men are dispatched to fight alongside American troops in the Vietnam War, and her husband, Sang-gil (Uhm Tae-Woong), is one of them. She decides to go to Vietnam to search for Sang-gil by joining a "consolatory band" that cheers up troops. Newly named "Sunny," she embarks on a journey of self-discovery and love.

    Cast:
    Soo-Ae Jung Jin-Young Jung Kyoung-Ho   Joo Jin-Mo Shin Hyun-Tak Uhm Tae-Woong








    Code

    Video
    ID                                       : 1
    Format                                   : AVC
    Format/Info                              : Advanced Video Codec
    Format profile                           : High@L4.1
    Format settings, CABAC                   : Yes
    Format settings, ReFrames                : 9 frames
    Codec ID                                 : V_MPEG4/ISO/AVC
    Duration                                 : 2h 6mn
    Nominal bit rate                         : 6 000 Kbps
    Width                                    : 1 280 pixels
    Height                                   : 694 pixels
    Display aspect ratio                     : 1.85:1
    Frame rate                               : 23.976 fps
    Color space                              : YUV
    Chroma subsampling                       : 4:2:0
    Bit depth                                : 8 bits
    Scan type                                : Progressive
    Bits/(Pixel*Frame)                       : 0.282
    Writing library                          : x264 core 129 r2245+704+36 8e61944 tMod+MixAQ [8-bit@4:2:0 X86_64]
    Encoding settings                        : cabac=1 / ref=9 / deblock=1:-2:-2 / analyse=0x3:0x133 / me=umh / subme=11 / psy=1 / fade_compensate=0.00 / psy_rd=1.00:0.10 / mixed_ref=1 / me_range=32 / chroma_me=1 / trellis=2 / 8x8dct=1 / cqm=0 / deadzone=21,11 / fast_pskip=0 / chroma_qp_offset=-3 / threads=12 / lookahead_threads=2 / sliced_threads=0 / nr=0 / decimate=0 / interlaced=0 / bluray_compat=0 / constrained_intra=0 / fgo=0 / bframes=10 / b_pyramid=2 / b_adapt=2 / b_bias=0 / direct=3 / weightb=1 / open_gop=0 / weightp=2 / keyint=250 / keyint_min=23 / scenecut=40 / intra_refresh=0 / rc=2pass / mbtree=0 / bitrate=6000 / ratetol=1.0 / qcomp=0.75 / qpmin=0 / qpmax=69 / qpstep=4 / cplxblur=20.0 / qblur=0.5 / ip_ratio=1.40 / pb_ratio=1.30 / aq=1 / aq-strength=0.85 / aq-sensitivity=10.00 / aq-ifactor=1.00 / aq-pfactor=1.00 / aq-bfactor=1.00 / aq2=0
    Language                                 : Korean
    Default                                  : Yes
    Forced                                   : No
    Matrix coefficients                      : BT.709-5, BT.1361, IEC 61966-2-4 709, SMPTE RP177

    Audio #1
    ID                                       : 2
    Format                                   : DTS
    Format/Info                              : Digital Theater Systems
    Codec ID                                 : A_DTS
    Duration                                 : 2h 6mn
    Bit rate mode                            : Constant
    Bit rate                                 : 1 510 Kbps
    Channel(s)                               : 6 channels
    Channel positions                        : Front: L C R, Side: L R, LFE
    Sampling rate                            : 48.0 KHz
    Bit depth                                : 16 bits
    Compression mode                         : Lossy
    Stream size                              : 1.34 GiB (20%)
    Language                                 : Korean
    Default                                  : Yes
    Forced                                   : No

    Audio #2
    ID                                       : 3
    Format                                   : AAC
    Format/Info                              : Advanced Audio Codec
    Format profile                           : HE-AAC / LC
    Codec ID                                 : A_AAC
    Duration                                 : 2h 6mn
    Channel(s)                               : 2 channels
    Channel positions                        : Front: L R
    Sampling rate                            : 48.0 KHz / 24.0 KHz
    Compression mode                         : Lossy
    Delay relative to video                  : 31ms
    Language                                 : kos
    Default                                  : No
    Forced                                   : No



    0 0

    Original Post: Tenshi to Akuma EP04 720p HDTV x264 AAC-DoA



    http://wiki.d-addicts.com/Tenshi_to_Akuma
    http://asianwiki.com/Angels_%26_Demons:_Cold_Case_Anonymous_Investigation_Unit
    http://thetvdb.com/?tab=series&id=293165&lid=25

    Title (romaji): Tenshi to Akuma
    Also known as: Angels & Demons
    Tagline: 未解決事件匿名交渉課 / Mikaiketsu Jiken Tokumei Koshouka
    Format: Renzoku
    Genre: Mystery, legal, suspense
    Episodes: TBD
    Broadcast network: TV Asahi
    Broadcast period: 2015-Apr-10 start
    Air time: Friday 23:15
    Theme song: Song for you ~Ashita e Kakeru Hikari~ by Sonar Pocket
    Subtitles: English - ersby 
    Note from ersby: Episode four (subtitles) won't be done for several weeks, since I'm going on holiday (to Japan) so please be patient. Thanks.
    RAW credit to DoA


    Cast

       Gouriki Ayame as Makita Hikari
       Watabe Atsuro as Chajima Ryunosuke
       Hasegawa Tomoharu as Udagawa Ken
       Naito Risa as Hattori Noemi
       Nakamura Shizuka as Eniwa Akane
       Arakawa Yoshiyoshi as Ano Tadaomi
       Uzaki Ryudo (宇崎竜童) as Kagurazaka Ryoichi


    Synopsis

    Gouriki plays the role of a newbie police officer Makita Hikari who trusts others wholeheartedly, keeps making mistakes at work and ends up being sent to work in an insignificant position while Watabe plays Chajima Ryunosuke who is a lawyer with no morals and doesn't believe in people. The two of them who are 24 years apart in age, form an unlikely alliance to crack unresolved cases in the Mikaiketsu Jiken Tokumei Koshoka by using plea deals to get suspects and the accused to testify against the true culprits responsible for committing the crimes. -- Dorama World


    Mediainfo
    Spoiler:show

    Code
    Format                                   : Matroska
    Format version                           : Version 4 / Version 2
    File size                                : 694 MiB
    Duration                                 : 48mn 48s
    Overall bit rate                         : 1 988 Kbps
    Movie name                               : 天使と悪魔-未解決事件匿名交渉課- CASE 4
    Encoded by                               : 愛衣ちゃん大勝利 。゚( ゚இωஇ゚)゚。
    Encoded date                             : UTC 2015-05-02 17:40:42
    Writing application                      : mkvmerge v7.6.0 ('Garden of Dreams') 64bit built on Feb  9 2015 20:32:11
    Writing library                          : libebml v1.3.1 + libmatroska v1.4.2
    DATE_RECORDED                            : JST 2015-05-01 23:14:14
    TITLE                                    : 天使と悪魔-未解決事件匿名交渉課- CASE 4
    TITLE/Url                                : http://www.tv-asahi.co.jp/tenshitoakuma/
    WRITTEN_BY                               : 高橋悠也
    DIRECTOR                                 : 波多野貴文
    COMMENT                                  : ルートスフィア
    ENCODER_SETTINGS                         : wine avs-plus/avs2yuv.exe tenshitoakuma.avs - | x264 -
    ENCODER_SETTINGS/AviSynth                : tfm(mode = 5, pp = 2, clip2 = qtgmc.selecteven, cthresh = 1)
    DURATION                                 : 00:48:48.000000000
    NUMBER_OF_FRAMES                         : 137250
    NUMBER_OF_BYTES                          : 69036456
    _STATISTICS_WRITING_APP                  : mkvmerge v7.6.0 ('Garden of Dreams') 64bit built on Feb  9 2015 20:32:11
    _STATISTICS_WRITING_DATE_UTC             : 2015-05-02 17:40:42
    _STATISTICS_TAGS                         : BPS DURATION NUMBER_OF_FRAMES NUMBER_OF_BYTES

    Video
    ID                                       : 1
    Format                                   : AVC
    Format/Info                              : Advanced Video Codec
    Format profile                           : High@L4
    Format settings, CABAC                   : Yes
    Format settings, ReFrames                : 6 frames
    Codec ID                                 : V_MPEG4/ISO/AVC
    Duration                                 : 48mn 47s
    Width                                    : 1 280 pixels
    Height                                   : 720 pixels
    Display aspect ratio                     : 16:9
    Frame rate mode                          : Constant
    Frame rate                               : 29.970 fps
    Color space                              : YUV
    Chroma subsampling                       : 4:2:0
    Bit depth                                : 8 bits
    Scan type                                : Progressive
    Writing library                          : x264 core 146 r2538 121396c
    Encoding settings                        : cabac=1 / ref=6 / deblock=1:-2:-2 / analyse=0x3:0x133 / me=umh / subme=11 / psy=1 / psy_rd=1.00:0.15 / mixed_ref=1 / me_range=24 / chroma_me=1 / trellis=2 / 8x8dct=1 / cqm=0 / deadzone=21,11 / fast_pskip=1 / chroma_qp_offset=-3 / threads=12 / lookahead_threads=1 / sliced_threads=0 / nr=0 / decimate=1 / interlaced=0 / bluray_compat=0 / constrained_intra=0 / bframes=5 / b_pyramid=2 / b_adapt=2 / b_bias=0 / direct=3 / weightb=1 / open_gop=0 / weightp=2 / keyint=300 / keyint_min=30 / scenecut=40 / intra_refresh=0 / rc_lookahead=60 / rc=crf / mbtree=1 / crf=19.0 / qcomp=0.60 / qpmin=0 / qpmax=69 / qpstep=4 / ip_ratio=1.40 / aq=1:1.00
    Language                                 : Japanese
    Default                                  : Yes
    Forced                                   : No
    DURATION                                 : 00:48:47.991000000
    NUMBER_OF_FRAMES                         : 87752
    NUMBER_OF_BYTES                          : 657488824
    _STATISTICS_WRITING_APP                  : mkvmerge v7.6.0 ('Garden of Dreams') 64bit built on Feb  9 2015 20:32:11
    _STATISTICS_WRITING_DATE_UTC             : 2015-05-02 17:40:42
    _STATISTICS_TAGS                         : BPS DURATION NUMBER_OF_FRAMES NUMBER_OF_BYTES

    Audio
    ID                                       : 2
    Format                                   : AAC
    Format/Info                              : Advanced Audio Codec
    Format profile                           : LC
    Codec ID                                 : A_AAC
    Duration                                 : 48mn 48s
    Channel(s)                               : 2 channels
    Channel positions                        : Front: L R
    Sampling rate                            : 48.0 KHz
    Compression mode                         : Lossy
    Delay relative to video                  : 7ms
    Language                                 : Japanese
    Default                                  : Yes
    Forced                                   : No

    Menu
    00:00:00.000                             : ja:Part A
    00:03:11.991                             : ja:Part B
    00:20:24.990                             : ja:Part C
    00:28:56.000                             : ja:Part D
    00:48:20.998                             : ja:次回予告





    0 0
  • 05/04/15--21:31: GANGNAM BLUES OST
  • Original Post: GANGNAM BLUES OST

    GANGNAM BLUES OST, by Jo Yeong-wook



    Genre: OST
    Release Date: 2015-02-16
    Format: 192 kbps


    Tracklist:
    01. 강남 1970
    02. 가족
    03. 흥신소
    04. 종대와 선혜
    05. 보스
    06. 아마다미아(sung by 문 주란)
    07. 전당대회
    08. 빗속의 방문객
    09. 작은 소망
    10. 위험한 거래
    11. 기억
    12. 구출
    13. 재회
    14. 반지 돌리기
    15. 용기
    16. 조직해산
    17. 압구정 잔혹사
    18. 무지개
    19. 자수하다
    20. 고문
    21. 건들지 마라
    22. 종대와 용기
    23. 덫
    24. 쥐새끼를 잡아라
    25. 분노의 주먹
    26. 살인
    27. 옛 사진
    28. 비열한 거리
    29. 제거해라
    30. 마주치다
    31. 강남 블루스


    Enjoy!


    0 0

    Original Post: Who Are You - School 2015 E04 XVID LIMO


    Details

    Title: 후아유 - 학교 2015 / Hooayoo - Hakgyo 2015
    Also known as: 학교 6 (School 6)
    Genre: School, youth, drama, mystery
    Episodes: 16
    Broadcast network: KBS2
    Broadcast period: 2015-Apr-27 to 2015-???-??
    Air time: Monday & Tuesday 22:00
    Original Soundtrack: Who Are You - School 2015 OST
    Related TV Shows: School 1 (KBS2, 1999), School 2 (KBS2, 1999), School 3 (KBS2, 2000), School 4 (KBS2, 2001), School 2013 (KBS2, 2013)
    Synopsis

    This drama is a latest installment to the famed School Series. It will focus on portraying realistic issues, struggles, and dilemmas of today’s youths.

    Segang High School is a top school located in Gangnam District, Seoul. One of the students, Lee Eun Bi, wake up one day without knowing who she was. After find out that she used to be bullied, she changes herself and becomes popular. She then tries to recover her lost memories, and in the process, discovers the hidden truths behind her famous school.

    Cast
    Main Cast
    Kim So Hyun as Lee Eun Bi / Go Eun Byul
    Nam Joo Hyuk as Han Yi Ahn
    Yook Sung Jae as Gong Tae Kwang
    Extended Cast
    Lee Pil Mo as Teacher Kim Joon Suk
    Lee David as Park Min Joon
    Kim Hee Jung as Cha Song Joo
    Lee Cho Hee as Lee Shi Jin
    Jo Soo Hyang as Kang So Young
    Segang High School's teachers
    Lee Hee Do as Vice Principal
    Shin Jung Geun as Students' Supervisor
    The parents
    Jun Mi Sun as Song Mi Kyung (Eun Byul's mother)
    Lee Dae Yeon as Han Ki Choon (Yi Ahn's father)
    Jun Noh Min as Gong Jae Ho (Tae Kwang's father)
    Kim Jung Nan as Shin Jung Min (Min Joon's mother)
    Jung In Ki as Park Joon Hyung (Min Joon's father)
    Kim Se Ah as Shi Jin's mother
    Class 2-3 students
    Park Doo Shik as Kwon Ki Tae
    Yoo Young as Jo Hae Na
    Jang In Sub as Sung Yoon Jae
    Kim Bo Ra as Seo Young Eun




    Code
    Video
    ID                                       : 0
    Format                                   : MPEG-4 Visual
    Format profile                           : Advanced Simple@L5
    Format settings, BVOP                    : No
    Format settings, QPel                    : No
    Format settings, GMC                     : No warppoints
    Format settings, Matrix                  : Default (MPEG)
    Codec ID                                 : XVID
    Codec ID/Hint                            : XviD
    Duration                                 : 1h 6mn
    Bit rate                                 : 1 391 Kbps
    Width                                    : 624 pixels
    Height                                   : 352 pixels
    Display aspect ratio                     : 16:9
    Frame rate                               : 29.970 fps
    Color space                              : YUV
    Chroma subsampling                       : 4:2:0
    Bit depth                                : 8 bits
    Scan type                                : Progressive
    Compression mode                         : Lossy
    Bits/(Pixel*Frame)                       : 0.211
    Stream size                              : 660 MiB (87%)
    Writing library                          : XviD 1.2.1 (UTC 2008-12-04)

    Audio
    ID                                       : 1
    Format                                   : MPEG Audio
    Format version                           : Version 1
    Format profile                           : Layer 3
    Mode                                     : Joint stereo
    Mode extension                           : MS Stereo
    Codec ID                                 : 55
    Codec ID/Hint                            : MP3
    Duration                                 : 1h 6mn
    Bit rate mode                            : Constant
    Bit rate                                 : 128 Kbps
    Channel(s)                               : 2 channels
    Sampling rate                            : 48.0 KHz
    Compression mode                         : Lossy
    Stream size                              : 60.8 MiB (8%)
    Alignment                                : Aligned on interleaves
    Writing library                          : LAME3.98.2



    0 0

    Original Post: Who Are You - School 2015 E04 720p LIMO


    Details

    Title: 후아유 - 학교 2015 / Hooayoo - Hakgyo 2015
    Also known as: 학교 6 (School 6)
    Genre: School, youth, drama, mystery
    Episodes: 16
    Broadcast network: KBS2
    Broadcast period: 2015-Apr-27 to 2015-???-??
    Air time: Monday & Tuesday 22:00
    Original Soundtrack: Who Are You - School 2015 OST
    Related TV Shows: School 1 (KBS2, 1999), School 2 (KBS2, 1999), School 3 (KBS2, 2000), School 4 (KBS2, 2001), School 2013 (KBS2, 2013)
    Synopsis

    This drama is a latest installment to the famed School Series. It will focus on portraying realistic issues, struggles, and dilemmas of today’s youths.

    Segang High School is a top school located in Gangnam District, Seoul. One of the students, Lee Eun Bi, wake up one day without knowing who she was. After find out that she used to be bullied, she changes herself and becomes popular. She then tries to recover her lost memories, and in the process, discovers the hidden truths behind her famous school.

    Cast
    Main Cast
    Kim So Hyun as Lee Eun Bi / Go Eun Byul
    Nam Joo Hyuk as Han Yi Ahn
    Yook Sung Jae as Gong Tae Kwang
    Extended Cast
    Lee Pil Mo as Teacher Kim Joon Suk
    Lee David as Park Min Joon
    Kim Hee Jung as Cha Song Joo
    Lee Cho Hee as Lee Shi Jin
    Jo Soo Hyang as Kang So Young
    Segang High School's teachers
    Lee Hee Do as Vice Principal
    Shin Jung Geun as Students' Supervisor
    The parents
    Jun Mi Sun as Song Mi Kyung (Eun Byul's mother)
    Lee Dae Yeon as Han Ki Choon (Yi Ahn's father)
    Jun Noh Min as Gong Jae Ho (Tae Kwang's father)
    Kim Jung Nan as Shin Jung Min (Min Joon's mother)
    Jung In Ki as Park Joon Hyung (Min Joon's father)
    Kim Se Ah as Shi Jin's mother
    Class 2-3 students
    Park Doo Shik as Kwon Ki Tae
    Yoo Young as Jo Hae Na
    Jang In Sub as Sung Yoon Jae
    Kim Bo Ra as Seo Young Eun




    Code
    Video
    ID                             : 0
    Format                         : AVC
    Format/Info                    : Advanced Video Codec
    Format profile                 : High@L5.1
    Format settings, CABAC         : Yes
    Format settings, ReFrames      : 4 frames
    Codec ID                       : H264
    Duration                       : 1h 14mn
    Bit rate                       : 3 000 Kbps
    Width                          : 1 280 pixels
    Height                         : 720 pixels
    Display aspect ratio           : 16:9
    Frame rate mode                : Variable
    Frame rate                     : 29.970 fps
    Color space                    : YUV
    Chroma subsampling             : 4:2:0
    Bit depth                      : 8 bits
    Scan type                      : Progressive
    Bits/(Pixel*Frame)             : 0.109
    Stream size                    : 1.57 GiB (94%)
    Writing library                : x264 core 112
    Encoding settings              : cabac=1 / ref=3 / deblock=1:-1:-1 / analyse=0x3:0x113 / me=hex / subme=6 / psy=1 / psy_rd=1.00:1.00 / mixed_ref=1 / me_range=16 / chroma_me=1 / trellis=1 / 8x8dct=1 / cqm=0 / deadzone=21,11 / fast_pskip=0 / chroma_qp_offset=-4 / threads=12 / sliced_threads=0 / nr=0 / decimate=1 / interlaced=0 / constrained_intra=0 / bframes=3 / b_pyramid=2 / b_adapt=1 / b_bias=1 / direct=3 / weightb=1 / open_gop=0 / weightp=2 / keyint=299 / keyint_min=25 / scenecut=1 / intra_refresh=0 / rc_lookahead=40 / rc=abr / mbtree=1 / bitrate=3000 / ratetol=1.0 / qcomp=0.60 / qpmin=10 / qpmax=51 / qpstep=4 / ip_ratio=1.40 / aq=1:1.00

    Audio
    ID                             : 1
    Format                         : MPEG Audio
    Format version                 : Version 1
    Format profile                 : Layer 3
    Mode                           : Joint stereo
    Mode extension                 : MS Stereo
    Codec ID                       : 55
    Codec ID/Hint                  : MP3
    Duration                       : 1h 14mn
    Bit rate mode                  : Constant
    Bit rate                       : 192 Kbps
    Channel(s)                     : 2 channels
    Sampling rate                  : 48.0 KHz
    Compression mode               : Lossy
    Stream size                    : 102 MiB (6%)
    Alignment                      : Split accross interleaves
    Interleave, duration           : 33 ms (1.00 video frame)
    Interleave, preload duration   : 500 ms
    Writing library                : LAME3.98



    0 0
  • 05/05/15--04:34: Hwajung E08 XVID LIMO
  • Original Post: Hwajung E08 XVID LIMO


    Details
    Title: 화정 / Hwajung
    Also known as: Splendid Politics
    Previously known as: Princess Jungmyung
    Genre: Historical, political, romance
    Episodes: 50
    Broadcast network: MBC
    Broadcast period: 2015-Apr-13 to 2015-Oct-??
    Air time: Monday & Tuesday 22:00
    Subtitles by Dramafever will be added later

    Synopsis
    Fair Princess Jungmyung (Lee Yeon Hee) lives a life of the highest privilege, until her half-brother Prince Gwanghae (Cha Seung Won) executes the rightful crown prince and usurps the throne. Exiled from court, Jungmyung goes under disguise as a man and learns to adapt to life as a commoner — never forgetting Gwanghae's wrongdoing. But amidst rampant corruption throughout the kingdom, can Jyungmyung exact her vengeance, restore order and take back her rightful place in the palace?

    Cast

    Main Cast
    Cha Seung Won as Prince Gwanghae
    Lee Tae Hwan as teen Gwanghae
    Lee Yun Hee as Princess Jungmyung
    Jung Chan Bi as teen Jungmyung
    Seo Jung Eun as child Jungmyung
    Kim Jae Won as King Injo
    Seo Kang Joon as Hong Ju Won
    Yoon Chan Young as teen Ju Won
    Choi Kwon Ju as child Ju Won
    Han Joo Wan as Kang In Woo
    Ahn Do Gyu as teen In Woo




    Code
    Video
    ID                                       : 0
    Format                                   : MPEG-4 Visual
    Format profile                           : Advanced Simple@L5
    Format settings, BVOP                    : No
    Format settings, QPel                    : No
    Format settings, GMC                     : No warppoints
    Format settings, Matrix                  : Default (MPEG)
    Codec ID                                 : XVID
    Codec ID/Hint                            : XviD
    Duration                                 : 1h 6mn
    Bit rate                                 : 1 391 Kbps
    Width                                    : 624 pixels
    Height                                   : 352 pixels
    Display aspect ratio                     : 16:9
    Frame rate                               : 29.970 fps
    Color space                              : YUV
    Chroma subsampling                       : 4:2:0
    Bit depth                                : 8 bits
    Scan type                                : Progressive
    Compression mode                         : Lossy
    Bits/(Pixel*Frame)                       : 0.211
    Stream size                              : 660 MiB (87%)
    Writing library                          : XviD 1.2.1 (UTC 2008-12-04)

    Audio
    ID                                       : 1
    Format                                   : MPEG Audio
    Format version                           : Version 1
    Format profile                           : Layer 3
    Mode                                     : Joint stereo
    Mode extension                           : MS Stereo
    Codec ID                                 : 55
    Codec ID/Hint                            : MP3
    Duration                                 : 1h 6mn
    Bit rate mode                            : Constant
    Bit rate                                 : 128 Kbps
    Channel(s)                               : 2 channels
    Sampling rate                            : 48.0 KHz
    Compression mode                         : Lossy
    Stream size                              : 60.8 MiB (8%)
    Alignment                                : Aligned on interleaves
    Writing library                          : LAME3.98.2



    0 0
  • 05/05/15--04:34: Hwajung E08 720p LIMO
  • Original Post: Hwajung E08 720p LIMO


    Details
    Title: 화정 / Hwajung
    Also known as: Splendid Politics
    Previously known as: Princess Jungmyung
    Genre: Historical, political, romance
    Episodes: 50
    Broadcast network: MBC
    Broadcast period: 2015-Apr-13 to 2015-Oct-??
    Air time: Monday & Tuesday 22:00
    Subtitles by Dramafever will be added later

    Synopsis
    Fair Princess Jungmyung (Lee Yeon Hee) lives a life of the highest privilege, until her half-brother Prince Gwanghae (Cha Seung Won) executes the rightful crown prince and usurps the throne. Exiled from court, Jungmyung goes under disguise as a man and learns to adapt to life as a commoner — never forgetting Gwanghae's wrongdoing. But amidst rampant corruption throughout the kingdom, can Jyungmyung exact her vengeance, restore order and take back her rightful place in the palace?

    Cast

    Main Cast
    Cha Seung Won as Prince Gwanghae
    Lee Tae Hwan as teen Gwanghae
    Lee Yun Hee as Princess Jungmyung
    Jung Chan Bi as teen Jungmyung
    Seo Jung Eun as child Jungmyung
    Kim Jae Won as King Injo
    Seo Kang Joon as Hong Ju Won
    Yoon Chan Young as teen Ju Won
    Choi Kwon Ju as child Ju Won
    Han Joo Wan as Kang In Woo
    Ahn Do Gyu as teen In Woo




    Code
    Video
    ID                             : 0
    Format                         : AVC
    Format/Info                    : Advanced Video Codec
    Format profile                 : High@L5.1
    Format settings, CABAC         : Yes
    Format settings, ReFrames      : 4 frames
    Codec ID                       : H264
    Duration                       : 1h 14mn
    Bit rate                       : 3 000 Kbps
    Width                          : 1 280 pixels
    Height                         : 720 pixels
    Display aspect ratio           : 16:9
    Frame rate mode                : Variable
    Frame rate                     : 29.970 fps
    Color space                    : YUV
    Chroma subsampling             : 4:2:0
    Bit depth                      : 8 bits
    Scan type                      : Progressive
    Bits/(Pixel*Frame)             : 0.109
    Stream size                    : 1.57 GiB (94%)
    Writing library                : x264 core 112
    Encoding settings              : cabac=1 / ref=3 / deblock=1:-1:-1 / analyse=0x3:0x113 / me=hex / subme=6 / psy=1 / psy_rd=1.00:1.00 / mixed_ref=1 / me_range=16 / chroma_me=1 / trellis=1 / 8x8dct=1 / cqm=0 / deadzone=21,11 / fast_pskip=0 / chroma_qp_offset=-4 / threads=12 / sliced_threads=0 / nr=0 / decimate=1 / interlaced=0 / constrained_intra=0 / bframes=3 / b_pyramid=2 / b_adapt=1 / b_bias=1 / direct=3 / weightb=1 / open_gop=0 / weightp=2 / keyint=299 / keyint_min=25 / scenecut=1 / intra_refresh=0 / rc_lookahead=40 / rc=abr / mbtree=1 / bitrate=3000 / ratetol=1.0 / qcomp=0.60 / qpmin=10 / qpmax=51 / qpstep=4 / ip_ratio=1.40 / aq=1:1.00

    Audio
    ID                             : 1
    Format                         : MPEG Audio
    Format version                 : Version 1
    Format profile                 : Layer 3
    Mode                           : Joint stereo
    Mode extension                 : MS Stereo
    Codec ID                       : 55
    Codec ID/Hint                  : MP3
    Duration                       : 1h 14mn
    Bit rate mode                  : Constant
    Bit rate                       : 192 Kbps
    Channel(s)                     : 2 channels
    Sampling rate                  : 48.0 KHz
    Compression mode               : Lossy
    Stream size                    : 102 MiB (6%)
    Alignment                      : Split accross interleaves
    Interleave, duration           : 33 ms (1.00 video frame)
    Interleave, preload duration   : 500 ms
    Writing library                : LAME3.98



    0 0

    Original Post: Heard it Through the Grapevine E22 XVID LIMO


    Details
    Title: 풍문으로 들었소 / Poongmooneuro Deuleoss-so
    Also known as: Heard It as a Rumor / I Heard a Rumor
    Previously known as: War of Brilliant Minds
    Genre: Family, drama, romance, black comedy
    Episodes: 32
    Broadcast network: SBS
    Broadcast period: 2015-Feb-23 to 2015-???-??
    Air time: Monday & Tuesday 22:00
    Original Soundtrack: Heard It Through the Grapevine OST
    Synopsis
    This is a black-comedy drama depicting a prestigious family whose lives are suddenly shaken because of a rumor about their teenage son impregnating his schoolmate.

    Choi Yun Hee and Han Jung Ho are a wealthy couple from a prestigious family. Their reputation suddenly turned upside down because of their son's relationship with an ordinary girl. The girl, Seo Bom, determined to endure the humiliation and isolation from the family for the sake of her child's future while the son, Han In Sang, struggles between his love for Seo Bom and his family's high expectation.

    Cast
    Han Jung Ho's family
    Yoo Joon Sang as Han Jung Ho (47)
    Yoo Ho Jung as Choi Yun Hee (45)
    Lee Joon as Han In Sang (18)
    Park So Young as Han Yi Ji (16)




    Code
    Video
    ID                                       : 0
    Format                                   : MPEG-4 Visual
    Format profile                           : Advanced Simple@L5
    Format settings, BVOP                    : No
    Format settings, QPel                    : No
    Format settings, GMC                     : No warppoints
    Format settings, Matrix                  : Default (MPEG)
    Codec ID                                 : XVID
    Codec ID/Hint                            : XviD
    Duration                                 : 1h 6mn
    Bit rate                                 : 1 391 Kbps
    Width                                    : 624 pixels
    Height                                   : 352 pixels
    Display aspect ratio                     : 16:9
    Frame rate                               : 29.970 fps
    Color space                              : YUV
    Chroma subsampling                       : 4:2:0
    Bit depth                                : 8 bits
    Scan type                                : Progressive
    Compression mode                         : Lossy
    Bits/(Pixel*Frame)                       : 0.211
    Stream size                              : 660 MiB (87%)
    Writing library                          : XviD 1.2.1 (UTC 2008-12-04)

    Audio
    ID                                       : 1
    Format                                   : MPEG Audio
    Format version                           : Version 1
    Format profile                           : Layer 3
    Mode                                     : Joint stereo
    Mode extension                           : MS Stereo
    Codec ID                                 : 55
    Codec ID/Hint                            : MP3
    Duration                                 : 1h 6mn
    Bit rate mode                            : Constant
    Bit rate                                 : 128 Kbps
    Channel(s)                               : 2 channels
    Sampling rate                            : 48.0 KHz
    Compression mode                         : Lossy
    Stream size                              : 60.8 MiB (8%)
    Alignment                                : Aligned on interleaves
    Writing library                          : LAME3.98.2



    0 0

    Original Post: Heard it Through the Grapevine E22 450p LIMO


    Details
    Title: 풍문으로 들었소 / Poongmooneuro Deuleoss-so
    Also known as: Heard It as a Rumor / I Heard a Rumor
    Previously known as: War of Brilliant Minds
    Genre: Family, drama, romance, black comedy
    Episodes: 32
    Broadcast network: SBS
    Broadcast period: 2015-Feb-23 to 2015-???-??
    Air time: Monday & Tuesday 22:00
    Original Soundtrack: Heard It Through the Grapevine OST
    Synopsis
    This is a black-comedy drama depicting a prestigious family whose lives are suddenly shaken because of a rumor about their teenage son impregnating his schoolmate.

    Choi Yun Hee and Han Jung Ho are a wealthy couple from a prestigious family. Their reputation suddenly turned upside down because of their son's relationship with an ordinary girl. The girl, Seo Bom, determined to endure the humiliation and isolation from the family for the sake of her child's future while the son, Han In Sang, struggles between his love for Seo Bom and his family's high expectation.

    Cast
    Han Jung Ho's family
    Yoo Joon Sang as Han Jung Ho (47)
    Yoo Ho Jung as Choi Yun Hee (45)
    Lee Joon as Han In Sang (18)
    Park So Young as Han Yi Ji (16)




    Code
    Video
    ID                                       : 0
    Format                                   : AVC
    Format/Info                              : Advanced Video Codec
    Format profile                           : High@L5.1
    Format settings, CABAC                   : Yes
    Format settings, ReFrames                : 4 frames
    Codec ID                                 : H264
    Bit rate                                 : 1 500 Kbps
    Width                                    : 800 pixels
    Height                                   : 450 pixels
    Display aspect ratio                     : 16:9
    Frame rate mode                          : Variable
    Frame rate                               : 29.970 fps
    Color space                              : YUV
    Chroma subsampling                       : 4:2:0
    Bit depth                                : 8 bits
    Scan type                                : Progressive
    Bits/(Pixel*Frame)                       : 0.139
    Stream size                              : 686 MiB (88%)
    Writing library                          : x264 core 112

    Audio
    ID                                       : 1
    Format                                   : MPEG Audio
    Format version                           : Version 1
    Format profile                           : Layer 3
    Mode                                     : Joint stereo
    Mode extension                           : MS Stereo
    Codec ID                                 : 55
    Codec ID/Hint                            : MP3
    Bit rate mode                            : Constant
    Bit rate                                 : 192 Kbps
    Channel(s)                               : 2 channels
    Sampling rate                            : 48.0 KHz
    Compression mode                         : Lossy
    Stream size                              : 88.3 MiB (11%)
    Alignment                                : Aligned on interleaves
    Interleave, duration                     : 24 ms (0.72 video frame)
    Writing library                          : LAME3.98.2
    Language                                 : Korean



    0 0

    Original Post: Heard it Through the Grapevine E22 720p LIMO


    Details
    Title: 풍문으로 들었소 / Poongmooneuro Deuleoss-so
    Also known as: Heard It as a Rumor / I Heard a Rumor
    Previously known as: War of Brilliant Minds
    Genre: Family, drama, romance, black comedy
    Episodes: 32
    Broadcast network: SBS
    Broadcast period: 2015-Feb-23 to 2015-???-??
    Air time: Monday & Tuesday 22:00
    Original Soundtrack: Heard It Through the Grapevine OST
    Synopsis
    This is a black-comedy drama depicting a prestigious family whose lives are suddenly shaken because of a rumor about their teenage son impregnating his schoolmate.

    Choi Yun Hee and Han Jung Ho are a wealthy couple from a prestigious family. Their reputation suddenly turned upside down because of their son's relationship with an ordinary girl. The girl, Seo Bom, determined to endure the humiliation and isolation from the family for the sake of her child's future while the son, Han In Sang, struggles between his love for Seo Bom and his family's high expectation.

    Cast
    Han Jung Ho's family
    Yoo Joon Sang as Han Jung Ho (47)
    Yoo Ho Jung as Choi Yun Hee (45)
    Lee Joon as Han In Sang (18)
    Park So Young as Han Yi Ji (16)




    Code
    Video
    ID                             : 0
    Format                         : AVC
    Format/Info                    : Advanced Video Codec
    Format profile                 : High@L5.1
    Format settings, CABAC         : Yes
    Format settings, ReFrames      : 4 frames
    Codec ID                       : H264
    Duration                       : 1h 14mn
    Bit rate                       : 3 000 Kbps
    Width                          : 1 280 pixels
    Height                         : 720 pixels
    Display aspect ratio           : 16:9
    Frame rate mode                : Variable
    Frame rate                     : 29.970 fps
    Color space                    : YUV
    Chroma subsampling             : 4:2:0
    Bit depth                      : 8 bits
    Scan type                      : Progressive
    Bits/(Pixel*Frame)             : 0.109
    Stream size                    : 1.57 GiB (94%)
    Writing library                : x264 core 112
    Encoding settings              : cabac=1 / ref=3 / deblock=1:-1:-1 / analyse=0x3:0x113 / me=hex / subme=6 / psy=1 / psy_rd=1.00:1.00 / mixed_ref=1 / me_range=16 / chroma_me=1 / trellis=1 / 8x8dct=1 / cqm=0 / deadzone=21,11 / fast_pskip=0 / chroma_qp_offset=-4 / threads=12 / sliced_threads=0 / nr=0 / decimate=1 / interlaced=0 / constrained_intra=0 / bframes=3 / b_pyramid=2 / b_adapt=1 / b_bias=1 / direct=3 / weightb=1 / open_gop=0 / weightp=2 / keyint=299 / keyint_min=25 / scenecut=1 / intra_refresh=0 / rc_lookahead=40 / rc=abr / mbtree=1 / bitrate=3000 / ratetol=1.0 / qcomp=0.60 / qpmin=10 / qpmax=51 / qpstep=4 / ip_ratio=1.40 / aq=1:1.00

    Audio
    ID                             : 1
    Format                         : MPEG Audio
    Format version                 : Version 1
    Format profile                 : Layer 3
    Mode                           : Joint stereo
    Mode extension                 : MS Stereo
    Codec ID                       : 55
    Codec ID/Hint                  : MP3
    Duration                       : 1h 14mn
    Bit rate mode                  : Constant
    Bit rate                       : 192 Kbps
    Channel(s)                     : 2 channels
    Sampling rate                  : 48.0 KHz
    Compression mode               : Lossy
    Stream size                    : 102 MiB (6%)
    Alignment                      : Split accross interleaves
    Interleave, duration           : 33 ms (1.00 video frame)
    Interleave, preload duration   : 500 ms
    Writing library                : LAME3.98



    0 0

    Original Post: Flower.of.Algernon.EP04.720p.HDTV.x264.AAC-DoA



    http://wiki.d-addicts.com/Algernon_ni_Hanataba_wo_%282015%29
    http://asianwiki.com/Flowers_for_Algernon_%28Japanese_Drama%29

    Title: アルジャーノンに花束を
    Title (romaji): Algernon ni Hanataba wo
    Also known as: Flowers for Algernon
    Format: Renzoku
    Genre: Drama
    Episodes: TBD
    Broadcast network: TBS
    Broadcast period: 2015-Apr-10 start
    Air time: Friday 22:00
    Related TV shows: Algernon ni Hanataba wo (Fuji TV, 2002), Hello, God (KBS2, 2006)
    Language: Japanese
    Country: Japan
    Subtitles: English here: areea-chan
    RAW credit to DoA

    Cast
       Yamashita Tomohisa as Shiratori Sakuto
       Kuriyama Chiaki as Mochizuki Haruka
       Kubota Masataka as Yanagawa Ryuichi
       Kudo Asuka (工藤阿須加)
       Kikuchi Fuma
       Tanimura Mitsuki
       Oomasa Aya
       Kaai Gamon
       Ishida Issei
       Kusakari Tamiyo
       Nakahara Takeo (special appearance)
       Hagiwara Masato
       Ishimaru Kanji as Hachisuka Daigo

    Synopsis
    Shiratori Sakuto is 28, but has the intelligence of a 6-year-old boy. He works for Dream Flower Service, a flower distribution centre which provides employment for problem youth. One day, he and a colleague, Yanagawa Ryuichi, delivers a rose bouquet to the apartment building where Mochizuki Haruka lives. Because Haruka does not know that the deliveryman is mentally challenged, she is shocked by his response and tries to call the police. Haruka works for a brain physiology research centre where Professor Hachisuka Daigo has been studying the improvement of mental performance. He has succeeded in lab experiments on a white mouse called Algernon. Sakuto is transformed into a genius through surgery. But Algernon's new intelligence begins to fade, and he dies. Sakuto realises that his genius, too, is destined to leave him.

    General
    Complete name                  : Flower.of.Algernon.EP04.720p.HDTV.x264.AAC-DoA.mkv
    Format                         : Matroska
    Format version                 : Version 4 / Version 2
    File size                      : 1.05 GiB
    Duration                       : 46mn 34s
    Overall bit rate               : 3 241 Kbps

    Video
    ID                             : 1
    Format                         : AVC
    Format/Info                    : Advanced Video Codec
    Format profile                 : High@L4.1
    Format settings, CABAC         : Yes
    Format settings, ReFrames      : 9 frames
    Codec ID                       : V_MPEG4/ISO/AVC
    Width                          : 1 280 pixels
    Height                         : 720 pixels
    Display aspect ratio           : 16:9
    Frame rate mode                : Variable
    Original frame rate            : 29.970 fps
    Color space                    : YUV
    Chroma subsampling             : 4:2:0
    Bit depth                      : 8 bits
    Scan type                      : Progressive
    Title                          : Encode by DoA

    Audio
    ID                             : 2
    Format                         : AAC
    Format/Info                    : Advanced Audio Codec
    Format profile                 : LC
    Codec ID                       : A_AAC
    Duration                       : 46mn 34s
    Channel count                  : 2 channels
    Channel positions              : Front: L R
    Sampling rate                  : 48.0 KHz
    Compression mode               : Lossy



    0 0

    Original Post: Baechigi – Who Are You – School 2015 OST Part.2



    배치기 – 후아유-학교 2015 (KBS2 월화드라마) OST – Part.2
    Release Date: 2015.05.04
    Genre: OST
    Language: Korean
    Bit Rate: MP3-320kbps

    Track List:

    01. 바람에 날려 (Feat. 펀치)
    02. 바람에 날려 (Feat. 펀치) (Inst.)



    0 0

    Original Post: [Album] YOHIO ちゃんねる - REACH the SKY [2012.04.25]



    Japanese solo debut mini album for visual kei artist Yohio.

    Yohio - REACH the SKY
    MP3
    320kbps
    2012.04.25

    Tracklist:

    01 REACH
    02 SKY☆LiMiT
    03 Frantic Elegance
    04 Dawn of Dreams
    05 Without Wings~空と約束した~ (Without Wings ~sora to yakusoku shita~)
    06 Angel's Waltz



    0 0

    Original Post: Various Artists – Angry Mom OST Part.2-3-4



    Various Artists – 앵그리맘 (MBC 수목드라마) OST – 2교시 : 빅밴드 재즈
    Release Date: 2015.04.01
    Genre: OST
    Language: Korean
    Bit Rate: MP3-320kbps
    credit to hulkpop

    Track List:

    01. 앵그리맘 (feat. 김민희) – 이주한 [윈터플레이]
    02. Sunny Side Up – 애쉬번 (Ashbun)



    이주한 – 앵그리맘 (MBC 수목드라마) OST – 3교시 : Happy Magic
    Release Date: 2015.04.22
    Genre: OST
    Language: Korean
    Bit Rate: MP3-320kbps
    credit to hulkpop

    Track List:

    01. Happy Magic



    이현우 – 앵그리맘 (MBC 수목드라마) OST – 4교시 : Happy Magic
    Release Date: 2015.04.29
    Genre: OST
    Language: Korean
    Bit Rate: MP3-320kbps
    credit to hulkpop

    Track List:

    01. Happy Magic



    0 0

    Original Post: I'm.Home.EP03.720p.HDTV.x264.AAC



    http://wiki.d-addicts.com/I%27m_Home_%28TV_Asahi%29
    http://asianwiki.com/I%27m_Home

    Title: アイムホーム
    Title (English): I'm home
    Format: Renzoku
    Genre: Family mystery
    Broadcast network: TV Asahi
    Episodes: TBD
    Broadcast period: 2015-Apr-16 start
    Air time: Thursday 21:00
    Language: Japanese
    Country: Japan
    Subtitles: will be added when available

    Cast
       Kimura Takuya as Ieji Hisashi
       Ueto Aya as Ieji Megumi
       Mizuno Miki as Nozawa Kaoru
       Tanaka Kei as Honjo Tsuyoshi
       Suzuki Kosuke as Watanuki Shinji
       Yoshimoto Miyu as Takanashi Yua
       Ino Manabu (猪野学) as Hifumi Tsutomu
       Anami Atsuko as Isami Yoko
       Nomaguchi Toru as Iwashita Noboru
       Yano Masato as Tokura Shingo
       Takahashi Rai (高橋來) as Ieji Yoshio
       Yamaguchi Mayu (山口まゆ) as Nozawa Subaru
       Arai Hirofumi as Kuroki Jin
       Mitsuishi Ken as Todoroki Haruki
       Watanabe Ikkei as Teshigawara Yosuke
       Oikawa Mitsuhiro as Tsukuba Yoshiaki
       Nishida Toshiyuki as Kozukue Yukio

    Synopsis
    Ieji Hisashi, a salaryman who works for a securities company, has a fuzzy memory of the recent five years because of an accident at his job posting. His wife of five years, Megumi and their 4-year-old son seem to wear masks. He can neither tell their facial expressions nor their emotions. He also struggles about his love for them. On the other hand, Ieji feels an attachment to his ex-wife, whom he divorced five years ago, and their daughter. What sort of days did he have in those five years which are a blank to him? Ieji sets out on a journey to find his past self with a mysterious bunch of 10 keys that he has. He becomes aware that he was a cold, career-minded man before the accident, and the persona that is gradually revealed is beyond the imagination of his present kindhearted self.

    General
    Complete name                  : I'm.Home.EP03.720p.HDTV.x264.AAC.mp4
    Format                         : MPEG-4
    Format profile                 : Base Media / Version 2
    Codec ID                       : mp42
    File size                      : 723 MiB
    Duration                       : 47mn 14s
    Overall bit rate mode          : Variable
    Overall bit rate               : 2 139 Kbps

    Video
    ID                             : 1
    Format                         : AVC
    Format/Info                    : Advanced Video Codec
    Format profile                 : High@L4.1
    Format settings, CABAC         : Yes
    Format settings, ReFrames      : 4 frames
    Codec ID                       : avc1
    Codec ID/Info                  : Advanced Video Coding
    Duration                       : 47mn 14s
    Bit rate mode                  : Variable
    Bit rate                       : 2 003 Kbps
    Width                          : 1 280 pixels
    Height                         : 720 pixels
    Display aspect ratio           : 16:9
    Frame rate mode                : Constant
    Frame rate                     : 29.970 fps
    Standard                       : Component
    Color space                    : YUV
    Chroma subsampling             : 4:2:0
    Bit depth                      : 8 bits
    Scan type                      : Progressive
    Bits/(Pixel*Frame)             : 0.073
    Stream size                    : 677 MiB (94%)

    Audio
    ID                             : 2
    Format                         : AAC
    Format/Info                    : Advanced Audio Codec
    Format profile                 : LC
    Codec ID                       : 40
    Duration                       : 47mn 14s
    Bit rate mode                  : Variable
    Bit rate                       : 132 Kbps
    Maximum bit rate               : 576 Kbps
    Channel count                  : 2 channels
    Channel positions              : Front: L R
    Sampling rate                  : 48.0 KHz
    Compression mode               : Lossy



    0 0
  • 05/05/15--07:43: Missing Noir M E06 XVID WITH
  • Original Post: Missing Noir M E06 XVID WITH


    Details
    Title: 실종느와르 M / Siljongneuwareu M
    Genre: Crime, thriller, action
    Episodes: TBA
    Broadcast network: OCN
    Broadcast period: 2015-Mar-28 to 2015-???-??
    Air time: Saturday 23:00
    Original Soundtrack: Missing Noir M OST

    Synopsis
    Gil Soo-Hyun (Kim Kang-Woo) is extremely intelligent. At the age of 10, Gil Soo-Hyun attended Harvard University. After graduating there, he decided to work at the FBI and worked there for 10 years. Afterwards, he decided to come back to South Korea. He now works as the leader of the Special Missing Persons Unit. The unit deals with about 1% of special missing cases involving violent crimes. His appearance borders on perfection, but he holds a secret.
    Detective Oh Dae-Young (Park Hee-Soon) joins the Special Missing Persons Unit. He has worked as a detective for 20 years and he has an obsession in observing the law. He is known as a master of missing person cases.

    Cast
    Kim Kang Woo as Gil Soo Hyun
    Park Hee Soon as Oh Dae Young
    Jo Bo Ah as Jin Suh Joon
    Kim Kyu Chul as Park Jung Do
    Park So Hyun as Kang Joo Young




    Code
    Video
    ID                                       : 0
    Format                                   : MPEG-4 Visual
    Format profile                           : Advanced Simple@L5
    Format settings, BVOP                    : 2
    Format settings, QPel                    : No
    Format settings, GMC                     : No warppoints
    Format settings, Matrix                  : Default (H.263)
    Muxing mode                              : Packed bitstream
    Codec ID                                 : XVID
    Codec ID/Hint                            : XviD
    Duration                                 : 1h 3mn
    Bit rate                                 : 1 238 Kbps
    Width                                    : 640 pixels
    Height                                   : 352 pixels
    Display aspect ratio                     : 16:9
    Frame rate                               : 29.970 fps
    Color space                              : YUV
    Chroma subsampling                       : 4:2:0
    Bit depth                                : 8 bits
    Scan type                                : Progressive
    Compression mode                         : Lossy
    Bits/(Pixel*Frame)                       : 0.183
    Stream size                              : 566 MiB (90%)
    Writing library                          : XviD 58

    Audio
    ID                                       : 1
    Format                                   : MPEG Audio
    Format version                           : Version 1
    Format profile                           : Layer 3
    Mode                                     : Joint stereo
    Mode extension                           : MS Stereo
    Codec ID                                 : 55
    Codec ID/Hint                            : MP3
    Duration                                 : 1h 3mn
    Bit rate mode                            : Constant
    Bit rate                                 : 128 Kbps
    Channel(s)                               : 2 channels
    Sampling rate                            : 48.0 KHz
    Compression mode                         : Lossy
    Stream size                              : 58.5 MiB (9%)
    Alignment                                : Aligned on interleaves
    Interleave, duration                     : 33 ms (1.00 video frame)
    Interleave, preload duration             : 504 ms




    0 0
  • 05/05/15--07:43: Missing Noir M E06 720p WITH
  • Original Post: Missing Noir M E06 720p WITH


    Details
    Title: 실종느와르 M / Siljongneuwareu M
    Genre: Crime, thriller, action
    Episodes: TBA
    Broadcast network: OCN
    Broadcast period: 2015-Mar-28 to 2015-???-??
    Air time: Saturday 23:00
    Original Soundtrack: Missing Noir M OST

    Synopsis
    Gil Soo-Hyun (Kim Kang-Woo) is extremely intelligent. At the age of 10, Gil Soo-Hyun attended Harvard University. After graduating there, he decided to work at the FBI and worked there for 10 years. Afterwards, he decided to come back to South Korea. He now works as the leader of the Special Missing Persons Unit. The unit deals with about 1% of special missing cases involving violent crimes. His appearance borders on perfection, but he holds a secret.
    Detective Oh Dae-Young (Park Hee-Soon) joins the Special Missing Persons Unit. He has worked as a detective for 20 years and he has an obsession in observing the law. He is known as a master of missing person cases.

    Cast
    Kim Kang Woo as Gil Soo Hyun
    Park Hee Soon as Oh Dae Young
    Jo Bo Ah as Jin Suh Joon
    Kim Kyu Chul as Park Jung Do
    Park So Hyun as Kang Joo Young




    Code
    Video
    ID                                       : 1
    Format                                   : AVC
    Format/Info                              : Advanced Video Codec
    Format profile                           : Baseline@L1.3
    Format settings, CABAC                   : No
    Format settings, ReFrames                : 1 frame
    Codec ID                                 : avc1
    Codec ID/Info                            : Advanced Video Coding
    Duration                                 : 1h 3mn
    Bit rate                                 : 2 200 Kbps
    Maximum bit rate                         : 6 012 Kbps
    Width                                    : 1 280 pixels
    Height                                   : 720 pixels
    Display aspect ratio                     : 16:9
    Frame rate mode                          : Constant
    Frame rate                               : 29.970 fps
    Color space                              : YUV
    Chroma subsampling                       : 4:2:0
    Bit depth                                : 8 bits
    Scan type                                : Progressive
    Bits/(Pixel*Frame)                       : 0.080
    Stream size                              : 1 018 MiB (90%)
    Writing library                          : x264 core 128 r2216 198a7ea
    Encoding settings                        : cabac=0 / ref=1 / deblock=1:0:0 / analyse=0x1:0x111 / me=hex / subme=7 / psy=1 / psy_rd=1.00:0.00 / mixed_ref=0 / me_range=16 / chroma_me=1 / trellis=1 / 8x8dct=0 / cqm=0 / deadzone=21,11 / fast_pskip=1 / chroma_qp_offset=-2 / threads=12 / lookahead_threads=2 / sliced_threads=0 / nr=0 / decimate=1 / interlaced=0 / bluray_compat=0 / constrained_intra=0 / bframes=0 / weightp=0 / keyint=250 / keyint_min=25 / scenecut=40 / intra_refresh=0 / rc_lookahead=40 / rc=abr / mbtree=1 / bitrate=2200 / ratetol=1.0 / qcomp=0.60 / qpmin=0 / qpmax=69 / qpstep=4 / vbv_maxrate=50000 / vbv_bufsize=50000 / nal_hrd=none / ip_ratio=1.40 / aq=1:1.00
    Encoded date                             : UTC 2015-03-28 15:15:31
    Tagged date                              : UTC 2015-03-28 15:20:35

    Audio
    ID                                       : 2
    Format                                   : AAC
    Format/Info                              : Advanced Audio Codec
    Format profile                           : LC
    Codec ID                                 : 40
    Duration                                 : 1h 3mn
    Bit rate mode                            : Variable
    Bit rate                                 : 256 Kbps
    Maximum bit rate                         : 262 Kbps
    Channel(s)                               : 2 channels
    Channel positions                        : Front: L R
    Sampling rate                            : 48.0 KHz
    Compression mode                         : Lossy
    Stream size                              : 117 MiB (10%)
    Encoded date                             : UTC 2015-03-28 15:20:29
    Tagged date                              : UTC 2015-03-28 15:20:35




    0 0

    Original Post: My Unfortunate Boyfriend E08 720p



    Drama: My Unfortunate Boyfriend (literal title)
    Revised romanization: Naui Yoogamseureowoon Namjachingoo
    Hangul: 나의 유감스러운 남자친구
    Director: Nam Ki-Hoon
    Writer: Lee Jae-Yoon
    Network: MBC Drama
    Episodes: 16
    Release Date: April 10 - May 30, 2015
    Runtime: Fri & Sat 20:00
    Language: Korean
    Country: South Korea

    Plot

    Yoo Ji Na (Yang Jin Sung) is a budding career woman who has absolutely no issues with lying to get what she wants. But when she falls for the innocent and naive Yoon Tae Woon (No Min Woo), who is truthful to a fault, their budding romance becomes a liability for Ji Na's cutthroat corporate job. Can these unlikely lovers stay true to themselves and manage to stay together?

    Cast

    No Min-Woo - Yoon Tae-Woon
    Yang Jin-Sung - Yoo Ji-Na
    Yoon Hak - Hee-Chul
    Kwak Ji-Min - Hye-Mi
    Kim Eun-Jung - Julia
    Kim Byeong-Se
    Yun Ju-Sang
    Kim Jin-Geun
    Kil Yong-Woo
    Park Jin-Joo
    Lee Yong-Joo




    Code

    Video
    ID                             : 0
    Format                         : AVC
    Format/Info                    : Advanced Video Codec
    Format profile                 : High@L4.1
    Format settings, CABAC         : Yes
    Format settings, ReFrames      : 3 frames
    Codec ID                       : H264
    Duration                       : 48mn 59s
    Bit rate                       : 2 518 Kbps
    Width                          : 1 280 pixels
    Height                         : 720 pixels
    Display aspect ratio           : 16:9
    Frame rate                     : 29.970 fps
    Color space                    : YUV
    Chroma subsampling             : 4:2:0
    Bit depth                      : 8 bits
    Scan type                      : Progressive
    Bits/(Pixel*Frame)             : 0.091
    Stream size                    : 882 MiB (93%)

    Audio
    ID                             : 1
    Format                         : MPEG Audio
    Format version                 : Version 1
    Format profile                 : Layer 3
    Mode                           : Joint stereo
    Codec ID                       : 55
    Codec ID/Hint                  : MP3
    Duration                       : 48mn 59s
    Bit rate mode                  : Constant
    Bit rate                       : 192 Kbps
    Channel(s)                     : 2 channels
    Sampling rate                  : 48.0 KHz
    Compression mode               : Lossy
    Delay relative to video        : 11ms
    Stream size                    : 67.3 MiB (7%)
    Alignment                      : Split accross interleaves
    Interleave, duration           : 33 ms (1.00 video frame)
    Interleave, preload duration   : 500 ms




    0 0

    Original Post: Scapegoat EP03 720p HDTV x264 AAC-DoA



    http://wiki.d-addicts.com/Scapegoat
    http://asianwiki.com/Scapegoat_%28Japanese_Drama%29
    http://thetvdb.com/?tab=series&id=293072&lid=7

    Title (English): Scapegoat
    Format: Renzoku
    Genre: Political, suspense
    Episodes: 4
    Broadcast network: WOWOW
    Broadcast period: 2015-Apr-12 to 2015-May-03
    Air time: Sunday 22:00
    Theme song: Prayer by Hirahara Ayaka
    Subtitles: None
    RAW credit to DoA


    Cast

       Kuroki Hitomi as Misaki Koko
       Ishimaru Kanji as Yagisawa Shun
       Sasaki Nozomi as Misaki Mayu
       Yamaguchi Sayaka as Akimoto Tsukasa
       Koichi Mantaro as Yamashita Takumi
       Aijima Kazuyuki as Amami Toshiro
       Mitsuishi Ken as Higuchi Daigo
       Jinbo Satoshi as Tasaki Keigo
       Kobayashi Takashi as Misaki Nobuaki
       Nishioka Tokuma as Ozeki Shiro
       Furuya Ikko as Yamashiro Taizo


    Synopsis

    Misaki Koko, a university professor, receives a phone call out of the blue from her former boyfriend, Yagisawa Shun, who is now an executive officer of a television network. Yagisawa has been asked by Yamashiro Taizo, the leader of Meisei Party, to introduce Koko. Yamashiro intends to bring Koko in as a civilian cabinet minister with the aim of regaining political control in the next general election. Hiroko has kept a distance from politicians because of a past feud with her father. She hesitates, not able to give Yamashiro a reply. However, several days later, an article announcing her appointment appears in the newspapers. This is Yamashiro's strategy to draw her in. Unable to back out, Koko decides to enter politics with the support of her husband, Nobuaki. However, right after she takes office, she is faced with an unprecedented crisis. Will she be able to survive? -- Jdrama Weblog (edited)


    Mediainfo
    Spoiler:show

    Code
    Format                                   : Matroska
    Format version                           : Version 4 / Version 2
    File size                                : 722 MiB
    Duration                                 : 47mn 59s
    Overall bit rate                         : 2 102 Kbps
    Encoded date                             : UTC 2015-05-03 06:57:19
    Writing application                      : mkvmerge v7.8.0 ('River Man') 32bit built on Mar 27 2015 16:18:02
    Writing library                          : libebml v1.3.1 + libmatroska v1.4.2
    DURATION                                 : 00:47:59.594000000
    NUMBER_OF_FRAMES                         : 134981
    NUMBER_OF_BYTES                          : 67895443
    _STATISTICS_WRITING_APP                  : mkvmerge v7.8.0 ('River Man') 32bit built on Mar 27 2015 16:18:02
    _STATISTICS_WRITING_DATE_UTC             : 2015-05-03 06:57:19
    _STATISTICS_TAGS                         : BPS DURATION NUMBER_OF_FRAMES NUMBER_OF_BYTES

    Video
    ID                                       : 1
    Format                                   : AVC
    Format/Info                              : Advanced Video Codec
    Format profile                           : High@L4.1
    Format settings, CABAC                   : Yes
    Format settings, ReFrames                : 8 frames
    Codec ID                                 : V_MPEG4/ISO/AVC
    Duration                                 : 47mn 59s
    Width                                    : 1 280 pixels
    Height                                   : 720 pixels
    Display aspect ratio                     : 16:9
    Frame rate mode                          : Constant
    Frame rate                               : 23.976 fps
    Original frame rate                      : 29.970 fps
    Color space                              : YUV
    Chroma subsampling                       : 4:2:0
    Bit depth                                : 8 bits
    Scan type                                : Progressive
    Writing library                          : x264 core 146 r2538 121396c
    Encoding settings                        : cabac=1 / ref=8 / deblock=1:-3:-3 / analyse=0x3:0x133 / me=umh / subme=9 / psy=1 / psy_rd=1.00:0.00 / mixed_ref=1 / me_range=16 / chroma_me=1 / trellis=2 / 8x8dct=1 / cqm=0 / deadzone=21,11 / fast_pskip=1 / chroma_qp_offset=-2 / threads=6 / lookahead_threads=1 / sliced_threads=0 / nr=0 / decimate=1 / interlaced=0 / bluray_compat=0 / constrained_intra=0 / bframes=8 / b_pyramid=2 / b_adapt=2 / b_bias=0 / direct=3 / weightb=1 / open_gop=0 / weightp=2 / keyint=300 / keyint_min=29 / scenecut=40 / intra_refresh=0 / rc_lookahead=60 / rc=crf / mbtree=1 / crf=18.0 / qcomp=0.60 / qpmin=0 / qpmax=69 / qpstep=4 / ip_ratio=1.40 / aq=1:1.00
    Language                                 : English
    Default                                  : Yes
    Forced                                   : No
    DURATION                                 : 00:47:59.943000000
    NUMBER_OF_FRAMES                         : 69649
    NUMBER_OF_BYTES                          : 688067413
    _STATISTICS_WRITING_APP                  : mkvmerge v7.8.0 ('River Man') 32bit built on Mar 27 2015 16:18:02
    _STATISTICS_WRITING_DATE_UTC             : 2015-05-03 06:57:19
    _STATISTICS_TAGS                         : BPS DURATION NUMBER_OF_FRAMES NUMBER_OF_BYTES

    Audio
    ID                                       : 2
    Format                                   : AAC
    Format/Info                              : Advanced Audio Codec
    Format profile                           : LC
    Codec ID                                 : A_AAC
    Duration                                 : 47mn 59s
    Channel(s)                               : 2 channels
    Channel positions                        : Front: L R
    Sampling rate                            : 48.0 KHz
    Compression mode                         : Lossy
    Delay relative to video                  : 3ms
    Default                                  : Yes
    Forced                                   : No





older | 1 | .... | 1333 | 1334 | (Page 1335) | 1336 | 1337 | .... | 1405 | newer