Are you the publisher? Claim or contact us about this channel


Embed this content in your HTML

Search

Report adult content:

click to rate:

Account: (login)

More Channels


Showcase


Channel Catalog


Channel Description:

Asia Torrents RSS Feed

older | 1 | .... | 1345 | 1346 | (Page 1347) | 1348 | 1349 | .... | 1405 | newer

    0 0
  • 05/17/15--01:14: Running Man E247 XVID LIMO
  • Original Post: Running Man E247 XVID LIMO



    Plot/Synopsis:
    Running Man (Korean: 런닝맨) is a South Korean variety show; a part of SBS's Good Sunday lineup, along with K-pop Star (K팝 스타). It was first aired on July 11, 2010. This show is classified as an "urban action variety"; a never-before-seen new genre of variety shows. The MCs and guests complete missions in a landmark to win the race. It has garnered attention as being the come-back program for Yu Jae-suk, the main MC of the program, after leaving Good Sunday's Family Outing in February 2010.

    Subtitles by Dramafever will be added later.
    There will be a 24hr delay for each person that annoys me for subtitles.

    http://thetvdb.com/?tab=series&id=248870




    Code
    Video
    ID                                       : 0
    Format                                   : MPEG-4 Visual
    Format profile                           : Advanced Simple@L5
    Format settings, BVOP                    : No
    Format settings, QPel                    : No
    Format settings, GMC                     : No warppoints
    Format settings, Matrix                  : Default (MPEG)
    Codec ID                                 : XVID
    Codec ID/Hint                            : XviD
    Duration                                 : 1h 29mn
    Bit rate                                 : 1 388 Kbps
    Width                                    : 624 pixels
    Height                                   : 352 pixels
    Display aspect ratio                     : 16:9
    Frame rate                               : 29.970 fps
    Color space                              : YUV
    Chroma subsampling                       : 4:2:0
    Bit depth                                : 8 bits
    Scan type                                : Progressive
    Compression mode                         : Lossy
    Bits/(Pixel*Frame)                       : 0.211
    Stream size                              : 886 MiB (87%)
    Writing library                          : XviD 1.2.1 (UTC 2008-12-04)

    Audio
    ID                                       : 1
    Format                                   : MPEG Audio
    Format version                           : Version 1
    Format profile                           : Layer 3
    Mode                                     : Joint stereo
    Mode extension                           : MS Stereo
    Codec ID                                 : 55
    Codec ID/Hint                            : MP3
    Duration                                 : 1h 29mn
    Bit rate mode                            : Constant
    Bit rate                                 : 128 Kbps
    Channel(s)                               : 2 channels
    Sampling rate                            : 48.0 KHz
    Compression mode                         : Lossy
    Stream size                              : 81.7 MiB (8%)
    Alignment                                : Aligned on interleaves
    Writing library                          : LAME3.98.2
    Language                                 : un



    0 0
  • 05/17/15--01:14: Running Man E247 720p LIMO
  • Original Post: Running Man E247 720p LIMO



    Plot/Synopsis:
    Running Man (Korean: 런닝맨) is a South Korean variety show; a part of SBS's Good Sunday lineup, along with K-pop Star (K팝 스타). It was first aired on July 11, 2010. This show is classified as an "urban action variety"; a never-before-seen new genre of variety shows. The MCs and guests complete missions in a landmark to win the race. It has garnered attention as being the come-back program for Yu Jae-suk, the main MC of the program, after leaving Good Sunday's Family Outing in February 2010.

    http://thetvdb.com/?tab=series&id=248870

    Subtitles by Dramafever will be added later.
    There will be a 24hr delay for each person that annoys me for subtitles.





    Code
    Video
    ID                             : 1
    Format                         : AVC
    Format/Info                    : Advanced Video Codec
    Format profile                 : High@L5.1
    Format settings, CABAC         : Yes
    Format settings, ReFrames      : 4 frames
    Codec ID                       : V_MPEG4/ISO/AVC
    Duration                       : 1h 24mn
    Bit rate                       : 887 Kbps
    Nominal bit rate               : 2 496 Kbps
    Width                          : 1 280 pixels
    Height                         : 720 pixels
    Display aspect ratio           : 16:9
    Frame rate mode                : Constant
    Frame rate                     : 29.970 fps
    Color space                    : YUV
    Chroma subsampling             : 4:2:0
    Bit depth                      : 8 bits
    Scan type                      : Progressive
    Bits/(Pixel*Frame)             : 0.032
    Stream size                    : 535 MiB (68%)
    Writing library                : x264 core 130 r2273 b3065e6
    Encoding settings              : cabac=1 / ref=3 / deblock=1:0:0 / analyse=0x3:0x113 / me=hex / subme=7 / psy=1 / psy_rd=1.00:0.00 / mixed_ref=1 / me_range=16 / chroma_me=1 / trellis=1 / 8x8dct=1 / cqm=0 / deadzone=21,11 / fast_pskip=1 / chroma_qp_offset=-2 / threads=1 / lookahead_threads=1 / sliced_threads=0 / nr=0 / decimate=1 / interlaced=0 / bluray_compat=0 / constrained_intra=0 / bframes=3 / b_pyramid=2 / b_adapt=1 / b_bias=0 / direct=1 / weightb=1 / open_gop=0 / weightp=2 / keyint=300 / keyint_min=29 / scenecut=40 / intra_refresh=0 / rc_lookahead=40 / rc=2pass / mbtree=1 / bitrate=2496 / ratetol=1.0 / qcomp=0.60 / qpmin=0 / qpmax=69 / qpstep=4 / cplxblur=20.0 / qblur=0.5 / vbv_maxrate=300000 / vbv_bufsize=300000 / nal_hrd=none / ip_ratio=1.40 / aq=1:1.00
    Default                        : Yes
    Forced                         : No

    Audio
    ID                             : 2
    Format                         : AC-3
    Format/Info                    : Audio Coding 3
    Mode extension                 : CM (complete main)
    Format settings, Endianness    : Big
    Codec ID                       : A_AC3
    Duration                       : 1h 24mn
    Bit rate mode                  : Constant
    Bit rate                       : 384 Kbps
    Channel(s)                     : 2 channels
    Channel positions              : Front: L R
    Sampling rate                  : 44.1 KHz
    Bit depth                      : 16 bits
    Compression mode               : Lossy
    Stream size                    : 232 MiB (30%)
    Language                       : Korean
    Default                        : Yes
    Forced                         : No



    0 0

    Original Post: Heart to Heart (2015) Complete (eng subbed)



    http://wiki.d-addicts.com/Heart_to_Heart
    http://asianwiki.com/Heart_to_Heart
    http://www.hancinema.net/korean_drama_Heart_to_Heart.php

    Title: 하트 투 하트 / Hateu Too Hateu
    Genre: Romance, comedy, medical
    Episodes: 16
    Broadcast network: tvN
    Broadcast period: 2015-Jan-09 to 2015-Mar-07
    Air time: Friday & Saturday 20:40
    Original Soundtrack: Heart to Heart OST
    Language: Korean
    Country: South Korea
    Subtitles: English (credit to Viki)
    RAWs credit to NOP

    Main Cast
       Choi Kang Hee as Cha Hong Do
       Chun Jung Myung as Ko Yi Suk
       Lee Jae Yoon as Jang Doo Soo
       Ahn So Hee as Ko Se Ro

    Hong Do's family
       Choi Kang Hee as Oh Young Rae

    Yi Suk's family
       Joo Hyun as Ko Sang Gyu
       Uhm Hyo Sup as Ko Jae Woong
       Jin Hee Kyung as Hwang Moon Sun

    People around Doo Soo
       Kim Ki Bang as Detective Yang

    Others
       Hwang Seung Eon as Woo Yun Woo
       Seo Yi Sook as Uhm Ki Choon
       Choi Moo Sung as Ahn Byung Yul
       Kim Ae Kyung as Hwang Geum Shim



    Synopsis
    Cha Hong Do suffers from social phobia and has a problem with severe blushing. She does have a strong sense of curiosity and learns from books and the internet. One day, Cha Hong Do's grandmother dies. Her grandmother was her only contact to the outside world. Cha Hong Do then begins doing housework as a maid, but disguises herself as an elderly woman. Through an incident, she meets a psychiatrist, Ko Yi Suk.

    General
    Complete name                  : [NOP] Heart to Heart - 01 [Raw] [480p].mp4
    Format                         : MPEG-4
    Format profile                 : Base Media
    Codec ID                       : isom
    File size                      : 233 MiB
    Duration                       : 59mn 0s
    Overall bit rate               : 552 Kbps

    Video
    ID                             : 1
    Format                         : AVC
    Format/Info                    : Advanced Video Codec
    Format profile                 : Main@L3.1
    Format settings, CABAC         : Yes
    Format settings, ReFrames      : 4 frames
    Codec ID                       : avc1
    Codec ID/Info                  : Advanced Video Coding
    Duration                       : 58mn 59s
    Bit rate                       : 433 Kbps
    Width                          : 852 pixels
    Height                         : 480 pixels
    Display aspect ratio           : 16:9
    Original display aspect ratio  : 16:9
    Frame rate mode                : Constant
    Frame rate                     : 29.970 fps
    Color space                    : YUV
    Chroma subsampling             : 4:2:0
    Bit depth                      : 8 bits
    Scan type                      : Progressive
    Bits/(Pixel*Frame)             : 0.035
    Stream size                    : 183 MiB (78%)

    Audio
    ID                             : 2
    Format                         : AAC
    Format/Info                    : Advanced Audio Codec
    Format profile                 : LC
    Codec ID                       : 40
    Duration                       : 59mn 0s
    Bit rate mode                  : Constant
    Bit rate                       : 80.0 Kbps
    Channel count                  : 2 channels
    Channel positions              : Front: L R
    Sampling rate                  : 48.0 KHz
    Compression mode               : Lossy











    0 0

    Original Post: Renai Jidai EP07 720p HDTV x264 AAC DoA



    http://asianwiki.com/Renai_Jidai
    http://wiki.d-addicts.com/Renai_Jidai
    http://thetvdb.com/?tab=series&id=294567&lid=7

    Title (romaji): Renai Jidai
    Format: Renzoku
    Genre: Romance
    Episodes: TBD
    Broadcast network: NTV / YTV
    Broadcast period: 2015-Apr-02 start
    Air time: Thursday 23:59
    Theme song: Arigatou Forever... by Nishiuchi Mariya
    Subtitles: English - sakotea
    RAW credit to DoA

     
    Cast

       Higa Manami as Eto Haru
       Mitsushima Shinnosuke as Hayase Riichiro
       Satsukawa Aimi as Ogasawara Kasumi
       Fuchikami Yasushi (淵上泰史) as Nagatomi Shohei
       Nakao Akiyoshi as Kaieda Mamoru
       Eguchi Noriko as Aramaki Sayuri
       Matsukawa Akari (松川星) as Eto Shizuka
       Yokoyama Mei (横山芽生) as Ogasawara Aya
       Oishi Goro as Eto Ginichi
       Kashii Yu as Oda Tamiko
       Sato Ryuta as Kitajima Ryuichi


    Synopsis

    Haru Eto (Manami Higa) works at a sports gym and Riichiro Hayase (Shinnosuke Mitsushima) works at a book store. After a fateful meeting, they eventually marry, but, due to a reason, they divorce only a year and a half later. Even after their divorce, the couple continue to see each other. On their wedding anniversary they have dinner together. Due to a petty quarrel, they begin to search for a potential spouse for each other.

    Mediainfo
    Spoiler:show

    Code
    Format                                   : Matroska
    Format version                           : Version 4 / Version 2
    File size                                : 813 MiB
    Duration                                 : 43mn 14s
    Overall bit rate                         : 2 628 Kbps
    Movie name                               : 恋愛時代 #07 720p HDTV x264 AAC-DoA
    Encoded date                             : UTC 2015-05-15 10:01:52
    Writing application                      : mkvmerge v7.8.0 ('River Man') 64bit built on Mar 27 2015 16:31:37
    Writing library                          : libebml v1.3.1 + libmatroska v1.4.2
    DURATION                                 : 00:43:14.133000000
    NUMBER_OF_FRAMES                         : 121600
    NUMBER_OF_BYTES                          : 61164760
    _STATISTICS_WRITING_APP                  : mkvmerge v7.8.0 ('River Man') 64bit built on Mar 27 2015 16:31:37
    _STATISTICS_WRITING_DATE_UTC             : 2015-05-15 10:01:52
    _STATISTICS_TAGS                         : BPS DURATION NUMBER_OF_FRAMES NUMBER_OF_BYTES

    Video
    ID                                       : 1
    Format                                   : AVC
    Format/Info                              : Advanced Video Codec
    Format profile                           : High@L4.1
    Format settings, CABAC                   : Yes
    Format settings, ReFrames                : 9 frames
    Codec ID                                 : V_MPEG4/ISO/AVC
    Duration                                 : 43mn 14s
    Width                                    : 1 280 pixels
    Height                                   : 720 pixels
    Display aspect ratio                     : 16:9
    Frame rate mode                          : Constant
    Frame rate                               : 29.970 fps
    Color space                              : YUV
    Chroma subsampling                       : 4:2:0
    Bit depth                                : 8 bits
    Scan type                                : Progressive
    Title                                    : Encode  by DoA
    Writing library                          : x264 core 130 r2273 b3065e6
    Encoding settings                        : cabac=1 / ref=9 / deblock=1:-2:-2 / analyse=0x3:0x133 / me=umh / subme=10 / psy=1 / psy_rd=1.00:0.15 / mixed_ref=1 / me_range=48 / chroma_me=1 / trellis=2 / 8x8dct=1 / cqm=0 / deadzone=21,11 / fast_pskip=0 / chroma_qp_offset=-3 / threads=12 / lookahead_threads=2 / sliced_threads=0 / nr=0 / decimate=1 / interlaced=0 / bluray_compat=0 / constrained_intra=0 / bframes=8 / b_pyramid=2 / b_adapt=2 / b_bias=0 / direct=3 / weightb=1 / open_gop=0 / weightp=2 / keyint=300 / keyint_min=29 / scenecut=40 / intra_refresh=0 / rc_lookahead=60 / rc=crf / mbtree=1 / crf=18.0 / qcomp=0.60 / qpmin=0 / qpmax=69 / qpstep=4 / ip_ratio=1.40 / aq=1:1.00
    Language                                 : Japanese
    Default                                  : Yes
    Forced                                   : No
    DURATION                                 : 00:43:14.525000000
    NUMBER_OF_FRAMES                         : 77758
    NUMBER_OF_BYTES                          : 790403812
    _STATISTICS_WRITING_APP                  : mkvmerge v7.8.0 ('River Man') 64bit built on Mar 27 2015 16:31:37
    _STATISTICS_WRITING_DATE_UTC             : 2015-05-15 10:01:52
    _STATISTICS_TAGS                         : BPS DURATION NUMBER_OF_FRAMES NUMBER_OF_BYTES

    Audio
    ID                                       : 2
    Format                                   : AAC
    Format/Info                              : Advanced Audio Codec
    Format profile                           : LC
    Codec ID                                 : A_AAC
    Duration                                 : 43mn 14s
    Channel(s)                               : 2 channels
    Channel positions                        : Front: L R
    Sampling rate                            : 48.0 KHz
    Compression mode                         : Lossy
    Delay relative to video                  : 2ms
    Language                                 : Japanese
    Default                                  : Yes
    Forced                                   : No

    Menu
    00:00:00.000                             : ja:恋愛時代 #07 Part 1
    00:04:57.964                             : ja:オープニング
    00:05:09.909                             : ja:恋愛時代 #07 Part 2
    00:20:33.966                             : ja:提供
    00:20:38.904                             : ja:恋愛時代 #07 Part 3
    00:31:42.834                             : ja:恋愛時代 #07 Part 4
    00:36:15.740                             : ja:恋愛時代 #07 Part 5
    00:42:54.605                             : ja:次回予告





    0 0

    Original Post: Three Outlaw Samurai vol.1 (1970 Remastered DVDRIP)

    This series was created from Three Outlaw Samurai, the film that gave director Hideo Gosha a rise to fame, with all new cast except Isamu Nagato. Only two episodes are available so far. As soon as the rest is available it will be up

    Title: Three Outlaw Samurai  
    Director: Hideo Gosha
    Genre: Jidaigeki / Action / Drama
    Release date: 1970
    Runtime: 1hr 35min
    Language: Japanese
    Country: Japan
    Subtitles: English (optional)
    IMDB URL: No IMDB

    Synopsis: The realistic combat choreography and the outlaw-type personalities as main characters are considered to have influenced later period dramas such as “Kogarashi Monjiro." Sakura Kyojuro is a spear master, Nagare Ukon is an Iai master, and Kaede Genzaburo is a master of double swords. The three ronin with exceptional fighting skills wander from region to region, crushes the evil that plagues the world and save the helpless.

    Starring:ANDO Noboru, TAKAMORI Gen, NAGATO Isamu, KIKU Hiroko

    Episode 01 - When a Man Draws His Sword
    Episode 02 - The Beasts Will Die At 3 PM



    Screen Shots









    Technical Information

    Video
    ID                                       : 1
    Format                                   : AVC
    Format/Info                              : Advanced Video Codec
    Format profile                           : Main@L4.0
    Format settings, CABAC                   : Yes
    Format settings, ReFrames                : 4 frames
    Codec ID                                 : V_MPEG4/ISO/AVC
    Duration                                 : 95mn
    Bit rate                                 : 1 110 Kbps
    Width                                    : 680 pixels
    Height                                   : 478 pixels
    Display aspect ratio                     : 1.423
    Frame rate mode                          : Constant
    Frame rate                               : 29.970 fps
    Color space                              : YUV
    Chroma subsampling                       : 4:2:0
    Bit depth                                : 8 bits
    Scan type                                : Progressive
    Bits/(Pixel*Frame)                       : 0.114
    Stream size                              : 386 MiB (84%)
    Writing library                          : x264 core 142 r2479 dd79a61
    Encoding settings                        : cabac=1 / ref=1 / deblock=1:0:0 / analyse=0x1:0x111 / me=hex / subme=2 / psy=1 / psy_rd=1.00:0.00 / mixed_ref=0 / me_range=16 / chroma_me=1 / trellis=0 / 8x8dct=0 / cqm=0 / deadzone=21,11 / fast_pskip=1 / chroma_qp_offset=0 / threads=6 / lookahead_threads=2 / sliced_threads=0 / nr=0 / decimate=1 / interlaced=0 / bluray_compat=0 / constrained_intra=0 / bframes=3 / b_pyramid=2 / b_adapt=1 / b_bias=0 / direct=1 / weightb=1 / open_gop=0 / weightp=1 / keyint=300 / keyint_min=30 / scenecut=40 / intra_refresh=0 / rc_lookahead=10 / rc=crf / mbtree=1 / crf=20.0 / qcomp=0.60 / qpmin=0 / qpmax=69 / qpstep=4 / vbv_maxrate=20000 / vbv_bufsize=25000 / crf_max=0.0 / nal_hrd=none / filler=0 / ip_ratio=1.40 / aq=1:1.00
    Default                                  : Yes
    Forced                                   : No
    Color primaries                          : BT.601 NTSC
    Transfer characteristics                 : BT.709
    Matrix coefficients                      : BT.601
    Color range                              : Limited

    Audio
    ID                                       : 2
    Format                                   : AC-3
    Format/Info                              : Audio Coding 3
    Mode extension                           : CM (complete main)
    Format settings, Endianness              : Big
    Codec ID                                 : A_AC3
    Duration                                 : 95mn
    Bit rate mode                            : Constant
    Bit rate                                 : 192 Kbps
    Channel(s)                               : 2 channels
    Channel positions                        : Front: L R
    Sampling rate                            : 48.0 KHz
    Bit depth                                : 16 bits
    Compression mode                         : Lossy
    Stream size                              : 66.9 MiB (14%)
    Title                                    : Stereo
    Language                                 : Japanese
    Default                                  : Yes
    Forced                                   : No

    Text
    ID                                       : 3
    Format                                   : VobSub
    Codec ID                                 : S_VOBSUB
    Codec ID/Info                            : The same subtitle format used on DVDs
    Language                                 : English
    Default                                  : Yes
    Forced                                   : No

    Here is the link to the movie:
    https://www.asiatorrents.me/index.php?page=torrent-details&id=5748b19a0ff791f03b2aa54c9a58ad034ab97966


    0 0

    Original Post: Yamegoku EP05 720p HDTV x264 AAC DoA



    http://wiki.d-addicts.com/Yamegoku
    http://asianwiki.com/Yamegoku
    http://thetvdb.com/?tab=series&id=293272&lid=7

    Title (romaji): Yamegoku
    Tagline: ヤクザやめて頂きます / Yakuza Yamete Itadakimasu
    Format: Renzoku
    Genre: Detective
    Episodes: TBD
    Broadcast network: TBS
    Broadcast period: 2015-Apr-16 start
    Air time: Thursday 21:00
    Theme song: Sekai wa Owaranai by Thinking Dogs
    Subtitles: None
    RAW credit to DoA


    Cast

       Oshima Yuko as Nagamitsu Bakushu
       Kitamura Kazuki as Mikajima Kakeru
       Katsuji Ryo as Sano Naomichi
       Honda Tsubasa as Nagamitsu Haruka
       Tanaka Tetsushi as Ishiyama Hakubun
       Shounozaki Ken as Tojo Ken
       Okada Kohki as Mizuhara Koki
       Yamaguchi Sayaka as Aridome Shoko
       Miyatake Mio as Nagamitsu Sakura
       Matsuoka Emiko as Mikajima Yuka
       Kamata Erena (鎌田英怜奈) as Mikajima Haru
       Yamaguchi Makiya as Tanigawa Eitoku
       Kim Sungrak (金すんら) as Mizuta Senichi
       Sakata Tadashi as Fujita Kiichiro
       Natori Yuko as Nagamitsu Yumiko (special appearance)
       Endo Kenichi as Tachibana Isao


    Synopsis

    Bakushu is an adviser in the "Clean Break Helpline" - a special unit in the Organized Crime Department at Tokyo Metropolitan Police which helps those who want to make a clean break from a gang group. Although she treats gang member clients like "scum", she goes far beyond her responsibility to help them quit the organization by getting a written agreement from the gang boss and finding jobs for them afterwards. Also, her colleague and a former detective at the Organized Crime Department - Mikajima Kakeru doesn't get along with Bakushu.

    One day "Clean Break Helpline" receives a call from a client. He is the leader of a gang group under the umbrella of a designated organized crime group "Kanto Kifune Gumi", and claims that he already made an apology to the boss of Kanto Kifune Gumi - Tachibana Isao. The client says that his group has got in trouble because of Bakushu... -- TBS


    Mediainfo
    Spoiler:show

    Code
    Format                                   : Matroska
    Format version                           : Version 4 / Version 2
    File size                                : 916 MiB
    Duration                                 : 46mn 44s
    Overall bit rate                         : 2 738 Kbps
    Encoded date                             : UTC 2015-05-15 12:55:56
    Writing application                      : mkvmerge v7.6.0 ('Garden of Dreams') 64bit built on Feb  8 2015 13:04:34
    Writing library                          : libebml v1.3.1 + libmatroska v1.4.2
    DURATION                                 : 00:46:44.928000000
    NUMBER_OF_FRAMES                         : 131481
    NUMBER_OF_BYTES                          : 66134943
    _STATISTICS_WRITING_APP                  : mkvmerge v7.6.0 ('Garden of Dreams') 64bit built on Feb  8 2015 13:04:34
    _STATISTICS_WRITING_DATE_UTC             : 2015-05-15 12:55:56
    _STATISTICS_TAGS                         : BPS DURATION NUMBER_OF_FRAMES NUMBER_OF_BYTES

    Video
    ID                                       : 1
    Format                                   : AVC
    Format/Info                              : Advanced Video Codec
    Format profile                           : High@L4.1
    Format settings, CABAC                   : Yes
    Format settings, ReFrames                : 9 frames
    Codec ID                                 : V_MPEG4/ISO/AVC
    Duration                                 : 46mn 44s
    Width                                    : 1 280 pixels
    Height                                   : 720 pixels
    Display aspect ratio                     : 16:9
    Frame rate mode                          : Constant
    Frame rate                               : 29.970 fps
    Color space                              : YUV
    Chroma subsampling                       : 4:2:0
    Bit depth                                : 8 bits
    Scan type                                : Progressive
    Title                                    : DoA Encoder
    Writing library                          : x264 core 146 r2538 121396c
    Encoding settings                        : cabac=1 / ref=9 / deblock=1:-2:-2 / analyse=0x3:0x133 / me=umh / subme=10 / psy=1 / psy_rd=1.00:0.15 / mixed_ref=1 / me_range=48 / chroma_me=1 / trellis=2 / 8x8dct=1 / cqm=0 / deadzone=21,11 / fast_pskip=0 / chroma_qp_offset=-3 / threads=12 / lookahead_threads=2 / sliced_threads=0 / nr=0 / decimate=1 / interlaced=0 / bluray_compat=0 / constrained_intra=0 / bframes=8 / b_pyramid=2 / b_adapt=2 / b_bias=0 / direct=3 / weightb=1 / open_gop=0 / weightp=2 / keyint=300 / keyint_min=29 / scenecut=40 / intra_refresh=0 / rc_lookahead=60 / rc=crf / mbtree=1 / crf=18.0 / qcomp=0.60 / qpmin=0 / qpmax=69 / qpstep=4 / ip_ratio=1.40 / aq=1:1.00
    Language                                 : English
    Default                                  : Yes
    Forced                                   : No
    DURATION                                 : 00:46:44.735000000
    NUMBER_OF_FRAMES                         : 82918
    NUMBER_OF_BYTES                          : 892906496
    _STATISTICS_WRITING_APP                  : mkvmerge v7.6.0 ('Garden of Dreams') 64bit built on Feb  8 2015 13:04:34
    _STATISTICS_WRITING_DATE_UTC             : 2015-05-15 12:55:56
    _STATISTICS_TAGS                         : BPS DURATION NUMBER_OF_FRAMES NUMBER_OF_BYTES

    Audio
    ID                                       : 2
    Format                                   : AAC
    Format/Info                              : Advanced Audio Codec
    Format profile                           : LC
    Codec ID                                 : A_AAC
    Duration                                 : 46mn 44s
    Channel(s)                               : 2 channels
    Channel positions                        : Front: L R
    Sampling rate                            : 48.0 KHz
    Compression mode                         : Lossy
    Delay relative to video                  : 3ms
    Default                                  : Yes
    Forced                                   : No





    0 0

    Original Post: Law of the Jungle with Friends E161 720p WITH (Ep. 8 Indochina)



    Hangul: 정글의 법칙
    Genre: Variety Show
    Language: Korean
    Country: South Korea
    Subtitles: No Subtitles

    Cast: Kim Byun-man, Ryu Dam, Son Ho-jun, Raymon Kim, Kim Jong-min, Lim Ji-yeon, Park Hyung-sik, Seo In-guk, Jang Su-won, Lee Sung-jae

    Synopsis:

    Law of the Jungle

    Law of the Jungle (Korean: 정글의 법칙) is a South Korean reality-documentary show on SBS. It was first aired on October 21, 2011. This show is a hybrid of reality-variety television, natural documentaries, and human drama; a new concept of programming.[1] The cast of celebrities travel to primitive, natural places to survive on their own and experience life with local tribes and people.[2] Originally airing at the Friday 11:05 pm KST time slot, the program was switched into Good Sunday for its second season beginning May 6, 2012, airing before Running Man at the 5:00 pm time slot, replacing K-pop Star Season 1.[3] With the return of K-pop Star Season 2 to Good Sunday, the program returned to Friday nights but airing at 10:00 pm instead beginning November 16, 2012.[4] Originally airing as Kim Byung-man's Law of the Jungle (Korean: 김병만의 정글의 법칙) after the creator and "clan leader" Kim Byung-man, "Kim Byung-man's" was dropped from the title beginning in Season 3.

    Special editions of the program air as well featuring a different cast not in the regular time slot. Law of the Jungle W (W for Women) features an all-female cast and generally airs during the Seollal and Chuseok holidays.[5] Law of the Jungle K (K for Kids) features celebrities with their children, and has aired as a Seollal special in 2013.


    Code
    General
    Format                                   : MPEG-4
    Format profile                           : Base Media
    Codec ID                                 : isom
    File size                                : 1.16 GiB
    Duration                                 : 1h 7mn
    Overall bit rate mode                    : Variable
    Overall bit rate                         : 2 455 Kbps

    Video
    ID                                       : 1
    Format                                   : AVC
    Format/Info                              : Advanced Video Codec
    Format profile                           : Baseline@L1.3
    Format settings, CABAC                   : No
    Format settings, ReFrames                : 1 frame
    Codec ID                                 : avc1
    Codec ID/Info                            : Advanced Video Coding
    Duration                                 : 1h 7mn
    Bit rate                                 : 2 200 Kbps
    Maximum bit rate                         : 11.8 Mbps
    Width                                    : 1 280 pixels
    Height                                   : 720 pixels
    Display aspect ratio                     : 16:9
    Frame rate mode                          : Constant
    Frame rate                               : 29.970 fps
    Color space                              : YUV
    Chroma subsampling                       : 4:2:0
    Bit depth                                : 8 bits
    Scan type                                : Progressive
    Bits/(Pixel*Frame)                       : 0.080
    Stream size                              : 1.04 GiB (89%)
    Writing library                          : x264 core 128 r2216 198a7ea
    Encoding settings                        : cabac=0 / ref=1 / deblock=1:0:0 / analyse=0x1:0x111 / me=hex / subme=7 / psy=1 / psy_rd=1.00:0.00 / mixed_ref=0 / me_range=16 / chroma_me=1 / trellis=1 / 8x8dct=0 / cqm=0 / deadzone=21,11 / fast_pskip=1 / chroma_qp_offset=-2 / threads=12 / lookahead_threads=2 / sliced_threads=0 / nr=0 / decimate=1 / interlaced=0 / bluray_compat=0 / constrained_intra=0 / bframes=0 / weightp=0 / keyint=250 / keyint_min=25 / scenecut=40 / intra_refresh=0 / rc_lookahead=40 / rc=abr / mbtree=1 / bitrate=2200 / ratetol=1.0 / qcomp=0.60 / qpmin=0 / qpmax=69 / qpstep=4 / vbv_maxrate=50000 / vbv_bufsize=50000 / nal_hrd=none / ip_ratio=1.40 / aq=1:1.00

    Audio
    ID                                       : 2
    Format                                   : AAC
    Format/Info                              : Advanced Audio Codec
    Format profile                           : LC
    Codec ID                                 : 40
    Duration                                 : 1h 7mn
    Bit rate mode                            : Variable
    Bit rate                                 : 256 Kbps
    Maximum bit rate                         : 264 Kbps
    Channel(s)                               : 2 channels
    Channel positions                        : Front: L R
    Sampling rate                            : 48.0 KHz
    Compression mode                         : Lossy
    Stream size                              : 124 MiB (10%)







    *Please PM me if there is something wrong, Don't ask for subtitle. smile1.gif

    Don't try to HIT AND RUN. Don't forget to seed minimum at least 1.5.. Sharing is GOOD


    0 0

    Original Post: King of Mask Singer E07 720p WITH



    Hangul: 복면가왕
    Genre: Variety Show
    Language: Korean
    Country: South Korea
    Subtitles: No Subtitles

    Cast:
    11 Celebrity Judges + 1 Main MC:
    - Kim Sung Joo - Main MC (Dad, Where Are We Going?)
    - Kim Gura - Sub MC (JTBC War of Words, MBC Radio Star, Quiz to Change the World)
    - So Yi Hyun - Sub MC (Heartstrings, Cheongdamdong Alice, Three Days)
    - B1A4 Sandeul
    - Kim Hyung Seok (Music Producer - Kim Gunmo, Baby Vox, Jo Sung Mo, etc)
    - Ji Sang Ryeol (X-Man, 1 Night 2 Days)
    - Hwang Seok Jung (Lost in Love, Hello Schoolgirl)
    - Kim Jung Nam (Turbo 1995-97)
    - ZE:A Kwanghee
    - Shin Bong Sun (Heroes, Happy Together)
    - Yoo Sang Moo (Gag Concert, Comedy Big League, I Am a Man)
    - Girl's Day Yura


    When you have to compete with only your voice, who will be the last singer standing? “King of Mask Singer” is a South Korean variety show where the participants compete against each other wearing masks to hide their true identities. The contestants may be famous singers or stars who have always aspired to sing – but they all have one thing in common. They must all compete with their vocals alone because no one will know their true identities until the very end! Enjoy these highlight clips from the popular variety show, featuring MCs Kim Sung Joo and Kim Goo Ra.

    Format of the Show:
    - 11 Celebrity Judges and 88 Audience Voters = 99 Votes
    - All singers initially are masked.
    - Round 1: Duet with 2 members, 99 Voters will choose which of the 2 contestants sang better.
    - Round 2 + 3: Each contestant sings their own song.
    - Loser in each vote gets their identity revealed, and is eliminated.
    - Final Winner stays unknown to the audience and judges, but revealed at the end of the broadcast to the viewers.


    Code

    General
    Format                                   : MPEG-4
    Format profile                           : Base Media
    Codec ID                                 : isom
    File size                                : 1.37 GiB
    Duration                                 : 1h 19mn
    Overall bit rate mode                    : Variable
    Overall bit rate                         : 2 472 Kbps
    Encoded date                             : UTC 2015-04-05 09:20:13
    Tagged date                              : UTC 2015-04-05 09:20:13

    Video
    ID                                       : 1
    Format                                   : AVC
    Format/Info                              : Advanced Video Codec
    Format profile                           : Baseline@L1.3
    Format settings, CABAC                   : No
    Format settings, ReFrames                : 1 frame
    Codec ID                                 : avc1
    Codec ID/Info                            : Advanced Video Coding
    Duration                                 : 1h 19mn
    Bit rate                                 : 2 200 Kbps
    Maximum bit rate                         : 10.6 Mbps
    Width                                    : 1 280 pixels
    Height                                   : 720 pixels
    Display aspect ratio                     : 16:9
    Frame rate mode                          : Constant
    Frame rate                               : 29.970 fps
    Color space                              : YUV
    Chroma subsampling                       : 4:2:0
    Bit depth                                : 8 bits
    Scan type                                : Progressive
    Bits/(Pixel*Frame)                       : 0.080
    Stream size                              : 1.22 GiB (90%)
    Writing library                          : x264 core 128 r2216 198a7ea
    Encoding settings                        : cabac=0 / ref=1 / deblock=1:0:0 / analyse=0x1:0x111 / me=hex / subme=7 / psy=1 / psy_rd=1.00:0.00 / mixed_ref=0 / me_range=16 / chroma_me=1 / trellis=1 / 8x8dct=0 / cqm=0 / deadzone=21,11 / fast_pskip=1 / chroma_qp_offset=-2 / threads=12 / lookahead_threads=2 / sliced_threads=0 / nr=0 / decimate=1 / interlaced=0 / bluray_compat=0 / constrained_intra=0 / bframes=0 / weightp=0 / keyint=250 / keyint_min=25 / scenecut=40 / intra_refresh=0 / rc_lookahead=40 / rc=abr / mbtree=1 / bitrate=2200 / ratetol=1.0 / qcomp=0.60 / qpmin=0 / qpmax=69 / qpstep=4 / vbv_maxrate=50000 / vbv_bufsize=50000 / nal_hrd=none / ip_ratio=1.40 / aq=1:1.00
    Encoded date                             : UTC 2015-04-05 08:16:02
    Tagged date                              : UTC 2015-04-05 09:20:16

    Audio
    ID                                       : 2
    Format                                   : AAC
    Format/Info                              : Advanced Audio Codec
    Format profile                           : LC
    Codec ID                                 : 40
    Duration                                 : 1h 19mn
    Bit rate mode                            : Variable
    Bit rate                                 : 256 Kbps
    Maximum bit rate                         : 262 Kbps
    Channel(s)                               : 2 channels
    Channel positions                        : Front: L R
    Sampling rate                            : 48.0 KHz
    Compression mode                         : Lossy
    Stream size                              : 145 MiB (10%)
    Encoded date                             : UTC 2015-04-05 09:20:13
    Tagged date                              : UTC 2015-04-05 09:20:16







    *Please PM me if there is something wrong, Don't ask for subtitle. smile1.gif

    Don't try to HIT AND RUN. Don't forget to seed minimum at least 1.5.. Please always seed, since I will not re-upload If it already deleted on my seedbox.



    0 0

    Original Post: Paradise in Service 2014.HD1080P.X264.AAC.Mandarin.CHT.Mp4Ba

    Warning! Contain a little nudity~







    Detail:
    Title: Paradise in Service
    Genre: Drama, History, Romance
    Release Date: 5 September 2014
    Runtime: 133 min
    Director: Doze Niu
    Rating: 6.6/10 from 96 users
    Country: China, Taiwan
    Language: Mandarin
    Subtitles:Chinese Hardcoded

    Synopsis:
    Set in the island Kinmen, often seen as the most dangerous military base because it is geographically close to China, Paradise In Service follows the adventure of a boy who serves his military service in Unit 831 from 1969 to 1972, in preparation for a war that could erupt anytime. Through an unlucky lottery draw result, Pao, a twenty-something young man from Southern Taiwan has to serve the military in the remote and perilous Kinmen. Moreover, he is assigned to the Sea Dragon (ARB), a unit known for the toughest physical training. It never occurs to Pao that the greatest challenge is not his military training but a special task he is later appointed to. In this peculiar assignment, Pao vows to keep his virginity against all odds.

    Cast:
    Ethan Juan, Jianbin Chen, Regina Wan







    Code

    Video
    ID                                       : 1
    Format                                   : AVC
    Format/Info                              : Advanced Video Codec
    Format profile                           : High@L4.1
    Format settings, CABAC                   : Yes
    Format settings, ReFrames                : 5 frames
    Codec ID                                 : avc1
    Codec ID/Info                            : Advanced Video Coding
    Duration                                 : 2h 13mn
    Bit rate                                 : 2 500 Kbps
    Maximum bit rate                         : 36.3 Mbps
    Width                                    : 1 280 pixels
    Height                                   : 536 pixels
    Display aspect ratio                     : 2.40:1
    Frame rate mode                          : Constant
    Frame rate                               : 25.000 fps
    Color space                              : YUV
    Chroma subsampling                       : 4:2:0
    Bit depth                                : 8 bits
    Scan type                                : Progressive
    Bits/(Pixel*Frame)                       : 0.146
    Stream size                              : 2.34 GiB (95%)
    Writing library                          : x264 core 142 r2431+42 c69a006 tMod [8-bit@all X86_64]
    Encoding settings                        : cabac=1 / ref=5 / deblock=1:-2:-2 / analyse=0x3:0x133 / me=umh / subme=7 / psy=1 / fade_compensate=0.00 / psy_rd=1.10:0.00 / mixed_ref=1 / me_range=16 / chroma_me=1 / trellis=1 / 8x8dct=1 / cqm=0 / deadzone=21,11 / fast_pskip=0 / chroma_qp_offset=-2 / threads=12 / lookahead_threads=2 / sliced_threads=0 / nr=0 / decimate=0 / interlaced=0 / bluray_compat=0 / constrained_intra=0 / fgo=0 / bframes=3 / b_pyramid=2 / b_adapt=2 / b_bias=0 / direct=3 / weightb=1 / open_gop=0 / weightp=2 / keyint=240 / keyint_min=24 / scenecut=40 / intra_refresh=0 / rc_lookahead=120 / rc=abr / mbtree=1 / bitrate=2500 / ratetol=1.0 / qcomp=0.70 / qpmin=0:0:0 / qpmax=69:69:69 / qpstep=4 / ip_ratio=1.10 / aq=1:0.90 / aq-sensitivity=10.00 / aq-factor=1.00:1.00:1.00 / aq2=0 / aq3=0
    Encoded date                             : UTC 2015-05-16 12:00:22
    Tagged date                              : UTC 2015-05-16 12:03:16

    Audio
    ID                                       : 2
    Format                                   : AAC
    Format/Info                              : Advanced Audio Codec
    Format profile                           : LC
    Codec ID                                 : 40
    Duration                                 : 2h 13mn
    Bit rate mode                            : Variable
    Bit rate                                 : 128 Kbps
    Maximum bit rate                         : 142 Kbps
    Channel(s)                               : 2 channels
    Channel positions                        : Front: L R
    Sampling rate                            : 48.0 KHz
    Compression mode                         : Lossy
    Stream size                              : 122 MiB (5%)
    Encoded date                             : UTC 2015-05-16 12:03:12
    Tagged date                              : UTC 2015-05-16 12:03:16



    0 0

    Original Post: Triumph in the Skies 2015 1080p BluRay DD5.1 x264-WiKi


    Title: Triumph in the Skies
    Genre: Drama
    IMDB: http://www.imdb.com/title/tt1929433/
    Release Date: 20 February 2015
    Runtime: 1h:39m:45s
    Director: Matt Chow, Wilson Yip
    Country: Hong Kong
    Language: Cantonese, Mandarin
    Subtitles: none


    Storyline
    Feature film adaptation of the the TV series, "Triumph in the Skies."

    After aviation empire heir and pilot Branson takes over Skylette, he discovers that his ex-girlfriend Cassie has become a flight attendant at the airline. Years ago, their romance was interrupted when Branson had to leave to take care of the family business. The erstwhile lovers have never stopped thinking about each other, though, and this may be a chance to rekindle the flame


    Cast
    Louis Koo, Sammi Cheng, Francis Ng







    :
    TAGLiNE...................: Triumph in the Skies (2015)
    GENRE.....................: Drama
    iMDb RATiNG...............: 4.6/10 /10 (93 users votes)
    iMDb LiNK.................: http://www.imdb.com/title/tt1929433/

    .Release.Info
    ENCODER...................: Wiki
    RELEASE DATE..............: 2015-04-23
    RELEASE SiZE..............: 7.95 GiB
    SOURCE....................: Blu-ray 1080p AVC TrueHD 7.1-TTG

    .Media.Info
    RUNTiME...................: 1h:39m:45s
    ViDEO CODEC...............: x264_L4.1 @ 10.3 Mbps
    RESOLUTiON................: 1920x816
    DiSPLAY ASPECT RATiO......: 2.35:1
    FRAME RATE................: 24.000 fps
    AUDiO CODEC 1.............: Cantonese DD 5.1 @ 640 Kbps
    AUDiO CODEC 2.............: Mandarin DD 5.1 @ 448 Kbps

    .x264.Info
    x264 [info]: profile High, level 4.1
    x264 [info]: frame I:1038  Avg QP:13.16  size:234037
    x264 [info]: frame P:34140 Avg QP:16.11  size: 97311
    x264 [info]: frame B:108479 Avg QP:18.43  size: 38283
    x264 [info]: consecutive B-frames:  3.7%  3.9% 13.2% 12.9%  7.3% 57.4%  0.8%  0.2%  0.5%





    0 0

    Original Post: Paradise in Service 2014.HD720P.X264.AAC.Mandarin.CHT.Mp4Ba

    Warning! Contain a little nudity~







    Detail:
    Title: Paradise in Service
    Genre: Drama, History, Romance
    Release Date: 5 September 2014
    Runtime: 133 min
    Director: Doze Niu
    Rating: 6.6/10 from 96 users
    Country: China, Taiwan
    Language: Mandarin
    Subtitles:Chinese Hardcoded

    Synopsis:
    Set in the island Kinmen, often seen as the most dangerous military base because it is geographically close to China, Paradise In Service follows the adventure of a boy who serves his military service in Unit 831 from 1969 to 1972, in preparation for a war that could erupt anytime. Through an unlucky lottery draw result, Pao, a twenty-something young man from Southern Taiwan has to serve the military in the remote and perilous Kinmen. Moreover, he is assigned to the Sea Dragon (ARB), a unit known for the toughest physical training. It never occurs to Pao that the greatest challenge is not his military training but a special task he is later appointed to. In this peculiar assignment, Pao vows to keep his virginity against all odds.

    Cast:
    Ethan Juan, Jianbin Chen, Regina Wan







    Code

    Video
    ID                                       : 1
    Format                                   : AVC
    Format/Info                              : Advanced Video Codec
    Format profile                           : High@L4.1
    Format settings, CABAC                   : Yes
    Format settings, ReFrames                : 5 frames
    Codec ID                                 : avc1
    Codec ID/Info                            : Advanced Video Coding
    Duration                                 : 2h 13mn
    Bit rate                                 : 2 500 Kbps
    Maximum bit rate                         : 36.3 Mbps
    Width                                    : 1 280 pixels
    Height                                   : 536 pixels
    Display aspect ratio                     : 2.40:1
    Frame rate mode                          : Constant
    Frame rate                               : 25.000 fps
    Color space                              : YUV
    Chroma subsampling                       : 4:2:0
    Bit depth                                : 8 bits
    Scan type                                : Progressive
    Bits/(Pixel*Frame)                       : 0.146
    Stream size                              : 2.34 GiB (95%)
    Writing library                          : x264 core 142 r2431+42 c69a006 tMod [8-bit@all X86_64]
    Encoding settings                        : cabac=1 / ref=5 / deblock=1:-2:-2 / analyse=0x3:0x133 / me=umh / subme=7 / psy=1 / fade_compensate=0.00 / psy_rd=1.10:0.00 / mixed_ref=1 / me_range=16 / chroma_me=1 / trellis=1 / 8x8dct=1 / cqm=0 / deadzone=21,11 / fast_pskip=0 / chroma_qp_offset=-2 / threads=12 / lookahead_threads=2 / sliced_threads=0 / nr=0 / decimate=0 / interlaced=0 / bluray_compat=0 / constrained_intra=0 / fgo=0 / bframes=3 / b_pyramid=2 / b_adapt=2 / b_bias=0 / direct=3 / weightb=1 / open_gop=0 / weightp=2 / keyint=240 / keyint_min=24 / scenecut=40 / intra_refresh=0 / rc_lookahead=120 / rc=abr / mbtree=1 / bitrate=2500 / ratetol=1.0 / qcomp=0.70 / qpmin=0:0:0 / qpmax=69:69:69 / qpstep=4 / ip_ratio=1.10 / aq=1:0.90 / aq-sensitivity=10.00 / aq-factor=1.00:1.00:1.00 / aq2=0 / aq3=0
    Encoded date                             : UTC 2015-05-16 12:00:22
    Tagged date                              : UTC 2015-05-16 12:03:16

    Audio
    ID                                       : 2
    Format                                   : AAC
    Format/Info                              : Advanced Audio Codec
    Format profile                           : LC
    Codec ID                                 : 40
    Duration                                 : 2h 13mn
    Bit rate mode                            : Variable
    Bit rate                                 : 128 Kbps
    Maximum bit rate                         : 142 Kbps
    Channel(s)                               : 2 channels
    Channel positions                        : Front: L R
    Sampling rate                            : 48.0 KHz
    Compression mode                         : Lossy
    Stream size                              : 122 MiB (5%)
    Encoded date                             : UTC 2015-05-16 12:03:12
    Tagged date                              : UTC 2015-05-16 12:03:16



    0 0

    Original Post: Lunch no Akko-chan EP01 720p HDTV x264 AAC-DoA




    Title: Lunch no Akko-chan
    Japanese: ランチのアッコちゃん
    Release Date: May 12, 2015
    Genre: Food / Office / Comedy
    Language: Japanese
    Country: Japan
    Subtitles: NONE


    Episodes: 8
    TV Network: NHK
    Airtime: Tuesday's 23:15
    Official Site: http://www.nhk.or.jp/pyd/akkochan/


    Cast:
    Renbutsu Misako as Sawada Michiko
    Toda Naho as Kurokawa Atsuko
    Noro Kayo as Harada Chihiro
    Narita Ryo as Sasayama Ryuichiro
    Horiuchi Keiko as Shimizu Kimiko
    Suruga Taro
    Hamano Kenta
    Nonaka Takamitsu
    Mano Erina
    Tsurumi Shingo as Yamakawa
    Tayama Ryosei as Ikawa Yoshio


    Synopsis:
    Sawada Michiko, a temporary staff who works for a trading company, has just had her heart broken. On one of the boring days Michiko has been leading, her boss, Kurokawa Atsuko, makes an unexpected suggestion to her. “Exchange lunch with me.” Unable to go against Atsuko, Michiko reluctantly complies. In doing so, she soon realises the profundity of food and starts to change. Atsuko, whom people call Akko-chan, is feared by the people around her and has extensive contacts. What is her true character?










    Code
    General
    Complete name                            : Lunch no Akko-chan EP01 720p HDTV x264 AAC-DoA.mkv
    Format                                   : Matroska
    Format version                           : Version 2
    File size                                : 507 MiB
    Duration                                 : 29mn 0s
    Overall bit rate                         : 2442 Kbps


    Video
    ID                                       : 1
    Format                                   : AVC
    Format/Info                              : Advanced Video Codec
    Format profile                           : High@L4.1
    Format settings, CABAC                   : Yes
    Format settings, ReFrames                : 8 frames
    Codec ID                                 : V_MPEG4/ISO/AVC
    Duration                                 : 29mn 0s
    Width                                    : 1280 pixels
    Height                                   : 720 pixels
    Display aspect ratio                     : 16:9
    Frame rate                               : 29.970 fps
    Color space                              : YUV
    Chroma subsampling                       : 4:2:0
    Bit depth                                : 8 bits
    Scan type                                : Progressive


    Audio
    ID                                       : 2
    Format                                   : AAC
    Format/Info                              : Advanced Audio Codec
    Format profile                           : LC
    Codec ID                                 : A_AAC
    Duration                                 : 29mn 0s
    Channel(s)                               : 2 channels
    Channel positions                        : Front: L R
    Sampling rate                            : 48.0 KHz
    Compression mode                         : Lossy
    Default                                  : Yes
    Forced                                   : No



    0 0

    Original Post: We Got Married S4 E272 XVID LIMO


    Join top Korean celebrities as they get paired off with another celebrity and play a married couple together! They must learn to both live together but also how to be "married." The current couples are: Henry & Yewon, Lee Jong Hyun & Gong Seung Yeon, Song Jae Rim & Kim So Eun.

    Subtitles none





    Code
    Video
    ID                                       : 0
    Format                                   : MPEG-4 Visual
    Format profile                           : Advanced Simple@L5
    Format settings, BVOP                    : No
    Format settings, QPel                    : No
    Format settings, GMC                     : No warppoints
    Format settings, Matrix                  : Default (MPEG)
    Codec ID                                 : XVID
    Codec ID/Hint                            : XviD
    Duration                                 : 1h 29mn
    Bit rate                                 : 1 388 Kbps
    Width                                    : 624 pixels
    Height                                   : 352 pixels
    Display aspect ratio                     : 16:9
    Frame rate                               : 29.970 fps
    Color space                              : YUV
    Chroma subsampling                       : 4:2:0
    Bit depth                                : 8 bits
    Scan type                                : Progressive
    Compression mode                         : Lossy
    Bits/(Pixel*Frame)                       : 0.211
    Stream size                              : 886 MiB (87%)
    Writing library                          : XviD 1.2.1 (UTC 2008-12-04)

    Audio
    ID                                       : 1
    Format                                   : MPEG Audio
    Format version                           : Version 1
    Format profile                           : Layer 3
    Mode                                     : Joint stereo
    Mode extension                           : MS Stereo
    Codec ID                                 : 55
    Codec ID/Hint                            : MP3
    Duration                                 : 1h 29mn
    Bit rate mode                            : Constant
    Bit rate                                 : 128 Kbps
    Channel(s)                               : 2 channels
    Sampling rate                            : 48.0 KHz
    Compression mode                         : Lossy
    Stream size                              : 81.7 MiB (8%)
    Alignment                                : Aligned on interleaves
    Writing library                          : LAME3.98.2



    0 0

    Original Post: We Got Married S4 E272 720p LIMO


    Join top Korean celebrities as they get paired off with another celebrity and play a married couple together! They must learn to both live together but also how to be "married." The current couples are: Henry & Yewon, Lee Jong Hyun & Gong Seung Yeon, Song Jae Rim & Kim So Eun.

    Subtitles none





    Code
    Video
    ID                             : 1
    Format                         : AVC
    Format/Info                    : Advanced Video Codec
    Format profile                 : High@L5.1
    Format settings, CABAC         : Yes
    Format settings, ReFrames      : 4 frames
    Codec ID                       : V_MPEG4/ISO/AVC
    Duration                       : 1h 24mn
    Bit rate                       : 887 Kbps
    Nominal bit rate               : 2 496 Kbps
    Width                          : 1 280 pixels
    Height                         : 720 pixels
    Display aspect ratio           : 16:9
    Frame rate mode                : Constant
    Frame rate                     : 29.970 fps
    Color space                    : YUV
    Chroma subsampling             : 4:2:0
    Bit depth                      : 8 bits
    Scan type                      : Progressive
    Bits/(Pixel*Frame)             : 0.032
    Stream size                    : 535 MiB (68%)
    Writing library                : x264 core 130 r2273 b3065e6
    Encoding settings              : cabac=1 / ref=3 / deblock=1:0:0 / analyse=0x3:0x113 / me=hex / subme=7 / psy=1 / psy_rd=1.00:0.00 / mixed_ref=1 / me_range=16 / chroma_me=1 / trellis=1 / 8x8dct=1 / cqm=0 / deadzone=21,11 / fast_pskip=1 / chroma_qp_offset=-2 / threads=1 / lookahead_threads=1 / sliced_threads=0 / nr=0 / decimate=1 / interlaced=0 / bluray_compat=0 / constrained_intra=0 / bframes=3 / b_pyramid=2 / b_adapt=1 / b_bias=0 / direct=1 / weightb=1 / open_gop=0 / weightp=2 / keyint=300 / keyint_min=29 / scenecut=40 / intra_refresh=0 / rc_lookahead=40 / rc=2pass / mbtree=1 / bitrate=2496 / ratetol=1.0 / qcomp=0.60 / qpmin=0 / qpmax=69 / qpstep=4 / cplxblur=20.0 / qblur=0.5 / vbv_maxrate=300000 / vbv_bufsize=300000 / nal_hrd=none / ip_ratio=1.40 / aq=1:1.00
    Default                        : Yes
    Forced                         : No

    Audio
    ID                             : 2
    Format                         : AC-3
    Format/Info                    : Audio Coding 3
    Mode extension                 : CM (complete main)
    Format settings, Endianness    : Big
    Codec ID                       : A_AC3
    Duration                       : 1h 24mn
    Bit rate mode                  : Constant
    Bit rate                       : 384 Kbps
    Channel(s)                     : 2 channels
    Channel positions              : Front: L R
    Sampling rate                  : 44.1 KHz
    Bit depth                      : 16 bits
    Compression mode               : Lossy
    Stream size                    : 232 MiB (30%)
    Language                       : Korean
    Default                        : Yes
    Forced                         : No



    0 0

    Original Post: Infinity Challenge E428 XVID LIMO



    Title: Infinite Challenge (a.k.a. Muhan Dojeon; Hangul: 무한도전; Hanja: 無限挑戰; abbreviated Mudo)
    Cast: Yoo Jae-Seok, Park Myeong-su, Jeong Jun-ha, Noh Hong-cheol, Jeong Hyeong-don, Ha Dong-hoon, Jun Jin
    Producers: Kim Tae Ho
    Broadcast Network: MBC
    Genre: Comedy, Variety & Reality
    Original Run: April 23, 2005 – Present
    Country: South Korea
    Language: Korean
    Subtitles: English subtitles will be added

    Synopsis
    A "real variety show," hosts Yoo Jae Suk, Park Myung Soo, Jung Jun Ha, Ha Ha, Noh Hong Chul, Jung Hyung Don, and Gil Seong Joon undergo several challenges every week. From arriving early on set to composing original songs, the hosts scramble their way to the top and win, proving that Infinity Challenge is 3-D: dirty, dangerous, and difficult. Let the games begin!





    Code
    Video
    ID                                       : 0
    Format                                   : MPEG-4 Visual
    Format profile                           : Advanced Simple@L5
    Format settings, BVOP                    : No
    Format settings, QPel                    : No
    Format settings, GMC                     : No warppoints
    Format settings, Matrix                  : Default (MPEG)
    Codec ID                                 : XVID
    Codec ID/Hint                            : XviD
    Duration                                 : 1h 29mn
    Bit rate                                 : 1 388 Kbps
    Width                                    : 624 pixels
    Height                                   : 352 pixels
    Display aspect ratio                     : 16:9
    Frame rate                               : 29.970 fps
    Color space                              : YUV
    Chroma subsampling                       : 4:2:0
    Bit depth                                : 8 bits
    Scan type                                : Progressive
    Compression mode                         : Lossy
    Bits/(Pixel*Frame)                       : 0.211
    Stream size                              : 886 MiB (87%)
    Writing library                          : XviD 1.2.1 (UTC 2008-12-04)

    Audio
    ID                                       : 1
    Format                                   : MPEG Audio
    Format version                           : Version 1
    Format profile                           : Layer 3
    Mode                                     : Joint stereo
    Mode extension                           : MS Stereo
    Codec ID                                 : 55
    Codec ID/Hint                            : MP3
    Duration                                 : 1h 29mn
    Bit rate mode                            : Constant
    Bit rate                                 : 128 Kbps
    Channel(s)                               : 2 channels
    Sampling rate                            : 48.0 KHz
    Compression mode                         : Lossy
    Stream size                              : 81.7 MiB (8%)
    Alignment                                : Aligned on interleaves
    Writing library                          : LAME3.98.2



    0 0

    Original Post: Infinity Challenge E428 720p LIMO


    Title: Infinite Challenge (a.k.a. Muhan Dojeon; Hangul: 무한도전; Hanja: 無限挑戰; abbreviated Mudo)
    Cast: Yoo Jae-Seok, Park Myeong-su, Jeong Jun-ha, Noh Hong-cheol, Jeong Hyeong-don, Ha Dong-hoon, Jun Jin
    Producers: Kim Tae Ho
    Broadcast Network: MBC
    Genre: Comedy, Variety & Reality
    Original Run: April 23, 2005 – Present
    Country: South Korea
    Language: Korean
    Subtitles: English subtitles will be added later

    Synopsis
    A "real variety show," hosts Yoo Jae Suk, Park Myung Soo, Jung Jun Ha, Ha Ha, Noh Hong Chul, Jung Hyung Don, and Gil Seong Joon undergo several challenges every week. From arriving early on set to composing original songs, the hosts scramble their way to the top and win, proving that Infinity Challenge is 3-D: dirty, dangerous, and difficult. Let the games begin!





    Code
    Video
    ID                             : 1
    Format                         : AVC
    Format/Info                    : Advanced Video Codec
    Format profile                 : High@L5.1
    Format settings, CABAC         : Yes
    Format settings, ReFrames      : 4 frames
    Codec ID                       : V_MPEG4/ISO/AVC
    Duration                       : 1h 24mn
    Bit rate                       : 887 Kbps
    Nominal bit rate               : 2 496 Kbps
    Width                          : 1 280 pixels
    Height                         : 720 pixels
    Display aspect ratio           : 16:9
    Frame rate mode                : Constant
    Frame rate                     : 29.970 fps
    Color space                    : YUV
    Chroma subsampling             : 4:2:0
    Bit depth                      : 8 bits
    Scan type                      : Progressive
    Bits/(Pixel*Frame)             : 0.032
    Stream size                    : 535 MiB (68%)
    Writing library                : x264 core 130 r2273 b3065e6
    Encoding settings              : cabac=1 / ref=3 / deblock=1:0:0 / analyse=0x3:0x113 / me=hex / subme=7 / psy=1 / psy_rd=1.00:0.00 / mixed_ref=1 / me_range=16 / chroma_me=1 / trellis=1 / 8x8dct=1 / cqm=0 / deadzone=21,11 / fast_pskip=1 / chroma_qp_offset=-2 / threads=1 / lookahead_threads=1 / sliced_threads=0 / nr=0 / decimate=1 / interlaced=0 / bluray_compat=0 / constrained_intra=0 / bframes=3 / b_pyramid=2 / b_adapt=1 / b_bias=0 / direct=1 / weightb=1 / open_gop=0 / weightp=2 / keyint=300 / keyint_min=29 / scenecut=40 / intra_refresh=0 / rc_lookahead=40 / rc=2pass / mbtree=1 / bitrate=2496 / ratetol=1.0 / qcomp=0.60 / qpmin=0 / qpmax=69 / qpstep=4 / cplxblur=20.0 / qblur=0.5 / vbv_maxrate=300000 / vbv_bufsize=300000 / nal_hrd=none / ip_ratio=1.40 / aq=1:1.00
    Default                        : Yes
    Forced                         : No

    Audio
    ID                             : 2
    Format                         : AC-3
    Format/Info                    : Audio Coding 3
    Mode extension                 : CM (complete main)
    Format settings, Endianness    : Big
    Codec ID                       : A_AC3
    Duration                       : 1h 24mn
    Bit rate mode                  : Constant
    Bit rate                       : 384 Kbps
    Channel(s)                     : 2 channels
    Channel positions              : Front: L R
    Sampling rate                  : 44.1 KHz
    Bit depth                      : 16 bits
    Compression mode               : Lossy
    Stream size                    : 232 MiB (30%)
    Language                       : Korean
    Default                        : Yes
    Forced                         : No



    0 0

    Original Post: TVB The.Empress.of.China.E22.HDTV.H264.2Audio.720p-CensoredCleavage


    Detail:
    Title: Empress Of China
    AKA:武媚娘傳奇
    Genre: Historical fiction
    Release Date: April 26, 2015 - July 4, 2015
    Episodes: 70
    Director: Go Yik Chun
    Country: China
    Language: Track 1: Mandarin/ Track 2: Cantonese dub
    Subtitles: English (srt embedded)
    http://thetvdb.com/?tab=series&id=289782

    Fan Bingbing as Wu Meiniang
    Zhang Fengyi as Li Shimin
    Aarif Rahman as Li Zhi
    Janine Chang as Xu Hui
    Li Chen as Li Mu
    Chang Ting as Consort Wei
    Wu Xiubo as Zhang Jianzhi
    Viann Zhang as Consort Xiao
    Kathy Chow as Consort Yang
    Wang Huichun as Zhangsun Wuji
    Lee Lee-jen as Li Chengqian
    Li Jie as Li Ke
    Yu Haoming as Li Chunfeng

    Before she was the most famous female ruler in Chinese history, Wu Mei Liang was a woman vying for her husbands’ love. While her first husband kept her at arm’s length by a prophecy foretelling a woman of Wu stealing the Tang Dynasty, her second husband welcomed her with open arms. During her time as a minor consort to Li Shi Min, she learned how an effective Emperor rule his court. Using that knowledge, she helped Li Zhi take back power from his Regent, and herself into the position of Empress. She co-ruled with Li Zhi until his death, after which she ruled the country in her own right.







    Code
    Video
    ID                             : 1
    Format                         : AVC
    Format/Info                    : Advanced Video Codec
    Format profile                 : Main@L4.0
    Format settings, CABAC         : Yes
    Format settings, ReFrames      : 4 frames
    Codec ID                       : V_MPEG4/ISO/AVC
    Bit rate                       : 4 500 Kbps
    Width                          : 1 280 pixels
    Height                         : 720 pixels
    Display aspect ratio           : 16:9
    Frame rate mode                : Variable
    Color space                    : YUV
    Chroma subsampling             : 4:2:0
    Bit depth                      : 8 bits
    Scan type                      : Progressive
    Title                          : The.Empress.of.China.E22.HDTV.H264.2Audio.720p-CensoredCleavages
    Writing library                : x264 core 130 r2273 b3065e6
    Language                       : Chinese
    Default                        : Yes
    Forced                         : No
    Color primaries                : BT.709
    Transfer characteristics       : BT.709
    Matrix coefficients            : BT.709

    Audio #1
    ID                             : 2
    Format                         : AC-3
    Format/Info                    : Audio Coding 3
    Mode extension                 : CM (complete main)
    Format settings, Endianness    : Big
    Codec ID                       : A_AC3
    Duration                       : 44mn 27s
    Bit rate mode                  : Constant
    Bit rate                       : 384 Kbps
    Channel(s)                     : 6 channels
    Channel positions              : Front: L C R, Side: L R, LFE
    Sampling rate                  : 48.0 KHz
    Bit depth                      : 16 bits
    Compression mode               : Lossy
    Stream size                    : 122 MiB (8%)
    Title                          : Mandarin
    Language                       : Chinese
    Default                        : Yes
    Forced                         : No

    Audio #2
    ID                             : 3
    Format                         : AC-3
    Format/Info                    : Audio Coding 3
    Mode extension                 : CM (complete main)
    Format settings, Endianness    : Big
    Codec ID                       : A_AC3
    Duration                       : 44mn 27s
    Bit rate mode                  : Constant
    Bit rate                       : 192 Kbps
    Channel(s)                     : 2 channels
    Channel positions              : Front: L R
    Sampling rate                  : 48.0 KHz
    Bit depth                      : 16 bits
    Compression mode               : Lossy
    Stream size                    : 61.1 MiB (4%)
    Title                          : Cantonese
    Language                       : Chinese
    Default                        : No
    Forced                         : No

    Text
    ID                             : 4
    Format                         : UTF-8
    Codec ID                       : S_TEXT/UTF8
    Codec ID/Info                  : UTF-8 Plain Text
    Default                        : Yes
    Forced                         : No



    0 0

    Original Post: [Singapore Drama] Mind Games EP01 720p HDTV x264 AAC-DoA



    Title: Mind Game(心迷)
    Genre: Drama
    Episodes: TBD
    Broadcast network: MediaCorp
    Country: Singapore
    Language: Mandarin
    Broadcast period: 7 May - 17 Jun
    Air time: Weekday 21:00
    Subtitles: None - [url=][/url]
    RAW credit to DoA

     
    Cast

       Joanne Peh as Zhao Anni
       Tay Ping Hui as Liang Wenjie
       Zhang Yao Dong as Guo Yongyan
       Paige Chua as Feng Xuezhi/Liang Huixin
       Yuan Shuai
       Terence Cao
       Ye Shipin
       Akit Tay
       Tiffany Leong


    Synopsis

    Mind Games is thriller-romance drama with many unexpected twists and suspense. Liang Wen Jie (Tay Ping Hui) is a paralegal at a law firm; he is in-charge of many mysterious cases that requires thorough investigations. In each case, suspects are extremely careful as they plot elaborate lies to escape from detection. However, none of them can escape from Wen Jie who has a sharp analytical mind and is attentive to even the smallest details.


    Mediainfo
    Spoiler:show

    Code
    Format                                   : Matroska
    Format version                           : Version 4 / Version 2
    File size                                : 1.33 GiB
    Duration                                 : 45mn 38s
    Overall bit rate                         : 4 160 Kbps
    Encoded date                             : UTC 2015-05-10 13:34:13
    Writing application                      : mkvmerge v6.1.0 ('Old Devil') built on Mar  2 2013 14:32:37
    Writing library                          : libebml v1.3.0 + libmatroska v1.4.0

    Video
    ID                                       : 1
    Format                                   : AVC
    Format/Info                              : Advanced Video Codec
    Format profile                           : High@L4.1
    Format settings, CABAC                   : Yes
    Format settings, ReFrames                : 5 frames
    Codec ID                                 : V_MPEG4/ISO/AVC
    Duration                                 : 45mn 38s
    Bit rate                                 : 3 949 Kbps
    Width                                    : 1 280 pixels
    Height                                   : 720 pixels
    Display aspect ratio                     : 16:9
    Frame rate mode                          : Constant
    Frame rate                               : 25.000 fps
    Color space                              : YUV
    Chroma subsampling                       : 4:2:0
    Bit depth                                : 8 bits
    Scan type                                : Progressive
    Bits/(Pixel*Frame)                       : 0.171
    Stream size                              : 1.26 GiB (95%)
    Writing library                          : x264 core 120 r2164 da19765
    Encoding settings                        : cabac=1 / ref=5 / deblock=1:-3:-3 / analyse=0x3:0x133 / me=umh / subme=9 / psy=1 / psy_rd=1.00:0.15 / mixed_ref=1 / me_range=16 / chroma_me=1 / trellis=2 / 8x8dct=1 / cqm=0 / deadzone=21,11 / fast_pskip=1 / chroma_qp_offset=-3 / threads=6 / sliced_threads=0 / nr=0 / decimate=1 / interlaced=0 / bluray_compat=0 / constrained_intra=0 / bframes=8 / b_pyramid=2 / b_adapt=2 / b_bias=0 / direct=3 / weightb=1 / open_gop=0 / weightp=2 / keyint=250 / keyint_min=25 / scenecut=40 / intra_refresh=0 / rc_lookahead=60 / rc=crf / mbtree=1 / crf=18.0 / qcomp=0.60 / qpmin=0 / qpmax=69 / qpstep=4 / ip_ratio=1.40 / aq=1:1.00
    Default                                  : Yes
    Forced                                   : No

    Audio
    ID                                       : 2
    Format                                   : AC-3
    Format/Info                              : Audio Coding 3
    Mode extension                           : CM (complete main)
    Format settings, Endianness              : Big
    Codec ID                                 : A_AC3
    Duration                                 : 45mn 38s
    Bit rate mode                            : Constant
    Bit rate                                 : 128 Kbps
    Channel(s)                               : 2 channels
    Channel positions                        : Front: L R
    Sampling rate                            : 48.0 KHz
    Bit depth                                : 16 bits
    Compression mode                         : Lossy
    Stream size                              : 41.8 MiB (3%)
    Language                                 : Chinese
    Default                                  : Yes
    Forced                                   : No





    0 0

    Original Post: [Single] besweet – Don't Trust Anyone But Me


    besweet – Don't Trust Anyone But Me
    Release Date: 2015.05.13
    Genre: Indie
    Bit Rate: 320kbps

    Tracklist:
    01. 믿지말걸 (Home Demo)
    02. 믿지말걸 (Home Demo) (Inst.)

    You can also download besweet's discography here @ AsiaTorrents


    0 0

    Original Post: Byul – Who Are You – School 2015 OST Part.4



    별 (Byul) – 후아유 – 학교 2015 OST Part 3
    Release Date: 2015.05.18
    Genre: OST
    Language: Korean
    Bit Rate: MP3-320kbps
    credit to hulkpop

    Track List:

    01. Remember
    02. Remember (Inst.)



older | 1 | .... | 1345 | 1346 | (Page 1347) | 1348 | 1349 | .... | 1405 | newer