Are you the publisher? Claim or contact us about this channel


Embed this content in your HTML

Search

Report adult content:

click to rate:

Account: (login)

More Channels


Showcase


Channel Catalog


Channel Description:

Asia Torrents RSS Feed

older | 1 | .... | 1348 | 1349 | (Page 1350) | 1351 | 1352 | .... | 1405 | newer

    0 0

    Original Post: Dangerous Meeting of In-Laws 2 2015.720p.HDRip-iMrel





    Detail:
    Title: Dangerous Meeting of In-Laws 2
    Genre: Romantic, Comedy
    Release Date: April 29, 2015
    Runtime: 119 min
    Director: Kim Jin-Young
    Country: South Korea
    Language: Korean
    Subtitles:None

    Synopsis:
    Chul-Soo (Hong Jong-Hyun) is the only son of a legendary thief family. He falls in love with Young-Hee (Jin Se-Yun) who is a police officer. Her family is also a police family. To get her parents’ permission to marry,  Chul-Soo undertakes an exam to become a police officer, but both families work to prevent their marriage.  

    Cast:
    Hong Jong-Hyun, Jin Se-Yun, Shin Jung-Keun, Jeon Su-Kyeong, Kim Eung-Soo








    Code

    Video
    ID                                       : 1
    Format                                   : AVC
    Format/Info                              : Advanced Video Codec
    Format profile                           : Baseline@L3.1
    Format settings, CABAC                   : No
    Format settings, ReFrames                : 1 frame
    Codec ID                                 : avc1
    Codec ID/Info                            : Advanced Video Coding
    Duration                                 : 1h 59mn
    Bit rate mode                            : Variable
    Bit rate                                 : 3 000 Kbps
    Width                                    : 1 280 pixels
    Height                                   : 720 pixels
    Display aspect ratio                     : 16:9
    Frame rate mode                          : Constant
    Frame rate                               : 30.000 fps
    Standard                                 : NTSC
    Color space                              : YUV
    Chroma subsampling                       : 4:2:0
    Bit depth                                : 8 bits
    Scan type                                : Progressive
    Bits/(Pixel*Frame)                       : 0.109
    Stream size                              : 2.47 GiB (96%)
    Language                                 : English
    Encoded date                             : UTC 2015-05-15 01:05:32
    Tagged date                              : UTC 2015-05-15 01:05:32

    Audio
    ID                                       : 2
    Format                                   : AAC
    Format/Info                              : Advanced Audio Codec
    Format profile                           : HE-AAC / LC
    Codec ID                                 : 40
    Duration                                 : 1h 59mn
    Bit rate mode                            : Constant
    Bit rate                                 : 128 Kbps
    Channel(s)                               : 2 channels
    Channel positions                        : Front: L R
    Sampling rate                            : 44.1 KHz / 22.05 KHz
    Compression mode                         : Lossy
    Stream size                              : 108 MiB (4%)
    Language                                 : English
    Encoded date                             : UTC 2015-05-15 01:05:32
    Tagged date                              : UTC 2015-05-15 01:05:32



    0 0

    Original Post: Kofuku.Lonely Heart.1981.Kon Ichikawa DVDrip SD 720p

    Name: Lonely Heart (AKA Happiness)
    Romanji: Kofuku
    Kanji:幸福
    Director: Kon Ichikawa
    Release Date: 10 October 1981
    Runtime: 105 minutes
    Genre: Drama, Murder Myster, Police
    Language: Japanese
    Country: Japan
    Subtitles: English
    Cast: Yutaka Mizutani, Toshiyuki Nagashima, Rie Nakahara

    IMDB Link
    IMDB Rating: 8.0



    SYNOPSIS:

    The plot of ''Lonely Heart'' concerns a gunman who murders all the occupants of a bookstore. But this quickly becomes the story of the policemen who investigate the crime. One of them was engaged to one of the victims and must now go on with his life. Another, the man with the two children, is still pondering his wife's defection.

    Click on images below for actual screenshot










    UPLOADER'S COMMENTS AND SOURCE CREDITS:

    Source DVD courtesy of ADC as usual. chapaev who upped the DVD with new custum subs gave the following credits:
    Thanks to stahl for the source DVD. Translation from Japanese to Russian courtesy of дед_сто_лет
    This Custom DVD of Lonely Heart is an ADC community effort and couldn't have been done without the donations from the following members:
    Obscureness, bergelson, DrKoto, chapaev, nihoncineart.
    Kowtow to cheetman for translating this film to English at a reasonable price.
    Proofread by Obscureness
    Project coordination: nihoncineart

    When I ripped the DVD I remastered the video subtly to improve the colour. Originally I was going to leave the subtitles as they were as they were quite reasonable, but I had to go through line by line to get rid of some stubborn OCR errors from the rip and ended up doing a complete reworking at the same time. Hence, these subs should be up to standard.

    This is one of Ichikawa's most realistic police murder mysteries. The acting is realistic and the story compelling. Each of the police characters is developed into a complete personality which is not always the case in this sort of film. A good watch. Hope you enjoy.









    TECH INFO:

    General
    Complete name                            : Kofuku.Lonely Heart.1981.Kon Ichikawa.mp4
    Format                                   : MPEG-4
    Format profile                           : Base Media / Version 2
    Codec ID                                 : mp42
    File size                                : 1.77 GiB
    Duration                                 : 1h 45mn
    Overall bit rate mode                    : Variable
    Overall bit rate                         : 2 398 Kbps
    Writing application                      : TMPGEnc Video Mastering Works 5 Vs. 5.0.5.32

    Video
    ID                                       : 2
    Format                                   : AVC
    Format/Info                              : Advanced Video Codec
    Format profile                           : High@L3.2
    Format settings, CABAC                   : Yes
    Format settings, ReFrames                : 3 frames
    Codec ID                                 : avc1
    Codec ID/Info                            : Advanced Video Coding
    Duration                                 : 1h 45mn
    Bit rate mode                            : Variable
    Bit rate                                 : 2,200 Kbps
    Maximum bit rate                         : 8,000 Kbps
    Width                                    : 1 280 pixels
    Height                                   : 720 pixels
    Display aspect ratio                     : 16:9
    Frame rate mode                          : Constant
    Frame rate                               : 59.940 fps
    Standard                                 : NTSC
    Color space                              : YUV
    Chroma subsampling                       : 4:2:0
    Bit depth                                : 8 bits
    Scan type                                : Progressive
    Bits/(Pixel*Frame)                       : 0.040
    Stream size                              : 1.63 GiB (92%)
    Writing library                          : x264 core 112
    Encoding settings                        : cabac=1 / ref=3 / deblock=1:0:0 / analyse=0x3:0x133 / me=umh / subme=9 / psy=1 / psy_rd=1.00:0.00 / mixed_ref=1 / me_range=16 / chroma_me=1 / trellis=2 / 8x8dct=1 / cqm=2 / deadzone=21,11 / fast_pskip=1 / chroma_qp_offset=-4 / threads=9 / sliced_threads=0 / slices=1 / nr=0 / decimate=1 / interlaced=0 / constrained_intra=0 / bframes=3 / b_pyramid=0 / b_adapt=2 / b_bias=0 / direct=3 / weightb=1 / open_gop=0 / weightp=2 / keyint=250 / keyint_min=25 / scenecut=40 / intra_refresh=0 / rc_lookahead=60 / rc=2pass / mbtree=1 / bitrate=2200 / ratetol=1.0 / qcomp=0.60 / qpmin=5 / qpmax=51 / qpstep=4 / cplxblur=20.0 / qblur=0.5 / vbv_maxrate=8000 / vbv_bufsize=7995 / nal_hrd=vbr / frame-packing=0 / ip_ratio=1.40 / aq=1:1.00
    Color primaries                          : BT.709
    Transfer characteristics                 : BT.709
    Matrix coefficients                      : BT.709

    Audio
    ID                                       : 1
    Format                                   : AAC
    Format/Info                              : Advanced Audio Codec
    Format profile                           : LC
    Codec ID                                 : 40
    Duration                                 : 1h 45mn
    Bit rate mode                            : Variable
    Bit rate                                 : 192 Kbps
    Maximum bit rate                         : 576 Kbps
    Channel count                            : 2 channels
    Channel positions                        : Front: L R
    Sampling rate                            : 48.0 KHz
    Compression mode                         : Lossy
    Stream size                              : 146 MiB (8%)


    0 0

    Original Post: Survival Audition K-Pop Star S4 HDTV x264 1080p-DoA



    Survival Audition K-pop Star (Korean: 서바이벌 오디션 K팝 스타) is a South Korean reality TV competition series where the three largest entertainment/talent agencies in South Korea hold worldwide auditions to find the next potential K-Pop stars. Preliminary auditions are held around the world in Asia, North America, South America, Europe, and Australia. The final winner will debut with the company of his or her choice (SM, YG, or JYP), along with a cash prize of three hundred million won (approx. 300,000 U.S. dollars), two brand new vehicles, opportunities to become commercial models and casting in dramas, and many more benefits








    Code
    General
    Unique ID                                : 202042438816581659041156236494069396365 (0x97FFF552D8B7A1F48BB601E4C3D9738D)
    Complete name                            :Survival.Audition.K-POP.Star.S4.E09.150118.HDTV.x264.1080p-DoA.mkv
    Format                                   : Matroska
    Format version                           : Version 4 / Version 2
    File size                                : 4.16 GiB
    Duration                                 : 1h 24mn
    Overall bit rate                         : 7 085 Kbps
    Movie name                               : 서바이벌 오디션 K팝스타 시즌4. Encoded by Elanor
    Encoded date                             : UTC 2015-05-17 20:59:26
    Writing application                      : mkvmerge v7.8.0 ('River Man') 64bit built on Mar 27 2015 16:31:37
    Writing library                          : libebml v1.3.1 + libmatroska v1.4.2
    DURATION                                 : 01:24:04.539000000
    NUMBER_OF_FRAMES                         : 151185
    NUMBER_OF_BYTES                          : 4224168339
    _STATISTICS_WRITING_APP                  : mkvmerge v7.8.0 ('River Man') 64bit built on Mar 27 2015 16:31:37
    _STATISTICS_WRITING_DATE_UTC             : 2015-05-17 20:59:26
    _STATISTICS_TAGS                         : BPS DURATION NUMBER_OF_FRAMES NUMBER_OF_BYTES

    Video
    ID                                       : 2
    Format                                   : AVC
    Format/Info                              : Advanced Video Codec
    Format profile                           : High@L4.1
    Format settings, CABAC                   : Yes
    Format settings, ReFrames                : 4 frames
    Codec ID                                 : V_MPEG4/ISO/AVC
    Duration                                 : 1h 24mn
    Bit rate                                 : 6 560 Kbps
    Width                                    : 1 920 pixels
    Height                                   : 1 080 pixels
    Display aspect ratio                     : 16:9
    Frame rate mode                          : Constant
    Frame rate                               : 29.970 fps
    Color space                              : YUV
    Chroma subsampling                       : 4:2:0
    Bit depth                                : 8 bits
    Scan type                                : Progressive
    Bits/(Pixel*Frame)                       : 0.106
    Stream size                              : 3.85 GiB (93%)
    Writing library                          : x264 core 144 r2525 40bb568
    Encoding settings                        : cabac=1 / ref=4 / deblock=1:-2:-2 / analyse=0x3:0x133 / me=umh / subme=10 / psy=1 / psy_rd=1.00:0.15 / mixed_ref=1 / me_range=24 / chroma_me=1 / trellis=2 / 8x8dct=1 / cqm=0 / deadzone=21,11 / fast_pskip=1 / chroma_qp_offset=-5 / threads=12 / lookahead_threads=2 / sliced_threads=0 / nr=0 / decimate=1 / interlaced=0 / bluray_compat=0 / constrained_intra=0 / bframes=8 / b_pyramid=2 / b_adapt=2 / b_bias=0 / direct=3 / weightb=1 / open_gop=0 / weightp=2 / keyint=288 / keyint_min=27 / scenecut=40 / intra_refresh=0 / rc_lookahead=60 / rc=crf / mbtree=1 / crf=22.0 / qcomp=0.60 / qpmin=0 / qpmax=69 / qpstep=4 / ip_ratio=1.40 / aq=1:1.00
    Default                                  : Yes
    Forced                                   : No

    Audio
    ID                                       : 1
    Format                                   : AC-3
    Format/Info                              : Audio Coding 3
    Mode extension                           : CM (complete main)
    Format settings, Endianness              : Big
    Codec ID                                 : A_AC3
    Duration                                 : 1h 24mn
    Bit rate mode                            : Constant
    Bit rate                                 : 384 Kbps
    Channel(s)                               : 2 channels
    Channel positions                        : Front: L R
    Sampling rate                            : 48.0 KHz
    Bit depth                                : 16 bits
    Compression mode                         : Lossy
    Delay relative to video                  : 21ms
    Stream size                              : 231 MiB (5%)
    Default                                  : Yes
    Forced                                   : No



    0 0

    Original Post: Ever Since We Love 2015 1080p WEB-DL x264 AC3-SeeHD





    Detail:
    Title: Ever Since We Love
    Genre: Drama, Romance
    Release Date: 24 April 2015
    Runtime: 106 min
    Director: Yu Li
    Rating: 4.7/10 from 52 users
    Country: China
    Language: Mandarin
    Subtitles:Chinese, ENglish Hardcoded

    Synopsis:
    The film "Ever Since We Love", directed by Li Yu, is based on the novel of the same title. The story depicts the life of a medical school student who grows through his experience of love and friendship.

    Cast:
    Bingbing Fan, Geng Han, Xi Qi







    Code

    Video
    ID                                       : 1
    Format                                   : AVC
    Format/Info                              : Advanced Video Codec
    Format profile                           : High@L5.0
    Format settings, CABAC                   : Yes
    Format settings, ReFrames                : 5 frames
    Codec ID                                 : V_MPEG4/ISO/AVC
    Duration                                 : 1h 45mn
    Width                                    : 1 920 pixels
    Height                                   : 800 pixels
    Display aspect ratio                     : 2.40:1
    Frame rate                               : 24.000 fps
    Color space                              : YUV
    Chroma subsampling                       : 4:2:0
    Bit depth                                : 8 bits
    Scan type                                : Progressive
    Default                                  : Yes
    Forced                                   : No

    Audio #1
    ID                                       : 2
    Format                                   : AC-3
    Format/Info                              : Audio Coding 3
    Mode extension                           : CM (complete main)
    Format settings, Endianness              : Big
    Codec ID                                 : A_AC3
    Duration                                 : 1h 45mn
    Bit rate mode                            : Constant
    Bit rate                                 : 640 Kbps
    Channel(s)                               : 2 channels
    Channel positions                        : Front: L R
    Sampling rate                            : 44.1 KHz
    Bit depth                                : 16 bits
    Compression mode                         : Lossy
    Stream size                              : 485 MiB (23%)
    Default                                  : Yes
    Forced                                   : No

    Audio #2
    ID                                       : 3
    Format                                   : AAC
    Format/Info                              : Advanced Audio Codec
    Format profile                           : LC
    Codec ID                                 : A_AAC
    Duration                                 : 1h 45mn
    Channel(s)                               : 2 channels
    Channel positions                        : Front: L R
    Sampling rate                            : 44.1 KHz
    Compression mode                         : Lossy
    Default                                  : No
    Forced                                   : No



    0 0
  • 05/20/15--05:35: Sensory Couple E15 450p LIMO
  • Original Post: Sensory Couple E15 450p LIMO


    Details
    Title: 냄새를 보는 소녀 / A Girl Who Sees Smells
    Genre: Romance
    Episodes:
    Broadcast network: SBS
    Broadcast period: 2015-Apr-01 to 2015-Jun-??
    Air time: Wednesday & Thursday 22:00
    Original Soundtrack: A Girl Who Sees Smells OST
    Synopsis
    Three years ago, a man lost his younger sister in the "Bar Code" murder case, since then he lost his senses. A girl miraculously survived the "Bar code" murder case, since then she has lost her memory. But she has also gained the ability to see smells.

    Cast
    Main Cast
    Park Yoo Chun as Choi Moo Gak
    Shin Se Kyung as Oh Cho Rim
    Nam Goong Min as Kwon Jae Hee
    Yoon Jin Seo as Yeom Mi




    Code
    Video
    ID                                       : 0
    Format                                   : AVC
    Format/Info                              : Advanced Video Codec
    Format profile                           : High@L5.1
    Format settings, CABAC                   : Yes
    Format settings, ReFrames                : 4 frames
    Codec ID                                 : H264
    Bit rate                                 : 1 500 Kbps
    Width                                    : 800 pixels
    Height                                   : 450 pixels
    Display aspect ratio                     : 16:9
    Frame rate mode                          : Variable
    Frame rate                               : 29.970 fps
    Color space                              : YUV
    Chroma subsampling                       : 4:2:0
    Bit depth                                : 8 bits
    Scan type                                : Progressive
    Bits/(Pixel*Frame)                       : 0.139
    Stream size                              : 686 MiB (88%)
    Writing library                          : x264 core 112

    Audio
    ID                                       : 1
    Format                                   : MPEG Audio
    Format version                           : Version 1
    Format profile                           : Layer 3
    Mode                                     : Joint stereo
    Mode extension                           : MS Stereo
    Codec ID                                 : 55
    Codec ID/Hint                            : MP3
    Bit rate mode                            : Constant
    Bit rate                                 : 192 Kbps
    Channel(s)                               : 2 channels
    Sampling rate                            : 48.0 KHz
    Compression mode                         : Lossy
    Stream size                              : 88.3 MiB (11%)
    Alignment                                : Aligned on interleaves
    Interleave, duration                     : 24 ms (0.72 video frame)
    Writing library                          : LAME3.98.2
    Language                                 : Korean



    0 0
  • 05/20/15--05:35: Sensory Couple E15 720p LIMO
  • Original Post: Sensory Couple E15 720p LIMO


    Details
    Title: 냄새를 보는 소녀 / A Girl Who Sees Smells
    Genre: Romance
    Episodes:
    Broadcast network: SBS
    Broadcast period: 2015-Apr-01 to 2015-Jun-??
    Air time: Wednesday & Thursday 22:00
    Original Soundtrack: A Girl Who Sees Smells OST
    Synopsis
    Three years ago, a man lost his younger sister in the "Bar Code" murder case, since then he lost his senses. A girl miraculously survived the "Bar code" murder case, since then she has lost her memory. But she has also gained the ability to see smells.

    Cast
    Main Cast
    Park Yoo Chun as Choi Moo Gak
    Shin Se Kyung as Oh Cho Rim
    Nam Goong Min as Kwon Jae Hee
    Yoon Jin Seo as Yeom Mi




    Code
    Video
    ID                               : 0
    Format                           : AVC
    Format/Info                      : Advanced Video Codec
    Format profile                   : High@L5.1
    Format settings, CABAC           : Yes
    Format settings, ReFrames        : 4 frames
    Codec ID                         : H264
    Duration                         : 1h 4mn
    Bit rate                         : 3 000 Kbps
    Width                            : 1 280 pixels
    Height                           : 720 pixels
    Display aspect ratio             : 16:9
    Frame rate mode                  : Variable
    Frame rate                       : 29.970 fps
    Color space                      : YUV
    Chroma subsampling               : 4:2:0
    Bit depth                        : 8 bits
    Scan type                        : Progressive
    Bits/(Pixel*Frame)               : 0.109
    Stream size                      : 1.35 GiB (94%)
    Writing library                  : x264 core 112
    Encoding settings                : cabac=1 / ref=3 / deblock=1:-1:-1 / analyse=0x3:0x113 / me=hex / subme=6 / psy=1 / psy_rd=1.00:1.00 / mixed_ref=1 / me_range=16 / chroma_me=1 / trellis=1 / 8x8dct=1 / cqm=0 / deadzone=21,11 / fast_pskip=0 / chroma_qp_offset=-4 / threads=12 / sliced_threads=0 / nr=0 / decimate=1 / interlaced=0 / constrained_intra=0 / bframes=3 / b_pyramid=2 / b_adapt=1 / b_bias=1 / direct=3 / weightb=1 / open_gop=0 / weightp=2 / keyint=299 / keyint_min=25 / scenecut=1 / intra_refresh=0 / rc_lookahead=40 / rc=abr / mbtree=1 / bitrate=3000 / ratetol=1.0 / qcomp=0.60 / qpmin=10 / qpmax=51 / qpstep=4 / ip_ratio=1.40 / aq=1:1.00

    Audio
    ID                               : 1
    Format                           : MPEG Audio
    Format version                   : Version 1
    Format profile                   : Layer 3
    Mode                             : Joint stereo
    Mode extension                   : MS Stereo
    Codec ID                         : 55
    Codec ID/Hint                    : MP3
    Duration                         : 1h 4mn
    Bit rate mode                    : Constant
    Bit rate                         : 192 Kbps
    Channel(s)                       : 2 channels
    Sampling rate                    : 48.0 KHz
    Stream size                      : 88.0 MiB (6%)
    Alignment                        : Split accross interleaves
    Interleave, duration             : 33 ms (1.00 video frame)
    Interleave, preload duration     : 500 ms
    Writing library                  : LAME3.98.2



    0 0

    Original Post: Let's Eat S02 E12 Repack XVID WITH


    Title: 식샤를 합시다 2 / Siksyareul Habsida 2
    Episodes: 18
    Broadcast period: 2015-Apr-06 to 2015-???-??
    Air time: Monday & Tuesday 23:00
    Original soundtrack: Let's Eat 2 OST


    Synopsis
    Goo Dae young’s rivals have appeared! Food blogger Goo Dae young, the fourth year freelancer, Bae Soo ji on one meal per day diet, who regards him as an enemy, and the vegetarian government worker, Lee Sang Woo. This drama depicts the spicy and tasteful lives of the single dwellers in Sejong Villa, who has each one’s own unique taste

    Cast
    Yoon Doo Joon as Goo Dae Young
    Seo Hyun Jin as Baek Soo Ji
    Kwon Yool as Lee Sang Woo
    Kim Hee Won as Im Taek Soo
    Hwang Seung Eon as Hwang Hye Rim
    Jo Eun Ji as Hong In Ah
    Hwang Suk Jung as Kim Mo Ran
    Lee Joo Seung as mysterious man




    Code
    Video
    ID                                       : 0
    Format                                   : MPEG-4 Visual
    Format profile                           : Advanced Simple@L5
    Format settings, BVOP                    : No
    Format settings, QPel                    : No
    Format settings, GMC                     : No warppoints
    Format settings, Matrix                  : Default (MPEG)
    Codec ID                                 : XVID
    Codec ID/Hint                            : XviD
    Bit rate                                 : 1 391 Kbps
    Width                                    : 624 pixels
    Height                                   : 352 pixels
    Display aspect ratio                     : 16:9
    Frame rate                               : 29.970 fps
    Color space                              : YUV
    Chroma subsampling                       : 4:2:0
    Bit depth                                : 8 bits
    Scan type                                : Progressive
    Compression mode                         : Lossy
    Bits/(Pixel*Frame)                       : 0.211
    Stream size                              : 660 MiB (87%)
    Writing library                          : XviD 1.2.1 (UTC 2008-12-04)

    Audio
    ID                                       : 1
    Format                                   : MPEG Audio
    Format version                           : Version 1
    Format profile                           : Layer 3
    Mode                                     : Joint stereo
    Mode extension                           : MS Stereo
    Codec ID                                 : 55
    Codec ID/Hint                            : MP3
    Bit rate mode                            : Constant
    Bit rate                                 : 128 Kbps
    Channel(s)                               : 2 channels
    Sampling rate                            : 48.0 KHz
    Compression mode                         : Lossy
    Stream size                              : 60.8 MiB (8%)
    Alignment                                : Aligned on interleaves
    Writing library                          : LAME3.98.2



    0 0

    Original Post: Let's Eat S02 E12 Repack 720p WITH


    Title: 식샤를 합시다 2 / Siksyareul Habsida 2
    Episodes: 18
    Broadcast period: 2015-Apr-06 to 2015-???-??
    Air time: Monday & Tuesday 23:00
    Original soundtrack: Let's Eat 2 OST


    Synopsis
    Goo Dae young’s rivals have appeared! Food blogger Goo Dae young, the fourth year freelancer, Bae Soo ji on one meal per day diet, who regards him as an enemy, and the vegetarian government worker, Lee Sang Woo. This drama depicts the spicy and tasteful lives of the single dwellers in Sejong Villa, who has each one’s own unique taste

    Cast
    Yoon Doo Joon as Goo Dae Young
    Seo Hyun Jin as Baek Soo Ji
    Kwon Yool as Lee Sang Woo
    Kim Hee Won as Im Taek Soo
    Hwang Seung Eon as Hwang Hye Rim
    Jo Eun Ji as Hong In Ah
    Hwang Suk Jung as Kim Mo Ran
    Lee Joo Seung as mysterious man




    Code
    Video
    ID                                       : 0
    Format                                   : AVC
    Format/Info                              : Advanced Video Codec
    Format profile                           : Baseline@L3.1
    Format settings, CABAC                   : No
    Format settings, ReFrames                : 1 frame
    Codec ID                                 : H264
    Bit rate                                 : 3 017 Kbps
    Width                                    : 1 280 pixels
    Height                                   : 720 pixels
    Display aspect ratio                     : 16:9
    Frame rate mode                          : Variable
    Frame rate                               : 29.970 fps
    Color space                              : YUV
    Chroma subsampling                       : 4:2:0
    Bit depth                                : 8 bits
    Scan type                                : Progressive
    Bits/(Pixel*Frame)                       : 0.109

    Audio
    ID                                       : 1
    Format                                   : MPEG Audio
    Format version                           : Version 1
    Format profile                           : Layer 3
    Mode                                     : Joint stereo
    Mode extension                           : MS Stereo
    Codec ID                                 : 55
    Codec ID/Hint                            : MP3
    Bit rate mode                            : Constant
    Bit rate                                 : 128 Kbps
    Channel(s)                               : 2 channels
    Sampling rate                            : 44.1 KHz
    Compression mode                         : Lossy
    Stream size                              : 62.1 MiB (4%)
    Alignment                                : Aligned on interleaves
    Interleave, duration                     : 26 ms (0.78 video frame)
    Writing library                          : LAME3.98.2



    0 0

    Original Post: Maze: Secret Love 2015.720p.SUBBED.WEB-DL.DivX.MP3-QUiCKY





    Detail:
    Title: Maze: Secret Love
    Genre:•Melodrama •Romance •Thriller
    Release Date: 2015/04/23
    Runtime: 69min
    Director: Hideo Jojo (城定秀夫)
    Country: South Korea
    Language: Korean
    Subtitles:Korean Hardcoded

    Synopsis:
    Dong-hyeon and Yong-joon coincidentally meet at an acting audition. A strange gentleman appears in front of the both of them who are sick of failing at these auditions and suggests something to them. Meanwhile, Ayaka comes to Korea with her best friend Saori to meet her fiancé, Min-joon's parents. She runs into Dong-hyeon and Yong-joon who ask her to star in something and although she's not up for it, she's ushered into doing it by Shiori who loves handsome men. They move locations to a run-down facility and suddenly all exits are blocked and the four of them are trapped. Ayaka looks for an exit but instead finds cameras put up everywhere and gets the feeling that they are being watched. She suspects Yong-joon and Dong-hyeon of being behind this. Suddenly, young men overdosed with gas appear out of no where and try to rape Ayaka and Shiori. Dong-hyeon and Yong-joon fight them to save the women. All this is recorded live and sent to a crowd who is watching from a theater,enjoying it. Yong-joon and Shiori escape into another room but soon they are gassed and they suddenly want each other so bad. Then Shiori loses her mind and kills Yong-joon. Min-joon is watching this amongst the crowd at the theater. What happened between Ayaka and Min-joon...?

    Cast:







    Code

    Video
    ID                                       : 0
    Format                                   : MPEG-4 Visual
    Format profile                           : Simple@L1
    Format settings, BVOP                    : No
    Format settings, QPel                    : No
    Format settings, GMC                     : No warppoints
    Format settings, Matrix                  : Default (MPEG)
    Codec ID                                 : DIVX
    Codec ID/Info                            : Project Mayo
    Codec ID/Hint                            : DivX 4
    Duration                                 : 1h 9mn
    Bit rate                                 : 4 967 Kbps
    Width                                    : 1 280 pixels
    Height                                   : 720 pixels
    Display aspect ratio                     : 16:9
    Frame rate                               : 23.976 fps
    Color space                              : YUV
    Chroma subsampling                       : 4:2:0
    Bit depth                                : 8 bits
    Scan type                                : Progressive
    Compression mode                         : Lossy
    Bits/(Pixel*Frame)                       : 0.225
    Stream size                              : 2.40 GiB (96%)
    Writing library                          : Lavc52.108.0

    Audio
    ID                                       : 1
    Format                                   : MPEG Audio
    Format version                           : Version 1
    Format profile                           : Layer 3
    Mode                                     : Joint stereo
    Mode extension                           : MS Stereo
    Codec ID                                 : 55
    Codec ID/Hint                            : MP3
    Duration                                 : 1h 9mn
    Bit rate mode                            : Constant
    Bit rate                                 : 192 Kbps
    Channel(s)                               : 2 channels
    Sampling rate                            : 48.0 KHz
    Compression mode                         : Lossy
    Stream size                              : 94.9 MiB (4%)
    Alignment                                : Aligned on interleaves
    Interleave, duration                     : 24 ms (0.58 video frame)
    Writing library                          : LAME3.98.2



    0 0
  • 05/20/15--09:12: Let's Eat S02 E13 XVID WITH
  • Original Post: Let's Eat S02 E13 XVID WITH


    Title: 식샤를 합시다 2 / Siksyareul Habsida 2
    Episodes: 18
    Broadcast period: 2015-Apr-06 to 2015-???-??
    Air time: Monday & Tuesday 23:00
    Original soundtrack: Let's Eat 2 OST


    Synopsis
    Goo Dae young’s rivals have appeared! Food blogger Goo Dae young, the fourth year freelancer, Bae Soo ji on one meal per day diet, who regards him as an enemy, and the vegetarian government worker, Lee Sang Woo. This drama depicts the spicy and tasteful lives of the single dwellers in Sejong Villa, who has each one’s own unique taste

    Cast
    Yoon Doo Joon as Goo Dae Young
    Seo Hyun Jin as Baek Soo Ji
    Kwon Yool as Lee Sang Woo
    Kim Hee Won as Im Taek Soo
    Hwang Seung Eon as Hwang Hye Rim
    Jo Eun Ji as Hong In Ah
    Hwang Suk Jung as Kim Mo Ran
    Lee Joo Seung as mysterious man




    Code
    Video
    ID                                       : 0
    Format                                   : MPEG-4 Visual
    Format profile                           : Advanced Simple@L5
    Format settings, BVOP                    : No
    Format settings, QPel                    : No
    Format settings, GMC                     : No warppoints
    Format settings, Matrix                  : Default (MPEG)
    Codec ID                                 : XVID
    Codec ID/Hint                            : XviD
    Bit rate                                 : 1 391 Kbps
    Width                                    : 624 pixels
    Height                                   : 352 pixels
    Display aspect ratio                     : 16:9
    Frame rate                               : 29.970 fps
    Color space                              : YUV
    Chroma subsampling                       : 4:2:0
    Bit depth                                : 8 bits
    Scan type                                : Progressive
    Compression mode                         : Lossy
    Bits/(Pixel*Frame)                       : 0.211
    Stream size                              : 660 MiB (87%)
    Writing library                          : XviD 1.2.1 (UTC 2008-12-04)

    Audio
    ID                                       : 1
    Format                                   : MPEG Audio
    Format version                           : Version 1
    Format profile                           : Layer 3
    Mode                                     : Joint stereo
    Mode extension                           : MS Stereo
    Codec ID                                 : 55
    Codec ID/Hint                            : MP3
    Bit rate mode                            : Constant
    Bit rate                                 : 128 Kbps
    Channel(s)                               : 2 channels
    Sampling rate                            : 48.0 KHz
    Compression mode                         : Lossy
    Stream size                              : 60.8 MiB (8%)
    Alignment                                : Aligned on interleaves
    Writing library                          : LAME3.98.2



    0 0
  • 05/20/15--09:12: Let's Eat S02 E13 720p WITH
  • Original Post: Let's Eat S02 E13 720p WITH


    Title: 식샤를 합시다 2 / Siksyareul Habsida 2
    Episodes: 18
    Broadcast period: 2015-Apr-06 to 2015-???-??
    Air time: Monday & Tuesday 23:00
    Original soundtrack: Let's Eat 2 OST


    Synopsis
    Goo Dae young’s rivals have appeared! Food blogger Goo Dae young, the fourth year freelancer, Bae Soo ji on one meal per day diet, who regards him as an enemy, and the vegetarian government worker, Lee Sang Woo. This drama depicts the spicy and tasteful lives of the single dwellers in Sejong Villa, who has each one’s own unique taste

    Cast
    Yoon Doo Joon as Goo Dae Young
    Seo Hyun Jin as Baek Soo Ji
    Kwon Yool as Lee Sang Woo
    Kim Hee Won as Im Taek Soo
    Hwang Seung Eon as Hwang Hye Rim
    Jo Eun Ji as Hong In Ah
    Hwang Suk Jung as Kim Mo Ran
    Lee Joo Seung as mysterious man




    Code
    Video
    ID                                       : 0
    Format                                   : AVC
    Format/Info                              : Advanced Video Codec
    Format profile                           : Baseline@L3.1
    Format settings, CABAC                   : No
    Format settings, ReFrames                : 1 frame
    Codec ID                                 : H264
    Bit rate                                 : 3 017 Kbps
    Width                                    : 1 280 pixels
    Height                                   : 720 pixels
    Display aspect ratio                     : 16:9
    Frame rate mode                          : Variable
    Frame rate                               : 29.970 fps
    Color space                              : YUV
    Chroma subsampling                       : 4:2:0
    Bit depth                                : 8 bits
    Scan type                                : Progressive
    Bits/(Pixel*Frame)                       : 0.109

    Audio
    ID                                       : 1
    Format                                   : MPEG Audio
    Format version                           : Version 1
    Format profile                           : Layer 3
    Mode                                     : Joint stereo
    Mode extension                           : MS Stereo
    Codec ID                                 : 55
    Codec ID/Hint                            : MP3
    Bit rate mode                            : Constant
    Bit rate                                 : 128 Kbps
    Channel(s)                               : 2 channels
    Sampling rate                            : 44.1 KHz
    Compression mode                         : Lossy
    Stream size                              : 62.1 MiB (4%)
    Alignment                                : Aligned on interleaves
    Interleave, duration                     : 26 ms (0.78 video frame)
    Writing library                          : LAME3.98.2



    0 0

    Original Post: DoS Deka EP06 720p HDTV x264 AAC-DoA



    http://wiki.d-addicts.com/DoS_Deka
    http://asianwiki.com/DoS_Deka
    http://thetvdb.com/?tab=series&id=294718

    Title (romaji): DoS Deka
    Also known as: Ms. Sadistic Detective
    Format: Renzoku
    Genre: Detective comedy
    Episodes: TBD
    Broadcast network: NTV
    Broadcast period: 2015-Apr-11 start
    Air time: Saturday 21:00
    Theme song: Tsuyoku Tsuyoku Tsuyoku by Kanjani8
    Subtitles: English - hikaruisyum
    RAW credit to DoA


    Cast

       Tabe Mikako as Kuroi Maya
       Okura Tadayoshi as Daikanyama Shusuke
       Yoshida Yo as Shirokane Fujiko
       Yaotome Hikaru as Hamda Soichiro
       Nakamura Yasuhi as Nakane Masanobu
       Katsumura Masanobu as Arisugawa Tsuneo
       Ishii Masanori as Yura Fumio
       Mitz Mangrove (ミッツ・マングローブ) as Inui Kenzaburo
       Seto Saori (瀬戸さおり) as Daikanyama Kaori
       Suga Yusuke (菅裕輔) as Ken-chan
       Ibu Masato as Kondo Tokuji
       Kishimoto Kayoko as Daikanyama Keiko


    Synopsis

    An uber-sadistic female detective and her nice-guy cop—an unbeatable partnership?! A delightful police comedy is born!

    She has no loyalty to her organization and doesn't follow any rules. She's a detective who enjoys seeing people's troubled faces. Her name is Kuroi Maya. She chose to become a detective because she thought she could torment bad people all she wants. With her sharp intuition, she finds the suspects quicker than anybody else. Beautiful but also a pain in the neck, she unleashes her sadistic ways to round up the bad people from society. This is a story about a never-before-seen uber-sadistic detective.

    Her unlucky partner? Daikanyama Shusuke, an officer who works in a police box. Caught in between a strong-willed mother and younger sister, he is constantly being pushed around at home. Shusuke and Maya have their chance encounter at a crime scene and the two end up as buddies. -- NTV


    Mediainfo
    Spoiler:show

    Code
    Format                                   : Matroska
    Format version                           : Version 4 / Version 2
    File size                                : 1.20 GiB
    Duration                                 : 46mn 4s
    Overall bit rate                         : 3 739 Kbps
    Movie name                               : ドS刑事 第6話 720p HDTV x264 AAC-DoA
    Encoded date                             : UTC 2015-05-17 21:52:55
    Writing application                      : mkvmerge v7.9.0 ('Birds') 64bit
    Writing library                          : libebml v1.3.1 + libmatroska v1.4.2
    DURATION                                 : 00:46:04.800000000
    NUMBER_OF_FRAMES                         : 129600
    NUMBER_OF_BYTES                          : 65188800
    _STATISTICS_WRITING_APP                  : mkvmerge v7.9.0 ('Birds') 64bit
    _STATISTICS_WRITING_DATE_UTC             : 2015-05-17 21:52:55
    _STATISTICS_TAGS                         : BPS DURATION NUMBER_OF_FRAMES NUMBER_OF_BYTES

    Video
    ID                                       : 1
    Format                                   : AVC
    Format/Info                              : Advanced Video Codec
    Format profile                           : High@L4.1
    Format settings, CABAC                   : Yes
    Format settings, ReFrames                : 9 frames
    Codec ID                                 : V_MPEG4/ISO/AVC
    Duration                                 : 46mn 4s
    Width                                    : 1 280 pixels
    Height                                   : 720 pixels
    Display aspect ratio                     : 16:9
    Frame rate mode                          : Constant
    Frame rate                               : 29.970 fps
    Color space                              : YUV
    Chroma subsampling                       : 4:2:0
    Bit depth                                : 8 bits
    Scan type                                : Progressive
    Title                                    : Encode by TTG-DoA
    Writing library                          : x264 core 146 r2538 121396c
    Encoding settings                        : cabac=1 / ref=9 / deblock=1:-2:-2 / analyse=0x3:0x133 / me=umh / subme=10 / psy=1 / psy_rd=1.00:0.15 / mixed_ref=1 / me_range=48 / chroma_me=1 / trellis=2 / 8x8dct=1 / cqm=0 / deadzone=21,11 / fast_pskip=0 / chroma_qp_offset=-3 / threads=12 / lookahead_threads=2 / sliced_threads=0 / nr=0 / decimate=1 / interlaced=0 / bluray_compat=0 / constrained_intra=0 / bframes=8 / b_pyramid=2 / b_adapt=2 / b_bias=0 / direct=3 / weightb=1 / open_gop=0 / weightp=2 / keyint=300 / keyint_min=29 / scenecut=40 / intra_refresh=0 / rc_lookahead=60 / rc=crf / mbtree=1 / crf=17.0 / qcomp=0.60 / qpmin=0 / qpmax=69 / qpstep=4 / ip_ratio=1.40 / aq=1:1.00
    Language                                 : Japanese
    Default                                  : Yes
    Forced                                   : No
    _STATISTICS_WRITING_APP                  : mkvmerge v7.9.0 ('Birds') 64bit
    _STATISTICS_WRITING_DATE_UTC             : 2015-05-17 21:52:55
    _STATISTICS_TAGS                         : BPS DURATION NUMBER_OF_FRAMES NUMBER_OF_BYTES
    DURATION                                 : 00:46:04.828000000
    NUMBER_OF_FRAMES                         : 82862
    NUMBER_OF_BYTES                          : 1226213802

    Audio
    ID                                       : 2
    Format                                   : AAC
    Format/Info                              : Advanced Audio Codec
    Format profile                           : LC
    Codec ID                                 : A_AAC
    Duration                                 : 46mn 4s
    Channel(s)                               : 2 channels
    Channel positions                        : Front: L R
    Sampling rate                            : 48.0 KHz
    Compression mode                         : Lossy
    Language                                 : Japanese
    Default                                  : Yes
    Forced                                   : No

    Menu
    00:00:00.000                             : ja:Chapter 01
    00:15:33.966                             : ja:Chapter 02
    00:21:17.943                             : ja:Chapter 03
    00:28:35.880                             : ja:Chapter 04





    0 0

    Original Post: Fuben na Benriya EP06 720p HDTV x264 AAC DoA



    http://wiki.d-addicts.com/Fuben_na_Benriya
    http://asianwiki.com/Fuben_na_Benriya
    http://thetvdb.com/?tab=series&id=294580&lid=7

    Title (romaji): Fuben na Benriya
    Format: Renzoku
    Genre: Comedy
    Episodes: TBD
    Broadcast network: TV Tokyo
    Broadcast period: 2015-Apr-10 start
    Air time: Friday 24:12
    Theme song: The Place Has No Name by Straightener
    Subtitles: English(synced to the RAW uploaded by Furansu) - Monchi  
    RAW credit to DoA


    Cast

       Okada Masaki as Takeyama Jun
       Suzuki Kosuke as Matsui Hideo
       Endo Kenichi as Umemoto Soichi
       Moriyama Eiji (森山栄治)
       Triendl Reina
       Morisaka Hiroyuki (森崎博之)
       Sakuma Mio (さくまみお)
       Tanaka Yoji
       Inoue Takashi


    Synopsis

    Matsui runs a benriya (odd jobs for hire) in a small nameless Hokkaido village. Umemoto has divorced 3 times. Screenwriter Takeyama (Masaki Okada) wants to go to Furano, but the bus to Furano becomes stranded due to a snowstorm. Takeyama stops at a bar to eat something, but at the bar he loses his wallet and cellphone. Takeyama is now obliged to stay in the small and nameless village.

    Matsui, Umemoto and Takeyama are now all at Matsui’s Benriya.  


    Mediainfo
    Spoiler:show

    Code
    Format                                   : Matroska
    Format version                           : Version 4 / Version 2
    File size                                : 972 MiB
    Duration                                 : 29mn 14s
    Overall bit rate                         : 4 644 Kbps
    Encoded date                             : UTC 2015-05-18 04:32:12
    Writing application                      : mkvmerge v7.9.0 ('Birds') 64bit
    Writing library                          : libebml v1.3.1 + libmatroska v1.4.2
    DURATION                                 : 00:29:14.965000000
    NUMBER_OF_FRAMES                         : 82264
    NUMBER_OF_BYTES                          : 41378792
    _STATISTICS_WRITING_APP                  : mkvmerge v7.9.0 ('Birds') 64bit
    _STATISTICS_WRITING_DATE_UTC             : 2015-05-18 04:32:12
    _STATISTICS_TAGS                         : BPS DURATION NUMBER_OF_FRAMES NUMBER_OF_BYTES

    Video
    ID                                       : 1
    Format                                   : AVC
    Format/Info                              : Advanced Video Codec
    Format profile                           : High@L4.1
    Format settings, CABAC                   : Yes
    Format settings, ReFrames                : 9 frames
    Codec ID                                 : V_MPEG4/ISO/AVC
    Duration                                 : 29mn 14s
    Width                                    : 1 280 pixels
    Height                                   : 720 pixels
    Display aspect ratio                     : 16:9
    Frame rate mode                          : Constant
    Frame rate                               : 29.970 fps
    Color space                              : YUV
    Chroma subsampling                       : 4:2:0
    Bit depth                                : 8 bits
    Scan type                                : Progressive
    Writing library                          : x264 core 146 r2538 121396c
    Encoding settings                        : cabac=1 / ref=9 / deblock=1:-3:-3 / analyse=0x3:0x133 / me=umh / subme=10 / psy=1 / psy_rd=1.00:0.15 / mixed_ref=1 / me_range=48 / chroma_me=1 / trellis=2 / 8x8dct=1 / cqm=0 / deadzone=21,11 / fast_pskip=0 / chroma_qp_offset=-3 / threads=12 / lookahead_threads=2 / sliced_threads=0 / nr=0 / decimate=1 / interlaced=0 / bluray_compat=0 / stitchable=1 / constrained_intra=0 / bframes=9 / b_pyramid=2 / b_adapt=2 / b_bias=0 / direct=3 / weightb=1 / open_gop=0 / weightp=2 / keyint=250 / keyint_min=25 / scenecut=40 / intra_refresh=0 / rc_lookahead=250 / rc=crf / mbtree=1 / crf=17.5 / qcomp=0.60 / qpmin=0 / qpmax=69 / qpstep=4 / ip_ratio=1.40 / aq=1:1.00
    Language                                 : Japanese
    Default                                  : Yes
    Forced                                   : No

    Audio
    ID                                       : 2
    Format                                   : AAC
    Format/Info                              : Advanced Audio Codec
    Format profile                           : LC
    Codec ID                                 : A_AAC
    Duration                                 : 29mn 14s
    Channel(s)                               : 2 channels
    Channel positions                        : Front: L R
    Sampling rate                            : 48.0 KHz
    Compression mode                         : Lossy
    Delay relative to video                  : 19ms
    Title                                    : Japanse 2.0 AAC
    Language                                 : Japanese
    Default                                  : Yes
    Forced                                   : No

    Menu
    00:00:00.000                             : ja:Preview
    00:00:04.972                             : ja:Section I
    00:01:18.111                             : ja:Opening
    00:02:12.466                             : ja:Section II
    00:08:20.967                             : ja:Section III
    00:14:52.959                             : ja:Section IV
    00:21:12.938                             : ja:Section V
    00:27:36.021                             : ja:Credits
    00:28:44.923                             : ja:Trailer
    00:28:59.938                             : ja:Advertisement





    0 0

    Original Post: [Singapore Drama] Mind Games EP04 720p HDTV x264 AAC-DoA



    Title: Mind Game(心迷)
    Genre: Drama
    Episodes: TBD
    Broadcast network: MediaCorp
    Country: Singapore
    Language: Mandarin
    Broadcast period: 7 May - 17 Jun
    Air time: Weekday 21:00
    Subtitles: English
    RAW credit to DoA

     
    Cast

       Joanne Peh as Zhao Anni
       Tay Ping Hui as Liang Wenjie
       Zhang Yao Dong as Guo Yongyan
       Paige Chua as Feng Xuezhi/Liang Huixin
       Yuan Shuai
       Terence Cao
       Ye Shipin
       Akit Tay
       Tiffany Leong


    Synopsis

    Mind Games is thriller-romance drama with many unexpected twists and suspense. Liang Wen Jie (Tay Ping Hui) is a paralegal at a law firm; he is in-charge of many mysterious cases that requires thorough investigations. In each case, suspects are extremely careful as they plot elaborate lies to escape from detection. However, none of them can escape from Wen Jie who has a sharp analytical mind and is attentive to even the smallest details.


    Mediainfo
    Spoiler:show

    Code
    Format                                   : Matroska
    Format version                           : Version 4 / Version 2
    File size                                : 1.16 GiB
    Duration                                 : 45mn 25s
    Overall bit rate                         : 3 640 Kbps
    Encoded date                             : UTC 2015-05-14 15:52:42
    Writing application                      : mkvmerge v6.1.0 ('Old Devil') built on Mar  2 2013 14:32:37
    Writing library                          : libebml v1.3.0 + libmatroska v1.4.0

    Video
    ID                                       : 1
    Format                                   : AVC
    Format/Info                              : Advanced Video Codec
    Format profile                           : High@L4.1
    Format settings, CABAC                   : Yes
    Format settings, ReFrames                : 5 frames
    Codec ID                                 : V_MPEG4/ISO/AVC
    Duration                                 : 45mn 25s
    Bit rate                                 : 3 440 Kbps
    Width                                    : 1 280 pixels
    Height                                   : 720 pixels
    Display aspect ratio                     : 16:9
    Frame rate mode                          : Constant
    Frame rate                               : 25.000 fps
    Color space                              : YUV
    Chroma subsampling                       : 4:2:0
    Bit depth                                : 8 bits
    Scan type                                : Progressive
    Bits/(Pixel*Frame)                       : 0.149
    Stream size                              : 1.09 GiB (94%)
    Writing library                          : x264 core 120 r2164 da19765
    Encoding settings                        : cabac=1 / ref=5 / deblock=1:-3:-3 / analyse=0x3:0x133 / me=umh / subme=9 / psy=1 / psy_rd=1.00:0.15 / mixed_ref=1 / me_range=16 / chroma_me=1 / trellis=2 / 8x8dct=1 / cqm=0 / deadzone=21,11 / fast_pskip=1 / chroma_qp_offset=-3 / threads=6 / sliced_threads=0 / nr=0 / decimate=1 / interlaced=0 / bluray_compat=0 / constrained_intra=0 / bframes=8 / b_pyramid=2 / b_adapt=2 / b_bias=0 / direct=3 / weightb=1 / open_gop=0 / weightp=2 / keyint=250 / keyint_min=25 / scenecut=40 / intra_refresh=0 / rc_lookahead=60 / rc=crf / mbtree=1 / crf=18.0 / qcomp=0.60 / qpmin=0 / qpmax=69 / qpstep=4 / ip_ratio=1.40 / aq=1:1.00
    Default                                  : Yes
    Forced                                   : No

    Audio
    ID                                       : 2
    Format                                   : AC-3
    Format/Info                              : Audio Coding 3
    Mode extension                           : CM (complete main)
    Format settings, Endianness              : Big
    Codec ID                                 : A_AC3
    Duration                                 : 45mn 25s
    Bit rate mode                            : Constant
    Bit rate                                 : 128 Kbps
    Channel(s)                               : 2 channels
    Channel positions                        : Front: L R
    Sampling rate                            : 48.0 KHz
    Bit depth                                : 16 bits
    Compression mode                         : Lossy
    Stream size                              : 41.6 MiB (4%)
    Language                                 : Chinese
    Default                                  : Yes
    Forced                                   : No





    0 0

    Original Post: TVB Limelight Years E18 HDTV 720p-TVBDO



    If you like my upload, please press the "Thank You" buttoncool2.gif

    English Title: Limelight Years
    Chinese Title:華麗轉身
    Network: TVB
    Release Date: April 27, 2015
    Episodes: 20
    Country: Hong Kong
    Audio: Cantonese (AC-3 6 Channels)
    Subtitles: English (.srt embedded)
    Genre: Modern
    Cast: Liza Wang, Damion Lau, Alex Fong, Linda Chung, Eliza Sum, Jonathan Wong, Jacqueline Wong, Michelle Yim (Guest Star)

    Synopsis: There is darkness behind the limelight. After recovering from a long-term sickness, retiring singer Wah Fong Ying (Liza Wang) has come to realize that she has failed to live a fulfilling life. With two failed marriages and strained relationships with her three children, Fong Ying is much lonelier than she admits. Summoning up all her courage, Fong Ying flies to Taiwan to mend her broken relationship with her oldest daughter. During this time, she comes across Hong Kong photographer Law Ben (Damian Lau), who is in Taiwan to fulfill his late wife’s (Michelle Yim) wish of returning to her ancestral home. Sparks fly when the extraordinary meets the ordinary. Both Fong Ying and Ben find their strength as they quietly support each other.

    Encouraged by Ben, Fong Ying decides to perform one last time in a goodbye concert for her close friends and family, but her youngest daughter Tong Yan (Eliza Sam) reacts coldly to the invitation. Nonetheless, Fong Ying remains committed to her last concert and hires a new assistant Szeto Dik Dik (Linda Chung) and a new creative director, Song Sheung Hang (Alex Fong). Dik Dik and Sheung Han initially struggle to get along due to past misunderstandings, but they eventually cultivate a deep relationship. Just as Fong Ying starts to find the light again, she is once again attacked by darkness. While Sheung Hang was preparing a special issue to promote Fong Ying’s concert, he discovers an ugly secret that Fong Ying has been keeping for many years. Dik Dik finds out that Fong Ying and her uncle were involved in the past. Ben is also starting to have hallucinations…






    If you like my upload, please press the "Thank You" buttoncool2.gif


    Code

    General
    Unique ID                                : 173148415050046361929930001082723249724 (0x82432BF6F18339C5AA17C1F60FF6AE3C)
    Complete name                            : Limelight.Years.E18.HDTV.720p-TVBDO.mkv
    Format                                   : Matroska
    Format version                           : Version 4 / Version 2
    File size                                : 1.48 GiB
    Duration                                 : 44mn 11s
    Overall bit rate                         : 4 779 Kbps
    Encoded date                             : UTC 2015-05-20 19:54:18
    Writing application                      : mkvmerge v7.5.0 ('Glass Culture') 32bit built on Jan  4 2015 16:37:25
    Writing library                          : libebml v1.3.1 + libmatroska v1.4.2
    DURATION                                 : 00:41:07.133000000
    NUMBER_OF_FRAMES                         : 629
    NUMBER_OF_BYTES                          : 27474
    _STATISTICS_WRITING_APP                  : mkvmerge v7.5.0 ('Glass Culture') 32bit built on Jan  4 2015 16:37:25
    _STATISTICS_WRITING_DATE_UTC             : 2015-05-20 19:54:18
    _STATISTICS_TAGS                         : BPS DURATION NUMBER_OF_FRAMES NUMBER_OF_BYTES

    Video
    ID                                       : 1
    Format                                   : AVC
    Format/Info                              : Advanced Video Codec
    Format profile                           : High@L3.1
    Format settings, CABAC                   : Yes
    Format settings, ReFrames                : 4 frames
    Codec ID                                 : V_MPEG4/ISO/AVC
    Duration                                 : 44mn 11s
    Bit rate                                 : 4 300 Kbps
    Width                                    : 1 280 pixels
    Height                                   : 720 pixels
    Display aspect ratio                     : 16:9
    Frame rate                               : 25.000 fps
    Color space                              : YUV
    Chroma subsampling                       : 4:2:0
    Bit depth                                : 8 bits
    Scan type                                : Progressive
    Bits/(Pixel*Frame)                       : 0.187
    Stream size                              : 1.33 GiB (90%)
    Writing library                          : x264 core 146 r2538 121396c
    Encoding settings                        : cabac=1 / ref=3 / deblock=1:-1:-1 / analyse=0x3:0x113 / me=hex / subme=7 / psy=1 / psy_rd=1.00:0.15 / mixed_ref=1 / me_range=16 / chroma_me=1 / trellis=1 / 8x8dct=1 / cqm=0 / deadzone=21,11 / fast_pskip=1 / chroma_qp_offset=-3 / threads=18 / lookahead_threads=3 / sliced_threads=0 / nr=0 / decimate=1 / interlaced=0 / bluray_compat=0 / constrained_intra=0 / bframes=3 / b_pyramid=2 / b_adapt=1 / b_bias=0 / direct=1 / weightb=1 / open_gop=0 / weightp=2 / keyint=250 / keyint_min=25 / scenecut=40 / intra_refresh=0 / rc_lookahead=40 / rc=crf / mbtree=1 / crf=16.0 / qcomp=0.60 / qpmin=0 / qpmax=69 / qpstep=4 / ip_ratio=1.40 / aq=1:1.00
    Default                                  : Yes
    Forced                                   : No

    Audio
    ID                                       : 2
    Format                                   : AC-3
    Format/Info                              : Audio Coding 3
    Mode extension                           : CM (complete main)
    Format settings, Endianness              : Big
    Codec ID                                 : A_AC3
    Duration                                 : 44mn 11s
    Bit rate mode                            : Constant
    Bit rate                                 : 384 Kbps
    Channel(s)                               : 6 channels
    Channel positions                        : Front: L C R, Side: L R, LFE
    Sampling rate                            : 48.0 KHz
    Bit depth                                : 16 bits
    Compression mode                         : Lossy
    Stream size                              : 121 MiB (8%)
    Default                                  : Yes
    Forced                                   : No

    Text
    ID                                       : 3
    Format                                   : UTF-8
    Codec ID                                 : S_TEXT/UTF8
    Codec ID/Info                            : UTF-8 Plain Text
    Language                                 : English
    Default                                  : Yes
    Forced                                   : No



    0 0

    Original Post: Postman Blues (1997) DVDrip x264 AC3



    Title: Posutoman burusu
    Romanized: Postman Blues
    Japanese: ポストマン・ブルース
    Director: SABU
    Release Date: 16 August 1997
    Runtime: 110 min.
    Genre: Crime, Drama, Comedy
    Language: Japanese
    Country: Japan
    Subtitles: English
    Source: DVD5 from ADC
    IMDB URL: http://www.imdb.com/title/tt0119926

    Cast:  Shin'ichi Tsutsumi, Keisuke Horibe, Ren Ôsugi, Kyôko Tôyama

    Synopsis: Sawaki is a postman who's not quite thrilled about his boring way of life. But his life is about to change when he delivers mail to his old schoolmate Noguchi, who's now a member of the Yakuza, the Japanese Mafia, and just finished cutting his little finger off.














    Mediainfo :
    Format                                   : Matroska
    Format version                           : Version 2
    File size                                : 1.76 GiB
    Duration                                 : 1h 50mn
    Overall bit rate                         : 2 277 Kbps
    Writing application                      : HandBrake 0.10.1 2015030800
    Writing library                          : Lavf55.12.0

    Video
    ID                                       : 1
    Format                                   : AVC
    Format/Info                              : Advanced Video Codec
    Format profile                           : High@L3.1
    Format settings, CABAC                   : Yes
    Format settings, ReFrames                : 16 frames
    Codec ID                                 : V_MPEG4/ISO/AVC
    Duration                                 : 1h 50mn
    Bit rate                                 : 1 848 Kbps
    Width                                    : 718 pixels
    Height                                   : 390 pixels
    Display aspect ratio                     : 1.85:1
    Frame rate mode                          : Constant
    Frame rate                               : 29.970 fps
    Color space                              : YUV
    Chroma subsampling                       : 4:2:0
    Bit depth                                : 8 bits
    Scan type                                : Progressive
    Bits/(Pixel*Frame)                       : 0.220
    Stream size                              : 1.43 GiB (81%)
    Writing library                          : x264 core 142 r2479 dd79a61
    Encoding settings                        : cabac=1 / ref=16 / deblock=1:-1:-1 / analyse=0x3:0x133 / me=tesa / subme=11 / psy=1 / psy_rd=1.00:0.15 / mixed_ref=1 / me_range=24 / chroma_me=1 / trellis=2 / 8x8dct=1 / cqm=0 / deadzone=21,11 / fast_pskip=0 / chroma_qp_offset=-3 / threads=6 / lookahead_threads=1 / sliced_threads=0 / nr=0 / decimate=1 / interlaced=0 / bluray_compat=0 / constrained_intra=0 / bframes=16 / b_pyramid=2 / b_adapt=2 / b_bias=0 / direct=3 / weightb=1 / open_gop=0 / weightp=2 / keyint=300 / keyint_min=30 / scenecut=40 / intra_refresh=0 / rc_lookahead=60 / rc=crf / mbtree=1 / crf=17.0 / qcomp=0.60 / qpmin=0 / qpmax=69 / qpstep=4 / ip_ratio=1.40 / aq=1:1.00
    Default                                  : Yes
    Forced                                   : No
    Color primaries                          : BT.601 NTSC
    Transfer characteristics                 : BT.709
    Matrix coefficients                      : BT.601
    Color range                              : Limited

    Audio
    ID                                       : 2
    Format                                   : AC-3
    Format/Info                              : Audio Coding 3
    Mode extension                           : CM (complete main)
    Format settings, Endianness              : Big
    Codec ID                                 : A_AC3
    Duration                                 : 1h 50mn
    Bit rate mode                            : Constant
    Bit rate                                 : 384 Kbps
    Channel(s)                               : 2 channels
    Channel positions                        : Front: L R
    Sampling rate                            : 48.0 KHz
    Bit depth                                : 16 bits
    Compression mode                         : Lossy
    Stream size                              : 305 MiB (17%)
    Title                                    : Stereo
    Language                                 : Japanese
    Default                                  : Yes
    Forced                                   : No

    Text
    ID                                       : 3
    Format                                   : VobSub
    Codec ID                                 : S_VOBSUB
    Codec ID/Info                            : The same subtitle format used on DVDs
    Language                                 : English
    Default                                  : Yes
    Forced                                   : No



    0 0

    Original Post: Unlucky Monkey (1998) DVDrip x264 AC3



    Title: Anrakkî monkî
    Romanized: Unlucky Monkey
    Japanese: アンラッキー・モンキー
    Director: SABU
    Release Date:  18 July 1998
    Runtime: 106 min.
    Genre: Crime, Drama, Comedy
    Language: Japanese
    Country: Japan
    Subtitles: English
    Source: DVD from ADC
    IMDB URL: http://www.imdb.com/title/tt0143967

    Cast:  Shin'ichi Tsutsumi, Hiroshi Shimizu, Akira Yamamoto, Ikko Suzuki, Kimika Yoshino

    Synopsis: When a naïve young man and his lazy best friend attempt to rob a bank, they find another robber has beaten them to the punch. After the original robber and the best friend are killed the young man serendipitously gets the 80 million yen.














    Mediainfo :
    Format                                   : Matroska
    Format version                           : Version 2
    File size                                : 1.71 GiB
    Duration                                 : 1h 46mn
    Overall bit rate                         : 2 296 Kbps
    Writing application                      : HandBrake 0.10.1 2015030800
    Writing library                          : Lavf55.12.0

    Video
    ID                                       : 1
    Format                                   : AVC
    Format/Info                              : Advanced Video Codec
    Format profile                           : High@L3.2
    Format settings, CABAC                   : Yes
    Format settings, ReFrames                : 16 frames
    Codec ID                                 : V_MPEG4/ISO/AVC
    Duration                                 : 1h 46mn
    Bit rate                                 : 2 059 Kbps
    Width                                    : 718 pixels
    Height                                   : 404 pixels
    Display aspect ratio                     : 16:9
    Original display aspect ratio            : 16:9
    Frame rate mode                          : Constant
    Frame rate                               : 23.976 fps
    Color space                              : YUV
    Chroma subsampling                       : 4:2:0
    Bit depth                                : 8 bits
    Scan type                                : Progressive
    Bits/(Pixel*Frame)                       : 0.296
    Stream size                              : 1.53 GiB (90%)
    Writing library                          : x264 core 142 r2479 dd79a61
    Encoding settings                        : cabac=1 / ref=16 / deblock=1:-1:-1 / analyse=0x3:0x133 / me=tesa / subme=11 / psy=1 / psy_rd=1.00:0.15 / mixed_ref=1 / me_range=24 / chroma_me=1 / trellis=2 / 8x8dct=1 / cqm=0 / deadzone=21,11 / fast_pskip=0 / chroma_qp_offset=-3 / threads=6 / lookahead_threads=1 / sliced_threads=0 / nr=0 / decimate=1 / interlaced=0 / bluray_compat=0 / constrained_intra=0 / bframes=16 / b_pyramid=2 / b_adapt=2 / b_bias=0 / direct=3 / weightb=1 / open_gop=0 / weightp=2 / keyint=240 / keyint_min=24 / scenecut=40 / intra_refresh=0 / rc_lookahead=60 / rc=crf / mbtree=1 / crf=19.0 / qcomp=0.60 / qpmin=0 / qpmax=69 / qpstep=4 / ip_ratio=1.40 / aq=1:1.00
    Default                                  : Yes
    Forced                                   : No
    Color primaries                          : BT.601 NTSC
    Transfer characteristics                 : BT.709
    Matrix coefficients                      : BT.601
    Color range                              : Limited

    Audio
    ID                                       : 2
    Format                                   : AC-3
    Format/Info                              : Audio Coding 3
    Mode extension                           : CM (complete main)
    Format settings, Endianness              : Big
    Codec ID                                 : A_AC3
    Duration                                 : 1h 46mn
    Bit rate mode                            : Constant
    Bit rate                                 : 192 Kbps
    Channel(s)                               : 2 channels
    Channel positions                        : Front: L R
    Sampling rate                            : 48.0 KHz
    Bit depth                                : 16 bits
    Compression mode                         : Lossy
    Stream size                              : 146 MiB (8%)
    Title                                    : Stereo
    Language                                 : Japanese
    Default                                  : Yes
    Forced                                   : No

    Text
    ID                                       : 3
    Format                                   : VobSub
    Codec ID                                 : S_VOBSUB
    Codec ID/Info                            : The same subtitle format used on DVDs
    Language                                 : English
    Default                                  : Yes
    Forced                                   : No



    0 0

    Original Post: TVB The.Empress.of.China.E25.HDTV.H264.2Audio.720p-CensoredCleavages


    Detail:
    Title: Empress Of China
    AKA:武媚娘傳奇
    Genre: Historical fiction
    Release Date: April 26, 2015 - July 4, 2015
    Episodes: 70
    Director: Go Yik Chun
    Country: China
    Language: Track 1: Mandarin/ Track 2: Cantonese dub
    Subtitles: English (srt embedded)
    http://thetvdb.com/?tab=series&id=289782

    Fan Bingbing as Wu Meiniang
    Zhang Fengyi as Li Shimin
    Aarif Rahman as Li Zhi
    Janine Chang as Xu Hui
    Li Chen as Li Mu
    Chang Ting as Consort Wei
    Wu Xiubo as Zhang Jianzhi
    Viann Zhang as Consort Xiao
    Kathy Chow as Consort Yang
    Wang Huichun as Zhangsun Wuji
    Lee Lee-jen as Li Chengqian
    Li Jie as Li Ke
    Yu Haoming as Li Chunfeng

    Before she was the most famous female ruler in Chinese history, Wu Mei Liang was a woman vying for her husbands’ love. While her first husband kept her at arm’s length by a prophecy foretelling a woman of Wu stealing the Tang Dynasty, her second husband welcomed her with open arms. During her time as a minor consort to Li Shi Min, she learned how an effective Emperor rule his court. Using that knowledge, she helped Li Zhi take back power from his Regent, and herself into the position of Empress. She co-ruled with Li Zhi until his death, after which she ruled the country in her own right.







    Code
    Video
    ID                             : 1
    Format                         : AVC
    Format/Info                    : Advanced Video Codec
    Format profile                 : Main@L4.0
    Format settings, CABAC         : Yes
    Format settings, ReFrames      : 4 frames
    Codec ID                       : V_MPEG4/ISO/AVC
    Bit rate                       : 4 500 Kbps
    Width                          : 1 280 pixels
    Height                         : 720 pixels
    Display aspect ratio           : 16:9
    Frame rate mode                : Variable
    Color space                    : YUV
    Chroma subsampling             : 4:2:0
    Bit depth                      : 8 bits
    Scan type                      : Progressive
    Title                          : The.Empress.of.China.E25.HDTV.H264.2Audio.720p-CensoredCleavages
    Writing library                : x264 core 130 r2273 b3065e6
    Language                       : Chinese
    Default                        : Yes
    Forced                         : No
    Color primaries                : BT.709
    Transfer characteristics       : BT.709
    Matrix coefficients            : BT.709

    Audio #1
    ID                             : 2
    Format                         : AC-3
    Format/Info                    : Audio Coding 3
    Mode extension                 : CM (complete main)
    Format settings, Endianness    : Big
    Codec ID                       : A_AC3
    Duration                       : 44mn 27s
    Bit rate mode                  : Constant
    Bit rate                       : 384 Kbps
    Channel(s)                     : 6 channels
    Channel positions              : Front: L C R, Side: L R, LFE
    Sampling rate                  : 48.0 KHz
    Bit depth                      : 16 bits
    Compression mode               : Lossy
    Stream size                    : 122 MiB (8%)
    Title                          : Mandarin
    Language                       : Chinese
    Default                        : Yes
    Forced                         : No

    Audio #2
    ID                             : 3
    Format                         : AC-3
    Format/Info                    : Audio Coding 3
    Mode extension                 : CM (complete main)
    Format settings, Endianness    : Big
    Codec ID                       : A_AC3
    Duration                       : 44mn 27s
    Bit rate mode                  : Constant
    Bit rate                       : 192 Kbps
    Channel(s)                     : 2 channels
    Channel positions              : Front: L R
    Sampling rate                  : 48.0 KHz
    Bit depth                      : 16 bits
    Compression mode               : Lossy
    Stream size                    : 61.1 MiB (4%)
    Title                          : Cantonese
    Language                       : Chinese
    Default                        : No
    Forced                         : No

    Text
    ID                             : 4
    Format                         : UTF-8
    Codec ID                       : S_TEXT/UTF8
    Codec ID/Info                  : UTF-8 Plain Text
    Default                        : Yes
    Forced                         : No



    0 0
  • 05/20/15--16:27: Drive (2002) DVDrip x264 AC3
  • Original Post: Drive (2002) DVDrip x264 AC3



    Title: Doraibu
    Romanized: Drive
    Japanese: ドライブ
    Director: SABU
    Release Date: 24 August 2002
    Runtime: 102 min.
    Genre: Crime, Drama, Comedy
    Language: Japanese
    Country: Japan
    Subtitles: English
    Source: DVD9 from ADC
    IMDB URL: http://www.imdb.com/title/tt0297865

    Cast:  Shin'ichi Tsutsumi, Susumu Terajima, Ren Ôsugi, Ko Shibasaki, Masanobu Andô

    Synopsis: Up-tight salaryman Asakura (Shinichi Tsutsumi) goes to the doctor about his severe tension headaches, but gets car-jacked by bank robbers, who order him to pursue one of the gang that has betrayed them. Unfortunately, Asakura never breaks the rules, won't drive over the speed limit, or run a red light, even if threatened. The frustrated gang stops at a café to make plans, but word is out about their "successful" robbery, and "karmic fate" begins to unfold.












    Mediainfo :
    Format                                   : Matroska
    Format version                           : Version 2
    File size                                : 1.67 GiB
    Duration                                 : 1h 40mn
    Overall bit rate                         : 2 371 Kbps
    Writing application                      : HandBrake 0.10.1 2015030800
    Writing library                          : Lavf55.12.0

    Video
    ID                                       : 1
    Format                                   : AVC
    Format/Info                              : Advanced Video Codec
    Format profile                           : High@L3.2
    Format settings, CABAC                   : Yes
    Format settings, ReFrames                : 16 frames
    Codec ID                                 : V_MPEG4/ISO/AVC
    Duration                                 : 1h 40mn
    Bit rate                                 : 1 940 Kbps
    Width                                    : 718 pixels
    Height                                   : 406 pixels
    Display aspect ratio                     : 16:9
    Frame rate mode                          : Constant
    Frame rate                               : 23.976 fps
    Color space                              : YUV
    Chroma subsampling                       : 4:2:0
    Bit depth                                : 8 bits
    Scan type                                : Progressive
    Bits/(Pixel*Frame)                       : 0.278
    Stream size                              : 1.37 GiB (82%)
    Writing library                          : x264 core 142 r2479 dd79a61
    Encoding settings                        : cabac=1 / ref=16 / deblock=1:-1:-1 / analyse=0x3:0x133 / me=tesa / subme=11 / psy=1 / psy_rd=1.00:0.15 / mixed_ref=1 / me_range=24 / chroma_me=1 / trellis=2 / 8x8dct=1 / cqm=0 / deadzone=21,11 / fast_pskip=0 / chroma_qp_offset=-3 / threads=6 / lookahead_threads=1 / sliced_threads=0 / nr=0 / decimate=1 / interlaced=0 / bluray_compat=0 / constrained_intra=0 / bframes=16 / b_pyramid=2 / b_adapt=2 / b_bias=0 / direct=3 / weightb=1 / open_gop=0 / weightp=2 / keyint=240 / keyint_min=24 / scenecut=40 / intra_refresh=0 / rc_lookahead=60 / rc=crf / mbtree=1 / crf=19.0 / qcomp=0.60 / qpmin=0 / qpmax=69 / qpstep=4 / ip_ratio=1.40 / aq=1:1.00
    Default                                  : Yes
    Forced                                   : No
    Color primaries                          : BT.601 NTSC
    Transfer characteristics                 : BT.709
    Matrix coefficients                      : BT.601
    Color range                              : Limited

    Audio
    ID                                       : 2
    Format                                   : AC-3
    Format/Info                              : Audio Coding 3
    Mode extension                           : CM (complete main)
    Format settings, Endianness              : Big
    Codec ID                                 : A_AC3
    Duration                                 : 1h 40mn
    Bit rate mode                            : Constant
    Bit rate                                 : 384 Kbps
    Channel(s)                               : 6 channels
    Channel positions                        : Front: L C R, Side: L R, LFE
    Sampling rate                            : 48.0 KHz
    Bit depth                                : 16 bits
    Compression mode                         : Lossy
    Stream size                              : 277 MiB (16%)
    Title                                    : Surround
    Language                                 : Japanese
    Default                                  : Yes
    Forced                                   : No

    Text
    ID                                       : 3
    Format                                   : VobSub
    Codec ID                                 : S_VOBSUB
    Codec ID/Info                            : The same subtitle format used on DVDs
    Language                                 : English
    Default                                  : Yes
    Forced                                   : No



    0 0

    Original Post: Touch By Touch 2014.720p.HDRip.H264-Unknown





    Detail:
    Title: Touch By Touch
    Genre:•Melodrama •Romantic comedy
    Release Date: 2015
    Runtime: 75 mins
    Director: Kim Ho-joon
    Country: South Korea
    Language: Korean
    Subtitles:No SUbtitles

    Synopsis:
    The first ever intimate experience!
    Seon-mi (Koo Ji-sung) hands a name card to Joo-hee (Ha Na-kyeong) who is about to get married, saying that she'll be able to feel sexual satisfaction like never before. Joo-hee experiences something new and starts expressing her rising emotions to her fiance despite the time and place. Unlike Joo-hee who is enjoying this, Min-woo is getting tired. He tries to satisfy her to the best of his abilities and even asks for advice from friends but it's not enough. What is that place that has her upside down like this?

    Cast:
    Ha Na-kyeong (하나경), Koo Ji-sung (구지성), Hwang Chan-woo (황찬우)








    Code

    Video
    ID                                       : 1
    Format                                   : AVC
    Format/Info                              : Advanced Video Codec
    Format profile                           : Main@L4.1
    Format settings, CABAC                   : Yes
    Format settings, ReFrames                : 3 frames
    Format settings, GOP                     : M=4, N=24
    Codec ID                                 : avc1
    Codec ID/Info                            : Advanced Video Coding
    Duration                                 : 1h 15mn
    Source duration                          : 1h 15mn
    Bit rate mode                            : Constant
    Bit rate                                 : 3 500 Kbps
    Width                                    : 1 280 pixels
    Height                                   : 720 pixels
    Display aspect ratio                     : 16:9
    Frame rate mode                          : Variable
    Frame rate                               : 23.976 fps
    Minimum frame rate                       : 23.976 fps
    Maximum frame rate                       : 24.000 fps
    Standard                                 : NTSC
    Color space                              : YUV
    Chroma subsampling                       : 4:2:0
    Bit depth                                : 8 bits
    Scan type                                : Progressive
    Bits/(Pixel*Frame)                       : 0.158
    Stream size                              : 1.83 GiB (95%)
    Source stream size                       : 1.83 GiB (95%)
    Language                                 : English
    Encoded date                             : UTC 2015-05-17 04:30:11
    Tagged date                              : UTC 2015-05-17 04:30:11
    mdhd_Duration                            : 4531902

    Audio
    ID                                       : 2
    Format                                   : AAC
    Format/Info                              : Advanced Audio Codec
    Format profile                           : LC
    Codec ID                                 : 40
    Duration                                 : 1h 15mn
    Source duration                          : 1h 15mn
    Bit rate mode                            : Variable
    Bit rate                                 : 192 Kbps
    Maximum bit rate                         : 303 Kbps
    Channel(s)                               : 2 channels
    Channel positions                        : Front: L R
    Sampling rate                            : 48.0 KHz
    Compression mode                         : Lossy
    Stream size                              : 102 MiB (5%)
    Source stream size                       : 102 MiB (5%)
    Language                                 : English
    Encoded date                             : UTC 2015-05-17 04:30:11
    Tagged date                              : UTC 2015-05-17 04:30:11
    mdhd_Duration                            : 4531968



older | 1 | .... | 1348 | 1349 | (Page 1350) | 1351 | 1352 | .... | 1405 | newer