Are you the publisher? Claim or contact us about this channel


Embed this content in your HTML

Search

Report adult content:

click to rate:

Account: (login)

More Channels


Showcase


Channel Catalog


Channel Description:

Asia Torrents RSS Feed

older | 1 | .... | 1366 | 1367 | (Page 1368) | 1369 | 1370 | .... | 1405 | newer

    0 0

    Original Post: TVB Wudang.Rules.E12.HDTV.H264.720p-W

    Also known as Wudang Worship
    Created by Hong Kong Television Broadcasts Limited
    Theme music composer Alan Cheung
    No. of episodes 20
    Original release 25 May 2015 – 19 June 2015
    Subtitles English srt (embedded)

    Starring
    Chin Siu-ho
    Tavia Yeung
    Yuen Qiu
    Timmy Hung
    Derek Kok
    Toby Leung


    Synopsis

    After a set-back in life, former Hong Kong undercover detective Pau Kai-chung (Chin Siu-ho) heads to the Wudang Mountains in Hubei, China to get away from life. At Wudang he re-connects with his former marital arts senior Mo Yee-shan (Yuen Qiu), who now operates an inn and martial arts school in the Wudang Mountains. She also takes in a mentally retarded man named Ho Ching-tung (Derek Kok) with a mysterious past. Kai-chung takes up a job as a chef at Yee-shan's inn. All is peaceful until a group of martial art students lead by Yee-shan's daughter Lok Yeung (Tavia Yeung) arrives. Lok Yeung and Kai-chung had previously met in Hong Kong, their encounter in Wudang brings back painful memories for Kai-chung. But Lok Yeung's true intentions for returning to Wudang is to persuade her mother to sell the inn and martial arts school to a Hong Kong investment group. Yee-shan makes a deal with Lok Yeung, that she will agree to sell the inn and martial arts school if Lok Yeung can win a competition within three months. Yee-shan pretends to be injured so Kai-chung would takeover as instructor at the martial art school. Soon Ching-tung regains his mind and exposes Kai-chung's true identity, which puts all at Wudang in danger.

    Cast
    Main cast
    Chin Siu-ho as Pau Kai-chung
    Tavia Yeung as Lok Yeung
    Yuen Qiu as Mo Yee-shan
    Timmy Hung as Cheung Ka-kong
    Derek Kok as Ho Ching-tung
    Toby Leung as Yeung Ching-wu

    http://thetvdb.com/?tab=series&id=295905&






    Code
    Video
    ID                             : 1
    Format                         : AVC
    Format/Info                    : Advanced Video Codec
    Format profile                 : Main@L4.0
    Format settings, CABAC         : Yes
    Format settings, ReFrames      : 4 frames
    Codec ID                       : V_MPEG4/ISO/AVC
    Bit rate                       : 4 500 Kbps
    Width                          : 1 280 pixels
    Height                         : 720 pixels
    Display aspect ratio           : 16:9
    Frame rate mode                : Variable
    Color space                    : YUV
    Chroma subsampling             : 4:2:0
    Bit depth                      : 8 bits
    Scan type                      : Progressive
    Title                          : Wudang.Rules.E12.HDTV.H264.720p-Wutang
    Writing library                : x264 core 130 r2273 b3065e6
    Language                       : Chinese
    Default                        : Yes
    Forced                         : No
    Color primaries                : BT.709
    Transfer characteristics       : BT.709
    Matrix coefficients            : BT.709

    Audio
    ID                             : 2
    Format                         : AC-3
    Format/Info                    : Audio Coding 3
    Mode extension                 : CM (complete main)
    Format settings, Endianness    : Big
    Codec ID                       : A_AC3
    Duration                       : 44mn 7s
    Bit rate mode                  : Constant
    Bit rate                       : 384 Kbps
    Channel(s)                     : 6 channels
    Channel positions              : Front: L C R, Side: L R, LFE
    Sampling rate                  : 48.0 KHz
    Bit depth                      : 16 bits
    Compression mode               : Lossy
    Stream size                    : 121 MiB (8%)
    Language                       : Chinese
    Default                        : Yes
    Forced                         : No

    Text
    ID                             : 3
    Format                         : UTF-8
    Codec ID                       : S_TEXT/UTF8
    Codec ID/Info                  : UTF-8 Plain Text
    Default                        : Yes
    Forced                         : No





    0 0

    Original Post: SOIL (2010) VOL 01 (DVD 5) NTSC (SOFT SUBBED)




    Title: SOIL
    Japanese: ソイル
    Genre: Drama / Horror / Mystery
    Language: Japanese
    Country: Japan
    Subtitles: by ersby (Soft Subbed)


    Cast:
    Hoshino Mari as Onoda Masako
    Tayama Ryousei as Yokoi Mitsuo
    Nakamura Yasuhi as Suzushiro Masaki
    Honjo Manami as Suzushiro Noriko
    Mizusawa Naoko as Suzushiro Miki
    Kobayashi Yuto as Miyahara Kento
    Horiuchi Keiko as Miyahara Sanae
    Takahashi Issei as Katakuri Shogo
    Sasano Takashi as Sakuma Teruhiko


    Synopsis:
    On the night of a blackout at the new residential area, ‘Soil New Town’, the Suzushiros, a family of three who live in that ordinary town, suddenly vanish into thin air. A pillar of salt rising up to the ceiling is left behind in the room of their daughter, Miki. Coincidentally, a heap of salt as high as a school building appears in the junior high school’s yard...

    At the top of that heap is the heart of a hamster. Dispatched to solve this bizarre case, Onoda Masako and Yokoi Mitsuo from the Kamikawa Precinct, are astonished by the strange pillar of salt. There is the head of the resident's association whose daily routine is obsessive surveillance, a youth who has been missing ever since the case occurred and an old woman who had an unsavoury experience in this town in the past. In the course of their investigation, Onoda and Yokoi begin to peer through to the underlying demeanours of the town’s residents and realise that malice and madness lurks beneath this seemingly quiet town.












    Code
    General
    Complete name               : SOIL D1VIDEO_TSVTS_01_1.VOB
    Format                      : MPEG-PS
    File size                   : 1024 MiB
    Duration                    : 27mn 13s
    Overall bit rate mode       : Variable
    Overall bit rate            : 5258 Kbps

    Video
    ID                          : 224 (0xE0)
    Format                      : MPEG Video
    Format version              : Version 2
    Format profile              : Main@Main
    Format settings, BVOP       : Yes
    Format settings, Matrix     : Custom
    Format settings, GOP        : Variable
    Format settings, picture st : Frame
    Duration                    : 27mn 13s
    Bit rate mode               : Variable
    Bit rate                    : 4705 Kbps
    Maximum bit rate            : 9800 Kbps
    Width                       : 720 pixels
    Height                      : 480 pixels
    Display aspect ratio        : 16:9
    Frame rate                  : 29.970 fps
    Standard                    : NTSC
    Color space                 : YUV
    Chroma subsampling          : 4:2:0
    Bit depth                   : 8 bits
    Scan type                   : Interlaced
    Scan order                  : Top Field First
    Compression mode            : Lossy
    Bits/(Pixel*Frame)          : 0.454
    Time code of first frame    : 00:59:59;00
    Time code source            : Group of pictures header
    Stream size                 : 916 MiB (89%)

    Audio
    ID                          : 189 (0xBD)-128 (0x80)
    Format                      : AC-3
    Format/Info                 : Audio Coding 3
    Mode extension              : CM (complete main)
    Format settings, Endianness : Big
    Muxing mode                 : DVD-Video
    Duration                    : 27mn 13s
    Bit rate mode               : Constant
    Bit rate                    : 448 Kbps
    Channel(s)                  : 2 channels
    Channel positions           : Front: L R
    Sampling rate               : 48.0 KHz
    Bit depth                   : 16 bits
    Compression mode            : Lossy
    Stream size                 : 87.2 MiB (9%)

    Text
    ID                          : 189 (0xBD)-32 (0x20)
    Format                      : RLE
    Format/Info                 : Run-length encoding
    Muxing mode                 : DVD-Video



    0 0

    Original Post: SOIL (2010) VOL 02 (DVD 5) NTSC (SOFT SUBBED)




    Title: SOIL
    Japanese: ソイル
    Genre: Drama / Horror / Mystery
    Language: Japanese
    Country: Japan
    Subtitles: by ersby (Soft Subbed)


    Cast:
    Hoshino Mari as Onoda Masako
    Tayama Ryousei as Yokoi Mitsuo
    Nakamura Yasuhi as Suzushiro Masaki
    Honjo Manami as Suzushiro Noriko
    Mizusawa Naoko as Suzushiro Miki
    Kobayashi Yuto as Miyahara Kento
    Horiuchi Keiko as Miyahara Sanae
    Takahashi Issei as Katakuri Shogo
    Sasano Takashi as Sakuma Teruhiko


    Synopsis:
    On the night of a blackout at the new residential area, ‘Soil New Town’, the Suzushiros, a family of three who live in that ordinary town, suddenly vanish into thin air. A pillar of salt rising up to the ceiling is left behind in the room of their daughter, Miki. Coincidentally, a heap of salt as high as a school building appears in the junior high school’s yard...

    At the top of that heap is the heart of a hamster. Dispatched to solve this bizarre case, Onoda Masako and Yokoi Mitsuo from the Kamikawa Precinct, are astonished by the strange pillar of salt. There is the head of the resident's association whose daily routine is obsessive surveillance, a youth who has been missing ever since the case occurred and an old woman who had an unsavoury experience in this town in the past. In the course of their investigation, Onoda and Yokoi begin to peer through to the underlying demeanours of the town’s residents and realise that malice and madness lurks beneath this seemingly quiet town.













    Code
    General
    Complete name               : SOIL D2VIDEO_TSVTS_01_1.VOB
    Format                      : MPEG-PS
    File size                   : 1024 MiB
    Duration                    : 11mn 10s
    Overall bit rate mode       : Variable
    Overall bit rate            : 12.8 Mbps

    Video
    ID                          : 224 (0xE0)
    Format                      : MPEG Video
    Format version              : Version 2
    Format profile              : Main@Main
    Format settings, BVOP       : Yes
    Format settings, Matrix     : Custom
    Format settings, GOP        : Variable
    Format settings, picture st : Frame
    Duration                    : 11mn 10s
    Bit rate mode               : Variable
    Bit rate                    : 12.1 Mbps
    Maximum bit rate            : 9 800 Kbps
    Width                       : 720 pixels
    Height                      : 480 pixels
    Display aspect ratio        : 16:9
    Frame rate                  : 29.970 fps
    Standard                    : NTSC
    Color space                 : YUV
    Chroma subsampling          : 4:2:0
    Bit depth                   : 8 bits
    Scan type                   : Interlaced
    Scan order                  : Top Field First
    Compression mode            : Lossy
    Bits/(Pixel*Frame)          : 1.168
    Time code of first frame    : 00:59:59;00
    Time code source            : Group of pictures header
    Stream size                 : 968 MiB (95%)

    Audio
    ID                          : 189 (0xBD)-128 (0x80)
    Format                      : AC-3
    Format/Info                 : Audio Coding 3
    Mode extension              : CM (complete main)
    Format settings, Endianness : Big
    Muxing mode                 : DVD-Video
    Duration                    : 11mn 10s
    Bit rate mode               : Constant
    Bit rate                    : 448 Kbps
    Channel(s)                  : 2 channels
    Channel positions           : Front: L R
    Sampling rate               : 48.0 KHz
    Bit depth                   : 16 bits
    Compression mode            : Lossy
    Stream size                 : 35.8 MiB (3%)

    Text
    ID                          : 189 (0xBD)-32 (0x20)
    Format                      : RLE
    Format/Info                 : Run-length encoding
    Muxing mode                 : DVD-Video
    Duration                    : 10mn 53s
    Delay relative to video     : 12s 512ms



    0 0

    Original Post: Taksu 2014 720p BluRay x264-WiKi





    Detail:
    Title: Taksu
    Genre: Drama
    Release Date: 3 October 2014 (South Korea)
    Runtime: 97 min
    Director: Kiki Sugino
    Rating: 5.3/10 from 10 users
    Country: Japan
    Language: Japanese
    Subtitles:Chinese

    Synopsis:
    As Chihiro’s preoccupation with death begins to become a concern for the people in his life, he and his wife Yuri decide to take a trip to Bali to visit his sister. Yuri hopes that seeing his sister will ease Chihiro out of his funk, but when they arrive things only seem to get worse. Kumi spends most of her time preparing for her upcoming birth and Yuri falls for another man. It soon becomes apparent that the three of them have vastly different priorities and concerns as they struggle to find common ground.

    Cast:
    Yôko Mitsuya, Takumi Saitô, Kiki Sugino










    Code

    Video
    ID                                       : 1
    Format                                   : AVC
    Format/Info                              : Advanced Video Codec
    Format profile                           : High@L4.1
    Format settings, CABAC                   : Yes
    Format settings, ReFrames                : 12 frames
    Codec ID                                 : V_MPEG4/ISO/AVC
    Duration                                 : 1h 37mn
    Width                                    : 1 280 pixels
    Height                                   : 544 pixels
    Display aspect ratio                     : 2.35:1
    Frame rate                               : 23.976 fps
    Color space                              : YUV
    Chroma subsampling                       : 4:2:0
    Bit depth                                : 8 bits
    Scan type                                : Progressive
    Language                                 : Japanese
    Default                                  : Yes
    Forced                                   : No

    Audio
    ID                                       : 2
    Format                                   : AC-3
    Format/Info                              : Audio Coding 3
    Codec ID                                 : A_AC3
    Duration                                 : 1h 37mn
    Channel(s)                               : 2 channels
    Sampling rate                            : 48.0 KHz
    Compression mode                         : Lossy
    Language                                 : Japanese
    Default                                  : Yes
    Forced                                   : No

    Text #1
    ID                                       : 3
    Format                                   : ASS
    Codec ID                                 : S_TEXT/ASS
    Codec ID/Info                            : Advanced Sub Station Alpha
    Compression mode                         : Lossless
    Title                                    : Simplified
    Language                                 : Chinese
    Default                                  : Yes
    Forced                                   : No

    Text #2
    ID                                       : 4
    Format                                   : ASS
    Codec ID                                 : S_TEXT/ASS
    Codec ID/Info                            : Advanced Sub Station Alpha
    Compression mode                         : Lossless
    Title                                    : Traditional
    Language                                 : Chinese
    Default                                  : No
    Forced                                   : No



    0 0

    Original Post: Warm.and.Cozy.E09.150610.HDTV.X264-LIMO

    Details
    Title: 맨도롱 또똣 / Maendorong Ttottos
    Previously known as: 제주도 개츠비 / Jeju Island Gatsby
    Genre: Romance
    Episodes: 16
    Broadcast network: MBC
    Broadcast period: 2015-May-13 to 2015-Jul-??
    Air time: Wednesday & Thursday 22:00
    Subtitles will be added later
    http://thetvdb.com/?tab=series&id=295029&lid=7

    Synopsis
    Desperate to escape the drama and stress of modern life in the city, Baek Gun Woo (Yoo Yeon Seok) and Lee Jung Joo (Kang So Ra) take off to South Korea's idyllic Jeju Island. But when these two urbane strangers meet on the island, they discover the magical island's restorative qualities include unexpected romance.

    Cast
    Main Cast
    Yoo Yun Suk as Baek Gun Woo
    Kang So Ra as Lee Jung Joo










    Code
    Video
    ID                             : 1
    Format                         : AVC
    Format/Info                    : Advanced Video Codec
    Format profile                 : Main@L4.0
    Format settings, CABAC         : Yes
    Format settings, ReFrames      : 4 frames
    Codec ID                       : V_MPEG4/ISO/AVC
    Duration                       : 58mn 44s
    Bit rate                       : 450 Kbps
    Width                          : 624 pixels
    Height                         : 350 pixels
    Display aspect ratio           : 16:9
    Frame rate mode                : Constant
    Frame rate                     : 29.970 fps
    Color space                    : YUV
    Chroma subsampling             : 4:2:0
    Bit depth                      : 8 bits
    Scan type                      : Progressive
    Bits/(Pixel*Frame)             : 0.069
    Stream size                    : 190 MiB (76%)
    Writing library                : x264 core 130 r2273 b3065e6
    Encoding settings              : cabac=1 / ref=1 / deblock=1:0:0 / analyse=0x1:0x111 / me=hex / subme=2 / psy=1 / psy_rd=1.00:0.00 / mixed_ref=0 / me_range=16 / chroma_me=1 / trellis=0 / 8x8dct=0 / cqm=0 / deadzone=21,11 / fast_pskip=1 / chroma_qp_offset=0 / threads=1 / lookahead_threads=1 / sliced_threads=0 / nr=0 / decimate=1 / interlaced=0 / bluray_compat=0 / constrained_intra=0 / bframes=3 / b_pyramid=2 / b_adapt=1 / b_bias=0 / direct=1 / weightb=1 / open_gop=0 / weightp=1 / keyint=300 / keyint_min=30 / scenecut=40 / intra_refresh=0 / rc_lookahead=10 / rc=abr / mbtree=1 / bitrate=450 / ratetol=1.0 / qcomp=0.60 / qpmin=0 / qpmax=69 / qpstep=4 / vbv_maxrate=20000 / vbv_bufsize=25000 / nal_hrd=none / ip_ratio=1.40 / aq=1:1.00
    Language                       : English
    Default                        : Yes
    Forced                         : No
    Color primaries                : BT.601 NTSC
    Transfer characteristics       : BT.709
    Matrix coefficients            : BT.601

    Audio
    ID                             : 2
    Format                         : MPEG Audio
    Format version                 : Version 1
    Format profile                 : Layer 3
    Mode                           : Joint stereo
    Mode extension                 : MS Stereo
    Codec ID                       : A_MPEG/L3
    Codec ID/Hint                  : MP3
    Duration                       : 58mn 44s
    Bit rate mode                  : Constant
    Bit rate                       : 128 Kbps
    Channel(s)                     : 2 channels
    Sampling rate                  : 48.0 KHz
    Compression mode               : Lossy
    Stream size                    : 53.8 MiB (22%)
    Default                        : Yes
    Forced                         : No



    0 0

    Original Post: Warm.and.Cozy.E09.150610.HDTV.H264.450p-LIMO

    Details
    Title: 맨도롱 또똣 / Maendorong Ttottos
    Previously known as: 제주도 개츠비 / Jeju Island Gatsby
    Genre: Romance
    Episodes: 16
    Broadcast network: MBC
    Broadcast period: 2015-May-13 to 2015-Jul-??
    Air time: Wednesday & Thursday 22:00
    Subtitles will be added later
    http://thetvdb.com/?tab=series&id=295029&lid=7

    Synopsis
    Desperate to escape the drama and stress of modern life in the city, Baek Gun Woo (Yoo Yeon Seok) and Lee Jung Joo (Kang So Ra) take off to South Korea's idyllic Jeju Island. But when these two urbane strangers meet on the island, they discover the magical island's restorative qualities include unexpected romance.

    Cast
    Main Cast
    Yoo Yun Suk as Baek Gun Woo
    Kang So Ra as Lee Jung Joo









    Code
    Video
    ID                                       : 0
    Format                                   : AVC
    Format/Info                              : Advanced Video Codec
    Format profile                           : High@L5.1
    Format settings, CABAC                   : Yes
    Format settings, ReFrames                : 4 frames
    Codec ID                                 : H264
    Bit rate                                 : 1 500 Kbps
    Width                                    : 800 pixels
    Height                                   : 450 pixels
    Display aspect ratio                     : 16:9
    Frame rate mode                          : Variable
    Frame rate                               : 29.970 fps
    Color space                              : YUV
    Chroma subsampling                       : 4:2:0
    Bit depth                                : 8 bits
    Scan type                                : Progressive
    Bits/(Pixel*Frame)                       : 0.139
    Stream size                              : 686 MiB (88%)
    Writing library                          : x264 core 112

    Audio
    ID                                       : 1
    Format                                   : MPEG Audio
    Format version                           : Version 1
    Format profile                           : Layer 3
    Mode                                     : Joint stereo
    Mode extension                           : MS Stereo
    Codec ID                                 : 55
    Codec ID/Hint                            : MP3
    Bit rate mode                            : Constant
    Bit rate                                 : 192 Kbps
    Channel(s)                               : 2 channels
    Sampling rate                            : 48.0 KHz
    Compression mode                         : Lossy
    Stream size                              : 88.3 MiB (11%)
    Alignment                                : Aligned on interleaves
    Interleave, duration                     : 24 ms (0.72 video frame)
    Writing library                          : LAME3.98.2
    Language                                 : Korean



    0 0

    Original Post: Warm.and.Cozy.E09.150610.HDTV.H264.720p-LIMO

    Details
    Title: 맨도롱 또똣 / Maendorong Ttottos
    Previously known as: 제주도 개츠비 / Jeju Island Gatsby
    Genre: Romance
    Episodes: 16
    Broadcast network: MBC
    Broadcast period: 2015-May-13 to 2015-Jul-??
    Air time: Wednesday & Thursday 22:00
    Subtitles will be added later
    http://thetvdb.com/?tab=series&id=295029&lid=7

    Synopsis
    Desperate to escape the drama and stress of modern life in the city, Baek Gun Woo (Yoo Yeon Seok) and Lee Jung Joo (Kang So Ra) take off to South Korea's idyllic Jeju Island. But when these two urbane strangers meet on the island, they discover the magical island's restorative qualities include unexpected romance.

    Cast
    Main Cast
    Yoo Yun Suk as Baek Gun Woo
    Kang So Ra as Lee Jung Joo









    Code
    Video
    ID                               : 0
    Format                           : AVC
    Format/Info                      : Advanced Video Codec
    Format profile                   : High@L5.1
    Format settings, CABAC           : Yes
    Format settings, ReFrames        : 4 frames
    Codec ID                         : H264
    Duration                         : 1h 4mn
    Bit rate                         : 3 000 Kbps
    Width                            : 1 280 pixels
    Height                           : 720 pixels
    Display aspect ratio             : 16:9
    Frame rate mode                  : Variable
    Frame rate                       : 29.970 fps
    Color space                      : YUV
    Chroma subsampling               : 4:2:0
    Bit depth                        : 8 bits
    Scan type                        : Progressive
    Bits/(Pixel*Frame)               : 0.109
    Stream size                      : 1.35 GiB (94%)
    Writing library                  : x264 core 112
    Encoding settings                : cabac=1 / ref=3 / deblock=1:-1:-1 / analyse=0x3:0x113 / me=hex / subme=6 / psy=1 / psy_rd=1.00:1.00 / mixed_ref=1 / me_range=16 / chroma_me=1 / trellis=1 / 8x8dct=1 / cqm=0 / deadzone=21,11 / fast_pskip=0 / chroma_qp_offset=-4 / threads=12 / sliced_threads=0 / nr=0 / decimate=1 / interlaced=0 / constrained_intra=0 / bframes=3 / b_pyramid=2 / b_adapt=1 / b_bias=1 / direct=3 / weightb=1 / open_gop=0 / weightp=2 / keyint=299 / keyint_min=25 / scenecut=1 / intra_refresh=0 / rc_lookahead=40 / rc=abr / mbtree=1 / bitrate=3000 / ratetol=1.0 / qcomp=0.60 / qpmin=10 / qpmax=51 / qpstep=4 / ip_ratio=1.40 / aq=1:1.00

    Audio
    ID                               : 1
    Format                           : MPEG Audio
    Format version                   : Version 1
    Format profile                   : Layer 3
    Mode                             : Joint stereo
    Mode extension                   : MS Stereo
    Codec ID                         : 55
    Codec ID/Hint                    : MP3
    Duration                         : 1h 4mn
    Bit rate mode                    : Constant
    Bit rate                         : 192 Kbps
    Channel(s)                       : 2 channels
    Sampling rate                    : 48.0 KHz
    Stream size                      : 88.0 MiB (6%)
    Alignment                        : Split accross interleaves
    Interleave, duration             : 33 ms (1.00 video frame)
    Interleave, preload duration     : 500 ms
    Writing library                  : LAME3.98.2



    0 0

    Original Post: Mask.E05.150610.HDTV.X264-LIMO

    Details
    Title: 가면 / Gamyun
    Genre: Romance, melodrama
    Episodes: TBA
    Broadcast network: SBS
    Broadcast period: 2015-May-27 to 2015-???-??
    Air time: Wednesday & Thursday 22:00
    Original Soundtrack: Mask OST
    http://thetvdb.com/index.php?tab=series&id=295976

    Synopsis
    Byun Ji Sook has always had a hard life with her father constantly going into debt and being chased by loan sharks. She desperately wants to know what life is like if she was born into a better family and didn’t have to worry about money all the time. When a series of circumstances brings Ji Sook to Eun Ha, a woman from a wealthy family who strongly resembles Ji Sook, she grabs hold of the chance for a better life and assumes Eun Ha’s identity and begins to live her elite life. She meets Min Woo, a chaebol heir who is mistrusting of the people around him. But when he realizes that Ji Sook is not like the other women he has met, he is drawn to her. How long can Ji Sook keep up the charade and hide her true identity?


    Main Cast
    Soo Ae as Byun Ji Sook (29) / Seo Eun Ha (27)
    Joo Ji Hoon as Choi Min Woo (30)
    Yun Jung Hoon as Min Suk Hoon (34, Mi Yun's husband)
    Yoo In Young as Choi Mi Yun (31, Min Woo's elder sister)
    Byun Ji Sook's family
    Jung Dong Hwan as Byun Dae Sung (50s, Ji Sook's father)
    Yang Mi Kyung as Kang Ok Soon (50s, Ji Sook's mother)
    Hoya as Byun Ji Hyuk (25, Ji Sook's younger brother)
    Choi Min Woo's family
    Jun Gook Hwan as President Choi Doo Hyun (60s, Min Woo's father)
    Park Joon Geum as Mrs. Song (50s, Min Woo's stepmother, Mi Yun's biological mother)
    Seo Eun Ha's family
    Park Yong Soo as Congressman Seo Jong Hoon (60s, Eun Ha's father)
    Lee Jong Nam as Mrs. Lee (50s, Eun Ha's stepmother)
    Others
    Kim Byung Ok as Director Shim (40s, loan shark)
    Jo Han Sun as Kim Jung Tae (29, 3rd generation of Chaebol)
    Park Yun Soo (박연수) as Myung Hwa (24, Ji Sook's colleague)
    Hwang Suk Jung as Mal Ja (late 50s, Ji Sook's colleague)
    Park Joon Myun as Yeo Bu Jang (40s)
    Joo Jin Mo as Professor Kim (60s, a psychiatrist)
    Kim Ji Min (김지민)as Kim Yun Soo (30s)
    Moon Sung Ho (문성호) as Nam Chul (40s)
    Jo Yoon Woo as Oh Chang Soo (20s, Min Woo's secretary)
    Sung Chang Hoon (성창훈) as Bbul Te (30s)









    Code
    Video
    ID                             : 1
    Format                         : AVC
    Format/Info                    : Advanced Video Codec
    Format profile                 : Main@L4.0
    Format settings, CABAC         : Yes
    Format settings, ReFrames      : 4 frames
    Codec ID                       : V_MPEG4/ISO/AVC
    Duration                       : 58mn 44s
    Bit rate                       : 450 Kbps
    Width                          : 624 pixels
    Height                         : 350 pixels
    Display aspect ratio           : 16:9
    Frame rate mode                : Constant
    Frame rate                     : 29.970 fps
    Color space                    : YUV
    Chroma subsampling             : 4:2:0
    Bit depth                      : 8 bits
    Scan type                      : Progressive
    Bits/(Pixel*Frame)             : 0.069
    Stream size                    : 190 MiB (76%)
    Writing library                : x264 core 130 r2273 b3065e6
    Encoding settings              : cabac=1 / ref=1 / deblock=1:0:0 / analyse=0x1:0x111 / me=hex / subme=2 / psy=1 / psy_rd=1.00:0.00 / mixed_ref=0 / me_range=16 / chroma_me=1 / trellis=0 / 8x8dct=0 / cqm=0 / deadzone=21,11 / fast_pskip=1 / chroma_qp_offset=0 / threads=1 / lookahead_threads=1 / sliced_threads=0 / nr=0 / decimate=1 / interlaced=0 / bluray_compat=0 / constrained_intra=0 / bframes=3 / b_pyramid=2 / b_adapt=1 / b_bias=0 / direct=1 / weightb=1 / open_gop=0 / weightp=1 / keyint=300 / keyint_min=30 / scenecut=40 / intra_refresh=0 / rc_lookahead=10 / rc=abr / mbtree=1 / bitrate=450 / ratetol=1.0 / qcomp=0.60 / qpmin=0 / qpmax=69 / qpstep=4 / vbv_maxrate=20000 / vbv_bufsize=25000 / nal_hrd=none / ip_ratio=1.40 / aq=1:1.00
    Language                       : English
    Default                        : Yes
    Forced                         : No
    Color primaries                : BT.601 NTSC
    Transfer characteristics       : BT.709
    Matrix coefficients            : BT.601

    Audio
    ID                             : 2
    Format                         : MPEG Audio
    Format version                 : Version 1
    Format profile                 : Layer 3
    Mode                           : Joint stereo
    Mode extension                 : MS Stereo
    Codec ID                       : A_MPEG/L3
    Codec ID/Hint                  : MP3
    Duration                       : 58mn 44s
    Bit rate mode                  : Constant
    Bit rate                       : 128 Kbps
    Channel(s)                     : 2 channels
    Sampling rate                  : 48.0 KHz
    Compression mode               : Lossy
    Stream size                    : 53.8 MiB (22%)
    Default                        : Yes
    Forced                         : No



    0 0

    Original Post: Mask.E05.150610.HDTV.H264.450p-LIMO

    Details
    Title: 가면 / Gamyun
    Genre: Romance, melodrama
    Episodes: TBA
    Broadcast network: SBS
    Broadcast period: 2015-May-27 to 2015-???-??
    Air time: Wednesday & Thursday 22:00
    Original Soundtrack: Mask OST
    http://thetvdb.com/index.php?tab=series&id=295976

    Synopsis
    Byun Ji Sook has always had a hard life with her father constantly going into debt and being chased by loan sharks. She desperately wants to know what life is like if she was born into a better family and didn’t have to worry about money all the time. When a series of circumstances brings Ji Sook to Eun Ha, a woman from a wealthy family who strongly resembles Ji Sook, she grabs hold of the chance for a better life and assumes Eun Ha’s identity and begins to live her elite life. She meets Min Woo, a chaebol heir who is mistrusting of the people around him. But when he realizes that Ji Sook is not like the other women he has met, he is drawn to her. How long can Ji Sook keep up the charade and hide her true identity?


    Main Cast
    Soo Ae as Byun Ji Sook (29) / Seo Eun Ha (27)
    Joo Ji Hoon as Choi Min Woo (30)
    Yun Jung Hoon as Min Suk Hoon (34, Mi Yun's husband)
    Yoo In Young as Choi Mi Yun (31, Min Woo's elder sister)
    Byun Ji Sook's family
    Jung Dong Hwan as Byun Dae Sung (50s, Ji Sook's father)
    Yang Mi Kyung as Kang Ok Soon (50s, Ji Sook's mother)
    Hoya as Byun Ji Hyuk (25, Ji Sook's younger brother)
    Choi Min Woo's family
    Jun Gook Hwan as President Choi Doo Hyun (60s, Min Woo's father)
    Park Joon Geum as Mrs. Song (50s, Min Woo's stepmother, Mi Yun's biological mother)
    Seo Eun Ha's family
    Park Yong Soo as Congressman Seo Jong Hoon (60s, Eun Ha's father)
    Lee Jong Nam as Mrs. Lee (50s, Eun Ha's stepmother)
    Others
    Kim Byung Ok as Director Shim (40s, loan shark)
    Jo Han Sun as Kim Jung Tae (29, 3rd generation of Chaebol)
    Park Yun Soo (박연수) as Myung Hwa (24, Ji Sook's colleague)
    Hwang Suk Jung as Mal Ja (late 50s, Ji Sook's colleague)
    Park Joon Myun as Yeo Bu Jang (40s)
    Joo Jin Mo as Professor Kim (60s, a psychiatrist)
    Kim Ji Min (김지민)as Kim Yun Soo (30s)
    Moon Sung Ho (문성호) as Nam Chul (40s)
    Jo Yoon Woo as Oh Chang Soo (20s, Min Woo's secretary)
    Sung Chang Hoon (성창훈) as Bbul Te (30s)










    Code
    Video
    ID                                       : 0
    Format                                   : AVC
    Format/Info                              : Advanced Video Codec
    Format profile                           : High@L5.1
    Format settings, CABAC                   : Yes
    Format settings, ReFrames                : 4 frames
    Codec ID                                 : H264
    Bit rate                                 : 1 500 Kbps
    Width                                    : 800 pixels
    Height                                   : 450 pixels
    Display aspect ratio                     : 16:9
    Frame rate mode                          : Variable
    Frame rate                               : 29.970 fps
    Color space                              : YUV
    Chroma subsampling                       : 4:2:0
    Bit depth                                : 8 bits
    Scan type                                : Progressive
    Bits/(Pixel*Frame)                       : 0.139
    Stream size                              : 686 MiB (88%)
    Writing library                          : x264 core 112

    Audio
    ID                                       : 1
    Format                                   : MPEG Audio
    Format version                           : Version 1
    Format profile                           : Layer 3
    Mode                                     : Joint stereo
    Mode extension                           : MS Stereo
    Codec ID                                 : 55
    Codec ID/Hint                            : MP3
    Bit rate mode                            : Constant
    Bit rate                                 : 192 Kbps
    Channel(s)                               : 2 channels
    Sampling rate                            : 48.0 KHz
    Compression mode                         : Lossy
    Stream size                              : 88.3 MiB (11%)
    Alignment                                : Aligned on interleaves
    Interleave, duration                     : 24 ms (0.72 video frame)
    Writing library                          : LAME3.98.2
    Language                                 : Korean



    0 0

    Original Post: Mask.E05.150610.HDTV.H264.720p-LIMO

    Details
    Title: 가면 / Gamyun
    Genre: Romance, melodrama
    Episodes: TBA
    Broadcast network: SBS
    Broadcast period: 2015-May-27 to 2015-???-??
    Air time: Wednesday & Thursday 22:00
    Original Soundtrack: Mask OST
    http://thetvdb.com/index.php?tab=series&id=295976

    Synopsis
    Byun Ji Sook has always had a hard life with her father constantly going into debt and being chased by loan sharks. She desperately wants to know what life is like if she was born into a better family and didn’t have to worry about money all the time. When a series of circumstances brings Ji Sook to Eun Ha, a woman from a wealthy family who strongly resembles Ji Sook, she grabs hold of the chance for a better life and assumes Eun Ha’s identity and begins to live her elite life. She meets Min Woo, a chaebol heir who is mistrusting of the people around him. But when he realizes that Ji Sook is not like the other women he has met, he is drawn to her. How long can Ji Sook keep up the charade and hide her true identity?


    Main Cast
    Soo Ae as Byun Ji Sook (29) / Seo Eun Ha (27)
    Joo Ji Hoon as Choi Min Woo (30)
    Yun Jung Hoon as Min Suk Hoon (34, Mi Yun's husband)
    Yoo In Young as Choi Mi Yun (31, Min Woo's elder sister)
    Byun Ji Sook's family
    Jung Dong Hwan as Byun Dae Sung (50s, Ji Sook's father)
    Yang Mi Kyung as Kang Ok Soon (50s, Ji Sook's mother)
    Hoya as Byun Ji Hyuk (25, Ji Sook's younger brother)
    Choi Min Woo's family
    Jun Gook Hwan as President Choi Doo Hyun (60s, Min Woo's father)
    Park Joon Geum as Mrs. Song (50s, Min Woo's stepmother, Mi Yun's biological mother)
    Seo Eun Ha's family
    Park Yong Soo as Congressman Seo Jong Hoon (60s, Eun Ha's father)
    Lee Jong Nam as Mrs. Lee (50s, Eun Ha's stepmother)
    Others
    Kim Byung Ok as Director Shim (40s, loan shark)
    Jo Han Sun as Kim Jung Tae (29, 3rd generation of Chaebol)
    Park Yun Soo (박연수) as Myung Hwa (24, Ji Sook's colleague)
    Hwang Suk Jung as Mal Ja (late 50s, Ji Sook's colleague)
    Park Joon Myun as Yeo Bu Jang (40s)
    Joo Jin Mo as Professor Kim (60s, a psychiatrist)
    Kim Ji Min (김지민)as Kim Yun Soo (30s)
    Moon Sung Ho (문성호) as Nam Chul (40s)
    Jo Yoon Woo as Oh Chang Soo (20s, Min Woo's secretary)
    Sung Chang Hoon (성창훈) as Bbul Te (30s)









    Code
    Video
    ID                               : 0
    Format                           : AVC
    Format/Info                      : Advanced Video Codec
    Format profile                   : High@L5.1
    Format settings, CABAC           : Yes
    Format settings, ReFrames        : 4 frames
    Codec ID                         : H264
    Duration                         : 1h 4mn
    Bit rate                         : 3 000 Kbps
    Width                            : 1 280 pixels
    Height                           : 720 pixels
    Display aspect ratio             : 16:9
    Frame rate mode                  : Variable
    Frame rate                       : 29.970 fps
    Color space                      : YUV
    Chroma subsampling               : 4:2:0
    Bit depth                        : 8 bits
    Scan type                        : Progressive
    Bits/(Pixel*Frame)               : 0.109
    Stream size                      : 1.35 GiB (94%)
    Writing library                  : x264 core 112
    Encoding settings                : cabac=1 / ref=3 / deblock=1:-1:-1 / analyse=0x3:0x113 / me=hex / subme=6 / psy=1 / psy_rd=1.00:1.00 / mixed_ref=1 / me_range=16 / chroma_me=1 / trellis=1 / 8x8dct=1 / cqm=0 / deadzone=21,11 / fast_pskip=0 / chroma_qp_offset=-4 / threads=12 / sliced_threads=0 / nr=0 / decimate=1 / interlaced=0 / constrained_intra=0 / bframes=3 / b_pyramid=2 / b_adapt=1 / b_bias=1 / direct=3 / weightb=1 / open_gop=0 / weightp=2 / keyint=299 / keyint_min=25 / scenecut=1 / intra_refresh=0 / rc_lookahead=40 / rc=abr / mbtree=1 / bitrate=3000 / ratetol=1.0 / qcomp=0.60 / qpmin=10 / qpmax=51 / qpstep=4 / ip_ratio=1.40 / aq=1:1.00

    Audio
    ID                               : 1
    Format                           : MPEG Audio
    Format version                   : Version 1
    Format profile                   : Layer 3
    Mode                             : Joint stereo
    Mode extension                   : MS Stereo
    Codec ID                         : 55
    Codec ID/Hint                    : MP3
    Duration                         : 1h 4mn
    Bit rate mode                    : Constant
    Bit rate                         : 192 Kbps
    Channel(s)                       : 2 channels
    Sampling rate                    : 48.0 KHz
    Stream size                      : 88.0 MiB (6%)
    Alignment                        : Split accross interleaves
    Interleave, duration             : 33 ms (1.00 video frame)
    Interleave, preload duration     : 500 ms
    Writing library                  : LAME3.98.2



    0 0

    Original Post: Masked.Prosecutor.E07.150610.HDTV.X264-LIMO

    Details
    Title: 복면검사 / Bogmyeongeomsa
    Genre: Action, thriller
    Episodes:
    Broadcast network: KBS2
    Broadcast period: 2015-May-20 to 2015-??-??
    Air time: Wednesday & Thursday 22:00
    http://thetvdb.com/?tab=series&id=295948&lid=7

    Synopsis
    The story is about a man, played by Joo Sang Wook with a double identity. He's a normal prosecutor during the day and a masked vigilante at night. Kim Sun Ah will play a role of detective chief in the violent crimes unit.

    Cast
    Joo Sang Wook as Ha Dae Chul (33, Prosecutor at Southern District)
    Kim Sun Ah as a Yoo Min Hee (33, Chief at Gangnam Police Station, Crime Division)
    Uhm Ki Joon as Kang Hyun Woong (30, Prosecutor at Seoul District)
    Jun Kwang Ryul as Jo Sang Taek (50s, former detective)









    Code
    Video
    ID                             : 1
    Format                         : AVC
    Format/Info                    : Advanced Video Codec
    Format profile                 : Main@L4.0
    Format settings, CABAC         : Yes
    Format settings, ReFrames      : 4 frames
    Codec ID                       : V_MPEG4/ISO/AVC
    Duration                       : 58mn 44s
    Bit rate                       : 450 Kbps
    Width                          : 624 pixels
    Height                         : 350 pixels
    Display aspect ratio           : 16:9
    Frame rate mode                : Constant
    Frame rate                     : 29.970 fps
    Color space                    : YUV
    Chroma subsampling             : 4:2:0
    Bit depth                      : 8 bits
    Scan type                      : Progressive
    Bits/(Pixel*Frame)             : 0.069
    Stream size                    : 190 MiB (76%)
    Writing library                : x264 core 130 r2273 b3065e6
    Encoding settings              : cabac=1 / ref=1 / deblock=1:0:0 / analyse=0x1:0x111 / me=hex / subme=2 / psy=1 / psy_rd=1.00:0.00 / mixed_ref=0 / me_range=16 / chroma_me=1 / trellis=0 / 8x8dct=0 / cqm=0 / deadzone=21,11 / fast_pskip=1 / chroma_qp_offset=0 / threads=1 / lookahead_threads=1 / sliced_threads=0 / nr=0 / decimate=1 / interlaced=0 / bluray_compat=0 / constrained_intra=0 / bframes=3 / b_pyramid=2 / b_adapt=1 / b_bias=0 / direct=1 / weightb=1 / open_gop=0 / weightp=1 / keyint=300 / keyint_min=30 / scenecut=40 / intra_refresh=0 / rc_lookahead=10 / rc=abr / mbtree=1 / bitrate=450 / ratetol=1.0 / qcomp=0.60 / qpmin=0 / qpmax=69 / qpstep=4 / vbv_maxrate=20000 / vbv_bufsize=25000 / nal_hrd=none / ip_ratio=1.40 / aq=1:1.00
    Language                       : English
    Default                        : Yes
    Forced                         : No
    Color primaries                : BT.601 NTSC
    Transfer characteristics       : BT.709
    Matrix coefficients            : BT.601

    Audio
    ID                             : 2
    Format                         : MPEG Audio
    Format version                 : Version 1
    Format profile                 : Layer 3
    Mode                           : Joint stereo
    Mode extension                 : MS Stereo
    Codec ID                       : A_MPEG/L3
    Codec ID/Hint                  : MP3
    Duration                       : 58mn 44s
    Bit rate mode                  : Constant
    Bit rate                       : 128 Kbps
    Channel(s)                     : 2 channels
    Sampling rate                  : 48.0 KHz
    Compression mode               : Lossy
    Stream size                    : 53.8 MiB (22%)
    Default                        : Yes
    Forced                         : No



    0 0

    Original Post: Masked.Prosecutor.E07.150610.HDTV.H264.450p-LIMO

    Details
    Title: 복면검사 / Bogmyeongeomsa
    Genre: Action, thriller
    Episodes:
    Broadcast network: KBS2
    Broadcast period: 2015-May-20 to 2015-??-??
    Air time: Wednesday & Thursday 22:00
    http://thetvdb.com/?tab=series&id=295948&lid=7

    Synopsis
    The story is about a man, played by Joo Sang Wook with a double identity. He's a normal prosecutor during the day and a masked vigilante at night. Kim Sun Ah will play a role of detective chief in the violent crimes unit.

    Cast
    Joo Sang Wook as Ha Dae Chul (33, Prosecutor at Southern District)
    Kim Sun Ah as a Yoo Min Hee (33, Chief at Gangnam Police Station, Crime Division)
    Uhm Ki Joon as Kang Hyun Woong (30, Prosecutor at Seoul District)
    Jun Kwang Ryul as Jo Sang Taek (50s, former detective)










    Code
    Video
    ID                                       : 0
    Format                                   : AVC
    Format/Info                              : Advanced Video Codec
    Format profile                           : High@L5.1
    Format settings, CABAC                   : Yes
    Format settings, ReFrames                : 4 frames
    Codec ID                                 : H264
    Bit rate                                 : 1 500 Kbps
    Width                                    : 800 pixels
    Height                                   : 450 pixels
    Display aspect ratio                     : 16:9
    Frame rate mode                          : Variable
    Frame rate                               : 29.970 fps
    Color space                              : YUV
    Chroma subsampling                       : 4:2:0
    Bit depth                                : 8 bits
    Scan type                                : Progressive
    Bits/(Pixel*Frame)                       : 0.139
    Stream size                              : 686 MiB (88%)
    Writing library                          : x264 core 112

    Audio
    ID                                       : 1
    Format                                   : MPEG Audio
    Format version                           : Version 1
    Format profile                           : Layer 3
    Mode                                     : Joint stereo
    Mode extension                           : MS Stereo
    Codec ID                                 : 55
    Codec ID/Hint                            : MP3
    Bit rate mode                            : Constant
    Bit rate                                 : 192 Kbps
    Channel(s)                               : 2 channels
    Sampling rate                            : 48.0 KHz
    Compression mode                         : Lossy
    Stream size                              : 88.3 MiB (11%)
    Alignment                                : Aligned on interleaves
    Interleave, duration                     : 24 ms (0.72 video frame)
    Writing library                          : LAME3.98.2
    Language                                 : Korean



    0 0

    Original Post: Masked.Prosecutor.E07.150610.HDTV.H264.720p-LIMO

    Details
    Title: 복면검사 / Bogmyeongeomsa
    Genre: Action, thriller
    Episodes:
    Broadcast network: KBS2
    Broadcast period: 2015-May-20 to 2015-??-??
    Air time: Wednesday & Thursday 22:00
    http://thetvdb.com/?tab=series&id=295948&lid=7

    Synopsis
    The story is about a man, played by Joo Sang Wook with a double identity. He's a normal prosecutor during the day and a masked vigilante at night. Kim Sun Ah will play a role of detective chief in the violent crimes unit.

    Cast
    Joo Sang Wook as Ha Dae Chul (33, Prosecutor at Southern District)
    Kim Sun Ah as a Yoo Min Hee (33, Chief at Gangnam Police Station, Crime Division)
    Uhm Ki Joon as Kang Hyun Woong (30, Prosecutor at Seoul District)
    Jun Kwang Ryul as Jo Sang Taek (50s, former detective)









    Code
    Video
    ID                               : 0
    Format                           : AVC
    Format/Info                      : Advanced Video Codec
    Format profile                   : High@L5.1
    Format settings, CABAC           : Yes
    Format settings, ReFrames        : 4 frames
    Codec ID                         : H264
    Duration                         : 1h 4mn
    Bit rate                         : 3 000 Kbps
    Width                            : 1 280 pixels
    Height                           : 720 pixels
    Display aspect ratio             : 16:9
    Frame rate mode                  : Variable
    Frame rate                       : 29.970 fps
    Color space                      : YUV
    Chroma subsampling               : 4:2:0
    Bit depth                        : 8 bits
    Scan type                        : Progressive
    Bits/(Pixel*Frame)               : 0.109
    Stream size                      : 1.35 GiB (94%)
    Writing library                  : x264 core 112
    Encoding settings                : cabac=1 / ref=3 / deblock=1:-1:-1 / analyse=0x3:0x113 / me=hex / subme=6 / psy=1 / psy_rd=1.00:1.00 / mixed_ref=1 / me_range=16 / chroma_me=1 / trellis=1 / 8x8dct=1 / cqm=0 / deadzone=21,11 / fast_pskip=0 / chroma_qp_offset=-4 / threads=12 / sliced_threads=0 / nr=0 / decimate=1 / interlaced=0 / constrained_intra=0 / bframes=3 / b_pyramid=2 / b_adapt=1 / b_bias=1 / direct=3 / weightb=1 / open_gop=0 / weightp=2 / keyint=299 / keyint_min=25 / scenecut=1 / intra_refresh=0 / rc_lookahead=40 / rc=abr / mbtree=1 / bitrate=3000 / ratetol=1.0 / qcomp=0.60 / qpmin=10 / qpmax=51 / qpstep=4 / ip_ratio=1.40 / aq=1:1.00

    Audio
    ID                               : 1
    Format                           : MPEG Audio
    Format version                   : Version 1
    Format profile                   : Layer 3
    Mode                             : Joint stereo
    Mode extension                   : MS Stereo
    Codec ID                         : 55
    Codec ID/Hint                    : MP3
    Duration                         : 1h 4mn
    Bit rate mode                    : Constant
    Bit rate                         : 192 Kbps
    Channel(s)                       : 2 channels
    Sampling rate                    : 48.0 KHz
    Stream size                      : 88.0 MiB (6%)
    Alignment                        : Split accross interleaves
    Interleave, duration             : 33 ms (1.00 video frame)
    Interleave, preload duration     : 500 ms
    Writing library                  : LAME3.98.2



    0 0

    Original Post: Flower.of.Algernon.EP09.720p.HDTV.x264.AAC-DoA



    http://wiki.d-addicts.com/Algernon_ni_Hanataba_wo_%282015%29
    http://asianwiki.com/Flowers_for_Algernon_%28Japanese_Drama%29
    http://thetvdb.com/?tab=series&id=293168&lid=7

    Title: アルジャーノンに花束を
    Title (romaji): Algernon ni Hanataba wo
    Also known as: Flowers for Algernon
    Format: Renzoku
    Genre: Drama
    Episodes: 10
    Broadcast network: TBS
    Broadcast period: 2015-Apr-10 to 2015-Jun-12
    Air time: Friday 22:00
    Related TV shows: Algernon ni Hanataba wo (Fuji TV, 2002), Hello, God (KBS2, 2006)
    Language: Japanese
    Country: Japan
    Subtitles: English here: areea-chan
    RAW credit to DoA

    Cast
       Yamashita Tomohisa as Shiratori Sakuto
       Kuriyama Chiaki as Mochizuki Haruka
       Kubota Masataka as Yanagawa Ryuichi
       Kudo Asuka (工藤阿須加)
       Kikuchi Fuma
       Tanimura Mitsuki
       Oomasa Aya
       Kaai Gamon
       Ishida Issei
       Kusakari Tamiyo
       Nakahara Takeo (special appearance)
       Hagiwara Masato
       Ishimaru Kanji as Hachisuka Daigo

    Synopsis
    Shiratori Sakuto is 28, but has the intelligence of a 6-year-old boy. He works for Dream Flower Service, a flower distribution centre which provides employment for problem youth. One day, he and a colleague, Yanagawa Ryuichi, delivers a rose bouquet to the apartment building where Mochizuki Haruka lives. Because Haruka does not know that the deliveryman is mentally challenged, she is shocked by his response and tries to call the police. Haruka works for a brain physiology research centre where Professor Hachisuka Daigo has been studying the improvement of mental performance. He has succeeded in lab experiments on a white mouse called Algernon. Sakuto is transformed into a genius through surgery. But Algernon's new intelligence begins to fade, and he dies. Sakuto realises that his genius, too, is destined to leave him.

    General
    Complete name                  : Flower.of.Algernon.EP09.720p.HDTV.x264.AAC-DoA.mkv
    Format                         : Matroska
    Format version                 : Version 4 / Version 2
    File size                      : 817 MiB
    Duration                       : 46mn 34s
    Overall bit rate               : 2 451 Kbps

    Video
    ID                             : 1
    Format                         : AVC
    Format/Info                    : Advanced Video Codec
    Format profile                 : High@L4.1
    Format settings, CABAC         : Yes
    Format settings, ReFrames      : 9 frames
    Codec ID                       : V_MPEG4/ISO/AVC
    Duration                       : 46mn 34s
    Width                          : 1 280 pixels
    Height                         : 720 pixels
    Display aspect ratio           : 16:9
    Frame rate mode                : Constant
    Frame rate                     : 29.970 fps
    Color space                    : YUV
    Chroma subsampling             : 4:2:0
    Bit depth                      : 8 bits
    Scan type                      : Progressive
    Title                          : Encode by DoA

    Audio
    ID                             : 2
    Format                         : AAC
    Format/Info                    : Advanced Audio Codec
    Format profile                 : LC
    Codec ID                       : A_AAC
    Duration                       : 46mn 34s
    Channel count                  : 2 channels
    Channel positions              : Front: L R
    Sampling rate                  : 48.0 KHz
    Compression mode               : Lossy







    0 0

    Original Post: Wagakki Band(和楽器バンド)- VOCALO Zanmai(ボカロ三昧) 2014


    Artist: Wagakki Band(和楽器バンド)
    Album: VOCALO Zanmai(ボカロ三昧)
    Year:  2014
    Genre: Pop/Rock
    Encoder: [youshikibi]
    Bitrate: 320kBit/s
    Codec: MPEG 1 LAYER III
    Frequency: 44100 Hz

    Tracklist:
    1.    Tengaku (天樂)
    2.    Setsuna Trip (セツナトリップ)
    3.    Yoshiwara Lament (吉原ラメント)
    4.    Kagerou Days (カゲロウデイズ)
    5.    Nijiiro Chouchou (虹色蝶々)
    6.    Iroha Uta (いろは唄)
    7.    Roku Chounen to Ichiya Monogatari (六兆年と一夜物語)
    8.    Tsuki・Kage・Mai・Ka (月・影・舞・華)
    9.    Episode.0
    10.    Shinkai Shoujo (深海少女)
    11.    Noushou Sakuretsu Girl (脳漿炸裂ガール)
    12.    Senbonzakura (千本桜)

    "Wagakki Band (和楽器バンド wagakki bando?) is a musical group from Japan. The shigin singer Yuko Suzuhana (elected Miss Nico Nama ニコ生 in 2011) and seven musicians fuse Vocaloid songs with wagakki (traditional Japanese musical instruments) and Western rock."

    - Wikipedia
    http://en.wikipedia.org/wiki/Wagakki_Band



    All credit goes to [youshikibi] for encoding and uploading. I am merely humbly sharing the awesomeness.
    どもあろがとうございました! //P


    0 0

    Original Post: Two Thumbs Up 2015 720p BluRay x264-WiKi





    Detail:
    Title: Two Thumbs Up
    Genre: Action | Drama
    Release Date: 2 April 2015
    Runtime: 103 min
    Director: Ho Leung Lau
    Rating: 6.6/10 from 58 users
    Country: Hong Kong
    Language: Cantonese , Mandarin
    Subtitles:Chinese

    Synopsis:
    Big F, who‘s just gotten out of prison, wastes no time in tracking down his old comrades, picking up bowling alley employee Crazy B, back-alley hairstylist Johnny T and mechanic East L in quick succession. As it turns out, Big F wants to rob a truck transporting dirty money across the Mainland-Hong Kong border, and to do that, the gang‘s got to pose as police officers. On the day of the heist, the men set off in their minibus-turned-police-vehicle dressed as cops and armed with BB guns. What they don‘t know is that another group of criminals also has its sights set on the truck – and those people have AK-47s.







    Cast:
    Sixuan Chen, Mark Cheng, Jamie Cheung


    Code

    Video
    ID                                       : 1
    Format                                   : AVC
    Format/Info                              : Advanced Video Codec
    Format profile                           : High@L4.1
    Format settings, CABAC                   : Yes
    Format settings, ReFrames                : 12 frames
    Codec ID                                 : V_MPEG4/ISO/AVC
    Duration                                 : 1h 42mn
    Bit rate                                 : 5 016 Kbps
    Width                                    : 1 280 pixels
    Height                                   : 544 pixels
    Display aspect ratio                     : 2.35:1
    Frame rate                               : 24.000 fps
    Color space                              : YUV
    Chroma subsampling                       : 4:2:0
    Bit depth                                : 8 bits
    Scan type                                : Progressive
    Bits/(Pixel*Frame)                       : 0.300
    Stream size                              : 3.51 GiB (80%)
    Writing library                          : x264 core 129 r2245+704+36 8e61944 tMod+MixAQ [8-bit@4:2:0 X86_64]
    Encoding settings                        : cabac=1 / ref=12 / deblock=1:-3:-3 / analyse=0x3:0x133 / me=umh / subme=11 / psy=1 / fade_compensate=0.00 / psy_rd=1.05:0.10 / mixed_ref=1 / me_range=32 / chroma_me=1 / trellis=2 / 8x8dct=1 / cqm=0 / deadzone=21,11 / fast_pskip=0 / chroma_qp_offset=-3 / threads=18 / lookahead_threads=3 / sliced_threads=0 / nr=0 / decimate=0 / interlaced=0 / bluray_compat=0 / constrained_intra=0 / fgo=0 / bframes=10 / b_pyramid=2 / b_adapt=2 / b_bias=0 / direct=3 / weightb=1 / open_gop=0 / weightp=2 / keyint=250 / keyint_min=24 / scenecut=40 / intra_refresh=0 / rc_lookahead=80 / rc=2pass / mbtree=1 / bitrate=5016 / ratetol=1.0 / qcomp=0.70 / qpmin=0 / qpmax=69 / qpstep=4 / cplxblur=20.0 / qblur=0.5 / ip_ratio=1.40 / aq=1 / aq-strength=0.85 / aq-sensitivity=10.00 / aq-ifactor=1.00 / aq-pfactor=1.00 / aq-bfactor=1.00 / aq2=0
    Language                                 : Chinese
    Default                                  : Yes
    Forced                                   : No
    DURATION                                 : 01:42:32.959000000
    NUMBER_OF_FRAMES                         : 147671
    NUMBER_OF_BYTES                          : 3858162748
    _STATISTICS_WRITING_APP                  : mkvmerge v7.9.0 ('Birds') 64bit
    _STATISTICS_WRITING_DATE_UTC             : 2015-06-10 15:11:30
    _STATISTICS_TAGS                         : BPS DURATION NUMBER_OF_FRAMES NUMBER_OF_BYTES

    Audio #1
    ID                                       : 2
    Format                                   : AC-3
    Format/Info                              : Audio Coding 3
    Mode extension                           : CM (complete main)
    Format settings, Endianness              : Big
    Codec ID                                 : A_AC3
    Duration                                 : 1h 42mn
    Bit rate mode                            : Constant
    Bit rate                                 : 640 Kbps
    Channel(s)                               : 6 channels
    Channel positions                        : Front: L C R, Side: L R, LFE
    Sampling rate                            : 48.0 KHz
    Bit depth                                : 16 bits
    Compression mode                         : Lossy
    Stream size                              : 469 MiB (10%)
    Title                                    : Cantonese
    Language                                 : Chinese
    Default                                  : Yes
    Forced                                   : No

    Audio #2
    ID                                       : 3
    Format                                   : AC-3
    Format/Info                              : Audio Coding 3
    Mode extension                           : CM (complete main)
    Format settings, Endianness              : Big
    Codec ID                                 : A_AC3
    Duration                                 : 1h 42mn
    Bit rate mode                            : Constant
    Bit rate                                 : 448 Kbps
    Channel(s)                               : 6 channels
    Channel positions                        : Front: L C R, Side: L R, LFE
    Sampling rate                            : 48.0 KHz
    Bit depth                                : 16 bits
    Compression mode                         : Lossy
    Stream size                              : 329 MiB (7%)
    Title                                    : Mandarin
    Language                                 : Chinese
    Default                                  : No
    Forced                                   : No

    Text #1
    ID                                       : 4
    Format                                   : UTF-8
    Codec ID                                 : S_TEXT/UTF8
    Codec ID/Info                            : UTF-8 Plain Text
    Title                                    : Simplified
    Language                                 : Chinese
    Default                                  : Yes
    Forced                                   : No

    Text #2
    ID                                       : 5
    Format                                   : UTF-8
    Codec ID                                 : S_TEXT/UTF8
    Codec ID/Info                            : UTF-8 Plain Text
    Title                                    : Traditional
    Language                                 : Chinese
    Default                                  : No
    Forced                                   : No



    0 0

    Original Post: TVB The.Empress.of.China.E37.HDTV.H264.2Audio.720p-CensoredCleavages

    Detail:
    Title: Empress Of China
    AKA:武媚娘傳奇
    Genre: Historical fiction
    Release Date: April 26, 2015 - July 4, 2015
    Episodes: 70
    Director: Go Yik Chun
    Country: China
    Language: Track 1: Mandarin/ Track 2: Cantonese dub
    Subtitles: English (srt embedded)
    http://thetvdb.com/?tab=series&id=289782

    Fan Bingbing as Wu Meiniang
    Zhang Fengyi as Li Shimin
    Aarif Rahman as Li Zhi
    Janine Chang as Xu Hui
    Li Chen as Li Mu
    Chang Ting as Consort Wei
    Wu Xiubo as Zhang Jianzhi
    Viann Zhang as Consort Xiao
    Kathy Chow as Consort Yang
    Wang Huichun as Zhangsun Wuji
    Lee Lee-jen as Li Chengqian
    Li Jie as Li Ke
    Yu Haoming as Li Chunfeng

    Before she was the most famous female ruler in Chinese history, Wu Mei Liang was a woman vying for her husbands’ love. While her first husband kept her at arm’s length by a prophecy foretelling a woman of Wu stealing the Tang Dynasty, her second husband welcomed her with open arms. During her time as a minor consort to Li Shi Min, she learned how an effective Emperor rule his court. Using that knowledge, she helped Li Zhi take back power from his Regent, and herself into the position of Empress. She co-ruled with Li Zhi until his death, after which she ruled the country in her own right.






    Code
    Video
    ID                             : 1
    Format                         : AVC
    Format/Info                    : Advanced Video Codec
    Format profile                 : Main@L4.0
    Format settings, CABAC         : Yes
    Format settings, ReFrames      : 4 frames
    Codec ID                       : V_MPEG4/ISO/AVC
    Bit rate                       : 4 500 Kbps
    Width                          : 1 280 pixels
    Height                         : 720 pixels
    Display aspect ratio           : 16:9
    Frame rate mode                : Variable
    Color space                    : YUV
    Chroma subsampling             : 4:2:0
    Bit depth                      : 8 bits
    Scan type                      : Progressive
    Title                          : The.Empress.of.China.E37.HDTV.H264.2Audio.720p-CensoredCleavages
    Writing library                : x264 core 130 r2273 b3065e6
    Language                       : Chinese
    Default                        : Yes
    Forced                         : No
    Color primaries                : BT.709
    Transfer characteristics       : BT.709
    Matrix coefficients            : BT.709

    Audio #1
    ID                             : 2
    Format                         : AC-3
    Format/Info                    : Audio Coding 3
    Mode extension                 : CM (complete main)
    Format settings, Endianness    : Big
    Codec ID                       : A_AC3
    Duration                       : 44mn 27s
    Bit rate mode                  : Constant
    Bit rate                       : 384 Kbps
    Channel(s)                     : 6 channels
    Channel positions              : Front: L C R, Side: L R, LFE
    Sampling rate                  : 48.0 KHz
    Bit depth                      : 16 bits
    Compression mode               : Lossy
    Stream size                    : 122 MiB (8%)
    Title                          : Mandarin
    Language                       : Chinese
    Default                        : Yes
    Forced                         : No

    Audio #2
    ID                             : 3
    Format                         : AC-3
    Format/Info                    : Audio Coding 3
    Mode extension                 : CM (complete main)
    Format settings, Endianness    : Big
    Codec ID                       : A_AC3
    Duration                       : 44mn 27s
    Bit rate mode                  : Constant
    Bit rate                       : 192 Kbps
    Channel(s)                     : 2 channels
    Channel positions              : Front: L R
    Sampling rate                  : 48.0 KHz
    Bit depth                      : 16 bits
    Compression mode               : Lossy
    Stream size                    : 61.1 MiB (4%)
    Title                          : Cantonese
    Language                       : Chinese
    Default                        : No
    Forced                         : No

    Text
    ID                             : 4
    Format                         : UTF-8
    Codec ID                       : S_TEXT/UTF8
    Codec ID/Info                  : UTF-8 Plain Text
    Default                        : Yes
    Forced                         : No



    0 0

    Original Post: TVB The.Empress.of.China.E38.HDTV.H264.2Audio.720p-CensoredCleavages

    Detail:
    Title: Empress Of China
    AKA:武媚娘傳奇
    Genre: Historical fiction
    Release Date: April 26, 2015 - July 4, 2015
    Episodes: 70
    Director: Go Yik Chun
    Country: China
    Language: Track 1: Mandarin/ Track 2: Cantonese dub
    Subtitles: English (srt embedded)
    http://thetvdb.com/?tab=series&id=289782

    Fan Bingbing as Wu Meiniang
    Zhang Fengyi as Li Shimin
    Aarif Rahman as Li Zhi
    Janine Chang as Xu Hui
    Li Chen as Li Mu
    Chang Ting as Consort Wei
    Wu Xiubo as Zhang Jianzhi
    Viann Zhang as Consort Xiao
    Kathy Chow as Consort Yang
    Wang Huichun as Zhangsun Wuji
    Lee Lee-jen as Li Chengqian
    Li Jie as Li Ke
    Yu Haoming as Li Chunfeng

    Before she was the most famous female ruler in Chinese history, Wu Mei Liang was a woman vying for her husbands’ love. While her first husband kept her at arm’s length by a prophecy foretelling a woman of Wu stealing the Tang Dynasty, her second husband welcomed her with open arms. During her time as a minor consort to Li Shi Min, she learned how an effective Emperor rule his court. Using that knowledge, she helped Li Zhi take back power from his Regent, and herself into the position of Empress. She co-ruled with Li Zhi until his death, after which she ruled the country in her own right.






    Code
    Video
    ID                             : 1
    Format                         : AVC
    Format/Info                    : Advanced Video Codec
    Format profile                 : Main@L4.0
    Format settings, CABAC         : Yes
    Format settings, ReFrames      : 4 frames
    Codec ID                       : V_MPEG4/ISO/AVC
    Bit rate                       : 4 500 Kbps
    Width                          : 1 280 pixels
    Height                         : 720 pixels
    Display aspect ratio           : 16:9
    Frame rate mode                : Variable
    Color space                    : YUV
    Chroma subsampling             : 4:2:0
    Bit depth                      : 8 bits
    Scan type                      : Progressive
    Title                          : The.Empress.of.China.E38.HDTV.H264.2Audio.720p-CensoredCleavages
    Writing library                : x264 core 130 r2273 b3065e6
    Language                       : Chinese
    Default                        : Yes
    Forced                         : No
    Color primaries                : BT.709
    Transfer characteristics       : BT.709
    Matrix coefficients            : BT.709

    Audio #1
    ID                             : 2
    Format                         : AC-3
    Format/Info                    : Audio Coding 3
    Mode extension                 : CM (complete main)
    Format settings, Endianness    : Big
    Codec ID                       : A_AC3
    Duration                       : 44mn 27s
    Bit rate mode                  : Constant
    Bit rate                       : 384 Kbps
    Channel(s)                     : 6 channels
    Channel positions              : Front: L C R, Side: L R, LFE
    Sampling rate                  : 48.0 KHz
    Bit depth                      : 16 bits
    Compression mode               : Lossy
    Stream size                    : 122 MiB (8%)
    Title                          : Mandarin
    Language                       : Chinese
    Default                        : Yes
    Forced                         : No

    Audio #2
    ID                             : 3
    Format                         : AC-3
    Format/Info                    : Audio Coding 3
    Mode extension                 : CM (complete main)
    Format settings, Endianness    : Big
    Codec ID                       : A_AC3
    Duration                       : 44mn 27s
    Bit rate mode                  : Constant
    Bit rate                       : 192 Kbps
    Channel(s)                     : 2 channels
    Channel positions              : Front: L R
    Sampling rate                  : 48.0 KHz
    Bit depth                      : 16 bits
    Compression mode               : Lossy
    Stream size                    : 61.1 MiB (4%)
    Title                          : Cantonese
    Language                       : Chinese
    Default                        : No
    Forced                         : No

    Text
    ID                             : 4
    Format                         : UTF-8
    Codec ID                       : S_TEXT/UTF8
    Codec ID/Info                  : UTF-8 Plain Text
    Default                        : Yes
    Forced                         : No



    0 0

    Original Post: TVB The.Empress.of.China.E39.HDTV.H264.2Audio.720p-CensoredCleavages

    Detail:
    Title: Empress Of China
    AKA:武媚娘傳奇
    Genre: Historical fiction
    Release Date: April 26, 2015 - July 4, 2015
    Episodes: 70
    Director: Go Yik Chun
    Country: China
    Language: Track 1: Mandarin/ Track 2: Cantonese dub
    Subtitles: English (srt embedded)
    http://thetvdb.com/?tab=series&id=289782

    Fan Bingbing as Wu Meiniang
    Zhang Fengyi as Li Shimin
    Aarif Rahman as Li Zhi
    Janine Chang as Xu Hui
    Li Chen as Li Mu
    Chang Ting as Consort Wei
    Wu Xiubo as Zhang Jianzhi
    Viann Zhang as Consort Xiao
    Kathy Chow as Consort Yang
    Wang Huichun as Zhangsun Wuji
    Lee Lee-jen as Li Chengqian
    Li Jie as Li Ke
    Yu Haoming as Li Chunfeng

    Before she was the most famous female ruler in Chinese history, Wu Mei Liang was a woman vying for her husbands’ love. While her first husband kept her at arm’s length by a prophecy foretelling a woman of Wu stealing the Tang Dynasty, her second husband welcomed her with open arms. During her time as a minor consort to Li Shi Min, she learned how an effective Emperor rule his court. Using that knowledge, she helped Li Zhi take back power from his Regent, and herself into the position of Empress. She co-ruled with Li Zhi until his death, after which she ruled the country in her own right.






    Code
    Video
    ID                             : 1
    Format                         : AVC
    Format/Info                    : Advanced Video Codec
    Format profile                 : Main@L4.0
    Format settings, CABAC         : Yes
    Format settings, ReFrames      : 4 frames
    Codec ID                       : V_MPEG4/ISO/AVC
    Bit rate                       : 4 500 Kbps
    Width                          : 1 280 pixels
    Height                         : 720 pixels
    Display aspect ratio           : 16:9
    Frame rate mode                : Variable
    Color space                    : YUV
    Chroma subsampling             : 4:2:0
    Bit depth                      : 8 bits
    Scan type                      : Progressive
    Title                          : The.Empress.of.China.E39.HDTV.H264.2Audio.720p-CensoredCleavages
    Writing library                : x264 core 130 r2273 b3065e6
    Language                       : Chinese
    Default                        : Yes
    Forced                         : No
    Color primaries                : BT.709
    Transfer characteristics       : BT.709
    Matrix coefficients            : BT.709

    Audio #1
    ID                             : 2
    Format                         : AC-3
    Format/Info                    : Audio Coding 3
    Mode extension                 : CM (complete main)
    Format settings, Endianness    : Big
    Codec ID                       : A_AC3
    Duration                       : 44mn 27s
    Bit rate mode                  : Constant
    Bit rate                       : 384 Kbps
    Channel(s)                     : 6 channels
    Channel positions              : Front: L C R, Side: L R, LFE
    Sampling rate                  : 48.0 KHz
    Bit depth                      : 16 bits
    Compression mode               : Lossy
    Stream size                    : 122 MiB (8%)
    Title                          : Mandarin
    Language                       : Chinese
    Default                        : Yes
    Forced                         : No

    Audio #2
    ID                             : 3
    Format                         : AC-3
    Format/Info                    : Audio Coding 3
    Mode extension                 : CM (complete main)
    Format settings, Endianness    : Big
    Codec ID                       : A_AC3
    Duration                       : 44mn 27s
    Bit rate mode                  : Constant
    Bit rate                       : 192 Kbps
    Channel(s)                     : 2 channels
    Channel positions              : Front: L R
    Sampling rate                  : 48.0 KHz
    Bit depth                      : 16 bits
    Compression mode               : Lossy
    Stream size                    : 61.1 MiB (4%)
    Title                          : Cantonese
    Language                       : Chinese
    Default                        : No
    Forced                         : No

    Text
    ID                             : 4
    Format                         : UTF-8
    Codec ID                       : S_TEXT/UTF8
    Codec ID/Info                  : UTF-8 Plain Text
    Default                        : Yes
    Forced                         : No



    0 0

    Original Post: TVB The.Empress.of.China.E40.HDTV.H264.2Audio.720p-CensoredCleavages

    Detail:
    Title: Empress Of China
    AKA:武媚娘傳奇
    Genre: Historical fiction
    Release Date: April 26, 2015 - July 4, 2015
    Episodes: 70
    Director: Go Yik Chun
    Country: China
    Language: Track 1: Mandarin/ Track 2: Cantonese dub
    Subtitles: English (srt embedded)
    http://thetvdb.com/?tab=series&id=289782

    Fan Bingbing as Wu Meiniang
    Zhang Fengyi as Li Shimin
    Aarif Rahman as Li Zhi
    Janine Chang as Xu Hui
    Li Chen as Li Mu
    Chang Ting as Consort Wei
    Wu Xiubo as Zhang Jianzhi
    Viann Zhang as Consort Xiao
    Kathy Chow as Consort Yang
    Wang Huichun as Zhangsun Wuji
    Lee Lee-jen as Li Chengqian
    Li Jie as Li Ke
    Yu Haoming as Li Chunfeng

    Before she was the most famous female ruler in Chinese history, Wu Mei Liang was a woman vying for her husbands’ love. While her first husband kept her at arm’s length by a prophecy foretelling a woman of Wu stealing the Tang Dynasty, her second husband welcomed her with open arms. During her time as a minor consort to Li Shi Min, she learned how an effective Emperor rule his court. Using that knowledge, she helped Li Zhi take back power from his Regent, and herself into the position of Empress. She co-ruled with Li Zhi until his death, after which she ruled the country in her own right.






    Code
    Video
    ID                             : 1
    Format                         : AVC
    Format/Info                    : Advanced Video Codec
    Format profile                 : Main@L4.0
    Format settings, CABAC         : Yes
    Format settings, ReFrames      : 4 frames
    Codec ID                       : V_MPEG4/ISO/AVC
    Bit rate                       : 4 500 Kbps
    Width                          : 1 280 pixels
    Height                         : 720 pixels
    Display aspect ratio           : 16:9
    Frame rate mode                : Variable
    Color space                    : YUV
    Chroma subsampling             : 4:2:0
    Bit depth                      : 8 bits
    Scan type                      : Progressive
    Title                          : The.Empress.of.China.E40.HDTV.H264.2Audio.720p-CensoredCleavages
    Writing library                : x264 core 130 r2273 b3065e6
    Language                       : Chinese
    Default                        : Yes
    Forced                         : No
    Color primaries                : BT.709
    Transfer characteristics       : BT.709
    Matrix coefficients            : BT.709

    Audio #1
    ID                             : 2
    Format                         : AC-3
    Format/Info                    : Audio Coding 3
    Mode extension                 : CM (complete main)
    Format settings, Endianness    : Big
    Codec ID                       : A_AC3
    Duration                       : 44mn 27s
    Bit rate mode                  : Constant
    Bit rate                       : 384 Kbps
    Channel(s)                     : 6 channels
    Channel positions              : Front: L C R, Side: L R, LFE
    Sampling rate                  : 48.0 KHz
    Bit depth                      : 16 bits
    Compression mode               : Lossy
    Stream size                    : 122 MiB (8%)
    Title                          : Mandarin
    Language                       : Chinese
    Default                        : Yes
    Forced                         : No

    Audio #2
    ID                             : 3
    Format                         : AC-3
    Format/Info                    : Audio Coding 3
    Mode extension                 : CM (complete main)
    Format settings, Endianness    : Big
    Codec ID                       : A_AC3
    Duration                       : 44mn 27s
    Bit rate mode                  : Constant
    Bit rate                       : 192 Kbps
    Channel(s)                     : 2 channels
    Channel positions              : Front: L R
    Sampling rate                  : 48.0 KHz
    Bit depth                      : 16 bits
    Compression mode               : Lossy
    Stream size                    : 61.1 MiB (4%)
    Title                          : Cantonese
    Language                       : Chinese
    Default                        : No
    Forced                         : No

    Text
    ID                             : 4
    Format                         : UTF-8
    Codec ID                       : S_TEXT/UTF8
    Codec ID/Info                  : UTF-8 Plain Text
    Default                        : Yes
    Forced                         : No



older | 1 | .... | 1366 | 1367 | (Page 1368) | 1369 | 1370 | .... | 1405 | newer