Are you the publisher? Claim or contact us about this channel


Embed this content in your HTML

Search

Report adult content:

click to rate:

Account: (login)

More Channels


Showcase


Channel Catalog


Channel Description:

Asia Torrents RSS Feed

older | 1 | .... | 1326 | 1327 | (Page 1328) | 1329 | 1330 | .... | 1405 | newer

    0 0

    Original Post: Falling in Love With Soon Jung E08 720p WITH


    Drama: Fall in Love with Soon-Jung (literal title)
    Revised romanization: Soonjunge Banhada
    Hangul: 순정에 반하다
    Director: Ji Yeong-Su
    Writer: Yoo Hee-Gyung
    Network: JTBC
    Episodes:
    Release Date: April 3, 2015 --
    Runtime: Fridays & Saturdays 21:50
    Language: Korean
    Country: South Korea

    Plot
    After his uncle's unjust takeover of the family company, Kang Min Ho (Jung Kyung Ho) grows up to be a successful, if not cynical investor who only cares about money. But when he undergoes a sudden heart transplant surgery, Min Ho literally has a change of heart when he inherits a warm and compassionate heart. In the midst of seeing the world anew, including falling for the kind Kim Soon Jung (Kim So Yeon), Min Ho must mitigate his newfound personality with the demands of his cutthroat career.




    Code
    Video
    ID                                       : 0
    Format                                   : AVC
    Format/Info                              : Advanced Video Codec
    Format profile                           : Baseline@L3.1
    Format settings, CABAC                   : No
    Format settings, ReFrames                : 1 frame
    Codec ID                                 : H264
    Bit rate                                 : 3 017 Kbps
    Width                                    : 1 280 pixels
    Height                                   : 720 pixels
    Display aspect ratio                     : 16:9
    Frame rate mode                          : Variable
    Frame rate                               : 29.970 fps
    Color space                              : YUV
    Chroma subsampling                       : 4:2:0
    Bit depth                                : 8 bits
    Scan type                                : Progressive
    Bits/(Pixel*Frame)                       : 0.109

    Audio
    ID                                       : 1
    Format                                   : MPEG Audio
    Format version                           : Version 1
    Format profile                           : Layer 3
    Mode                                     : Joint stereo
    Mode extension                           : MS Stereo
    Codec ID                                 : 55
    Codec ID/Hint                            : MP3
    Bit rate mode                            : Constant
    Bit rate                                 : 128 Kbps
    Channel(s)                               : 2 channels
    Sampling rate                            : 44.1 KHz
    Compression mode                         : Lossy
    Stream size                              : 62.1 MiB (4%)
    Alignment                                : Aligned on interleaves
    Interleave, duration                     : 26 ms (0.78 video frame)
    Writing library                          : LAME3.98.2

    http://


    0 0

    Original Post: My Unfortunate Boyfriend E05 XVID WITH



    Drama: My Unfortunate Boyfriend (literal title)
    Revised romanization: Naui Yoogamseureowoon Namjachingoo
    Hangul: 나의 유감스러운 남자친구
    Director: Nam Ki-Hoon
    Writer: Lee Jae-Yoon
    Network: MBC Drama
    Episodes: 16
    Release Date: April 10 - May 30, 2015
    Runtime: Fri & Sat 20:00
    Language: Korean
    Country: South Korea

    Plot

    Yoo Ji Na (Yang Jin Sung) is a budding career woman who has absolutely no issues with lying to get what she wants. But when she falls for the innocent and naive Yoon Tae Woon (No Min Woo), who is truthful to a fault, their budding romance becomes a liability for Ji Na's cutthroat corporate job. Can these unlikely lovers stay true to themselves and manage to stay together?

    Cast

    No Min-Woo - Yoon Tae-Woon
    Yang Jin-Sung - Yoo Ji-Na
    Yoon Hak - Hee-Chul
    Kwak Ji-Min - Hye-Mi
    Kim Eun-Jung - Julia
    Kim Byeong-Se
    Yun Ju-Sang
    Kim Jin-Geun
    Kil Yong-Woo
    Park Jin-Joo
    Lee Yong-Joo




    Code
    Video
    ID                                       : 0
    Format                                   : MPEG-4 Visual
    Format profile                           : Advanced Simple@L5
    Format settings, BVOP                    : No
    Format settings, QPel                    : No
    Format settings, GMC                     : No warppoints
    Format settings, Matrix                  : Default (MPEG)
    Codec ID                                 : XVID
    Codec ID/Hint                            : XviD
    Bit rate                                 : 1 391 Kbps
    Width                                    : 624 pixels
    Height                                   : 352 pixels
    Display aspect ratio                     : 16:9
    Frame rate                               : 29.970 fps
    Color space                              : YUV
    Chroma subsampling                       : 4:2:0
    Bit depth                                : 8 bits
    Scan type                                : Progressive
    Compression mode                         : Lossy
    Bits/(Pixel*Frame)                       : 0.211
    Stream size                              : 660 MiB (87%)
    Writing library                          : XviD 1.2.1 (UTC 2008-12-04)

    Audio
    ID                                       : 1
    Format                                   : MPEG Audio
    Format version                           : Version 1
    Format profile                           : Layer 3
    Mode                                     : Joint stereo
    Mode extension                           : MS Stereo
    Codec ID                                 : 55
    Codec ID/Hint                            : MP3
    Bit rate mode                            : Constant
    Bit rate                                 : 128 Kbps
    Channel(s)                               : 2 channels
    Sampling rate                            : 48.0 KHz
    Compression mode                         : Lossy
    Stream size                              : 60.8 MiB (8%)
    Alignment                                : Aligned on interleaves
    Writing library                          : LAME3.98.2



    0 0

    Original Post: My Unfortunate Boyfriend E05 720p WITH



    Drama: My Unfortunate Boyfriend (literal title)
    Revised romanization: Naui Yoogamseureowoon Namjachingoo
    Hangul: 나의 유감스러운 남자친구
    Director: Nam Ki-Hoon
    Writer: Lee Jae-Yoon
    Network: MBC Drama
    Episodes: 16
    Release Date: April 10 - May 30, 2015
    Runtime: Fri & Sat 20:00
    Language: Korean
    Country: South Korea

    Plot

    Yoo Ji Na (Yang Jin Sung) is a budding career woman who has absolutely no issues with lying to get what she wants. But when she falls for the innocent and naive Yoon Tae Woon (No Min Woo), who is truthful to a fault, their budding romance becomes a liability for Ji Na's cutthroat corporate job. Can these unlikely lovers stay true to themselves and manage to stay together?

    Cast

    No Min-Woo - Yoon Tae-Woon
    Yang Jin-Sung - Yoo Ji-Na
    Yoon Hak - Hee-Chul
    Kwak Ji-Min - Hye-Mi
    Kim Eun-Jung - Julia
    Kim Byeong-Se
    Yun Ju-Sang
    Kim Jin-Geun
    Kil Yong-Woo
    Park Jin-Joo
    Lee Yong-Joo




    Code

    Video
    ID                                       : 0
    Format                                   : AVC
    Format/Info                              : Advanced Video Codec
    Format profile                           : Baseline@L3.1
    Format settings, CABAC                   : No
    Format settings, ReFrames                : 1 frame
    Codec ID                                 : H264
    Bit rate                                 : 3 017 Kbps
    Width                                    : 1 280 pixels
    Height                                   : 720 pixels
    Display aspect ratio                     : 16:9
    Frame rate mode                          : Variable
    Frame rate                               : 29.970 fps
    Color space                              : YUV
    Chroma subsampling                       : 4:2:0
    Bit depth                                : 8 bits
    Scan type                                : Progressive
    Bits/(Pixel*Frame)                       : 0.109

    Audio
    ID                                       : 1
    Format                                   : MPEG Audio
    Format version                           : Version 1
    Format profile                           : Layer 3
    Mode                                     : Joint stereo
    Mode extension                           : MS Stereo
    Codec ID                                 : 55
    Codec ID/Hint                            : MP3
    Bit rate mode                            : Constant
    Bit rate                                 : 128 Kbps
    Channel(s)                               : 2 channels
    Sampling rate                            : 44.1 KHz
    Compression mode                         : Lossy
    Stream size                              : 62.1 MiB (4%)
    Alignment                                : Aligned on interleaves
    Interleave, duration                     : 26 ms (0.78 video frame)
    Writing library                          : LAME3.98.2



    0 0

    Original Post: Gackt Discography ~1999-2012~

    Hello , this's my first re-up and my 1st torrent.
    sleep.gif
    All Discography from 1999 - 2012 Enjoythumbsup.gif

    If something could be wrong , please give me a msg and i will try to fix it.smile1.gif


    0 0

    Original Post: Who Are You - School 2015 E02 720p LIMO


    Details

    Title: 후아유 - 학교 2015 / Hooayoo - Hakgyo 2015
    Also known as: 학교 6 (School 6)
    Genre: School, youth, drama, mystery
    Episodes: 16
    Broadcast network: KBS2
    Broadcast period: 2015-Apr-27 to 2015-???-??
    Air time: Monday & Tuesday 22:00
    Original Soundtrack: Who Are You - School 2015 OST
    Related TV Shows: School 1 (KBS2, 1999), School 2 (KBS2, 1999), School 3 (KBS2, 2000), School 4 (KBS2, 2001), School 2013 (KBS2, 2013)
    Synopsis

    This drama is a latest installment to the famed School Series. It will focus on portraying realistic issues, struggles, and dilemmas of today’s youths.

    Segang High School is a top school located in Gangnam District, Seoul. One of the students, Lee Eun Bi, wake up one day without knowing who she was. After find out that she used to be bullied, she changes herself and becomes popular. She then tries to recover her lost memories, and in the process, discovers the hidden truths behind her famous school.

    Cast
    Main Cast
    Kim So Hyun as Lee Eun Bi / Go Eun Byul
    Nam Joo Hyuk as Han Yi Ahn
    Yook Sung Jae as Gong Tae Kwang
    Extended Cast
    Lee Pil Mo as Teacher Kim Joon Suk
    Lee David as Park Min Joon
    Kim Hee Jung as Cha Song Joo
    Lee Cho Hee as Lee Shi Jin
    Jo Soo Hyang as Kang So Young
    Segang High School's teachers
    Lee Hee Do as Vice Principal
    Shin Jung Geun as Students' Supervisor
    The parents
    Jun Mi Sun as Song Mi Kyung (Eun Byul's mother)
    Lee Dae Yeon as Han Ki Choon (Yi Ahn's father)
    Jun Noh Min as Gong Jae Ho (Tae Kwang's father)
    Kim Jung Nan as Shin Jung Min (Min Joon's mother)
    Jung In Ki as Park Joon Hyung (Min Joon's father)
    Kim Se Ah as Shi Jin's mother
    Class 2-3 students
    Park Doo Shik as Kwon Ki Tae
    Yoo Young as Jo Hae Na
    Jang In Sub as Sung Yoon Jae
    Kim Bo Ra as Seo Young Eun




    Code
    Video
    ID                             : 0
    Format                         : AVC
    Format/Info                    : Advanced Video Codec
    Format profile                 : High@L5.1
    Format settings, CABAC         : Yes
    Format settings, ReFrames      : 4 frames
    Codec ID                       : H264
    Duration                       : 1h 14mn
    Bit rate                       : 3 000 Kbps
    Width                          : 1 280 pixels
    Height                         : 720 pixels
    Display aspect ratio           : 16:9
    Frame rate mode                : Variable
    Frame rate                     : 29.970 fps
    Color space                    : YUV
    Chroma subsampling             : 4:2:0
    Bit depth                      : 8 bits
    Scan type                      : Progressive
    Bits/(Pixel*Frame)             : 0.109
    Stream size                    : 1.57 GiB (94%)
    Writing library                : x264 core 112
    Encoding settings              : cabac=1 / ref=3 / deblock=1:-1:-1 / analyse=0x3:0x113 / me=hex / subme=6 / psy=1 / psy_rd=1.00:1.00 / mixed_ref=1 / me_range=16 / chroma_me=1 / trellis=1 / 8x8dct=1 / cqm=0 / deadzone=21,11 / fast_pskip=0 / chroma_qp_offset=-4 / threads=12 / sliced_threads=0 / nr=0 / decimate=1 / interlaced=0 / constrained_intra=0 / bframes=3 / b_pyramid=2 / b_adapt=1 / b_bias=1 / direct=3 / weightb=1 / open_gop=0 / weightp=2 / keyint=299 / keyint_min=25 / scenecut=1 / intra_refresh=0 / rc_lookahead=40 / rc=abr / mbtree=1 / bitrate=3000 / ratetol=1.0 / qcomp=0.60 / qpmin=10 / qpmax=51 / qpstep=4 / ip_ratio=1.40 / aq=1:1.00

    Audio
    ID                             : 1
    Format                         : MPEG Audio
    Format version                 : Version 1
    Format profile                 : Layer 3
    Mode                           : Joint stereo
    Mode extension                 : MS Stereo
    Codec ID                       : 55
    Codec ID/Hint                  : MP3
    Duration                       : 1h 14mn
    Bit rate mode                  : Constant
    Bit rate                       : 192 Kbps
    Channel(s)                     : 2 channels
    Sampling rate                  : 48.0 KHz
    Compression mode               : Lossy
    Stream size                    : 102 MiB (6%)
    Alignment                      : Split accross interleaves
    Interleave, duration           : 33 ms (1.00 video frame)
    Interleave, preload duration   : 500 ms
    Writing library                : LAME3.98



    0 0
  • 04/28/15--05:01: Hwajung E06 XVID LIMO
  • Original Post: Hwajung E06 XVID LIMO


    Details
    Title: 화정 / Hwajung
    Also known as: Splendid Politics
    Previously known as: Princess Jungmyung
    Genre: Historical, political, romance
    Episodes: 50
    Broadcast network: MBC
    Broadcast period: 2015-Apr-13 to 2015-Oct-??
    Air time: Monday & Tuesday 22:00
    Subtitles by Dramafever will be added later

    Synopsis
    Fair Princess Jungmyung (Lee Yeon Hee) lives a life of the highest privilege, until her half-brother Prince Gwanghae (Cha Seung Won) executes the rightful crown prince and usurps the throne. Exiled from court, Jungmyung goes under disguise as a man and learns to adapt to life as a commoner — never forgetting Gwanghae's wrongdoing. But amidst rampant corruption throughout the kingdom, can Jyungmyung exact her vengeance, restore order and take back her rightful place in the palace?

    Cast

    Main Cast
    Cha Seung Won as Prince Gwanghae
    Lee Tae Hwan as teen Gwanghae
    Lee Yun Hee as Princess Jungmyung
    Jung Chan Bi as teen Jungmyung
    Seo Jung Eun as child Jungmyung
    Kim Jae Won as King Injo
    Seo Kang Joon as Hong Ju Won
    Yoon Chan Young as teen Ju Won
    Choi Kwon Ju as child Ju Won
    Han Joo Wan as Kang In Woo
    Ahn Do Gyu as teen In Woo




    Code
    Video
    ID                                       : 0
    Format                                   : MPEG-4 Visual
    Format profile                           : Advanced Simple@L5
    Format settings, BVOP                    : No
    Format settings, QPel                    : No
    Format settings, GMC                     : No warppoints
    Format settings, Matrix                  : Default (MPEG)
    Codec ID                                 : XVID
    Codec ID/Hint                            : XviD
    Duration                                 : 1h 6mn
    Bit rate                                 : 1 391 Kbps
    Width                                    : 624 pixels
    Height                                   : 352 pixels
    Display aspect ratio                     : 16:9
    Frame rate                               : 29.970 fps
    Color space                              : YUV
    Chroma subsampling                       : 4:2:0
    Bit depth                                : 8 bits
    Scan type                                : Progressive
    Compression mode                         : Lossy
    Bits/(Pixel*Frame)                       : 0.211
    Stream size                              : 660 MiB (87%)
    Writing library                          : XviD 1.2.1 (UTC 2008-12-04)

    Audio
    ID                                       : 1
    Format                                   : MPEG Audio
    Format version                           : Version 1
    Format profile                           : Layer 3
    Mode                                     : Joint stereo
    Mode extension                           : MS Stereo
    Codec ID                                 : 55
    Codec ID/Hint                            : MP3
    Duration                                 : 1h 6mn
    Bit rate mode                            : Constant
    Bit rate                                 : 128 Kbps
    Channel(s)                               : 2 channels
    Sampling rate                            : 48.0 KHz
    Compression mode                         : Lossy
    Stream size                              : 60.8 MiB (8%)
    Alignment                                : Aligned on interleaves
    Writing library                          : LAME3.98.2



    0 0
  • 04/28/15--05:01: Hwajung E06 720p LIMO
  • Original Post: Hwajung E06 720p LIMO


    Details
    Title: 화정 / Hwajung
    Also known as: Splendid Politics
    Previously known as: Princess Jungmyung
    Genre: Historical, political, romance
    Episodes: 50
    Broadcast network: MBC
    Broadcast period: 2015-Apr-13 to 2015-Oct-??
    Air time: Monday & Tuesday 22:00
    Subtitles by Dramafever will be added later

    Synopsis
    Fair Princess Jungmyung (Lee Yeon Hee) lives a life of the highest privilege, until her half-brother Prince Gwanghae (Cha Seung Won) executes the rightful crown prince and usurps the throne. Exiled from court, Jungmyung goes under disguise as a man and learns to adapt to life as a commoner — never forgetting Gwanghae's wrongdoing. But amidst rampant corruption throughout the kingdom, can Jyungmyung exact her vengeance, restore order and take back her rightful place in the palace?

    Cast

    Main Cast
    Cha Seung Won as Prince Gwanghae
    Lee Tae Hwan as teen Gwanghae
    Lee Yun Hee as Princess Jungmyung
    Jung Chan Bi as teen Jungmyung
    Seo Jung Eun as child Jungmyung
    Kim Jae Won as King Injo
    Seo Kang Joon as Hong Ju Won
    Yoon Chan Young as teen Ju Won
    Choi Kwon Ju as child Ju Won
    Han Joo Wan as Kang In Woo
    Ahn Do Gyu as teen In Woo




    Code
    Video
    ID                             : 0
    Format                         : AVC
    Format/Info                    : Advanced Video Codec
    Format profile                 : High@L5.1
    Format settings, CABAC         : Yes
    Format settings, ReFrames      : 4 frames
    Codec ID                       : H264
    Duration                       : 1h 14mn
    Bit rate                       : 3 000 Kbps
    Width                          : 1 280 pixels
    Height                         : 720 pixels
    Display aspect ratio           : 16:9
    Frame rate mode                : Variable
    Frame rate                     : 29.970 fps
    Color space                    : YUV
    Chroma subsampling             : 4:2:0
    Bit depth                      : 8 bits
    Scan type                      : Progressive
    Bits/(Pixel*Frame)             : 0.109
    Stream size                    : 1.57 GiB (94%)
    Writing library                : x264 core 112
    Encoding settings              : cabac=1 / ref=3 / deblock=1:-1:-1 / analyse=0x3:0x113 / me=hex / subme=6 / psy=1 / psy_rd=1.00:1.00 / mixed_ref=1 / me_range=16 / chroma_me=1 / trellis=1 / 8x8dct=1 / cqm=0 / deadzone=21,11 / fast_pskip=0 / chroma_qp_offset=-4 / threads=12 / sliced_threads=0 / nr=0 / decimate=1 / interlaced=0 / constrained_intra=0 / bframes=3 / b_pyramid=2 / b_adapt=1 / b_bias=1 / direct=3 / weightb=1 / open_gop=0 / weightp=2 / keyint=299 / keyint_min=25 / scenecut=1 / intra_refresh=0 / rc_lookahead=40 / rc=abr / mbtree=1 / bitrate=3000 / ratetol=1.0 / qcomp=0.60 / qpmin=10 / qpmax=51 / qpstep=4 / ip_ratio=1.40 / aq=1:1.00

    Audio
    ID                             : 1
    Format                         : MPEG Audio
    Format version                 : Version 1
    Format profile                 : Layer 3
    Mode                           : Joint stereo
    Mode extension                 : MS Stereo
    Codec ID                       : 55
    Codec ID/Hint                  : MP3
    Duration                       : 1h 14mn
    Bit rate mode                  : Constant
    Bit rate                       : 192 Kbps
    Channel(s)                     : 2 channels
    Sampling rate                  : 48.0 KHz
    Compression mode               : Lossy
    Stream size                    : 102 MiB (6%)
    Alignment                      : Split accross interleaves
    Interleave, duration           : 33 ms (1.00 video frame)
    Interleave, preload duration   : 500 ms
    Writing library                : LAME3.98



    0 0

    Original Post: Heard it Through the Grapevine E20 XVID LIMO


    Details
    Title: 풍문으로 들었소 / Poongmooneuro Deuleoss-so
    Also known as: Heard It as a Rumor / I Heard a Rumor
    Previously known as: War of Brilliant Minds
    Genre: Family, drama, romance, black comedy
    Episodes: 32
    Broadcast network: SBS
    Broadcast period: 2015-Feb-23 to 2015-???-??
    Air time: Monday & Tuesday 22:00
    Original Soundtrack: Heard It Through the Grapevine OST
    Synopsis
    This is a black-comedy drama depicting a prestigious family whose lives are suddenly shaken because of a rumor about their teenage son impregnating his schoolmate.

    Choi Yun Hee and Han Jung Ho are a wealthy couple from a prestigious family. Their reputation suddenly turned upside down because of their son's relationship with an ordinary girl. The girl, Seo Bom, determined to endure the humiliation and isolation from the family for the sake of her child's future while the son, Han In Sang, struggles between his love for Seo Bom and his family's high expectation.

    Cast
    Han Jung Ho's family
    Yoo Joon Sang as Han Jung Ho (47)
    Yoo Ho Jung as Choi Yun Hee (45)
    Lee Joon as Han In Sang (18)
    Park So Young as Han Yi Ji (16)




    Code
    Video
    ID                                       : 0
    Format                                   : MPEG-4 Visual
    Format profile                           : Advanced Simple@L5
    Format settings, BVOP                    : No
    Format settings, QPel                    : No
    Format settings, GMC                     : No warppoints
    Format settings, Matrix                  : Default (MPEG)
    Codec ID                                 : XVID
    Codec ID/Hint                            : XviD
    Duration                                 : 1h 6mn
    Bit rate                                 : 1 391 Kbps
    Width                                    : 624 pixels
    Height                                   : 352 pixels
    Display aspect ratio                     : 16:9
    Frame rate                               : 29.970 fps
    Color space                              : YUV
    Chroma subsampling                       : 4:2:0
    Bit depth                                : 8 bits
    Scan type                                : Progressive
    Compression mode                         : Lossy
    Bits/(Pixel*Frame)                       : 0.211
    Stream size                              : 660 MiB (87%)
    Writing library                          : XviD 1.2.1 (UTC 2008-12-04)

    Audio
    ID                                       : 1
    Format                                   : MPEG Audio
    Format version                           : Version 1
    Format profile                           : Layer 3
    Mode                                     : Joint stereo
    Mode extension                           : MS Stereo
    Codec ID                                 : 55
    Codec ID/Hint                            : MP3
    Duration                                 : 1h 6mn
    Bit rate mode                            : Constant
    Bit rate                                 : 128 Kbps
    Channel(s)                               : 2 channels
    Sampling rate                            : 48.0 KHz
    Compression mode                         : Lossy
    Stream size                              : 60.8 MiB (8%)
    Alignment                                : Aligned on interleaves
    Writing library                          : LAME3.98.2



    0 0

    Original Post: Heard it Through the Grapevine E20 450p LIMO


    Details
    Title: 풍문으로 들었소 / Poongmooneuro Deuleoss-so
    Also known as: Heard It as a Rumor / I Heard a Rumor
    Previously known as: War of Brilliant Minds
    Genre: Family, drama, romance, black comedy
    Episodes: 32
    Broadcast network: SBS
    Broadcast period: 2015-Feb-23 to 2015-???-??
    Air time: Monday & Tuesday 22:00
    Original Soundtrack: Heard It Through the Grapevine OST
    Synopsis
    This is a black-comedy drama depicting a prestigious family whose lives are suddenly shaken because of a rumor about their teenage son impregnating his schoolmate.

    Choi Yun Hee and Han Jung Ho are a wealthy couple from a prestigious family. Their reputation suddenly turned upside down because of their son's relationship with an ordinary girl. The girl, Seo Bom, determined to endure the humiliation and isolation from the family for the sake of her child's future while the son, Han In Sang, struggles between his love for Seo Bom and his family's high expectation.

    Cast
    Han Jung Ho's family
    Yoo Joon Sang as Han Jung Ho (47)
    Yoo Ho Jung as Choi Yun Hee (45)
    Lee Joon as Han In Sang (18)
    Park So Young as Han Yi Ji (16)




    Code
    Video
    ID                                       : 0
    Format                                   : AVC
    Format/Info                              : Advanced Video Codec
    Format profile                           : High@L5.1
    Format settings, CABAC                   : Yes
    Format settings, ReFrames                : 4 frames
    Codec ID                                 : H264
    Bit rate                                 : 1 500 Kbps
    Width                                    : 800 pixels
    Height                                   : 450 pixels
    Display aspect ratio                     : 16:9
    Frame rate mode                          : Variable
    Frame rate                               : 29.970 fps
    Color space                              : YUV
    Chroma subsampling                       : 4:2:0
    Bit depth                                : 8 bits
    Scan type                                : Progressive
    Bits/(Pixel*Frame)                       : 0.139
    Stream size                              : 686 MiB (88%)
    Writing library                          : x264 core 112

    Audio
    ID                                       : 1
    Format                                   : MPEG Audio
    Format version                           : Version 1
    Format profile                           : Layer 3
    Mode                                     : Joint stereo
    Mode extension                           : MS Stereo
    Codec ID                                 : 55
    Codec ID/Hint                            : MP3
    Bit rate mode                            : Constant
    Bit rate                                 : 192 Kbps
    Channel(s)                               : 2 channels
    Sampling rate                            : 48.0 KHz
    Compression mode                         : Lossy
    Stream size                              : 88.3 MiB (11%)
    Alignment                                : Aligned on interleaves
    Interleave, duration                     : 24 ms (0.72 video frame)
    Writing library                          : LAME3.98.2
    Language                                 : Korean



    0 0

    Original Post: Heard it Through the Grapevine E20 720p LIMO


    Details
    Title: 풍문으로 들었소 / Poongmooneuro Deuleoss-so
    Also known as: Heard It as a Rumor / I Heard a Rumor
    Previously known as: War of Brilliant Minds
    Genre: Family, drama, romance, black comedy
    Episodes: 32
    Broadcast network: SBS
    Broadcast period: 2015-Feb-23 to 2015-???-??
    Air time: Monday & Tuesday 22:00
    Original Soundtrack: Heard It Through the Grapevine OST
    Synopsis
    This is a black-comedy drama depicting a prestigious family whose lives are suddenly shaken because of a rumor about their teenage son impregnating his schoolmate.

    Choi Yun Hee and Han Jung Ho are a wealthy couple from a prestigious family. Their reputation suddenly turned upside down because of their son's relationship with an ordinary girl. The girl, Seo Bom, determined to endure the humiliation and isolation from the family for the sake of her child's future while the son, Han In Sang, struggles between his love for Seo Bom and his family's high expectation.

    Cast
    Han Jung Ho's family
    Yoo Joon Sang as Han Jung Ho (47)
    Yoo Ho Jung as Choi Yun Hee (45)
    Lee Joon as Han In Sang (18)
    Park So Young as Han Yi Ji (16)




    Code
    Video
    ID                             : 0
    Format                         : AVC
    Format/Info                    : Advanced Video Codec
    Format profile                 : High@L5.1
    Format settings, CABAC         : Yes
    Format settings, ReFrames      : 4 frames
    Codec ID                       : H264
    Duration                       : 1h 14mn
    Bit rate                       : 3 000 Kbps
    Width                          : 1 280 pixels
    Height                         : 720 pixels
    Display aspect ratio           : 16:9
    Frame rate mode                : Variable
    Frame rate                     : 29.970 fps
    Color space                    : YUV
    Chroma subsampling             : 4:2:0
    Bit depth                      : 8 bits
    Scan type                      : Progressive
    Bits/(Pixel*Frame)             : 0.109
    Stream size                    : 1.57 GiB (94%)
    Writing library                : x264 core 112
    Encoding settings              : cabac=1 / ref=3 / deblock=1:-1:-1 / analyse=0x3:0x113 / me=hex / subme=6 / psy=1 / psy_rd=1.00:1.00 / mixed_ref=1 / me_range=16 / chroma_me=1 / trellis=1 / 8x8dct=1 / cqm=0 / deadzone=21,11 / fast_pskip=0 / chroma_qp_offset=-4 / threads=12 / sliced_threads=0 / nr=0 / decimate=1 / interlaced=0 / constrained_intra=0 / bframes=3 / b_pyramid=2 / b_adapt=1 / b_bias=1 / direct=3 / weightb=1 / open_gop=0 / weightp=2 / keyint=299 / keyint_min=25 / scenecut=1 / intra_refresh=0 / rc_lookahead=40 / rc=abr / mbtree=1 / bitrate=3000 / ratetol=1.0 / qcomp=0.60 / qpmin=10 / qpmax=51 / qpstep=4 / ip_ratio=1.40 / aq=1:1.00

    Audio
    ID                             : 1
    Format                         : MPEG Audio
    Format version                 : Version 1
    Format profile                 : Layer 3
    Mode                           : Joint stereo
    Mode extension                 : MS Stereo
    Codec ID                       : 55
    Codec ID/Hint                  : MP3
    Duration                       : 1h 14mn
    Bit rate mode                  : Constant
    Bit rate                       : 192 Kbps
    Channel(s)                     : 2 channels
    Sampling rate                  : 48.0 KHz
    Compression mode               : Lossy
    Stream size                    : 102 MiB (6%)
    Alignment                      : Split accross interleaves
    Interleave, duration           : 33 ms (1.00 video frame)
    Interleave, preload duration   : 500 ms
    Writing library                : LAME3.98



    0 0
  • 04/28/15--06:04: We Are In Love E01 720p
  • Original Post: We Are In Love E01 720p



    English Title: We Are In Love
    Original: 我们相爱吧 (Wo Men Xiang Ai Ba)
    Premiere: 19 April 2015
    Country: China
    Language: Mandarin, Korean
    Subtitles: Chinese

    NO ENGLISH SUBS

    This is the Chinese version of the South Korean variety show "We Got Married."
    Cast: Kimi Qiao & Xu Lu, Ruby Lin & Ren Zhong, Choi Siwon & Liu Wen






    Code
    General
    Format                                   : MPEG-4
    Format profile                           : Base Media / Version 2
    Codec ID                                 : mp42
    File size                                : 1.24 GiB
    Duration                                 : 1h 22mn
    Overall bit rate mode                    : Variable
    Overall bit rate                         : 2 167 Kbps

    Video
    ID                                       : 1
    Format                                   : AVC
    Format/Info                              : Advanced Video Codec
    Format profile                           : High@L3.1
    Format settings, CABAC                   : Yes
    Format settings, ReFrames                : 1 frame
    Codec ID                                 : avc1
    Codec ID/Info                            : Advanced Video Coding
    Duration                                 : 1h 22mn
    Bit rate                                 : 1 972 Kbps
    Maximum bit rate                         : 8 817 Kbps
    Width                                    : 1 280 pixels
    Height                                   : 720 pixels
    Display aspect ratio                     : 16:9
    Frame rate mode                          : Constant
    Frame rate                               : 25.000 fps
    Color space                              : YUV
    Chroma subsampling                       : 4:2:0
    Bit depth                                : 8 bits
    Scan type                                : Progressive
    Bits/(Pixel*Frame)                       : 0.086
    Stream size                              : 1.13 GiB (91%)

    Audio
    ID                                       : 2
    Format                                   : AAC
    Format/Info                              : Advanced Audio Codec
    Format profile                           : LC
    Codec ID                                 : 40
    Duration                                 : 1h 22mn
    Bit rate mode                            : Variable
    Bit rate                                 : 192 Kbps
    Maximum bit rate                         : 202 Kbps
    Channel count                            : 2 channels
    Channel positions                        : Front: L R
    Sampling rate                            : 44.1 KHz
    Compression mode                         : Lossy
    Stream size                              : 113 MiB (9%)



    0 0

    Original Post: Someone Like You (2015) [Ongoing] ENG SUB E16 720p



    Details:
    Chinese title: 聽見幸福 / Tīngjiàn xìngfú
    English title: Someone Like You
    Genre: Melodrama, Modern, Romance
    Episodes: 20
    Director: Chén Róng Huī
    Broadcast Period: January 11, 2015 - May 24, 2015
    Broadcast Day: Sundays
    Replacing: Say Again Yes I Do/I Do 2 再說一次我願意
    IMBD: None
    http://thetvdb.com/index.php?tab=series&id=292420

    Cast:
    KingOne Wang
    Lorene Ren (Rong Rong)
    Wei-lian
    Katie Chen
    Sean Lee
    Miao Ke-Li
    Alex Dǒng
    Darren (Guest Star)
    Hsieh Chi-Wen (Guest Star)
    Yao Yuan-Hao (Guest Star)
    Coke Lee (Guest Star)
    Bii (Guest Star)


    Synopsis
    :

    A man loses everything in one day in a tragic car accident. Fang Zhan Cheng (Kingone Wang) lost his fiancée, Liang Luo Han (Kirsten Ren), but he also lost his own eyesight. Devastated by the loss of his fiancée, Zhan Cheng is inconsolable and even refuses a corneal transplant that could restore his vision. But his life takes an unexpected turn when Wang Yu Xi (Kirsten Ren), who looks exactly like his fiancée, is hired to become Zhan Cheng’s day nurse. Another young woman, Xu Ya Ti (Nita Lei), receives Luo Han’s heart in a transplant and begins to exhibit many of Luo Han’s mannerisms and personality. Caught between a woman who looks exactly like his beloved dead fiancée and another woman who behaves just like her, what will Zhan Cheng do? “Someone Like You” is a 2015 Taiwanese drama series directed by Chen Rong Hui..







    Video Codec

    Code
    Video
    ID                                       : 1
    Format                                   : AVC
    Format/Info                              : Advanced Video Codec
    Format profile                           : Main@L3.1
    Format settings, CABAC                   : Yes
    Format settings, ReFrames                : 4 frames
    Codec ID                                 : V_MPEG4/ISO/AVC
    Duration                                 : 1h 14mn
    Width                                    : 1 280 pixels
    Height                                   : 720 pixels
    Display aspect ratio                     : 16:9
    Frame rate mode                          : Constant
    Frame rate                               : 29.970 fps
    Color space                              : YUV
    Chroma subsampling                       : 4:2:0
    Bit depth                                : 8 bits
    Scan type                                : Progressive
    Writing library                          : x264 core 138 r2 9e941d1
    Encoding settings                        : cabac=1 / ref=1 / deblock=1:0:0 / analyse=0x1:0 / me=dia / subme=2 / psy=1 / psy_rd=1.00:0.00 / mixed_ref=0 / me_range=16 / chroma_me=1 / trellis=0 / 8x8dct=0 / cqm=0 / deadzone=21,11 / fast_pskip=1 / chroma_qp_offset=0 / threads=12 / lookahead_threads=4 / sliced_threads=0 / nr=0 / decimate=1 / interlaced=0 / bluray_compat=0 / constrained_intra=0 / bframes=3 / b_pyramid=2 / b_adapt=1 / b_bias=0 / direct=1 / weightb=1 / open_gop=0 / weightp=2 / keyint=300 / keyint_min=29 / scenecut=40 / intra_refresh=0 / rc_lookahead=40 / rc=crf / mbtree=1 / crf=23.0 / qcomp=0.60 / qpmin=0 / qpmax=69 / qpstep=4 / ip_ratio=1.40 / aq=1:1.00
    Default                                  : Yes
    Forced                                   : No

    Audio
    ID                                       : 2
    Format                                   : AAC
    Format/Info                              : Advanced Audio Codec
    Format profile                           : LC
    Codec ID                                 : A_AAC
    Duration                                 : 1h 14mn
    Channel(s)                               : 2 channels
    Channel positions                        : Front: L R
    Sampling rate                            : 48.0 KHz
    Compression mode                         : Lossy
    Default                                  : Yes
    Forced                                   : No




    0 0

    Original Post: The Best Of Shin hae-Chul/Struggling (2002)

    http://en.wikipedia.org/wiki/Shin_Hae-chul


    Release Date: 2002.09.12
    Genre: Rock, pop, Techno, Electronica
    Language: Korean
    Bit Rate: 320kbps

    CD1 - ROCK
    CD2 - POP
    CD3 - BALLAD



    0 0
  • 04/28/15--08:43: N.EX.T - A Space Rock Opera
  • Original Post: N.EX.T - A Space Rock Opera

    http://en.wikipedia.org/wiki/N.EX.T

    Release Date: 1997.11
    Genre: Progressive Metal, Heavy Metal
    Language: Korean
    Bit Rate: 320kbps

    Track listing
    1.Mars, The Bringer of War
    2.Lazenca, Save Us
    3.The Power
    4.먼 훗날 언젠가
    5.해에게서 소년에게
    6.A Poem of Stars
    7.먼 훗날 언젠가
    8.The Hero



    0 0

    Original Post: Neko Zamurai - S02 - EP02 480p x264 AAC




    Title: Neko Zamurai (Season 2)
    Japanese: 猫侍 (Season 2)
    Release Date: April 19, 2015
    Runtime: 50 minutes
    Genre: History / Drama / Cat
    Language: Japanese
    Country: Japan
    Subtitles: NONE
    RAW Provider: VampireXxX


    Episodes: 12
    TV Network: BS Fuji
    Airtime: Sunday's 23:00
    Official Site: http://nekozamurai.info/


    Cast:
    Kitamura Kazuki - Madarame Kyutaro
    Mori Kanna
    Moto Fuyuki
    Motomiya Yasukaze
    Shimizu Koji
    Sano Yasuomi
    Nishina Takashi
    Takahashi Kaori - Oshichi
    Kino Hana
    Yokoyama Megumi - Oshizu


    Synopsis:
    Neko Zamurai Season 2 (Spring 2015) stars Kitamura Kazuki, reprising his role as Madarame Kyutaro, the former swordplay mentor turned ronin, with his feline companion, Tamanojo. Kyutaro, along with the cat, has returned to Edo after visiting his family back in his homeland. He intends to once again try finding a job as a Samurai in the city. However, trouble awaits him at his tenement housing. His old landlord has assigned his daughter Kikuno (Mori Kanna) as the new landlady. Kikuno reiterates her father's rule of "no cats allowed." She has an acute nose and suspects Madarame of hiding a cat from her. Further exacerbating his dilemma, Kyutaro discovers that there have been numerous cats living in his room since he's been away! Nekomiya's proprietress Oshichi (Takahashi Kaori) tells him to keep the cats since they will bring him luck... Meanwhile, Kyutaro has to find a job so he goes to an employment agency and meets with owner Tenbiki Shiro (Moto Fuyuki) who tries to find him a job. There are also additional people in town: a new arrogant constable Kameyama Tsurujiro (Nishina Takashi), and a new neighbor, Sasuke (Sano Yasuomi) who seems to be vying for Tamanojo's affection. And then, there is also Kyutaro's strict mother-in-law, Tae (Kino Hana), who is unhappy with her daughter, Oshizu (Yokoyama Megumi) and son-in-law's arrangement... Written by earthcolors









    Code
    General
    Complete name                            : Neko.Zamurai.S02.EP02.480p.x264.AAC.mp4
    Format                                   : MPEG-4
    Format profile                           : Base Media / Version 2
    Codec ID                                 : mp42
    File size                                : 181 MiB
    Duration                                 : 23mn 59s


    Video
    ID                                       : 1
    Format                                   : AVC
    Format/Info                              : Advanced Video Codec
    Format profile                           : High@L4.0
    Maximum bit rate                         : 1057 Kbps
    Width                                    : 848 pixels
    Height                                   : 480 pixels


    Audio
    ID                                       : 2
    Format                                   : AAC
    Format/Info                              : Advanced Audio Codec
    Bit rate                                 : 160 Kbps



    0 0

    Original Post: LIQUID - Oni no Sake, Kiseki no Kura - EP03 END 480p x264 AAC




    Title: LIQUID - Oni no Sake, Kiseki no Kura
    Revised Romanization: LIQUID - Ogre’s Sake, Miraculous Kura
    Release Date: April 12, 2015
    Runtime: 50 minutes
    Genre: Drama / Sake / Brewery / Village / People
    Language: Japanese
    Country: Japan
    Subtitles: NONE
    RAW Provider: furransu
    IMDB URL: http://www.imdb.com/title/tt4578906


    Episodes: 3
    TV Network: NHK BS Premium
    Airtime: Sunday's 22:00


    Cast:
    Ito Hideaki - Sagara Shuichi
    Tsugawa Mahiko - Whio Yusaku
    Emoto Tuku - Sagara Naoki
    Watanabe Ikkei - Todoroki Katsuhisa
    Ishibhi Renji - Kunishige Goro
    Matsubara Chieko - Sagara Yoshie
    Hoshi Yuriko - Whio Tae
    Komoto Mahiro - Suzuhara Yoji
    Seki Megumi - Shimizu Maika
    Fukami Motoki - Tajima Naotaro
    Nakamura Yuko - Sagara Machiko
    Otaka Hiro - Tanida Kanji


    Synopsis:
    Sagara Shuichi (Ito Hideaki), the only son of a long standing sake brewery, “Sagara Brewery” in Kanazawa which is deep in the red, is an elite banker working in Tokyo. However, he ends up being pressed for a divorce by his wife and relegated for assignment at his workplace as a result of defeat in a power struggle. Amidst all this, his mother, who was running the sake brewery after his father’s death, falls ill, and subsequently Shuichi quits his job at the bank and decides to dedicate his life to making sake. In quest of his ideal sake, Shuichi persuades Washio Yusaku (Tsugawa Masahiko), the legendary master brewer feared as an ogre, to work with him. But the brewery workers he was able to gather are all inexperienced in sake making and they had all lost their place in society due to their respective circumstances. Will the day come when the drops of the ultimate “liquid” they pursued will flow?









    Code
    General
    Complete name                            : LIQUID.Oni.no.Sake.Kiseki.no.Kura.EP03.END.480p.x264.AAC.mp4
    Format                                   : MPEG-4
    Format profile                           : Base Media
    Codec ID                                 : isom
    File size                                : 245 MiB
    Duration                                 : 48mn 59s


    Video
    ID                                       : 1
    Format                                   : AVC
    Format/Info                              : Advanced Video Codec
    Format profile                           : High@L4.1
    Maximum bit rate                         : 3993 Kbps
    Width                                    : 848 pixels
    Height                                   : 480 pixels


    Audio
    ID                                       : 2
    Format                                   : AAC
    Format/Info                              : Advanced Audio Codec
    Bit rate                                 : 128 Kbps



    0 0

    Original Post: My Unfortunate Boyfriend E06 XVID WITH



    Drama: My Unfortunate Boyfriend (literal title)
    Revised romanization: Naui Yoogamseureowoon Namjachingoo
    Hangul: 나의 유감스러운 남자친구
    Director: Nam Ki-Hoon
    Writer: Lee Jae-Yoon
    Network: MBC Drama
    Episodes: 16
    Release Date: April 10 - May 30, 2015
    Runtime: Fri & Sat 20:00
    Language: Korean
    Country: South Korea

    Plot

    Yoo Ji Na (Yang Jin Sung) is a budding career woman who has absolutely no issues with lying to get what she wants. But when she falls for the innocent and naive Yoon Tae Woon (No Min Woo), who is truthful to a fault, their budding romance becomes a liability for Ji Na's cutthroat corporate job. Can these unlikely lovers stay true to themselves and manage to stay together?

    Cast

    No Min-Woo - Yoon Tae-Woon
    Yang Jin-Sung - Yoo Ji-Na
    Yoon Hak - Hee-Chul
    Kwak Ji-Min - Hye-Mi
    Kim Eun-Jung - Julia
    Kim Byeong-Se
    Yun Ju-Sang
    Kim Jin-Geun
    Kil Yong-Woo
    Park Jin-Joo
    Lee Yong-Joo




    Code
    Video
    ID                                       : 0
    Format                                   : MPEG-4 Visual
    Format profile                           : Advanced Simple@L5
    Format settings, BVOP                    : No
    Format settings, QPel                    : No
    Format settings, GMC                     : No warppoints
    Format settings, Matrix                  : Default (MPEG)
    Codec ID                                 : XVID
    Codec ID/Hint                            : XviD
    Bit rate                                 : 1 391 Kbps
    Width                                    : 624 pixels
    Height                                   : 352 pixels
    Display aspect ratio                     : 16:9
    Frame rate                               : 29.970 fps
    Color space                              : YUV
    Chroma subsampling                       : 4:2:0
    Bit depth                                : 8 bits
    Scan type                                : Progressive
    Compression mode                         : Lossy
    Bits/(Pixel*Frame)                       : 0.211
    Stream size                              : 660 MiB (87%)
    Writing library                          : XviD 1.2.1 (UTC 2008-12-04)

    Audio
    ID                                       : 1
    Format                                   : MPEG Audio
    Format version                           : Version 1
    Format profile                           : Layer 3
    Mode                                     : Joint stereo
    Mode extension                           : MS Stereo
    Codec ID                                 : 55
    Codec ID/Hint                            : MP3
    Bit rate mode                            : Constant
    Bit rate                                 : 128 Kbps
    Channel(s)                               : 2 channels
    Sampling rate                            : 48.0 KHz
    Compression mode                         : Lossy
    Stream size                              : 60.8 MiB (8%)
    Alignment                                : Aligned on interleaves
    Writing library                          : LAME3.98.2



    0 0

    Original Post: My Unfortunate Boyfriend E06 720p WITH



    Drama: My Unfortunate Boyfriend (literal title)
    Revised romanization: Naui Yoogamseureowoon Namjachingoo
    Hangul: 나의 유감스러운 남자친구
    Director: Nam Ki-Hoon
    Writer: Lee Jae-Yoon
    Network: MBC Drama
    Episodes: 16
    Release Date: April 10 - May 30, 2015
    Runtime: Fri & Sat 20:00
    Language: Korean
    Country: South Korea

    Plot

    Yoo Ji Na (Yang Jin Sung) is a budding career woman who has absolutely no issues with lying to get what she wants. But when she falls for the innocent and naive Yoon Tae Woon (No Min Woo), who is truthful to a fault, their budding romance becomes a liability for Ji Na's cutthroat corporate job. Can these unlikely lovers stay true to themselves and manage to stay together?

    Cast

    No Min-Woo - Yoon Tae-Woon
    Yang Jin-Sung - Yoo Ji-Na
    Yoon Hak - Hee-Chul
    Kwak Ji-Min - Hye-Mi
    Kim Eun-Jung - Julia
    Kim Byeong-Se
    Yun Ju-Sang
    Kim Jin-Geun
    Kil Yong-Woo
    Park Jin-Joo
    Lee Yong-Joo




    Code

    Video
    ID                                       : 0
    Format                                   : AVC
    Format/Info                              : Advanced Video Codec
    Format profile                           : Baseline@L3.1
    Format settings, CABAC                   : No
    Format settings, ReFrames                : 1 frame
    Codec ID                                 : H264
    Bit rate                                 : 3 017 Kbps
    Width                                    : 1 280 pixels
    Height                                   : 720 pixels
    Display aspect ratio                     : 16:9
    Frame rate mode                          : Variable
    Frame rate                               : 29.970 fps
    Color space                              : YUV
    Chroma subsampling                       : 4:2:0
    Bit depth                                : 8 bits
    Scan type                                : Progressive
    Bits/(Pixel*Frame)                       : 0.109

    Audio
    ID                                       : 1
    Format                                   : MPEG Audio
    Format version                           : Version 1
    Format profile                           : Layer 3
    Mode                                     : Joint stereo
    Mode extension                           : MS Stereo
    Codec ID                                 : 55
    Codec ID/Hint                            : MP3
    Bit rate mode                            : Constant
    Bit rate                                 : 128 Kbps
    Channel(s)                               : 2 channels
    Sampling rate                            : 44.1 KHz
    Compression mode                         : Lossy
    Stream size                              : 62.1 MiB (4%)
    Alignment                                : Aligned on interleaves
    Interleave, duration                     : 26 ms (0.78 video frame)
    Writing library                          : LAME3.98.2



    0 0

    Original Post: Morisaki Shoten no Hibi (2010) DVDrip



    Title: The Days of Morisaki Bookstore
    Japanese Title:森崎書店の日々
    Romaji: Morisaki Shoten no Hibi
    Director: Hyuga Asako
    Release Date: 23 October, 2010
    Runtime: 109 min.
    Genre: Drama
    Language: Japanese
    Country: Japan
    Subtitles:NONE
    Source: Retail DVD5 (distributed by Emotion)

    Cast
    Kikuchi Akiko
    Tanaka Rena
    Matsuo Toshinobu
    Naito Takashi
    Okumura Tomofumi
    Kitaro

    Synopsis
    Disappointed by the news that the object of her affection is getting married, Takako (Kikuchi Akiko) quits her job suddenly. She soon receives an offer from her uncle Satoru, who asks for her to come help run his bookstore in Jinbocho; a district of Tokyo with a high concentration of book stores, publishing companies, and distribution warehouses. Thus begins her everyday life at Morisaki Bookstore, where she absorbs the unique atmosphere and meets various quirky customers. Takako hadn’t read many novels in her life, but she finds herself being gradually drawn into the world of second-hand books. As summer turns to fall and winter in Jinbocho, Takako experiences personal growth through introspection and her newfound love of books.

    Media Info
    Spoiler:show


    General
    Unique ID                                : 102379841659985986282890417360018227441 (0x4D05A3E917AD3098D19D4DB4D72240F1)
    Complete name                            : morisaki_shoten_no_hibi.mkv
    Format                                   : Matroska
    Format version                           : Version 2
    File size                                : 871 MiB
    Duration                                 : 1h 48mn
    Overall bit rate                         : 1 119 Kbps
    Writing application                      : HandBrake 0.10.1 2015030800
    Writing library                          : Lavf55.12.0

    Video
    ID                                       : 1
    Format                                   : AVC
    Format/Info                              : Advanced Video Codec
    Format profile                           : High@L4.1
    Format settings, CABAC                   : Yes
    Format settings, ReFrames                : 5 frames
    Codec ID                                 : V_MPEG4/ISO/AVC
    Duration                                 : 1h 48mn
    Bit rate                                 : 648 Kbps
    Width                                    : 672 pixels
    Height                                   : 480 pixels
    Display aspect ratio                     : 5:3
    Original display aspect ratio            : 5:3
    Frame rate mode                          : Constant
    Frame rate                               : 23.976 fps
    Color space                              : YUV
    Chroma subsampling                       : 4:2:0
    Bit depth                                : 8 bits
    Scan type                                : Progressive
    Bits/(Pixel*Frame)                       : 0.084
    Stream size                              : 505 MiB (58%)
    Writing library                          : x264 core 142 r2479 dd79a61
    Encoding settings                        : cabac=1 / ref=6 / deblock=1:-2:-2 / analyse=0x3:0x133 / me=umh / subme=9 / psy=1 / psy_rd=1.00:0.00 / mixed_ref=1 /
    me_range=24 / chroma_me=1 / trellis=2 / 8x8dct=1 / cqm=0 / deadzone=21,11 / fast_pskip=0 / chroma_qp_offset=-2 / threads=6 / lookahead_threads=1 /
    sliced_threads=0 / nr=0 / decimate=1 / interlaced=0 / bluray_compat=0 / constrained_intra=0 / bframes=6 / b_pyramid=1 / b_adapt=2 / b_bias=0 / direct=3 /
    weightb=1 / open_gop=0 / weightp=2 / keyint=240 / keyint_min=24 / scenecut=40 / intra_refresh=0 / rc_lookahead=50 / rc=crf / mbtree=1 / crf=19.0 / qcomp=0.60 /
    qpmin=0 / qpmax=69 / qpstep=4 / vbv_maxrate=62500 / vbv_bufsize=78125 / crf_max=0.0 / nal_hrd=none / filler=0 / ip_ratio=1.40 / aq=1:1.20
    Default                                  : Yes
    Forced                                   : No
    Color range                              : Limited
    Color primaries                          : BT.601 NTSC
    Transfer characteristics                 : BT.709
    Matrix coefficients                      : BT.601

    Audio
    ID                                       : 2
    Format                                   : AC-3
    Format/Info                              : Audio Coding 3
    Mode extension                           : CM (complete main)
    Format settings, Endianness              : Big
    Codec ID                                 : A_AC3
    Duration                                 : 1h 48mn
    Bit rate mode                            : Constant
    Bit rate                                 : 448 Kbps
    Channel(s)                               : 2 channels
    Channel positions                        : Front: L R
    Sampling rate                            : 48.0 KHz
    Bit depth                                : 16 bits
    Compression mode                         : Lossy
    Stream size                              : 349 MiB (40%)
    Title                                    : Stereo
    Language                                 : Japanese
    Default                                  : Yes
    Forced                                   : No



    The film is set in the Kanda Jinbocho district of Tokyo, which boasts the world’s largest concentration of second-hand book stores.



















    0 0

    Original Post: Dinner (2013) NOP Complete 1080p



    Title: Dinner (ディナー)
    Episodes: 11
    Broadcast start: 2013-Jan-13
    Network: Fuji Television
    Language: Japanese
    Subtitles: English (Embedded)

    Ending Song
    Artist: サカナクション (Sakanakushon)
    Song name: ミュージック (Music)

    Official website: http://www.fujitv.co.jp/dinner/index.html
    English Drama Wiki: http://wiki.d-addicts.com/Dinner

    Synopsis

    Each and everyone of us have unspoken fears and dreams, and but yet we continue to work and live through them.
    Esaki Motomu is a gifted chef, but he lacks the necessary social skills. His uncompromising ways when it comes to cooking, causes problems to those around him. As a chef, he believes firmly in the formula, 「Taste = Ingredients x Cooking Method」, nothing more, nothing less. There isn't any need for human relations, love, traditions.
    The famous Italian restaurant 「Ristorante Roccabianca」 is owned and run by Tatsumi Hideo. His daughter Saori acts as the restaurant's manager, and one day, she receives a call from the producers of the TV show, "Iron Chef".
    Hideo has been invited to appear on the show. Unfortunately, soon after, Hideo collapses while cooking, and goes into a coma. With no chef to helm the restaurant, Saori has no choice but to close the restaurant until Hideo recovers.
    Meanwhile, Motomu is happily cooking alone in his tiny little Italian Bar kitchen, not realising that soon he may be working for Ristorante Roccabianca...

    Cast

    Eguchi Yosuke as Esaki Motomu
    Yusuke Santamaria as Segawa Sohichi
    Kurashina Kana as Tatsumi Saori
    Kazama Morio as Tatsumi "Caesar" Hideo
    Matsushige Yutaka as Imai Kohsuke
    Yashima Norito as Kimura Kazuma
    Seki Megumi as Muto Hazuki
    Hakamada Yoshihiko as Natsuno Daiki
    Shiga Kotaro as Hamaoka Kohtaro
    Ikezu Shoko as Ohtsuka Yayoi
    Machida Hiroki as Furuta Hiromi
    Koshimura Tomokazu as Kaji Nobushige
    Shinohara Mai as Nakano Chihiro
    Shibamoto Yuki as Motomiya Eriko
    Ito Yuki as Ohashi Satoru
    Watanabe Kunito as Hiraishi Masahiro








    Code
    General
    Unique ID                                : 216757842213974982084319030363376296089 (0xA3120AB9F674589B833B45B3D62BA099)
    Complete name                            : [NOP] Dinner - 01 [1080p].mkv
    Format                                   : Matroska
    Format version                           : Version 4 / Version 2
    File size                                : 1.95 GiB
    Duration                                 : 59mn 0s
    Overall bit rate                         : 4 737 Kbps
    Encoded date                             : UTC 2015-04-29 00:55:47
    Writing application                      : mkvmerge v7.8.0 ('River Man') 64bit built on Mar 27 2015 16:31:37
    Writing library                          : libebml v1.3.1 + libmatroska v1.4.2

    Video
    ID                                       : 1
    Format                                   : AVC
    Format/Info                              : Advanced Video Codec
    Format profile                           : High@L4.0
    Format settings, CABAC                   : Yes
    Format settings, ReFrames                : 4 frames
    Codec ID                                 : V_MPEG4/ISO/AVC
    Duration                                 : 59mn 0s
    Nominal bit rate                         : 4 608 Kbps
    Width                                    : 1 920 pixels
    Height                                   : 1 080 pixels
    Display aspect ratio                     : 16:9
    Frame rate mode                          : Constant
    Frame rate                               : 29.970 fps
    Color space                              : YUV
    Chroma subsampling                       : 4:2:0
    Bit depth                                : 8 bits
    Scan type                                : Progressive
    Bits/(Pixel*Frame)                       : 0.074
    Writing library                          : x264 core 120 r2120 0c7dab9
    Encoding settings                        : cabac=1 / ref=4 / deblock=1:-1:-1 / analyse=0x3:0x113 / me=umh / subme=8 / psy=1 / psy_rd=1.00:0.15 / mixed_ref=1 / me_range=16 / chroma_me=1 / trellis=1 / 8x8dct=1 / cqm=0 / deadzone=21,11 / fast_pskip=1 / chroma_qp_offset=-3 / threads=8 / sliced_threads=0 / nr=0 / decimate=1 / interlaced=0 / bluray_compat=0 / constrained_intra=0 / bframes=3 / b_pyramid=2 / b_adapt=2 / b_bias=0 / direct=3 / weightb=1 / open_gop=0 / weightp=2 / keyint=250 / keyint_min=25 / scenecut=40 / intra_refresh=0 / rc_lookahead=50 / rc=2pass / mbtree=1 / bitrate=4608 / ratetol=1.0 / qcomp=0.60 / qpmin=0 / qpmax=69 / qpstep=4 / cplxblur=20.0 / qblur=0.5 / vbv_maxrate=9216 / vbv_bufsize=23040 / nal_hrd=none / ip_ratio=1.40 / aq=1:1.00
    Default                                  : Yes
    Forced                                   : No

    Audio
    ID                                       : 2
    Format                                   : AAC
    Format/Info                              : Advanced Audio Codec
    Format profile                           : LC
    Codec ID                                 : A_AAC
    Duration                                 : 59mn 0s
    Channel(s)                               : 2 channels
    Channel positions                        : Front: L R
    Sampling rate                            : 44.1 KHz
    Compression mode                         : Lossy
    Delay relative to video                  : -67ms
    Language                                 : Japanese
    Default                                  : Yes
    Forced                                   : No

    Text
    ID                                       : 3
    Format                                   : ASS
    Codec ID                                 : S_TEXT/ASS
    Codec ID/Info                            : Advanced Sub Station Alpha
    Compression mode                         : Lossless
    Language                                 : English
    Default                                  : Yes
    Forced                                   : No



older | 1 | .... | 1326 | 1327 | (Page 1328) | 1329 | 1330 | .... | 1405 | newer