Are you the publisher? Claim or contact us about this channel


Embed this content in your HTML

Search

Report adult content:

click to rate:

Account: (login)

More Channels


Showcase


Channel Catalog


Channel Description:

Asia Torrents RSS Feed

older | 1 | .... | 1335 | 1336 | (Page 1337) | 1338 | 1339 | .... | 1405 | newer

    0 0

    Original Post: Sara 2015 720p BluRay x264-WiKi





    Detail:
    Title: Sara
    Genre: Drama
    Release Date: 5 March 2015 (Hong Kong)
    Runtime: 95 min
    Director: Herman Yau
    Rating: 7.0/10 from 31 users
    Country: Hong Kong
    Language: Mandarin, Cantonese
    Subtitles:Chinese

    Synopsis:
    Journalist Sara has just spent four months completing an in-depth investigation piece. Her editor-in-chief, afraid of offending powerful politicians and business moguls, refuses to run it. At this low point in her life, Sara exiles herself to Chiang Mai, Thailand. One evening, while at a bar, Sara meets child prostitute Dok-my. During her time getting to know Dok-my and through the process of rescuing her, Sara becomes haunted by the memories of her own past...

    Cast:
    Charlene Choi, Simon Yam, Ryan Lau








    Code

    Video
    ID                                       : 1
    Format                                   : AVC
    Format/Info                              : Advanced Video Codec
    Format profile                           : High@L4.1
    Format settings, CABAC                   : Yes
    Format settings, ReFrames                : 12 frames
    Codec ID                                 : V_MPEG4/ISO/AVC
    Duration                                 : 1h 34mn
    Bit rate                                 : 5 544 Kbps
    Width                                    : 1 280 pixels
    Height                                   : 544 pixels
    Display aspect ratio                     : 2.35:1
    Frame rate                               : 24.000 fps
    Color space                              : YUV
    Chroma subsampling                       : 4:2:0
    Bit depth                                : 8 bits
    Scan type                                : Progressive
    Bits/(Pixel*Frame)                       : 0.332
    Stream size                              : 3.57 GiB (82%)
    Writing library                          : x264 core 129 r2245+704+36 8e61944 tMod+MixAQ [8-bit@4:2:0 X86_64]
    Encoding settings                        : cabac=1 / ref=12 / deblock=1:-3:-3 / analyse=0x3:0x133 / me=umh / subme=11 / psy=1 / fade_compensate=0.00 / psy_rd=1.05:0.10 / mixed_ref=1 / me_range=32 / chroma_me=1 / trellis=2 / 8x8dct=1 / cqm=0 / deadzone=21,11 / fast_pskip=0 / chroma_qp_offset=-3 / threads=18 / lookahead_threads=3 / sliced_threads=0 / nr=0 / decimate=0 / interlaced=0 / bluray_compat=0 / constrained_intra=0 / fgo=0 / bframes=10 / b_pyramid=2 / b_adapt=2 / b_bias=0 / direct=3 / weightb=1 / open_gop=0 / weightp=2 / keyint=250 / keyint_min=24 / scenecut=40 / intra_refresh=0 / rc_lookahead=80 / rc=2pass / mbtree=1 / bitrate=5544 / ratetol=1.0 / qcomp=0.70 / qpmin=0 / qpmax=69 / qpstep=4 / cplxblur=20.0 / qblur=0.5 / ip_ratio=1.40 / aq=3 / aq-strength=0.85 / aq-sensitivity=10.00 / aq-ifactor=1.00 / aq-pfactor=1.00 / aq-bfactor=1.00 / aq2=0
    Language                                 : Chinese
    Default                                  : Yes
    Forced                                   : No
    Matrix coefficients                      : BT.709-5, BT.1361, IEC 61966-2-4 709, SMPTE RP177

    Audio #1
    ID                                       : 2
    Format                                   : AC-3
    Format/Info                              : Audio Coding 3
    Mode extension                           : CM (complete main)
    Format settings, Endianness              : Big
    Codec ID                                 : A_AC3
    Duration                                 : 1h 34mn
    Bit rate mode                            : Constant
    Bit rate                                 : 640 Kbps
    Channel(s)                               : 6 channels
    Channel positions                        : Front: L C R, Side: L R, LFE
    Sampling rate                            : 48.0 KHz
    Bit depth                                : 16 bits
    Compression mode                         : Lossy
    Stream size                              : 432 MiB (10%)
    Title                                    : Cantonese
    Language                                 : Chinese
    Default                                  : Yes
    Forced                                   : No

    Audio #2
    ID                                       : 3
    Format                                   : AC-3
    Format/Info                              : Audio Coding 3
    Mode extension                           : CM (complete main)
    Format settings, Endianness              : Big
    Codec ID                                 : A_AC3
    Duration                                 : 1h 34mn
    Bit rate mode                            : Constant
    Bit rate                                 : 448 Kbps
    Channel(s)                               : 6 channels
    Channel positions                        : Front: L C R, Side: L R, LFE
    Sampling rate                            : 48.0 KHz
    Bit depth                                : 16 bits
    Compression mode                         : Lossy
    Stream size                              : 302 MiB (7%)
    Title                                    : Mandarin
    Language                                 : Chinese
    Default                                  : No
    Forced                                   : No

    Text #1
    ID                                       : 4
    Format                                   : UTF-8
    Codec ID                                 : S_TEXT/UTF8
    Codec ID/Info                            : UTF-8 Plain Text
    Title                                    : Simplified
    Language                                 : Chinese
    Default                                  : Yes
    Forced                                   : No

    Text #2
    ID                                       : 5
    Format                                   : UTF-8
    Codec ID                                 : S_TEXT/UTF8
    Codec ID/Info                            : UTF-8 Plain Text
    Title                                    : Traditional
    Language                                 : Chinese
    Default                                  : No
    Forced                                   : No



    0 0

    Original Post: Yami no Bansosha EP04 720p HDTV x264 AAC-DoA



    http://asianwiki.com/Yami_no_Bansosha
    http://thetvdb.com/?tab=series&id=294725&lid=7


    Drama: Partner in Darkness
    Romaji: Yami no Bansosha
    Japanese: 闇の伴走者
    Director: Takahiro Miki
    Writer: Takashi Nagasaki (novel), Dai Sato, Kumiko Aso
    Network: WOWOW
    Episodes: 5
    Release Date: April 11 - May 9, 2015
    Runtime: Saturdays 22:00
    Language: Japanese
    Country: Japan
    Subtitles: None - [url=][/url]
    RAW credit to DoA


    Cast

    Nao Matsushita as Yuki Mizuno
    Arata Furuta as Shinji Daigo
    Bengal as Fumiya Ajima
    Kyoko Maya as Yoshiko Ajima
    Jun Kaname as Yukihide Ozawa
    Tomoya Maeno as Kosuke Takeuchi  
    Tetsushi Tanaka as Kaoru Kazumine
    Kenjiro Ishimaru as Hidemasa Mochizuki
    Mitsuru Hirata as cartoonist
    Tetsuhiro Ikeda as Kazunari Tomura
    Leo Morimoto as Tomoyuki Yajima  
    Yumiko Fujita as Kazue Mizuno
    Toru Nomaguchi as Mikio Terada
    Morooka Moro as Kensuke Eto
    Yoichi Nukumizu as master
    Mina Fujii as Shoko Murotani


    Plot

    A year after manga master Fumiya Ajima's death, 50 unpublished sketches are discovered. The sketches appear to be the work of Fumiya Ajima, but the sketches shows details from several missing women cases that occurred 35 years earlier. Fumiya Ajima’s wife (Kyoko Maya) asks the Department Head of Yukihide Ozawa (Jun Kaname) to find out if the sketches are the work of her late husband. Ex-police officer Yuki Mizuno (Nao Matsushita) receives a request to investigate the origins of the 50 sketches. Yuki Mizuno then enlists the help of Shinji Daigo (Arata Furuta), an expert of the manga world.


    Mediainfo
    Spoiler:show

    Code
    Format                                   : Matroska
    Format version                           : Version 4 / Version 2
    File size                                : 830 MiB
    Duration                                 : 50mn 0s
    Overall bit rate                         : 2 320 Kbps
    Movie name                               : 連続ドラマW 闇の伴走者 Episode 4 720p HDTV x264 AAC-DoA
    Encoded date                             : UTC 2015-05-03 13:50:38
    Writing application                      : mkvmerge v7.8.0 ('River Man') 64bit built on Mar 27 2015 16:31:37
    Writing library                          : libebml v1.3.1 + libmatroska v1.4.2
    DURATION                                 : 00:50:00.000000000
    NUMBER_OF_FRAMES                         : 140625
    NUMBER_OF_BYTES                          : 70734375
    _STATISTICS_WRITING_APP                  : mkvmerge v7.8.0 ('River Man') 64bit built on Mar 27 2015 16:31:37
    _STATISTICS_WRITING_DATE_UTC             : 2015-05-03 13:50:38
    _STATISTICS_TAGS                         : BPS DURATION NUMBER_OF_FRAMES NUMBER_OF_BYTES

    Video
    ID                                       : 1
    Format                                   : AVC
    Format/Info                              : Advanced Video Codec
    Format profile                           : High@L4.1
    Format settings, CABAC                   : Yes
    Format settings, ReFrames                : 9 frames
    Codec ID                                 : V_MPEG4/ISO/AVC
    Duration                                 : 50mn 0s
    Width                                    : 1 280 pixels
    Height                                   : 720 pixels
    Display aspect ratio                     : 16:9
    Frame rate mode                          : Constant
    Frame rate                               : 23.976 fps
    Original frame rate                      : 29.970 fps
    Color space                              : YUV
    Chroma subsampling                       : 4:2:0
    Bit depth                                : 8 bits
    Scan type                                : Progressive
    Title                                    : Encode by TTG-DoA
    Writing library                          : x264 core 146 r2538 121396c
    Encoding settings                        : cabac=1 / ref=9 / deblock=1:-3:-3 / analyse=0x3:0x133 / me=umh / subme=10 / psy=1 / psy_rd=1.00:0.15 / mixed_ref=1 / me_range=48 / chroma_me=1 / trellis=2 / 8x8dct=1 / cqm=0 / deadzone=21,11 / fast_pskip=0 / chroma_qp_offset=-3 / threads=12 / lookahead_threads=2 / sliced_threads=0 / nr=0 / decimate=1 / interlaced=0 / bluray_compat=0 / constrained_intra=0 / bframes=8 / b_pyramid=2 / b_adapt=2 / b_bias=0 / direct=3 / weightb=1 / open_gop=0 / weightp=2 / keyint=300 / keyint_min=29 / scenecut=40 / intra_refresh=0 / rc_lookahead=60 / rc=crf / mbtree=1 / crf=17.0 / qcomp=0.60 / qpmin=0 / qpmax=69 / qpstep=4 / ip_ratio=1.40 / aq=1:1.00
    Language                                 : Japanese
    Default                                  : Yes
    Forced                                   : No
    DURATION                                 : 00:50:00.000000000
    NUMBER_OF_FRAMES                         : 74016
    NUMBER_OF_BYTES                          : 797555074
    _STATISTICS_WRITING_APP                  : mkvmerge v7.8.0 ('River Man') 64bit built on Mar 27 2015 16:31:37
    _STATISTICS_WRITING_DATE_UTC             : 2015-05-03 13:50:38
    _STATISTICS_TAGS                         : BPS DURATION NUMBER_OF_FRAMES NUMBER_OF_BYTES

    Audio
    ID                                       : 2
    Format                                   : AAC
    Format/Info                              : Advanced Audio Codec
    Format profile                           : LC
    Codec ID                                 : A_AAC
    Duration                                 : 50mn 0s
    Channel(s)                               : 2 channels
    Channel positions                        : Front: L R
    Sampling rate                            : 48.0 KHz
    Compression mode                         : Lossy
    Language                                 : Japanese
    Default                                  : Yes
    Forced                                   : No





    0 0

    Original Post: [Mini Album] Jun Hyo Seong (Secret) – FANTASIA [1st Mini Album]


    https://en.wikipedia.org/wiki/Jun_Hyoseong

    전효성 – Fantasia
    Release Date: 2015.05.04
    Genre: Dance, Ballad
    Language: Korean
    Format: MP3
    Bit Rate: 320kbps

    Secret’s Hyo Seong is releasing her first solo mini-album! Following last year’s solo debut with Top Secret, she now welcomes fans to Fantasia with stunning concept images and five new tracks including the title song “Into You.” Hyo Seong also participated in the songwriting this time, writing lyrics for two of the album’s songs.

    Track List:
    01. 날 보러와요
    02. 반해 (Into You) *Title
    03. Taxi Driver
    04. 꿈이었니
    05. 5분만 더

    Credits to k2nblog



    0 0

    Original Post: 64 EP02 720p HDTV x264 AAC-DoA



    http://wiki.d-addicts.com/64
    https://jdramas.wordpress.com/2015/04/19/64/
    http://thetvdb.com/?tab=series&id=293166&lid=7


    Title (romaji): 64
    Format: Renzoku
    Genre: Mystery, suspense
    Episodes: 5
    Broadcast network: NHK
    Broadcast period: 2015-Apr-18 to 2015-May-16
    Air time: Saturday 21:00
    Subtitles: None - [url=/][/url]
    RAW credit to DoA


    Cast
    Spoiler:show

       Pierre Taki
       Kimura Yoshino
       Iriyama Anna (入山杏奈)
       Arai Hirofumi
       Nagaoka Takuya (永岡卓也)
       Yamamoto Mizuki
       Nagayama Kento
       Tatsumi Tomoaki (辰巳智秋)
       Umefune Ariei (梅舟惟永)
       Abe Shohei (阿部翔平)
       Kitaro
       Takahashi Kazuya
       Hagiwara Masato
       Mizusawa Shingo (水澤紳吾)
       Nakamura Yuko (中村優子)
       Kokontei Kikunojo (古今亭菊之丞)
       Hira Takehiro
       Ono Ryo
       Yoshida Eisaku
       Nakahara Takeo
       Shibata Kyohei
       Murakami Jun
       Saito Tomoko (斉藤とも子)
       Ando Tamae
       Sato Naoko (佐藤直子)
       Danta Yasunori


    Synopsis
    Spoiler:show

    While the public relations office of D Prefectural Police is having a confrontation with the correspondents' club, over the issue of the anonymity of perpetrators, it is decided that a Tokyo Metropolitan Police Department director will inspect the home of the family of the victim in "64", an important unsolved case with its statute of limitation about to run out one week later. The kidnapping and murder of Shoko-chan which took place in just 7 days in 1989 (Showa 64) was the worst in D Prefectural Police's history. The family of the deceased decline the director's visit to offer condolences. A gag order is imposed on those involved in 64 such as the investigators at the time. An iron curtain between the Criminal Investigations Department and the Police Affairs Department. A mysterious memo. Then a new kidnapping that happens right before the director's inspection, is a exact copycat of 64. -- Jdrama Weblog


    Mediainfo
    Spoiler:show

    Code
    Format                                   : Matroska
    Format version                           : Version 4 / Version 2
    File size                                : 1.04 GiB
    Duration                                 : 57mn 59s
    Overall bit rate                         : 2 556 Kbps
    Encoded date                             : UTC 2015-04-30 11:03:43
    Writing application                      : mkvmerge v7.0.0 ('Where We Going') 32bit built on Jun  9 2014 15:08:34
    Writing library                          : libebml v1.3.0 + libmatroska v1.4.1
    DURATION                                 : 00:57:59.722000000
    NUMBER_OF_FRAMES                         : 163112
    NUMBER_OF_BYTES                          : 61166955
    _STATISTICS_WRITING_APP                  : mkvmerge v7.0.0 ('Where We Going') 32bit built on Jun  9 2014 15:08:34
    _STATISTICS_WRITING_DATE_UTC             : 2015-04-30 11:03:43
    _STATISTICS_TAGS                         : BPS DURATION NUMBER_OF_FRAMES NUMBER_OF_BYTES

    Video
    ID                                       : 1
    Format                                   : AVC
    Format/Info                              : Advanced Video Codec
    Format profile                           : High@L4.1
    Format settings, CABAC                   : Yes
    Format settings, ReFrames                : 9 frames
    Codec ID                                 : V_MPEG4/ISO/AVC
    Duration                                 : 57mn 59s
    Width                                    : 1 280 pixels
    Height                                   : 720 pixels
    Display aspect ratio                     : 16:9
    Frame rate mode                          : Constant
    Frame rate                               : 29.970 fps
    Color space                              : YUV
    Chroma subsampling                       : 4:2:0
    Bit depth                                : 8 bits
    Scan type                                : Progressive
    Writing library                          : x264 core 146 r2538 121396c
    Encoding settings                        : cabac=1 / ref=9 / deblock=1:-3:-3 / analyse=0x3:0x133 / me=umh / subme=10 / psy=1 / psy_rd=1.00:0.00 / mixed_ref=1 / me_range=48 / chroma_me=1 / trellis=2 / 8x8dct=1 / cqm=0 / deadzone=21,11 / fast_pskip=0 / chroma_qp_offset=-2 / threads=12 / lookahead_threads=2 / sliced_threads=0 / nr=0 / decimate=1 / interlaced=0 / bluray_compat=0 / constrained_intra=0 / bframes=8 / b_pyramid=2 / b_adapt=2 / b_bias=0 / direct=3 / weightb=1 / open_gop=0 / weightp=2 / keyint=300 / keyint_min=29 / scenecut=40 / intra_refresh=0 / rc_lookahead=60 / rc=crf / mbtree=1 / crf=18.0 / qcomp=0.60 / qpmin=0 / qpmax=69 / qpstep=4 / ip_ratio=1.40 / aq=1:1.00
    Language                                 : English
    Default                                  : Yes
    Forced                                   : No
    DURATION                                 : 00:57:59.909000000
    NUMBER_OF_FRAMES                         : 104293
    NUMBER_OF_BYTES                          : 1049382610
    _STATISTICS_WRITING_APP                  : mkvmerge v7.0.0 ('Where We Going') 32bit built on Jun  9 2014 15:08:34
    _STATISTICS_WRITING_DATE_UTC             : 2015-04-30 11:03:43
    _STATISTICS_TAGS                         : BPS DURATION NUMBER_OF_FRAMES NUMBER_OF_BYTES

    Audio
    ID                                       : 2
    Format                                   : AAC
    Format/Info                              : Advanced Audio Codec
    Format profile                           : LC
    Codec ID                                 : A_AAC
    Duration                                 : 57mn 59s
    Channel(s)                               : 2 channels
    Channel positions                        : Front: L R
    Sampling rate                            : 48.0 KHz
    Compression mode                         : Lossy
    Delay relative to video                  : 6ms
    Default                                  : Yes
    Forced                                   : No





    0 0
  • 05/07/15--04:08: Unkind Women E22 450p LIMO
  • Original Post: Unkind Women E22 450p LIMO


    Details
    Title: 착하지 않은 여자들 / Chakhaji Anheun Yeojadeul
    Also known as: Unkind Women
    Genre: Family, drama, romance
    Episodes: 24
    Broadcast network: KBS2
    Broadcast period: 2015-Feb-25 to 2015-???-??
    Air time: Wednesday & Thursday 22:00
    Original Soundtrack: Unkind Ladies OST
    Synopsis
    This drama features the women of three generations and people around them.

    Ma Ri grows up as a good teacher of this generation where there is no true mentor. Hyun Sook, who has been a troublemaker, realizes the love and support of her family. Kang Soon Ok regards herself as unlucky, but later on realizes how happy she has been.

    How can you hold up when your life gets tough? You will figure it out by holding up day by day, just like these women in the drama.

    Source: KBS World

    Cast
    Main Cast
    Kim Hye Ja as Kang Soon Ok
    Chae Si Ra as Kim Hyun Sook
    Do Ji Won as Kim Hyun Jung
    Lee Ha Na as Jung Ma Ri




    Code
    Video
    ID                                       : 0
    Format                                   : AVC
    Format/Info                              : Advanced Video Codec
    Format profile                           : High@L5.1
    Format settings, CABAC                   : Yes
    Format settings, ReFrames                : 4 frames
    Codec ID                                 : H264
    Bit rate                                 : 1 500 Kbps
    Width                                    : 800 pixels
    Height                                   : 450 pixels
    Display aspect ratio                     : 16:9
    Frame rate mode                          : Variable
    Frame rate                               : 29.970 fps
    Color space                              : YUV
    Chroma subsampling                       : 4:2:0
    Bit depth                                : 8 bits
    Scan type                                : Progressive
    Bits/(Pixel*Frame)                       : 0.139
    Stream size                              : 686 MiB (88%)
    Writing library                          : x264 core 112

    Audio
    ID                                       : 1
    Format                                   : MPEG Audio
    Format version                           : Version 1
    Format profile                           : Layer 3
    Mode                                     : Joint stereo
    Mode extension                           : MS Stereo
    Codec ID                                 : 55
    Codec ID/Hint                            : MP3
    Bit rate mode                            : Constant
    Bit rate                                 : 192 Kbps
    Channel(s)                               : 2 channels
    Sampling rate                            : 48.0 KHz
    Compression mode                         : Lossy
    Stream size                              : 88.3 MiB (11%)
    Alignment                                : Aligned on interleaves
    Interleave, duration                     : 24 ms (0.72 video frame)
    Writing library                          : LAME3.98.2
    Language                                 : Korean



    0 0
  • 05/07/15--04:08: Unkind Women E22 720p LIMO
  • Original Post: Unkind Women E22 720p LIMO


    Details
    Title: 착하지 않은 여자들 / Chakhaji Anheun Yeojadeul
    Also known as: Unkind Women
    Genre: Family, drama, romance
    Episodes: 24
    Broadcast network: KBS2
    Broadcast period: 2015-Feb-25 to 2015-???-??
    Air time: Wednesday & Thursday 22:00
    Original Soundtrack: Unkind Ladies OST
    Synopsis
    This drama features the women of three generations and people around them.

    Ma Ri grows up as a good teacher of this generation where there is no true mentor. Hyun Sook, who has been a troublemaker, realizes the love and support of her family. Kang Soon Ok regards herself as unlucky, but later on realizes how happy she has been.

    How can you hold up when your life gets tough? You will figure it out by holding up day by day, just like these women in the drama.

    Source: KBS World

    Cast
    Main Cast
    Kim Hye Ja as Kang Soon Ok
    Chae Si Ra as Kim Hyun Sook
    Do Ji Won as Kim Hyun Jung
    Lee Ha Na as Jung Ma Ri




    Code
    Video
    ID                               : 0
    Format                           : AVC
    Format/Info                      : Advanced Video Codec
    Format profile                   : High@L5.1
    Format settings, CABAC           : Yes
    Format settings, ReFrames        : 4 frames
    Codec ID                         : H264
    Duration                         : 1h 4mn
    Bit rate                         : 3 000 Kbps
    Width                            : 1 280 pixels
    Height                           : 720 pixels
    Display aspect ratio             : 16:9
    Frame rate mode                  : Variable
    Frame rate                       : 29.970 fps
    Color space                      : YUV
    Chroma subsampling               : 4:2:0
    Bit depth                        : 8 bits
    Scan type                        : Progressive
    Bits/(Pixel*Frame)               : 0.109
    Stream size                      : 1.35 GiB (94%)
    Writing library                  : x264 core 112
    Encoding settings                : cabac=1 / ref=3 / deblock=1:-1:-1 / analyse=0x3:0x113 / me=hex / subme=6 / psy=1 / psy_rd=1.00:1.00 / mixed_ref=1 / me_range=16 / chroma_me=1 / trellis=1 / 8x8dct=1 / cqm=0 / deadzone=21,11 / fast_pskip=0 / chroma_qp_offset=-4 / threads=12 / sliced_threads=0 / nr=0 / decimate=1 / interlaced=0 / constrained_intra=0 / bframes=3 / b_pyramid=2 / b_adapt=1 / b_bias=1 / direct=3 / weightb=1 / open_gop=0 / weightp=2 / keyint=299 / keyint_min=25 / scenecut=1 / intra_refresh=0 / rc_lookahead=40 / rc=abr / mbtree=1 / bitrate=3000 / ratetol=1.0 / qcomp=0.60 / qpmin=10 / qpmax=51 / qpstep=4 / ip_ratio=1.40 / aq=1:1.00

    Audio
    ID                               : 1
    Format                           : MPEG Audio
    Format version                   : Version 1
    Format profile                   : Layer 3
    Mode                             : Joint stereo
    Mode extension                   : MS Stereo
    Codec ID                         : 55
    Codec ID/Hint                    : MP3
    Duration                         : 1h 4mn
    Bit rate mode                    : Constant
    Bit rate                         : 192 Kbps
    Channel(s)                       : 2 channels
    Sampling rate                    : 48.0 KHz
    Stream size                      : 88.0 MiB (6%)
    Alignment                        : Split accross interleaves
    Interleave, duration             : 33 ms (1.00 video frame)
    Interleave, preload duration     : 500 ms
    Writing library                  : LAME3.98.2



    0 0

    Original Post: Angry Mom (2015) Complete X264 Small LIMO


    Details
    Title: 앵그리 맘 / Aenggeuri Mam
    Genre: Family, drama, human, school
    Episodes: 16
    Broadcast network: MBC
    Broadcast period: 2015-Mar-18 to 2015-May-07
    Air time: Wednesday & Thursday 22:00
    Original Soundtrack: Angry Mom OST
    Synopsis
    Jo Kang Ja was once a legendary badass in her teenage days—and as a Busan girl, she would have been extra rough-and-tumble. Daughter to a sashimi-restaurant-owner mother who loves to swear and a father with a rap sheet for fighting, Kang Hee inherits her parents’ penchant for cursing, quick temper, and sashimi knife skills.

    As a young mother, she is the kind of person who prefers dramas to news or current events. But when she finds out that her daughter, Oh Ah Ran, is being victimized by bullies at school, she decides to do something about it directly, and what ensues is a positive, upbeat, and poignant” story that seeks to highlight trouble spots in South Korea’s educational system. --Dramabeans

    Cast
    Kim Hee Sun as Jo Kang Ja (Ah Ran's mother)
    Ji Hyun Woo as Park Noh Ah
    Kim Yoo Jung as Oh Ah Ran (Kang Ja's daughter)




    Code
    Video
    ID                                       : 1
    Format                                   : AVC
    Format/Info                              : Advanced Video Codec
    Format profile                           : Main@L4.0
    Format settings, CABAC                   : Yes
    Format settings, ReFrames                : 4 frames
    Codec ID                                 : V_MPEG4/ISO/AVC
    Duration                                 : 1h 1mn
    Nominal bit rate                         : 450 Kbps
    Width                                    : 800 pixels
    Height                                   : 450 pixels
    Display aspect ratio                     : 16:9
    Frame rate mode                          : Variable
    Frame rate                               : 29.970 fps
    Color space                              : YUV
    Chroma subsampling                       : 4:2:0
    Bit depth                                : 8 bits
    Scan type                                : Progressive
    Bits/(Pixel*Frame)                       : 0.042
    Writing library                          : x264 core 130 r2273 b3065e6
    Encoding settings                        : cabac=1 / ref=1 / deblock=1:0:0 / analyse=0x1:0x111 / me=hex / subme=2 / psy=1 / psy_rd=1.00:0.00 / mixed_ref=0 / me_range=16 / chroma_me=1 / trellis=0 / 8x8dct=0 / cqm=0 / deadzone=21,11 / fast_pskip=1 / chroma_qp_offset=0 / threads=1 / lookahead_threads=1 / sliced_threads=0 / nr=0 / decimate=1 / interlaced=0 / bluray_compat=0 / constrained_intra=0 / bframes=3 / b_pyramid=2 / b_adapt=1 / b_bias=0 / direct=1 / weightb=1 / open_gop=0 / weightp=1 / keyint=300 / keyint_min=30 / scenecut=40 / intra_refresh=0 / rc_lookahead=10 / rc=abr / mbtree=1 / bitrate=450 / ratetol=1.0 / qcomp=0.60 / qpmin=0 / qpmax=69 / qpstep=4 / vbv_maxrate=20000 / vbv_bufsize=25000 / nal_hrd=none / ip_ratio=1.40 / aq=1:1.00
    Language                                 : English
    Default                                  : Yes
    Forced                                   : No
    Color primaries                          : BT.601-6 525, BT.1358 525, BT.1700 NTSC, SMPTE 170M
    Transfer characteristics                 : BT.709-5, BT.1361
    Matrix coefficients                      : BT.601-6 525, BT.1358 525, BT.1700 NTSC, SMPTE 170M

    Audio
    ID                                       : 2
    Format                                   : MPEG Audio
    Format version                           : Version 1
    Format profile                           : Layer 3
    Mode                                     : Joint stereo
    Mode extension                           : MS Stereo
    Codec ID                                 : A_MPEG/L3
    Codec ID/Hint                            : MP3
    Duration                                 : 1h 1mn
    Bit rate mode                            : Variable
    Channel(s)                               : 2 channels
    Sampling rate                            : 48.0 KHz
    Compression mode                         : Lossy
    Default                                  : Yes
    Forced                                   : No




    0 0

    Original Post: Angry Mom (2015) Complete XVID LIMO


    Details
    Title: 앵그리 맘 / Aenggeuri Mam
    Genre: Family, drama, human, school
    Episodes: 16
    Broadcast network: MBC
    Broadcast period: 2015-Mar-18 to 2015-May-07
    Air time: Wednesday & Thursday 22:00
    Original Soundtrack: Angry Mom OST
    Synopsis
    Jo Kang Ja was once a legendary badass in her teenage days—and as a Busan girl, she would have been extra rough-and-tumble. Daughter to a sashimi-restaurant-owner mother who loves to swear and a father with a rap sheet for fighting, Kang Hee inherits her parents’ penchant for cursing, quick temper, and sashimi knife skills.

    As a young mother, she is the kind of person who prefers dramas to news or current events. But when she finds out that her daughter, Oh Ah Ran, is being victimized by bullies at school, she decides to do something about it directly, and what ensues is a positive, upbeat, and poignant” story that seeks to highlight trouble spots in South Korea’s educational system. --Dramabeans

    Cast
    Kim Hee Sun as Jo Kang Ja (Ah Ran's mother)
    Ji Hyun Woo as Park Noh Ah
    Kim Yoo Jung as Oh Ah Ran (Kang Ja's daughter)




    Code
    Video
    ID                                       : 0
    Format                                   : MPEG-4 Visual
    Format profile                           : Advanced Simple@L5
    Format settings, BVOP                    : No
    Format settings, QPel                    : No
    Format settings, GMC                     : No warppoints
    Format settings, Matrix                  : Default (MPEG)
    Codec ID                                 : XVID
    Codec ID/Hint                            : XviD
    Duration                                 : 1h 6mn
    Bit rate                                 : 1 391 Kbps
    Width                                    : 624 pixels
    Height                                   : 352 pixels
    Display aspect ratio                     : 16:9
    Frame rate                               : 29.970 fps
    Color space                              : YUV
    Chroma subsampling                       : 4:2:0
    Bit depth                                : 8 bits
    Scan type                                : Progressive
    Compression mode                         : Lossy
    Bits/(Pixel*Frame)                       : 0.211
    Stream size                              : 660 MiB (87%)
    Writing library                          : XviD 1.2.1 (UTC 2008-12-04)

    Audio
    ID                                       : 1
    Format                                   : MPEG Audio
    Format version                           : Version 1
    Format profile                           : Layer 3
    Mode                                     : Joint stereo
    Mode extension                           : MS Stereo
    Codec ID                                 : 55
    Codec ID/Hint                            : MP3
    Duration                                 : 1h 6mn
    Bit rate mode                            : Constant
    Bit rate                                 : 128 Kbps
    Channel(s)                               : 2 channels
    Sampling rate                            : 48.0 KHz
    Compression mode                         : Lossy
    Stream size                              : 60.8 MiB (8%)
    Alignment                                : Aligned on interleaves
    Writing library                          : LAME3.98.2




    0 0

    Original Post: Angry Mom (2015) Complete 450p LIMO


    Details
    Title: 앵그리 맘 / Aenggeuri Mam
    Genre: Family, drama, human, school
    Episodes: 16
    Broadcast network: MBC
    Broadcast period: 2015-Mar-18 to 2015-May-07
    Air time: Wednesday & Thursday 22:00
    Original Soundtrack: Angry Mom OST
    Synopsis
    Jo Kang Ja was once a legendary badass in her teenage days—and as a Busan girl, she would have been extra rough-and-tumble. Daughter to a sashimi-restaurant-owner mother who loves to swear and a father with a rap sheet for fighting, Kang Hee inherits her parents’ penchant for cursing, quick temper, and sashimi knife skills.

    As a young mother, she is the kind of person who prefers dramas to news or current events. But when she finds out that her daughter, Oh Ah Ran, is being victimized by bullies at school, she decides to do something about it directly, and what ensues is a positive, upbeat, and poignant” story that seeks to highlight trouble spots in South Korea’s educational system. --Dramabeans

    Cast
    Kim Hee Sun as Jo Kang Ja (Ah Ran's mother)
    Ji Hyun Woo as Park Noh Ah
    Kim Yoo Jung as Oh Ah Ran (Kang Ja's daughter)




    Code
    Video
    ID                                       : 0
    Format                                   : AVC
    Format/Info                              : Advanced Video Codec
    Format profile                           : High@L5.1
    Format settings, CABAC                   : Yes
    Format settings, ReFrames                : 4 frames
    Codec ID                                 : H264
    Bit rate                                 : 1 500 Kbps
    Width                                    : 800 pixels
    Height                                   : 450 pixels
    Display aspect ratio                     : 16:9
    Frame rate mode                          : Variable
    Frame rate                               : 29.970 fps
    Color space                              : YUV
    Chroma subsampling                       : 4:2:0
    Bit depth                                : 8 bits
    Scan type                                : Progressive
    Bits/(Pixel*Frame)                       : 0.139
    Stream size                              : 686 MiB (88%)
    Writing library                          : x264 core 112

    Audio
    ID                                       : 1
    Format                                   : MPEG Audio
    Format version                           : Version 1
    Format profile                           : Layer 3
    Mode                                     : Joint stereo
    Mode extension                           : MS Stereo
    Codec ID                                 : 55
    Codec ID/Hint                            : MP3
    Bit rate mode                            : Constant
    Bit rate                                 : 192 Kbps
    Channel(s)                               : 2 channels
    Sampling rate                            : 48.0 KHz
    Compression mode                         : Lossy
    Stream size                              : 88.3 MiB (11%)
    Alignment                                : Aligned on interleaves
    Interleave, duration                     : 24 ms (0.72 video frame)
    Writing library                          : LAME3.98.2
    Language                                 : Korean



    0 0

    Original Post: Angry Mom (2015) Complete 720p LIMO


    Details
    Title: 앵그리 맘 / Aenggeuri Mam
    Genre: Family, drama, human, school
    Episodes: 16
    Broadcast network: MBC
    Broadcast period: 2015-Mar-18 to 2015-May-07
    Air time: Wednesday & Thursday 22:00
    Original Soundtrack: Angry Mom OST
    Synopsis
    Jo Kang Ja was once a legendary badass in her teenage days—and as a Busan girl, she would have been extra rough-and-tumble. Daughter to a sashimi-restaurant-owner mother who loves to swear and a father with a rap sheet for fighting, Kang Hee inherits her parents’ penchant for cursing, quick temper, and sashimi knife skills.

    As a young mother, she is the kind of person who prefers dramas to news or current events. But when she finds out that her daughter, Oh Ah Ran, is being victimized by bullies at school, she decides to do something about it directly, and what ensues is a positive, upbeat, and poignant” story that seeks to highlight trouble spots in South Korea’s educational system. --Dramabeans

    Cast
    Kim Hee Sun as Jo Kang Ja (Ah Ran's mother)
    Ji Hyun Woo as Park Noh Ah
    Kim Yoo Jung as Oh Ah Ran (Kang Ja's daughter)




    Code
    Video
    ID                               : 0
    Format                           : AVC
    Format/Info                      : Advanced Video Codec
    Format profile                   : High@L5.1
    Format settings, CABAC           : Yes
    Format settings, ReFrames        : 4 frames
    Codec ID                         : H264
    Duration                         : 1h 4mn
    Bit rate                         : 3 000 Kbps
    Width                            : 1 280 pixels
    Height                           : 720 pixels
    Display aspect ratio             : 16:9
    Frame rate mode                  : Variable
    Frame rate                       : 29.970 fps
    Color space                      : YUV
    Chroma subsampling               : 4:2:0
    Bit depth                        : 8 bits
    Scan type                        : Progressive
    Bits/(Pixel*Frame)               : 0.109
    Stream size                      : 1.35 GiB (94%)
    Writing library                  : x264 core 112
    Encoding settings                : cabac=1 / ref=3 / deblock=1:-1:-1 / analyse=0x3:0x113 / me=hex / subme=6 / psy=1 / psy_rd=1.00:1.00 / mixed_ref=1 / me_range=16 / chroma_me=1 / trellis=1 / 8x8dct=1 / cqm=0 / deadzone=21,11 / fast_pskip=0 / chroma_qp_offset=-4 / threads=12 / sliced_threads=0 / nr=0 / decimate=1 / interlaced=0 / constrained_intra=0 / bframes=3 / b_pyramid=2 / b_adapt=1 / b_bias=1 / direct=3 / weightb=1 / open_gop=0 / weightp=2 / keyint=299 / keyint_min=25 / scenecut=1 / intra_refresh=0 / rc_lookahead=40 / rc=abr / mbtree=1 / bitrate=3000 / ratetol=1.0 / qcomp=0.60 / qpmin=10 / qpmax=51 / qpstep=4 / ip_ratio=1.40 / aq=1:1.00

    Audio
    ID                               : 1
    Format                           : MPEG Audio
    Format version                   : Version 1
    Format profile                   : Layer 3
    Mode                             : Joint stereo
    Mode extension                   : MS Stereo
    Codec ID                         : 55
    Codec ID/Hint                    : MP3
    Duration                         : 1h 4mn
    Bit rate mode                    : Constant
    Bit rate                         : 192 Kbps
    Channel(s)                       : 2 channels
    Sampling rate                    : 48.0 KHz
    Stream size                      : 88.0 MiB (6%)
    Alignment                        : Split accross interleaves
    Interleave, duration             : 33 ms (1.00 video frame)
    Interleave, preload duration     : 500 ms
    Writing library                  : LAME3.98.2



    0 0

    Original Post: Kokoro ga Pokkito ne ep05 480p



    http://wiki.d-addicts.com/Kokoro_ga_Pokitto_ne

    Title: 心がポキッとね
    Title (romaji): Kokoro ga Pokitto ne
    Also known as: Crazy for Me
    Format: Renzoku
    Genre: Love comedy
    Episodes: TBD
    Broadcast network: Fuji TV
    Broadcast period: 2015-Apr-08 start
    Air time: Wednesday 22:00
    Theme song: SUN by Hoshino Gen
    Language: Japanese
    Country: Japan
    Subtitles: will be added when available
    RAW credit to furransu

    Cast
       Abe Sadao as Kojima Haruta
       Mizuhara Kiko as Hayama Miyako
       Fujiki Naohito as Otake Shin
       Yamaguchi Tomoko as Kamoda Shizuka
       Tokunaga Eri as Itoyama Fumi
       Yamashita Rio as Makino Eriko
       Nagase Tasuku
       Ikezu Shoko
       Yamanishi Atsushi (山西惇)

    Synopsis
    Set in Tokyo, the story follows Kojima Haruta, a 40-year-old man who hits the rock bottom as he fell mentally ill which led him to lose his job, family, and even a place to live. After a certain turn of events, Haruta encounters Otake Shin, the owner of an antique furniture shop who takes Haruta in and hires him as a furniture repairman in the shop. Touched by such kindness, Haruta promised himself to try to put his life back together but kept himself isolated in order to avoid any additional stress being created. However, things suddenly starts to change as Haruta encounters Hayama Miyako, a 26-year-old woman who has a tendency to become overly dependent and extremely obsessed with a man she falls in love with... ~ Fuji TV

    General
    Complete name                  : Kokoro ga Pokkito ne ep05 (848x480 x264).mp4
    Format                         : MPEG-4
    Format profile                 : Base Media
    Codec ID                       : isom
    File size                      : 434 MiB
    Duration                       : 46mn 24s
    Overall bit rate mode          : Variable
    Overall bit rate               : 1 309 Kbps

    Video
    ID                             : 1
    Format                         : AVC
    Format/Info                    : Advanced Video Codec
    Format profile                 : High@L4.1
    Format settings, CABAC         : Yes
    Format settings, ReFrames      : 4 frames
    Codec ID                       : avc1
    Codec ID/Info                  : Advanced Video Coding
    Duration                       : 46mn 24s
    Bit rate                       : 1 176 Kbps
    Maximum bit rate               : 5 260 Kbps
    Width                          : 848 pixels
    Height                         : 480 pixels
    Display aspect ratio           : 16:9
    Frame rate mode                : Constant
    Frame rate                     : 29.970 fps
    Color space                    : YUV
    Chroma subsampling             : 4:2:0
    Bit depth                      : 8 bits
    Scan type                      : Progressive
    Bits/(Pixel*Frame)             : 0.096
    Stream size                    : 390 MiB (90%)

    Audio
    ID                             : 2
    Format                         : AAC
    Format/Info                    : Advanced Audio Codec
    Format profile                 : LC
    Codec ID                       : 40
    Duration                       : 46mn 24s
    Bit rate mode                  : Variable
    Bit rate                       : 128 Kbps
    Maximum bit rate               : 133 Kbps
    Channel count                  : 2 channels
    Channel positions              : Front: L R
    Sampling rate                  : 48.0 KHz
    Compression mode               : Lossy



    0 0

    Original Post: [Single] Dalmoon (OKDAL) – 희한한 시대



    Dalmoon (OKDAL) – 희한한 시대
    Release Date: 2015.05.07
    Language: Korean
    Genre: Ballad
    Bit Rate: 320kbps

    01. 희한한 시대 (Narr. 유승호)
    02. 희한한 시대
    03. 내가 사라졌으면 좋겠어 (Narr. 정은채)
    04. 내가 사라졌으면 좋겠어

    You can also download Dalmoon 's discography here @ AsiaTorrents


    0 0

    Original Post: [Mini Album] Jang HyunSeung (BEAST) – My [1st Mini Album]



    http://en.wikipedia.org/wiki/Jang_Hyun-seung

    [EP] 장현승 (비스트) – MY [Mini Album Vol. 1]
    Release Date: 2015.05.08
    Genre: Dance
    Language: Korean
    Bit Rate: MP3-320kbps
    credit to k2nblog

    On top of his activities with BEAST and Trouble Maker, Hyun Seung is now making his solo debut with his first mini-album MY. He collaborates with producer Black Eyed Pilseung for multiple tracks including the album’s title song “Ma First” featuring Giriboy.

    Track List:

    01. It’s Me
    02. 니가 처음이야 (Ma First‬) (Feat. 기리보이)
    03. 걔랑 헤어져 (Feat. 토끼)
    04. 야한 농담
    05. 나와
    06. 사랑한다고



    0 0

    Original Post: NC.A, Yano, Sangdo (ToppDogg) – The Girl Who Can See Smells/Sensory Couple OST Part.8



    앤씨아 (NC.A), 야노, 상도 – 냄새를 보는 소녀 (SBS 수목드라마) OST – Part.8
    Release Date: 2015.05.07
    Genre: OST
    Language: Korean
    Bit Rate: MP3-320kbps
    credit to k2nblog

    Track List:

    01. 5분만 더 – 앤씨아 (NC.A), 야노, 상도
    02. 저기요 – 젤리쿠키
    03. 5분만 더 (Inst.) – 앤씨아 (NC.A), 야노, 상도
    04. 저기요 (Inst.) – 젤리쿠키



    0 0

    Original Post: Puzzle 2014 DVDRip x264 AAC Eisuke Naito

    Contains gore



    Puzzle

    AKA: Pazuru / パズル
    IMDb:http://www.imdb.com/title/tt3492330
    AsianWiki:http://asianwiki.com/Puzzle_%28Japanese_Movie%29
    Review:Sound On Sight

    Director: Eisuke Naito
    Writer: Yusuke Yamada (novel), Makoto Suzuki & Eisuke Naito
    Genre: Horror / Thriller
    Release Date: 8 March 2014
    Runtime: 85 min
    Country: Japan
    Language: Japanese
    Subtitles: English, Korean
    Source: Candle Media R3K DVD5 (Thanks to famitsu1 for the DVD)

    Synopsis: High school student Azusa jumps off from the rooftop of a school building, but she survives. One month later, the school is taken over by group of people wearing bizarre masks. A pregnant teacher is imprisoned, while the head director of the school and male students disappear. Azusa then finds pieces of a puzzle in an envelope given to her by classmate Shigeo. The puzzle pieces holds the key to solve the case. Azusa chases after Shigeo and she sees something which is unimaginable.

    Uploader's Comments: I had been looking forward to watching this since it got released last year. Now that I've finally seen it, I find it uneven. The director more than a few times tries too hard to shock and disgust, even for a genre flick. This results in losing the desired effect and bordering on becoming tedious instead. Also, Kaho's part could've been way more fun if they'd decided to develop it further. The humor, though, is for the most part spot on. I liked the credit sequence as well.

    MediaInfo
    Spoiler:show
    General
    Unique ID : 182925034312841451809605358299047911384 (0x899E14827D63CC47AC414FFCC079DFD8)
    Complete name : Puzzle.2014.DVDRip.x264.AAC-Jongl0.mkv
    Format : Matroska
    Format version : Version 4 / Version 2
    File size : 889 MiB
    Duration : 1h 25mn
    Overall bit rate : 1 449 Kbps
    Encoded date : UTC 2015-05-06 08:39:27
    Writing application : mkvmerge v7.6.0 ('Garden of Dreams') 64bit built on Feb 8 2015 13:04:34
    Writing library : libebml v1.3.1 + libmatroska v1.4.2
    DURATION : 01:24:16.344000000
    NUMBER_OF_FRAMES : 483
    NUMBER_OF_BYTES : 380464
    _STATISTICS_WRITING_APP : mkvmerge v7.6.0 ('Garden of Dreams') 64bit built on Feb 8 2015 13:04:34
    _STATISTICS_WRITING_DATE_UTC : 2015-05-06 08:39:27
    _STATISTICS_TAGS : BPS DURATION NUMBER_OF_FRAMES NUMBER_OF_BYTES

    Video
    ID : 1
    Format : AVC
    Format/Info : Advanced Video Codec
    Format profile : High@L4.1
    Format settings, CABAC : Yes
    Format settings, ReFrames : 16 frames
    Codec ID : V_MPEG4/ISO/AVC
    Duration : 1h 25mn
    Bit rate : 1251 Kbps
    Width : 720 pixels
    Height : 356 pixels
    Display aspect ratio : 2.40:1
    Original display aspect ratio : 2.40:1
    Frame rate mode : Constant
    Frame rate : 23.976 fps
    Color space : YUV
    Chroma subsampling : 4:2:0
    Bit depth : 8 bits
    Scan type : Progressive
    Writing library : x264 core 142 r2431 ac76440
    Encoding settings : cabac=1 / ref=16 / deblock=1:-3:-3 / analyse=0x3:0x133 / me=umh / subme=10 / psy=1 / psy_rd=1.05:0.10 / mixed_ref=1 / me_range=32 / chroma_me=1 / trellis=2 / 8x8dct=1 / cqm=0 / deadzone=21,11 / fast_pskip=0 / chroma_qp_offset=-3 / threads=12 / lookahead_threads=2 / sliced_threads=0 / nr=0 / decimate=0 / interlaced=0 / bluray_compat=0 / constrained_intra=0 / bframes=9 / b_pyramid=2 / b_adapt=2 / b_bias=0 / direct=3 / weightb=1 / open_gop=0 / weightp=2 / keyint=240 / keyint_min=23 / scenecut=40 / intra_refresh=0 / rc_lookahead=50 / rc=crf / mbtree=0 / crf=16.1 / qcomp=0.60 / qpmin=0 / qpmax=69 / qpstep=4 / vbv_maxrate=14000 / vbv_bufsize=14000 / crf_max=0.0 / nal_hrd=none / filler=0 / ip_ratio=1.40 / pb_ratio=1.30 / aq=1:1.00
    Default : Yes
    Forced : No
    DURATION : 01:25:47.309000000
    NUMBER_OF_FRAMES : 123412
    NUMBER_OF_BYTES : 812593616
    _STATISTICS_WRITING_APP : mkvmerge v7.6.0 ('Garden of Dreams') 64bit built on Feb 8 2015 13:04:34
    _STATISTICS_WRITING_DATE_UTC : 2015-05-06 08:39:27
    _STATISTICS_TAGS : BPS DURATION NUMBER_OF_FRAMES NUMBER_OF_BYTES

    Audio
    ID : 2
    Format : AAC
    Format/Info : Advanced Audio Codec
    Format profile : LC
    Codec ID : A_AAC
    Duration : 1h 25mn
    Bit rate : 198 Kbps
    Channel(s) : 2 channels
    Channel positions : Front: L R
    Sampling rate : 48.0 KHz
    Compression mode : Lossy
    Delay relative to video : 9ms
    Language : Japanese
    Default : Yes
    Forced : No

    Text #1
    ID : 3
    Format : UTF-8
    Codec ID : S_TEXT/UTF8
    Codec ID/Info : UTF-8 Plain Text
    Language : English
    Default : Yes
    Forced : No

    Text #2
    ID : 4
    Format : VobSub
    Muxing mode : zlib
    Codec ID : S_VOBSUB
    Codec ID/Info : The same subtitle format used on DVDs
    Language : Korean
    Default : No
    Forced : No

    Text #3
    ID : 5
    Format : VobSub
    Muxing mode : zlib
    Codec ID : S_VOBSUB
    Codec ID/Info : The same subtitle format used on DVDs
    Language : English
    Default : No
    Forced : No


    Edgar Chaput @ Sound On Sight :
    Puzzle proudly takes a stance in the oddball category of films. There won’t be much like it released during this or any other year. The film is quite nihilistic, offering virtually no sense of hope, yet still strives to put as funny a spin as possible on certain scenes. ‘Weird’ scratches but the surface of what Eisuke Naito has in store for those feeling a little adventurous with their movie watching. Viewers needn’t say they were not warned!




    0 0

    Original Post: Puzzle 2014 576p BDRip x264 AC3 Eisuke Naito

    Contains gore



    Puzzle

    AKA: Pazuru / パズル
    IMDb:http://www.imdb.com/title/tt3492330
    AsianWiki:http://asianwiki.com/Puzzle_%28Japanese_Movie%29
    Review:Sound On Sight

    Director: Eisuke Naito
    Writer: Yusuke Yamada (novel), Makoto Suzuki & Eisuke Naito
    Genre: Horror / Thriller
    Release Date: 8 March 2014
    Runtime: 85 min
    Country: Japan
    Language: Japanese
    Subtitles: English
    Source: Pony Canyon JP BD50 (Thanks to kemushi, famitsu1 and lordretsudo @ ADC for the custom disc)
    Spoiler:show

    lordretsudo :
    My old friend kemushi provided me with a copy of the Japanese blu-ray, to which I've added the English subs from famitsu1's recent DVD upload. I have done some work on the subs, retiming and combining some very short lines. Big thanks to kemushi for the disc!


    Synopsis: High school student Azusa jumps off from the rooftop of a school building, but she survives. One month later, the school is taken over by group of people wearing bizarre masks. A pregnant teacher is imprisoned, while the head director of the school and male students disappear. Azusa then finds pieces of a puzzle in an envelope given to her by classmate Shigeo. The puzzle pieces holds the key to solve the case. Azusa chases after Shigeo and she sees something which is unimaginable.

    Uploader's Comments: I had been looking forward to watching this since it got released last year. Now that I've finally seen it, I find it uneven. The director more than a few times tries too hard to shock and disgust, even for a genre flick. This results in losing the desired effect and bordering on becoming tedious instead. Also, Kaho's part could've been way more fun if they'd decided to develop it further. The humor, though, is for the most part spot on. I liked the credit sequence as well.

    MediaInfo
    Spoiler:show
    General
    Unique ID : 223868892762765910875553515026838586276 (0xA86B949654A0C52C9323F8DA251A03A4)
    Complete name : Puzzle.2014.576p.BDRip.x264.AC3-Jongl0.mkv
    Format : Matroska
    Format version : Version 4 / Version 2
    File size : 1.39 GiB
    Duration : 1h 25mn
    Overall bit rate : 2 326 Kbps
    Encoded date : UTC 2015-05-07 17:13:58
    Writing application : mkvmerge v7.6.0 ('Garden of Dreams') 64bit built on Feb 8 2015 13:04:34
    Writing library : libebml v1.3.1 + libmatroska v1.4.2
    DURATION : 01:24:16.355000000
    NUMBER_OF_FRAMES : 483
    NUMBER_OF_BYTES : 9672
    _STATISTICS_WRITING_APP : mkvmerge v7.6.0 ('Garden of Dreams') 64bit built on Feb 8 2015 13:04:34
    _STATISTICS_WRITING_DATE_UTC : 2015-05-07 17:13:58
    _STATISTICS_TAGS : BPS DURATION NUMBER_OF_FRAMES NUMBER_OF_BYTES

    Video
    ID : 1
    Format : AVC
    Format/Info : Advanced Video Codec
    Format profile : High@L4.1
    Format settings, CABAC : Yes
    Format settings, ReFrames : 16 frames
    Codec ID : V_MPEG4/ISO/AVC
    Duration : 1h 25mn
    Bit rate : 1 896 Kbps
    Width : 1 024 pixels
    Height : 430 pixels
    Display aspect ratio : 2.40:1
    Frame rate mode : Constant
    Frame rate : 23.976 fps
    Color space : YUV
    Chroma subsampling : 4:2:0
    Bit depth : 8 bits
    Scan type : Progressive
    Bits/(Pixel*Frame) : 0.180
    Stream size : 1.13 GiB (82%)
    Writing library : x264 core 142 r2431 ac76440
    Encoding settings : cabac=1 / ref=16 / deblock=1:-3:-3 / analyse=0x3:0x133 / me=umh / subme=10 / psy=1 / psy_rd=1.10:0.05 / mixed_ref=1 / me_range=32 / chroma_me=0 / trellis=2 / 8x8dct=1 / cqm=0 / deadzone=21,11 / fast_pskip=0 / chroma_qp_offset=-3 / threads=12 / lookahead_threads=3 / sliced_threads=0 / nr=0 / decimate=0 / interlaced=0 / bluray_compat=0 / constrained_intra=0 / bframes=16 / b_pyramid=2 / b_adapt=2 / b_bias=0 / direct=3 / weightb=1 / open_gop=0 / weightp=2 / keyint=240 / keyint_min=23 / scenecut=40 / intra_refresh=0 / rc_lookahead=50 / rc=crf / mbtree=0 / crf=16.6 / qcomp=0.65 / qpmin=0 / qpmax=69 / qpstep=4 / vbv_maxrate=14000 / vbv_bufsize=14000 / crf_max=0.0 / nal_hrd=none / filler=0 / ip_ratio=1.40 / pb_ratio=1.30 / aq=1:1.00
    Default : Yes
    Forced : No
    DURATION : 01:25:29.083000000
    NUMBER_OF_FRAMES : 122975
    NUMBER_OF_BYTES : 1244127384
    _STATISTICS_WRITING_APP : mkvmerge v7.6.0 ('Garden of Dreams') 64bit built on Feb 8 2015 13:04:34
    _STATISTICS_WRITING_DATE_UTC : 2015-05-07 17:13:58
    _STATISTICS_TAGS : BPS DURATION NUMBER_OF_FRAMES NUMBER_OF_BYTES

    Audio
    ID : 2
    Format : AC-3
    Format/Info : Audio Coding 3
    Mode extension : CM (complete main)
    Format settings, Endianness : Big
    Codec ID : A_AC3
    Duration : 1h 25mn
    Bit rate mode : Constant
    Bit rate : 384 Kbps
    Channel(s) : 6 channels
    Channel positions : Front: L C R, Side: L R, LFE
    Sampling rate : 48.0 KHz
    Bit depth : 16 bits
    Compression mode : Lossy
    Stream size : 235 MiB (17%)
    Language : Japanese
    Default : Yes
    Forced : No

    Text
    ID : 3
    Format : UTF-8
    Codec ID : S_TEXT/UTF8
    Codec ID/Info : UTF-8 Plain Text
    Language : English
    Default : Yes
    Forced : No

    Menu
    00:00:00.000 : en:Chapter 1
    00:08:11.241 : en:Chapter 2
    00:21:56.774 : en:Chapter 3
    00:28:22.784 : en:Chapter 4
    00:42:10.278 : en:Chapter 5
    00:49:29.592 : en:Chapter 6
    00:59:51.171 : en:Chapter 7
    01:08:18.136 : en:Chapter 8
    01:15:07.128 : en:Chapter 9
    01:21:13.077 : en:Chapter 10


    Edgar Chaput @ Sound On Sight :
    Puzzle proudly takes a stance in the oddball category of films. There won’t be much like it released during this or any other year. The film is quite nihilistic, offering virtually no sense of hope, yet still strives to put as funny a spin as possible on certain scenes. ‘Weird’ scratches but the surface of what Eisuke Naito has in store for those feeling a little adventurous with their movie watching. Viewers needn’t say they were not warned!




    0 0

    Original Post: Puzzle 2014 720p BDRip x264 AC3 Eisuke Naito

    Contains gore



    Puzzle

    AKA: Pazuru / パズル
    IMDb:http://www.imdb.com/title/tt3492330
    AsianWiki:http://asianwiki.com/Puzzle_%28Japanese_Movie%29
    Review:Sound On Sight

    Director: Eisuke Naito
    Writer: Yusuke Yamada (novel), Makoto Suzuki & Eisuke Naito
    Genre: Horror / Thriller
    Release Date: 8 March 2014
    Runtime: 85 min
    Country: Japan
    Language: Japanese
    Subtitles: English, Japanese
    Source: Pony Canyon JP BD50 (Thanks to kemushi, famitsu1 and lordretsudo @ ADC for the custom disc)
    Spoiler:show

    lordretsudo :
    My old friend kemushi provided me with a copy of the Japanese blu-ray, to which I've added the English subs from famitsu1's recent DVD upload. I have done some work on the subs, retiming and combining some very short lines. Big thanks to kemushi for the disc!


    Synopsis: High school student Azusa jumps off from the rooftop of a school building, but she survives. One month later, the school is taken over by group of people wearing bizarre masks. A pregnant teacher is imprisoned, while the head director of the school and male students disappear. Azusa then finds pieces of a puzzle in an envelope given to her by classmate Shigeo. The puzzle pieces holds the key to solve the case. Azusa chases after Shigeo and she sees something which is unimaginable.

    Uploader's Comments: I had been looking forward to watching this since it got released last year. Now that I've finally seen it, I find it uneven. The director more than a few times tries too hard to shock and disgust, even for a genre flick. This results in losing the desired effect and bordering on becoming tedious instead. Also, Kaho's part could've been way more fun if they'd decided to develop it further. The humor, though, is for the most part spot on. I liked the credit sequence as well.

    I decided to upload this rip as it's close to transparent to the source at a lower bitrate and without mbtree. If you already have the other 720p rip, I think the subs are synced to that one as well.

    MediaInfo
    Spoiler:show
    General
    Unique ID : 177930132666565479521789311988392310831 (0x85DC18D857D31CE38B7C740269F8B82F)
    Complete name : Puzzle.2014.720p.BDRip.x264.AC3-Jongl0.mkv
    Format : Matroska
    Format version : Version 4 / Version 2
    File size : 2.98 GiB
    Duration : 1h 25mn
    Overall bit rate : 4 991 Kbps
    Encoded date : UTC 2015-05-07 17:15:39
    Writing application : mkvmerge v7.6.0 ('Garden of Dreams') 64bit built on Feb 8 2015 13:04:34
    Writing library : libebml v1.3.1 + libmatroska v1.4.2
    DURATION : 01:23:56.866000000
    NUMBER_OF_FRAMES : 1518
    NUMBER_OF_BYTES : 4492174
    _STATISTICS_WRITING_APP : mkvmerge v7.6.0 ('Garden of Dreams') 64bit built on Feb 8 2015 13:04:34
    _STATISTICS_WRITING_DATE_UTC : 2015-05-07 17:15:39
    _STATISTICS_TAGS : BPS DURATION NUMBER_OF_FRAMES NUMBER_OF_BYTES

    Video
    ID : 1
    Format : AVC
    Format/Info : Advanced Video Codec
    Format profile : High@L4.1
    Format settings, CABAC : Yes
    Format settings, ReFrames : 12 frames
    Codec ID : V_MPEG4/ISO/AVC
    Duration : 1h 25mn
    Bit rate : 4 252 Kbps
    Width : 1 280 pixels
    Height : 536 pixels
    Display aspect ratio : 2.40:1
    Frame rate mode : Constant
    Frame rate : 23.976 fps
    Color space : YUV
    Chroma subsampling : 4:2:0
    Bit depth : 8 bits
    Scan type : Progressive
    Bits/(Pixel*Frame) : 0.258
    Stream size : 2.54 GiB (85%)
    Writing library : x264 core 142 r2431 ac76440
    Encoding settings : cabac=1 / ref=12 / deblock=1:-3:-3 / analyse=0x3:0x133 / me=umh / subme=10 / psy=1 / psy_rd=1.05:0.00 / mixed_ref=1 / me_range=32 / chroma_me=1 / trellis=2 / 8x8dct=1 / cqm=0 / deadzone=21,11 / fast_pskip=0 / chroma_qp_offset=-2 / threads=12 / lookahead_threads=3 / sliced_threads=0 / nr=0 / decimate=0 / interlaced=0 / bluray_compat=0 / constrained_intra=0 / bframes=15 / b_pyramid=2 / b_adapt=2 / b_bias=0 / direct=3 / weightb=1 / open_gop=0 / weightp=2 / keyint=240 / keyint_min=23 / scenecut=40 / intra_refresh=0 / rc_lookahead=50 / rc=crf / mbtree=0 / crf=15.3 / qcomp=0.70 / qpmin=0 / qpmax=69 / qpstep=4 / vbv_maxrate=62500 / vbv_bufsize=78125 / crf_max=0.0 / nal_hrd=none / filler=0 / ip_ratio=1.40 / pb_ratio=1.30 / aq=1:0.95
    Default : Yes
    Forced : No
    DURATION : 01:25:29.083000000
    NUMBER_OF_FRAMES : 122975
    NUMBER_OF_BYTES : 2781318894
    _STATISTICS_WRITING_APP : mkvmerge v7.6.0 ('Garden of Dreams') 64bit built on Feb 8 2015 13:04:34
    _STATISTICS_WRITING_DATE_UTC : 2015-05-07 17:15:39
    _STATISTICS_TAGS : BPS DURATION NUMBER_OF_FRAMES NUMBER_OF_BYTES

    Audio
    ID : 2
    Format : AC-3
    Format/Info : Audio Coding 3
    Mode extension : CM (complete main)
    Format settings, Endianness : Big
    Codec ID : A_AC3
    Duration : 1h 25mn
    Bit rate mode : Constant
    Bit rate : 640 Kbps
    Channel(s) : 6 channels
    Channel positions : Front: L C R, Side: L R, LFE
    Sampling rate : 48.0 KHz
    Bit depth : 16 bits
    Compression mode : Lossy
    Stream size : 391 MiB (13%)
    Language : Japanese
    Default : Yes
    Forced : No

    Text #1
    ID : 3
    Format : UTF-8
    Codec ID : S_TEXT/UTF8
    Codec ID/Info : UTF-8 Plain Text
    Language : English
    Default : Yes
    Forced : No

    Text #2
    ID : 4
    Format : PGS
    Muxing mode : zlib
    Codec ID : S_HDMV/PGS
    Codec ID/Info : The same subtitle format used on BDs/HD-DVDs
    Language : English
    Default : No
    Forced : No

    Text #3
    ID : 5
    Format : PGS
    Muxing mode : zlib
    Codec ID : S_HDMV/PGS
    Codec ID/Info : The same subtitle format used on BDs/HD-DVDs
    Language : Japanese
    Default : No
    Forced : No

    Menu
    00:00:00.000 : en:Chapter 1
    00:08:11.241 : en:Chapter 2
    00:21:56.774 : en:Chapter 3
    00:28:22.784 : en:Chapter 4
    00:42:10.278 : en:Chapter 5
    00:49:29.592 : en:Chapter 6
    00:59:51.171 : en:Chapter 7
    01:08:18.136 : en:Chapter 8
    01:15:07.128 : en:Chapter 9
    01:21:13.077 : en:Chapter 10


    Edgar Chaput @ Sound On Sight :
    Puzzle proudly takes a stance in the oddball category of films. There won’t be much like it released during this or any other year. The film is quite nihilistic, offering virtually no sense of hope, yet still strives to put as funny a spin as possible on certain scenes. ‘Weird’ scratches but the surface of what Eisuke Naito has in store for those feeling a little adventurous with their movie watching. Viewers needn’t say they were not warned!




    0 0
  • 05/07/15--08:59: Let's Eat S02 E09 XVID WITH
  • Original Post: Let's Eat S02 E09 XVID WITH


    Title: 식샤를 합시다 2 / Siksyareul Habsida 2
    Episodes: TBA
    Broadcast period: 2015-Apr-06 to 2015-???-??
    Air time: Monday & Tuesday 23:00
    Original soundtrack: Let's Eat 2 OST


    Synopsis
    Goo Dae young’s rivals have appeared! Food blogger Goo Dae young, the fourth year freelancer, Bae Soo ji on one meal per day diet, who regards him as an enemy, and the vegetarian government worker, Lee Sang Woo. This drama depicts the spicy and tasteful lives of the single dwellers in Sejong Villa, who has each one’s own unique taste

    Cast
    Yoon Doo Joon as Goo Dae Young
    Seo Hyun Jin as Baek Soo Ji
    Kwon Yool as Lee Sang Woo
    Kim Hee Won as Im Taek Soo
    Hwang Seung Eon as Hwang Hye Rim
    Jo Eun Ji as Hong In Ah
    Hwang Suk Jung as Kim Mo Ran
    Lee Joo Seung as mysterious man




    Code
    Video
    ID                                       : 0
    Format                                   : MPEG-4 Visual
    Format profile                           : Advanced Simple@L5
    Format settings, BVOP                    : No
    Format settings, QPel                    : No
    Format settings, GMC                     : No warppoints
    Format settings, Matrix                  : Default (MPEG)
    Codec ID                                 : XVID
    Codec ID/Hint                            : XviD
    Bit rate                                 : 1 391 Kbps
    Width                                    : 624 pixels
    Height                                   : 352 pixels
    Display aspect ratio                     : 16:9
    Frame rate                               : 29.970 fps
    Color space                              : YUV
    Chroma subsampling                       : 4:2:0
    Bit depth                                : 8 bits
    Scan type                                : Progressive
    Compression mode                         : Lossy
    Bits/(Pixel*Frame)                       : 0.211
    Stream size                              : 660 MiB (87%)
    Writing library                          : XviD 1.2.1 (UTC 2008-12-04)

    Audio
    ID                                       : 1
    Format                                   : MPEG Audio
    Format version                           : Version 1
    Format profile                           : Layer 3
    Mode                                     : Joint stereo
    Mode extension                           : MS Stereo
    Codec ID                                 : 55
    Codec ID/Hint                            : MP3
    Bit rate mode                            : Constant
    Bit rate                                 : 128 Kbps
    Channel(s)                               : 2 channels
    Sampling rate                            : 48.0 KHz
    Compression mode                         : Lossy
    Stream size                              : 60.8 MiB (8%)
    Alignment                                : Aligned on interleaves
    Writing library                          : LAME3.98.2



    0 0
  • 05/07/15--08:59: Let's Eat S02 E09 720p WITH
  • Original Post: Let's Eat S02 E09 720p WITH


    Title: 식샤를 합시다 2 / Siksyareul Habsida 2
    Episodes: TBA
    Broadcast period: 2015-Apr-06 to 2015-???-??
    Air time: Monday & Tuesday 23:00
    Original soundtrack: Let's Eat 2 OST


    Synopsis
    Goo Dae young’s rivals have appeared! Food blogger Goo Dae young, the fourth year freelancer, Bae Soo ji on one meal per day diet, who regards him as an enemy, and the vegetarian government worker, Lee Sang Woo. This drama depicts the spicy and tasteful lives of the single dwellers in Sejong Villa, who has each one’s own unique taste

    Cast
    Yoon Doo Joon as Goo Dae Young
    Seo Hyun Jin as Baek Soo Ji
    Kwon Yool as Lee Sang Woo
    Kim Hee Won as Im Taek Soo
    Hwang Seung Eon as Hwang Hye Rim
    Jo Eun Ji as Hong In Ah
    Hwang Suk Jung as Kim Mo Ran
    Lee Joo Seung as mysterious man




    Code
    Video
    ID                                       : 0
    Format                                   : AVC
    Format/Info                              : Advanced Video Codec
    Format profile                           : Baseline@L3.1
    Format settings, CABAC                   : No
    Format settings, ReFrames                : 1 frame
    Codec ID                                 : H264
    Bit rate                                 : 3 017 Kbps
    Width                                    : 1 280 pixels
    Height                                   : 720 pixels
    Display aspect ratio                     : 16:9
    Frame rate mode                          : Variable
    Frame rate                               : 29.970 fps
    Color space                              : YUV
    Chroma subsampling                       : 4:2:0
    Bit depth                                : 8 bits
    Scan type                                : Progressive
    Bits/(Pixel*Frame)                       : 0.109

    Audio
    ID                                       : 1
    Format                                   : MPEG Audio
    Format version                           : Version 1
    Format profile                           : Layer 3
    Mode                                     : Joint stereo
    Mode extension                           : MS Stereo
    Codec ID                                 : 55
    Codec ID/Hint                            : MP3
    Bit rate mode                            : Constant
    Bit rate                                 : 128 Kbps
    Channel(s)                               : 2 channels
    Sampling rate                            : 44.1 KHz
    Compression mode                         : Lossy
    Stream size                              : 62.1 MiB (4%)
    Alignment                                : Aligned on interleaves
    Interleave, duration                     : 26 ms (0.78 video frame)
    Writing library                          : LAME3.98.2



    0 0

    Original Post: DoS Deka EP04 720p HDTV x264 AAC-DoA



    http://wiki.d-addicts.com/DoS_Deka
    http://asianwiki.com/DoS_Deka
    http://thetvdb.com/?tab=series&id=294718

    Title (romaji): DoS Deka
    Also known as: Ms. Sadistic Detective
    Format: Renzoku
    Genre: Detective comedy
    Episodes: TBD
    Broadcast network: NTV
    Broadcast period: 2015-Apr-11 start
    Air time: Saturday 21:00
    Theme song: Tsuyoku Tsuyoku Tsuyoku by Kanjani8
    Subtitles: English - hikaruisyum
    RAW credit to DoA


    Cast

       Tabe Mikako as Kuroi Maya
       Okura Tadayoshi as Daikanyama Shusuke
       Yoshida Yo as Shirokane Fujiko
       Yaotome Hikaru as Hamda Soichiro
       Nakamura Yasuhi as Nakane Masanobu
       Katsumura Masanobu as Arisugawa Tsuneo
       Ishii Masanori as Yura Fumio
       Mitz Mangrove (ミッツ・マングローブ) as Inui Kenzaburo
       Seto Saori (瀬戸さおり) as Daikanyama Kaori
       Suga Yusuke (菅裕輔) as Ken-chan
       Ibu Masato as Kondo Tokuji
       Kishimoto Kayoko as Daikanyama Keiko


    Synopsis

    An uber-sadistic female detective and her nice-guy cop—an unbeatable partnership?! A delightful police comedy is born!

    She has no loyalty to her organization and doesn't follow any rules. She's a detective who enjoys seeing people's troubled faces. Her name is Kuroi Maya. She chose to become a detective because she thought she could torment bad people all she wants. With her sharp intuition, she finds the suspects quicker than anybody else. Beautiful but also a pain in the neck, she unleashes her sadistic ways to round up the bad people from society. This is a story about a never-before-seen uber-sadistic detective.

    Her unlucky partner? Daikanyama Shusuke, an officer who works in a police box. Caught in between a strong-willed mother and younger sister, he is constantly being pushed around at home. Shusuke and Maya have their chance encounter at a crime scene and the two end up as buddies. -- NTV


    Mediainfo
    Spoiler:show

    Code
    Format                                   : Matroska
    Format version                           : Version 4 / Version 2
    File size                                : 1.28 GiB
    Duration                                 : 46mn 4s
    Overall bit rate                         : 3 990 Kbps
    Movie name                               : ドS刑事 第4話 720p HDTV x264 AAC-DoA
    Encoded date                             : UTC 2015-05-03 21:37:54
    Writing application                      : mkvmerge v7.8.0 ('River Man') 64bit built on Mar 27 2015 16:31:37
    Writing library                          : libebml v1.3.1 + libmatroska v1.4.2
    DURATION                                 : 00:46:04.928000000
    NUMBER_OF_FRAMES                         : 129606
    NUMBER_OF_BYTES                          : 65191818
    _STATISTICS_WRITING_APP                  : mkvmerge v7.8.0 ('River Man') 64bit built on Mar 27 2015 16:31:37
    _STATISTICS_WRITING_DATE_UTC             : 2015-05-03 21:37:54
    _STATISTICS_TAGS                         : BPS DURATION NUMBER_OF_FRAMES NUMBER_OF_BYTES

    Video
    ID                                       : 1
    Format                                   : AVC
    Format/Info                              : Advanced Video Codec
    Format profile                           : High@L4.1
    Format settings, CABAC                   : Yes
    Format settings, ReFrames                : 9 frames
    Codec ID                                 : V_MPEG4/ISO/AVC
    Duration                                 : 46mn 4s
    Width                                    : 1 280 pixels
    Height                                   : 720 pixels
    Display aspect ratio                     : 16:9
    Frame rate mode                          : Constant
    Frame rate                               : 29.970 fps
    Color space                              : YUV
    Chroma subsampling                       : 4:2:0
    Bit depth                                : 8 bits
    Scan type                                : Progressive
    Title                                    : Encode by TTG-DoA
    Writing library                          : x264 core 146 r2538 121396c
    Encoding settings                        : cabac=1 / ref=9 / deblock=1:-2:-2 / analyse=0x3:0x133 / me=umh / subme=10 / psy=1 / psy_rd=1.00:0.15 / mixed_ref=1 / me_range=48 / chroma_me=1 / trellis=2 / 8x8dct=1 / cqm=0 / deadzone=21,11 / fast_pskip=0 / chroma_qp_offset=-3 / threads=12 / lookahead_threads=2 / sliced_threads=0 / nr=0 / decimate=1 / interlaced=0 / bluray_compat=0 / constrained_intra=0 / bframes=8 / b_pyramid=2 / b_adapt=2 / b_bias=0 / direct=3 / weightb=1 / open_gop=0 / weightp=2 / keyint=300 / keyint_min=29 / scenecut=40 / intra_refresh=0 / rc_lookahead=60 / rc=crf / mbtree=1 / crf=17.4 / qcomp=0.60 / qpmin=0 / qpmax=69 / qpstep=4 / ip_ratio=1.40 / aq=1:1.00
    Language                                 : Japanese
    Default                                  : Yes
    Forced                                   : No
    _STATISTICS_WRITING_APP                  : mkvmerge v7.8.0 ('River Man') 64bit built on Mar 27 2015 16:31:37
    _STATISTICS_WRITING_DATE_UTC             : 2015-05-03 21:37:54
    _STATISTICS_TAGS                         : BPS DURATION NUMBER_OF_FRAMES NUMBER_OF_BYTES
    DURATION                                 : 00:46:04.895000000
    NUMBER_OF_FRAMES                         : 82864
    NUMBER_OF_BYTES                          : 1312845111

    Audio
    ID                                       : 2
    Format                                   : AAC
    Format/Info                              : Advanced Audio Codec
    Format profile                           : LC
    Codec ID                                 : A_AAC
    Duration                                 : 46mn 4s
    Channel(s)                               : 2 channels
    Channel positions                        : Front: L R
    Sampling rate                            : 48.0 KHz
    Compression mode                         : Lossy
    Language                                 : Japanese
    Default                                  : Yes
    Forced                                   : No

    Menu
    00:00:00.000                             : ja:Chapter 01
    00:13:34.980                             : ja:Chapter 02
    00:21:33.959                             : ja:Chapter 03
    00:29:17.956                             : ja:Chapter 04





older | 1 | .... | 1335 | 1336 | (Page 1337) | 1338 | 1339 | .... | 1405 | newer